  0
SECTION
  2
HEADER
  9
$ACADVER
  1
AC1027
  9
$ACADMAINTVER
 70
   106
  9
$DWGCODEPAGE
  3
ANSI_932
  9
$LASTSAVEDBY
  1
takamura205
  9
$REQUIREDVERSIONS
160
                 0
  9
$INSBASE
 10
0.0
 20
0.0
 30
0.0
  9
$EXTMIN
 10
33316.24093491148
 20
28289.23237812787
 30
0.0
  9
$EXTMAX
 10
35416.24093491148
 20
29774.23237812787
 30
0.0
  9
$LIMMIN
 10
0.0
 20
0.0
  9
$LIMMAX
 10
420.0
 20
297.0
  9
$ORTHOMODE
 70
     0
  9
$REGENMODE
 70
     1
  9
$FILLMODE
 70
     1
  9
$QTEXTMODE
 70
     0
  9
$MIRRTEXT
 70
     0
  9
$LTSCALE
 40
1.0
  9
$ATTMODE
 70
     1
  9
$TEXTSIZE
 40
2.5
  9
$TRACEWID
 40
1.0
  9
$TEXTSTYLE
  7
Standard
  9
$CLAYER
  8
寸法線
  9
$CELTYPE
  6
ByLayer
  9
$CECOLOR
 62
   256
  9
$CELTSCALE
 40
1.0
  9
$DISPSILH
 70
     0
  9
$DIMSCALE
 40
1.0
  9
$DIMASZ
 40
2.5
  9
$DIMEXO
 40
0.625
  9
$DIMDLI
 40
3.75
  9
$DIMRND
 40
0.0
  9
$DIMDLE
 40
0.0
  9
$DIMEXE
 40
1.25
  9
$DIMTP
 40
0.0
  9
$DIMTM
 40
0.0
  9
$DIMTXT
 40
20.0
  9
$DIMCEN
 40
2.5
  9
$DIMTSZ
 40
0.0
  9
$DIMTOL
 70
     0
  9
$DIMLIM
 70
     0
  9
$DIMTIH
 70
     0
  9
$DIMTOH
 70
     0
  9
$DIMSE1
 70
     0
  9
$DIMSE2
 70
     0
  9
$DIMTAD
 70
     1
  9
$DIMZIN
 70
     8
  9
$DIMBLK
  1

  9
$DIMASO
 70
     1
  9
$DIMSHO
 70
     1
  9
$DIMPOST
  1

  9
$DIMAPOST
  1

  9
$DIMALT
 70
     0
  9
$DIMALTD
 70
     3
  9
$DIMALTF
 40
0.03937007874016
  9
$DIMLFAC
 40
1.0
  9
$DIMTOFL
 70
     1
  9
$DIMTVP
 40
0.0
  9
$DIMTIX
 70
     0
  9
$DIMSOXD
 70
     0
  9
$DIMSAH
 70
     0
  9
$DIMBLK1
  1

  9
$DIMBLK2
  1

  9
$DIMSTYLE
  2
ISO-25
  9
$DIMCLRD
 70
     0
  9
$DIMCLRE
 70
     0
  9
$DIMCLRT
 70
     0
  9
$DIMTFAC
 40
1.0
  9
$DIMGAP
 40
0.625
  9
$DIMJUST
 70
     0
  9
$DIMSD1
 70
     0
  9
$DIMSD2
 70
     0
  9
$DIMTOLJ
 70
     0
  9
$DIMTZIN
 70
     8
  9
$DIMALTZ
 70
     0
  9
$DIMALTTZ
 70
     0
  9
$DIMUPT
 70
     0
  9
$DIMDEC
 70
     2
  9
$DIMTDEC
 70
     2
  9
$DIMALTU
 70
     2
  9
$DIMALTTD
 70
     3
  9
$DIMTXSTY
  7
Standard
  9
$DIMAUNIT
 70
     0
  9
$DIMADEC
 70
     0
  9
$DIMALTRND
 40
0.0
  9
$DIMAZIN
 70
     0
  9
$DIMDSEP
 70
    44
  9
$DIMATFIT
 70
     3
  9
$DIMFRAC
 70
     0
  9
$DIMLDRBLK
  1

  9
$DIMLUNIT
 70
     2
  9
$DIMLWD
 70
    -2
  9
$DIMLWE
 70
    -2
  9
$DIMTMOVE
 70
     0
  9
$DIMFXL
 40
1.0
  9
$DIMFXLON
 70
     0
  9
$DIMJOGANG
 40
0.7853981633974483
  9
$DIMTFILL
 70
     0
  9
$DIMTFILLCLR
 70
     0
  9
$DIMARCSYM
 70
     0
  9
$DIMLTYPE
  6

  9
$DIMLTEX1
  6

  9
$DIMLTEX2
  6

  9
$DIMTXTDIRECTION
 70
     0
  9
$LUNITS
 70
     2
  9
$LUPREC
 70
     4
  9
$SKETCHINC
 40
1.0
  9
$FILLETRAD
 40
1.0
  9
$AUNITS
 70
     0
  9
$AUPREC
 70
     0
  9
$MENU
  1
.
  9
$ELEVATION
 40
0.0
  9
$PELEVATION
 40
0.0
  9
$THICKNESS
 40
0.0
  9
$LIMCHECK
 70
     0
  9
$CHAMFERA
 40
0.0
  9
$CHAMFERB
 40
0.0
  9
$CHAMFERC
 40
0.0
  9
$CHAMFERD
 40
0.0
  9
$SKPOLY
 70
     0
  9
$TDCREATE
 40
2457175.672123785
  9
$TDUCREATE
 40
2457175.297123785
  9
$TDUPDATE
 40
2457871.480771979
  9
$TDUUPDATE
 40
2457871.105771979
  9
$TDINDWG
 40
0.8396780208
  9
$TDUSRTIMER
 40
0.8396779167
  9
$USRTIMER
 70
     1
  9
$ANGBASE
 50
0.0
  9
$ANGDIR
 70
     0
  9
$PDMODE
 70
     0
  9
$PDSIZE
 40
0.0
  9
$PLINEWID
 40
0.0
  9
$SPLFRAME
 70
     0
  9
$SPLINETYPE
 70
     6
  9
$SPLINESEGS
 70
     8
  9
$HANDSEED
  5
2064
  9
$SURFTAB1
 70
     6
  9
$SURFTAB2
 70
     6
  9
$SURFTYPE
 70
     6
  9
$SURFU
 70
     6
  9
$SURFV
 70
     6
  9
$UCSBASE
  2

  9
$UCSNAME
  2

  9
$UCSORG
 10
0.0
 20
0.0
 30
0.0
  9
$UCSXDIR
 10
1.0
 20
0.0
 30
0.0
  9
$UCSYDIR
 10
0.0
 20
1.0
 30
0.0
  9
$UCSORTHOREF
  2

  9
$UCSORTHOVIEW
 70
     0
  9
$UCSORGTOP
 10
0.0
 20
0.0
 30
0.0
  9
$UCSORGBOTTOM
 10
0.0
 20
0.0
 30
0.0
  9
$UCSORGLEFT
 10
0.0
 20
0.0
 30
0.0
  9
$UCSORGRIGHT
 10
0.0
 20
0.0
 30
0.0
  9
$UCSORGFRONT
 10
0.0
 20
0.0
 30
0.0
  9
$UCSORGBACK
 10
0.0
 20
0.0
 30
0.0
  9
$PUCSBASE
  2

  9
$PUCSNAME
  2

  9
$PUCSORG
 10
0.0
 20
0.0
 30
0.0
  9
$PUCSXDIR
 10
1.0
 20
0.0
 30
0.0
  9
$PUCSYDIR
 10
0.0
 20
1.0
 30
0.0
  9
$PUCSORTHOREF
  2

  9
$PUCSORTHOVIEW
 70
     0
  9
$PUCSORGTOP
 10
0.0
 20
0.0
 30
0.0
  9
$PUCSORGBOTTOM
 10
0.0
 20
0.0
 30
0.0
  9
$PUCSORGLEFT
 10
0.0
 20
0.0
 30
0.0
  9
$PUCSORGRIGHT
 10
0.0
 20
0.0
 30
0.0
  9
$PUCSORGFRONT
 10
0.0
 20
0.0
 30
0.0
  9
$PUCSORGBACK
 10
0.0
 20
0.0
 30
0.0
  9
$USERI1
 70
     0
  9
$USERI2
 70
     0
  9
$USERI3
 70
     0
  9
$USERI4
 70
     0
  9
$USERI5
 70
     0
  9
$USERR1
 40
0.0
  9
$USERR2
 40
0.0
  9
$USERR3
 40
0.0
  9
$USERR4
 40
0.0
  9
$USERR5
 40
0.0
  9
$WORLDVIEW
 70
     1
  9
$SHADEDGE
 70
     3
  9
$SHADEDIF
 70
    70
  9
$TILEMODE
 70
     1
  9
$MAXACTVP
 70
    64
  9
$PINSBASE
 10
0.0
 20
0.0
 30
0.0
  9
$PLIMCHECK
 70
     0
  9
$PEXTMIN
 10
25.69999999999999
 20
19.5
 30
0.0
  9
$PEXTMAX
 10
231.3
 20
175.5
 30
0.0
  9
$PLIMMIN
 10
-4.9847412109375
 20
-4.984749794006347
  9
$PLIMMAX
 10
415.0042419433593
 20
292.0259008407593
  9
$UNITMODE
 70
     0
  9
$VISRETAIN
 70
     1
  9
$PLINEGEN
 70
     0
  9
$PSLTSCALE
 70
     1
  9
$TREEDEPTH
 70
  3020
  9
$CMLSTYLE
  2
Standard
  9
$CMLJUST
 70
     0
  9
$CMLSCALE
 40
20.0
  9
$PROXYGRAPHICS
 70
     1
  9
$MEASUREMENT
 70
     1
  9
$CELWEIGHT
370
    -1
  9
$ENDCAPS
280
     0
  9
$JOINSTYLE
280
     0
  9
$LWDISPLAY
290
     0
  9
$INSUNITS
 70
     4
  9
$HYPERLINKBASE
  1

  9
$STYLESHEET
  1
monochrome.stb
  9
$XEDIT
290
     1
  9
$CEPSNTYPE
380
     0
  9
$PSTYLEMODE
290
     0
  9
$FINGERPRINTGUID
  2
{083708C7-F509-4151-B42C-06F3721D7F80}
  9
$VERSIONGUID
  2
{1C69D934-4902-492F-920B-ADC25D751283}
  9
$EXTNAMES
290
     1
  9
$PSVPSCALE
 40
0.0
  9
$OLESTARTUP
290
     0
  9
$SORTENTS
280
   127
  9
$INDEXCTL
280
     0
  9
$HIDETEXT
280
     1
  9
$XCLIPFRAME
280
     2
  9
$HALOGAP
280
     0
  9
$OBSCOLOR
 70
   257
  9
$OBSLTYPE
280
     0
  9
$INTERSECTIONDISPLAY
280
     0
  9
$INTERSECTIONCOLOR
 70
   257
  9
$DIMASSOC
280
     2
  9
$PROJECTNAME
  1

  9
$CAMERADISPLAY
290
     0
  9
$LENSLENGTH
 40
50.0
  9
$CAMERAHEIGHT
 40
1524.0
  9
$STEPSPERSEC
 40
2.0
  9
$STEPSIZE
 40
6.0
  9
$3DDWFPREC
 40
2.0
  9
$PSOLWIDTH
 40
5.0
  9
$PSOLHEIGHT
 40
80.0
  9
$LOFTANG1
 40
1.570796326794896
  9
$LOFTANG2
 40
1.570796326794896
  9
$LOFTMAG1
 40
0.0
  9
$LOFTMAG2
 40
0.0
  9
$LOFTPARAM
 70
     7
  9
$LOFTNORMALS
280
     1
  9
$LATITUDE
 40
37.795
  9
$LONGITUDE
 40
-122.394
  9
$NORTHDIRECTION
 40
0.0
  9
$TIMEZONE
 70
 -8000
  9
$LIGHTGLYPHDISPLAY
280
     1
  9
$TILEMODELIGHTSYNCH
280
     1
  9
$CMATERIAL
347
E3
  9
$SOLIDHIST
280
     0
  9
$SHOWHIST
280
     1
  9
$DWFFRAME
280
     2
  9
$DGNFRAME
280
     0
  9
$REALWORLDSCALE
290
     1
  9
$INTERFERECOLOR
 62
     1
  9
$INTERFEREOBJVS
345
F0
  9
$INTERFEREVPVS
346
ED
  9
$CSHADOW
280
     0
  9
$SHADOWPLANELOCATION
 40
0.0
  0
ENDSEC
  0
SECTION
  2
CLASSES
  0
CLASS
  1
ACDBDICTIONARYWDFLT
  2
AcDbDictionaryWithDefault
  3
ObjectDBX Classes
 90
        0
 91
        1
280
     0
281
     0
  0
CLASS
  1
DICTIONARYVAR
  2
AcDbDictionaryVar
  3
ObjectDBX Classes
 90
        0
 91
       10
280
     0
281
     0
  0
CLASS
  1
TABLESTYLE
  2
AcDbTableStyle
  3
ObjectDBX Classes
 90
     4095
 91
        1
280
     0
281
     0
  0
CLASS
  1
MATERIAL
  2
AcDbMaterial
  3
ObjectDBX Classes
 90
     1153
 91
        3
280
     0
281
     0
  0
CLASS
  1
VISUALSTYLE
  2
AcDbVisualStyle
  3
ObjectDBX Classes
 90
     4095
 91
       24
280
     0
281
     0
  0
CLASS
  1
SCALE
  2
AcDbScale
  3
ObjectDBX Classes
 90
     1153
 91
       17
280
     0
281
     0
  0
CLASS
  1
MLEADERSTYLE
  2
AcDbMLeaderStyle
  3
ACDB_MLEADERSTYLE_CLASS
 90
     4095
 91
        2
280
     0
281
     0
  0
CLASS
  1
CELLSTYLEMAP
  2
AcDbCellStyleMap
  3
ObjectDBX Classes
 90
     1152
 91
        1
280
     0
281
     0
  0
CLASS
  1
EXACXREFPANELOBJECT
  2
ExAcXREFPanelObject
  3
EXAC_ESW
 90
     1025
 91
        0
280
     0
281
     0
  0
CLASS
  1
NPOCOLLECTION
  2
AcDbImpNonPersistentObjectsCollection
  3
ObjectDBX Classes
 90
     1153
 91
        0
280
     0
281
     0
  0
CLASS
  1
LAYER_INDEX
  2
AcDbLayerIndex
  3
ObjectDBX Classes
 90
        0
 91
        0
280
     0
281
     0
  0
CLASS
  1
SPATIAL_INDEX
  2
AcDbSpatialIndex
  3
ObjectDBX Classes
 90
        0
 91
        0
280
     0
281
     0
  0
CLASS
  1
IDBUFFER
  2
AcDbIdBuffer
  3
ObjectDBX Classes
 90
        0
 91
        0
280
     0
281
     0
  0
CLASS
  1
ACDBSECTIONVIEWSTYLE
  2
AcDbSectionViewStyle
  3
ObjectDBX Classes
 90
     1025
 91
        1
280
     0
281
     0
  0
CLASS
  1
ACDBDETAILVIEWSTYLE
  2
AcDbDetailViewStyle
  3
ObjectDBX Classes
 90
     1025
 91
        1
280
     0
281
     0
  0
CLASS
  1
DIMASSOC
  2
AcDbDimAssoc
  3
"AcDbDimAssoc|Product Desc:     AcDim ARX App For Dimension|Company:          Autodesk, Inc.|WEB Address:      www.autodesk.com"
 90
        0
 91
        8
280
     0
281
     0
  0
CLASS
  1
SORTENTSTABLE
  2
AcDbSortentsTable
  3
ObjectDBX Classes
 90
        0
 91
        1
280
     0
281
     0
  0
CLASS
  1
PLOTSETTINGS
  2
AcDbPlotSettings
  3
ObjectDBX Classes
 90
        0
 91
        1
280
     0
281
     0
  0
ENDSEC
  0
SECTION
  2
TABLES
  0
TABLE
  2
VPORT
  5
8
330
0
100
AcDbSymbolTable
 70
     1
  0
VPORT
  5
E1
330
8
100
AcDbSymbolTableRecord
100
AcDbViewportTableRecord
  2
*Active
 70
     0
 10
0.0
 20
0.0
 11
1.0
 21
1.0
 12
34989.84922400985
 22
28893.8856867877
 13
0.0
 23
0.0
 14
10.0
 24
10.0
 15
10.0
 25
10.0
 16
0.0
 26
0.0
 36
1.0
 17
0.0
 27
0.0
 37
0.0
 40
3985.011976213349
 41
1.203585147247119
 42
50.0
 43
0.0
 44
0.0
 50
0.0
 51
0.0
 71
     0
 72
  1000
 73
     1
 74
     3
 75
     0
 76
     1
 77
     0
 78
     0
281
     0
 65
     1
110
0.0
120
0.0
130
0.0
111
1.0
121
0.0
131
0.0
112
0.0
122
1.0
132
0.0
 79
     0
146
0.0
348
EC
 60
     3
 61
     5
292
     1
282
     1
141
0.0
142
0.0
 63
   250
421
  3355443
1001
ACAD_NAV_VCDISPLAY
1070
     3
  0
ENDTAB
  0
TABLE
  2
LTYPE
  5
5
330
0
100
AcDbSymbolTable
 70
     4
  0
LTYPE
  5
14
330
5
100
AcDbSymbolTableRecord
100
AcDbLinetypeTableRecord
  2
ByBlock
 70
     0
  3

 72
    65
 73
     0
 40
0.0
  0
LTYPE
  5
15
330
5
100
AcDbSymbolTableRecord
100
AcDbLinetypeTableRecord
  2
ByLayer
 70
     0
  3

 72
    65
 73
     0
 40
0.0
  0
LTYPE
  5
16
330
5
100
AcDbSymbolTableRecord
100
AcDbLinetypeTableRecord
  2
Continuous
 70
     0
  3
Solid line
 72
    65
 73
     0
 40
0.0
  0
LTYPE
  5
25A
330
5
100
AcDbSymbolTableRecord
100
AcDbLinetypeTableRecord
  2
ACAD_ISO04W100
 70
     0
  3
ISO long-dash dot ____ . ____ . ____ . ____ . _
 72
    65
 73
     4
 40
30.0
 49
24.0
 74
     0
 49
-3.0
 74
     0
 49
0.0
 74
     0
 49
-3.0
 74
     0
  0
LTYPE
  5
25E
330
5
100
AcDbSymbolTableRecord
100
AcDbLinetypeTableRecord
  2
ACAD_ISO02W100
 70
     0
  3
ISO dash __ __ __ __ __ __ __ __ __ __ __ __ __
 72
    65
 73
     2
 40
15.0
 49
12.0
 74
     0
 49
-3.0
 74
     0
  0
LTYPE
  5
260
330
5
100
AcDbSymbolTableRecord
100
AcDbLinetypeTableRecord
  2
ACAD_ISO07W100
 70
     0
  3
ISO dot . . . . . . . . . . . . . . . . . . . .
 72
    65
 73
     2
 40
3.0
 49
0.0
 74
     0
 49
-3.0
 74
     0
  0
ENDTAB
  0
TABLE
  2
LAYER
  5
2
102
{ACAD_XDICTIONARY
360
1F6
102
}
330
0
100
AcDbSymbolTable
 70
    14
  0
LAYER
  5
10
102
{ACAD_XDICTIONARY
360
133
102
}
330
2
100
AcDbSymbolTableRecord
100
AcDbLayerTableRecord
  2
0
 70
     0
 62
     7
  6
Continuous
370
    -3
390
F
347
E5
348
0
  0
LAYER
  5
255
330
2
100
AcDbSymbolTableRecord
100
AcDbLayerTableRecord
  2
中心線
 70
     0
 62
     3
  6
ACAD_ISO04W100
370
     9
390
F
347
E5
348
0
1001
AcAecLayerStandard
1000

1000

1001
AcCmTransparency
1071
        0
  0
LAYER
  5
25B
330
2
100
AcDbSymbolTableRecord
100
AcDbLayerTableRecord
  2
外形線②
 70
     0
 62
     7
  6
Continuous
370
    15
390
F
347
E5
348
0
1001
AcAecLayerStandard
1000

1000

1001
AcCmTransparency
1071
        0
  0
LAYER
  5
25C
330
2
100
AcDbSymbolTableRecord
100
AcDbLayerTableRecord
  2
寸法線
 70
     0
 62
     3
  6
Continuous
370
    13
390
F
347
E5
348
0
1001
AcAecLayerStandard
1000

1000

1001
AcCmTransparency
1071
        0
  0
LAYER
  5
25D
330
2
100
AcDbSymbolTableRecord
100
AcDbLayerTableRecord
  2
点線
 70
     0
 62
     4
  6
ACAD_ISO02W100
370
     9
390
F
347
E5
348
0
1001
AcAecLayerStandard
1000

1000

1001
AcCmTransparency
1071
        0
  0
LAYER
  5
25F
330
2
100
AcDbSymbolTableRecord
100
AcDbLayerTableRecord
  2
オフセット
 70
     0
 62
    -6
  6
Continuous
370
    13
390
F
347
E5
348
0
1001
AcAecLayerStandard
1000

1000

1001
AcCmTransparency
1071
        0
  0
LAYER
  5
271
330
2
100
AcDbSymbolTableRecord
100
AcDbLayerTableRecord
  2
Defpoints
 70
     0
 62
     7
  6
Continuous
290
     0
370
    -3
390
F
347
E5
348
0
  0
LAYER
  5
2F1
330
2
100
AcDbSymbolTableRecord
100
AcDbLayerTableRecord
  2
ビューポート
 70
     0
 62
     3
  6
Continuous
370
    15
390
F
347
E5
348
0
1001
AcAecLayerStandard
1000

1000

1001
AcCmTransparency
1071
        0
  0
LAYER
  5
382
330
2
100
AcDbSymbolTableRecord
100
AcDbLayerTableRecord
  2
外形線
 70
     0
 62
     7
  6
Continuous
370
    15
390
F
347
E5
348
0
1001
AcAecLayerStandard
1000

1000

1001
AcCmTransparency
1071
        0
  0
LAYER
  5
430
330
2
100
AcDbSymbolTableRecord
100
AcDbLayerTableRecord
  2
LED器具
 70
     0
 62
     4
  6
Continuous
370
    13
390
F
347
E5
348
0
1001
AcAecLayerStandard
1000

1000

1001
AcCmTransparency
1071
        0
  0
LAYER
  5
44D
330
2
100
AcDbSymbolTableRecord
100
AcDbLayerTableRecord
  2
孔
 70
     0
 62
     4
  6
Continuous
370
    15
390
F
347
E5
348
0
1001
AcAecLayerStandard
1000

1000

1001
AcCmTransparency
1071
        0
  0
LAYER
  5
AAC
330
2
100
AcDbSymbolTableRecord
100
AcDbLayerTableRecord
  2
枠線
 70
     0
 62
     2
  6
Continuous
370
     9
390
F
347
E5
348
0
1001
AcAecLayerStandard
1000

1000

1001
AcCmTransparency
1071
        0
  0
LAYER
  5
CEA
102
{ACAD_XDICTIONARY
360
CEB
102
}
330
2
100
AcDbSymbolTableRecord
100
AcDbLayerTableRecord
  2
1
 70
     0
 62
     7
  6
Continuous
370
    -3
390
F
347
E5
348
0
  0
LAYER
  5
DBB
330
2
100
AcDbSymbolTableRecord
100
AcDbLayerTableRecord
  2
○
 70
     0
 62
     3
  6
Continuous
370
     9
390
F
347
E5
348
0
1001
AcAecLayerStandard
1000

1000

1001
AcCmTransparency
1071
        0
  0
ENDTAB
  0
TABLE
  2
STYLE
  5
3
330
0
100
AcDbSymbolTable
 70
     4
  0
STYLE
  5
11
330
3
100
AcDbSymbolTableRecord
100
AcDbTextStyleTableRecord
  2
Standard
 70
     0
 40
0.0
 41
1.0
 50
0.0
 71
     0
 42
2.5
  3
arial.ttf
  4

1001
ACAD
1000
Arial
1071
       34
  0
STYLE
  5
129
330
3
100
AcDbSymbolTableRecord
100
AcDbTextStyleTableRecord
  2
Annotative
 70
     0
 40
0.0
 41
1.0
 50
0.0
 71
     0
 42
2.5
  3
arial.ttf
  4

1001
AcadAnnotative
1000
AnnotativeData
1002
{
1070
     1
1070
     1
1002
}
1001
ACAD
1000
Arial
1071
       34
  0
STYLE
  5
259
330
3
100
AcDbSymbolTableRecord
100
AcDbTextStyleTableRecord
  2

 70
     1
 40
0.0
 41
1.0
 50
0.0
 71
     0
 42
2.5
  3
ltypeshp.shx
  4

  0
STYLE
  5
CEC
330
3
100
AcDbSymbolTableRecord
100
AcDbTextStyleTableRecord
  2
BIGFONT
 70
     0
 40
1.0
 41
1.0
 50
0.0
 71
     0
 42
1.0
  3
TXT
  4
BIGFONT
  0
ENDTAB
  0
TABLE
  2
VIEW
  5
6
330
0
100
AcDbSymbolTable
 70
     0
  0
ENDTAB
  0
TABLE
  2
UCS
  5
7
330
0
100
AcDbSymbolTable
 70
     0
  0
ENDTAB
  0
TABLE
  2
APPID
  5
9
330
0
100
AcDbSymbolTable
 70
    13
  0
APPID
  5
12
330
9
100
AcDbSymbolTableRecord
100
AcDbRegAppTableRecord
  2
ACAD
 70
     0
  0
APPID
  5
A0
330
9
100
AcDbSymbolTableRecord
100
AcDbRegAppTableRecord
  2
ACAD_PSEXT
 70
     0
  0
APPID
  5
12A
330
9
100
AcDbSymbolTableRecord
100
AcDbRegAppTableRecord
  2
AcadAnnoPO
 70
     0
  0
APPID
  5
12B
330
9
100
AcDbSymbolTableRecord
100
AcDbRegAppTableRecord
  2
AcadAnnotative
 70
     0
  0
APPID
  5
12C
330
9
100
AcDbSymbolTableRecord
100
AcDbRegAppTableRecord
  2
ACAD_DSTYLE_DIMJAG
 70
     0
  0
APPID
  5
12D
330
9
100
AcDbSymbolTableRecord
100
AcDbRegAppTableRecord
  2
ACAD_DSTYLE_DIMTALN
 70
     0
  0
APPID
  5
15C
330
9
100
AcDbSymbolTableRecord
100
AcDbRegAppTableRecord
  2
ACAD_MLEADERVER
 70
     0
  0
APPID
  5
20E
330
9
100
AcDbSymbolTableRecord
100
AcDbRegAppTableRecord
  2
ACAD_NAV_VCDISPLAY
 70
     0
  0
APPID
  5
256
330
9
100
AcDbSymbolTableRecord
100
AcDbRegAppTableRecord
  2
AcAecLayerStandard
 70
     0
  0
APPID
  5
257
330
9
100
AcDbSymbolTableRecord
100
AcDbRegAppTableRecord
  2
AcCmTransparency
 70
     0
  0
APPID
  5
264
330
9
100
AcDbSymbolTableRecord
100
AcDbRegAppTableRecord
  2
ACAD_EXEMPT_FROM_CAD_STANDARDS
 70
     0
  0
APPID
  5
26F
330
9
100
AcDbSymbolTableRecord
100
AcDbRegAppTableRecord
  2
ACAD_DSTYLE_DIMRADIAL_EXTENSION
 70
     0
  0
APPID
  5
A2B
330
9
100
AcDbSymbolTableRecord
100
AcDbRegAppTableRecord
  2
AcadAnnoMonitorAlertIconDisabled
 70
     0
  0
ENDTAB
  0
TABLE
  2
DIMSTYLE
  5
A
330
0
100
AcDbSymbolTable
 70
     3
100
AcDbDimStyleTable
 71
     2
340
27
340
12E
  0
DIMSTYLE
105
1A7
330
A
100
AcDbSymbolTableRecord
100
AcDbDimStyleTableRecord
  2
Standard
 70
     0
340
11
  0
DIMSTYLE
105
12E
330
A
100
AcDbSymbolTableRecord
100
AcDbDimStyleTableRecord
  2
Annotative
 70
     0
 40
0.0
 41
2.5
 42
0.625
 43
3.75
 44
1.25
 73
     0
 74
     0
 77
     1
 78
     8
140
2.5
141
2.5
143
0.03937007874016
147
0.625
171
     3
172
     1
271
     2
272
     2
274
     3
278
    44
283
     0
284
     8
340
11
1001
AcadAnnotative
1000
AnnotativeData
1002
{
1070
     1
1070
     1
1002
}
1001
ACAD_DSTYLE_DIMJAG
1070
   388
1040
1.5
1001
ACAD_DSTYLE_DIMTALN
1070
   392
1070
     0
  0
DIMSTYLE
105
27
102
{ACAD_REACTORS
330
1F70
330
1F88
330
1FA0
330
1FBC
330
1FD4
330
1FEC
330
2004
330
201E
102
}
330
A
100
AcDbSymbolTableRecord
100
AcDbDimStyleTableRecord
  2
ISO-25
 70
     0
 41
2.5
 42
0.625
 43
3.75
 44
1.25
 73
     0
 74
     0
 77
     1
 78
     8
140
20.0
141
2.5
143
0.03937007874016
147
0.625
171
     3
172
     1
271
     2
272
     2
274
     3
278
    44
283
     0
284
     8
340
11
1001
ACAD_DSTYLE_DIMJAG
1070
   388
1040
1.5
1001
ACAD_DSTYLE_DIMTALN
1070
   392
1070
     0
  0
ENDTAB
  0
TABLE
  2
BLOCK_RECORD
  5
1
330
0
100
AcDbSymbolTable
 70
    18
  0
BLOCK_RECORD
  5
1F
102
{ACAD_XDICTIONARY
360
1C5
102
}
330
1
100
AcDbSymbolTableRecord
100
AcDbBlockTableRecord
  2
*Model_Space
340
22
 70
     0
280
     1
281
     0
  0
BLOCK_RECORD
  5
D2
330
1
100
AcDbSymbolTableRecord
100
AcDbBlockTableRecord
  2
*Paper_Space
340
D3
 70
     0
280
     1
281
     0
  0
BLOCK_RECORD
  5
D6
330
1
100
AcDbSymbolTableRecord
100
AcDbBlockTableRecord
  2
*Paper_Space0
340
D7
 70
     0
280
     1
281
     0
  0
BLOCK_RECORD
  5
1F71
330
1
100
AcDbSymbolTableRecord
100
AcDbBlockTableRecord
  2
*D10
340
0
 70
     0
280
     1
281
     0
  0
BLOCK_RECORD
  5
1F89
330
1
100
AcDbSymbolTableRecord
100
AcDbBlockTableRecord
  2
*D11
340
0
 70
     0
280
     1
281
     0
  0
BLOCK_RECORD
  5
1FA1
330
1
100
AcDbSymbolTableRecord
100
AcDbBlockTableRecord
  2
*D12
340
0
 70
     0
280
     1
281
     0
  0
BLOCK_RECORD
  5
1FBD
330
1
100
AcDbSymbolTableRecord
100
AcDbBlockTableRecord
  2
*D13
340
0
 70
     0
280
     1
281
     0
  0
BLOCK_RECORD
  5
1FD5
330
1
100
AcDbSymbolTableRecord
100
AcDbBlockTableRecord
  2
*D14
340
0
 70
     0
280
     1
281
     0
  0
BLOCK_RECORD
  5
1FED
330
1
100
AcDbSymbolTableRecord
100
AcDbBlockTableRecord
  2
*D15
340
0
 70
     0
280
     1
281
     0
  0
BLOCK_RECORD
  5
2005
330
1
100
AcDbSymbolTableRecord
100
AcDbBlockTableRecord
  2
*D16
340
0
 70
     0
280
     1
281
     0
  0
BLOCK_RECORD
  5
201F
330
1
100
AcDbSymbolTableRecord
100
AcDbBlockTableRecord
  2
*D17
340
0
 70
     0
280
     1
281
     0
  0
ENDTAB
  0
ENDSEC
  0
SECTION
  2
BLOCKS
  0
BLOCK
  5
20
330
1F
100
AcDbEntity
  8
0
100
AcDbBlockBegin
  2
*Model_Space
 70
     0
 10
0.0
 20
0.0
 30
0.0
  3
*Model_Space
  1

  0
ENDBLK
  5
21
330
1F
100
AcDbEntity
  8
0
100
AcDbBlockEnd
  0
BLOCK
  5
D4
330
D2
100
AcDbEntity
 67
     1
  8
0
100
AcDbBlockBegin
  2
*Paper_Space
 70
     0
 10
0.0
 20
0.0
 30
0.0
  3
*Paper_Space
  1

  0
ENDBLK
  5
D5
330
D2
100
AcDbEntity
 67
     1
  8
0
100
AcDbBlockEnd
  0
BLOCK
  5
D8
330
D6
100
AcDbEntity
 67
     1
  8
0
100
AcDbBlockBegin
  2
*Paper_Space0
 70
     0
 10
0.0
 20
0.0
 30
0.0
  3
*Paper_Space0
  1

  0
ENDBLK
  5
D9
330
D6
100
AcDbEntity
 67
     1
  8
0
100
AcDbBlockEnd
  0
BLOCK
  5
1F72
330
1F71
100
AcDbEntity
  8
0
100
AcDbBlockBegin
  2
*D10
 70
     1
 10
0.0
 20
0.0
 30
0.0
  3
*D10
  1

  0
LINE
  5
1F7E
330
1F71
100
AcDbEntity
  8
寸法線
 62
     0
440
 16777216
370
    -2
100
AcDbLine
 10
33478.48520738138
 20
29215.26455901472
 30
0.0
 11
33478.48520738138
 21
29301.37697633494
 31
0.0
  0
LINE
  5
1F7F
330
1F71
100
AcDbEntity
  8
寸法線
 62
     0
440
 16777216
370
    -2
100
AcDbLine
 10
34523.48520738138
 20
29215.26455901472
 30
0.0
 11
34523.48520738138
 21
29301.37697633494
 31
0.0
  0
LINE
  5
1F80
330
1F71
100
AcDbEntity
  8
寸法線
 62
     0
440
 16777216
370
    -2
100
AcDbLine
 10
33480.98520738138
 20
29300.12697633494
 30
0.0
 11
34520.98520738138
 21
29300.12697633494
 31
0.0
  0
SOLID
  5
1F81
330
1F71
100
AcDbEntity
  8
寸法線
 62
     0
440
 16777216
100
AcDbTrace
 10
33480.98520738138
 20
29300.54364300161
 30
0.0
 11
33480.98520738138
 21
29299.71030966827
 31
0.0
 12
33478.48520738138
 22
29300.12697633494
 32
0.0
 13
33478.48520738138
 23
29300.12697633494
 33
0.0
  0
SOLID
  5
1F82
330
1F71
100
AcDbEntity
  8
寸法線
 62
     0
440
 16777216
100
AcDbTrace
 10
34520.98520738138
 20
29300.54364300161
 30
0.0
 11
34520.98520738138
 21
29299.71030966827
 31
0.0
 12
34523.48520738138
 22
29300.12697633494
 32
0.0
 13
34523.48520738138
 23
29300.12697633494
 33
0.0
  0
MTEXT
  5
1F83
330
1F71
100
AcDbEntity
  8
寸法線
 62
     0
440
 16777216
100
AcDbMText
 10
34000.98520738138
 20
29310.96343608938
 30
0.0
 40
20.0
 41
0.0
 46
0.0
 71
     5
 72
     1
  1
1045
 73
     1
 44
1.0
  0
POINT
  5
1F84
330
1F71
100
AcDbEntity
  8
Defpoints
 62
     0
440
 16777216
100
AcDbPoint
 10
33478.48520738138
 20
29214.63955901471
 30
0.0
  0
POINT
  5
1F85
330
1F71
100
AcDbEntity
  8
Defpoints
 62
     0
440
 16777216
100
AcDbPoint
 10
34523.48520738138
 20
29214.63955901471
 30
0.0
  0
POINT
  5
1F86
330
1F71
100
AcDbEntity
  8
Defpoints
 62
     0
440
 16777216
100
AcDbPoint
 10
34523.48520738138
 20
29300.12697633494
 30
0.0
  0
ENDBLK
  5
1F73
330
1F71
100
AcDbEntity
  8
0
100
AcDbBlockEnd
  0
BLOCK
  5
1F8A
330
1F89
100
AcDbEntity
  8
0
100
AcDbBlockBegin
  2
*D11
 70
     1
 10
0.0
 20
0.0
 30
0.0
  3
*D11
  1

  0
LINE
  5
1F96
330
1F89
100
AcDbEntity
  8
寸法線
 62
     0
440
 16777216
370
    -2
100
AcDbLine
 10
34523.11020738138
 20
28917.15085042292
 30
0.0
 11
34619.15376247963
 21
28917.15085042292
 31
0.0
  0
LINE
  5
1F97
330
1F89
100
AcDbEntity
  8
寸法線
 62
     0
440
 16777216
370
    -2
100
AcDbLine
 10
34523.11020738138
 20
28822.15085042292
 30
0.0
 11
34619.15376247963
 21
28822.15085042292
 31
0.0
  0
LINE
  5
1F98
330
1F89
100
AcDbEntity
  8
寸法線
 62
     0
440
 16777216
370
    -2
100
AcDbLine
 10
34617.90376247964
 20
28914.65085042292
 30
0.0
 11
34617.90376247964
 21
28824.65085042292
 31
0.0
  0
SOLID
  5
1F99
330
1F89
100
AcDbEntity
  8
寸法線
 62
     0
440
 16777216
100
AcDbTrace
 10
34617.48709581297
 20
28914.65085042292
 30
0.0
 11
34618.3204291463
 21
28914.65085042292
 31
0.0
 12
34617.90376247964
 22
28917.15085042292
 32
0.0
 13
34617.90376247964
 23
28917.15085042292
 33
0.0
  0
SOLID
  5
1F9A
330
1F89
100
AcDbEntity
  8
寸法線
 62
     0
440
 16777216
100
AcDbTrace
 10
34617.48709581297
 20
28824.65085042292
 30
0.0
 11
34618.3204291463
 21
28824.65085042292
 31
0.0
 12
34617.90376247964
 22
28822.15085042292
 32
0.0
 13
34617.90376247964
 23
28822.15085042292
 33
0.0
  0
MTEXT
  5
1F9B
330
1F89
100
AcDbEntity
  8
寸法線
 62
     0
440
 16777216
100
AcDbMText
 10
34607.06730272519
 20
28869.65085042293
 30
0.0
 40
20.0
 41
0.0
 46
0.0
 71
     5
 72
     1
  1
95
 11
0.0000000000000001
 21
1.0
 31
0.0
 73
     1
 44
1.0
  0
POINT
  5
1F9C
330
1F89
100
AcDbEntity
  8
Defpoints
 62
     0
440
 16777216
100
AcDbPoint
 10
34522.48520738137
 20
28917.15085042292
 30
0.0
  0
POINT
  5
1F9D
330
1F89
100
AcDbEntity
  8
Defpoints
 62
     0
440
 16777216
100
AcDbPoint
 10
34522.48520738138
 20
28822.15085042292
 30
0.0
  0
POINT
  5
1F9E
330
1F89
100
AcDbEntity
  8
Defpoints
 62
     0
440
 16777216
100
AcDbPoint
 10
34617.90376247964
 20
28822.15085042292
 30
0.0
  0
ENDBLK
  5
1F8B
330
1F89
100
AcDbEntity
  8
0
100
AcDbBlockEnd
  0
BLOCK
  5
1FA2
330
1FA1
100
AcDbEntity
  8
0
100
AcDbBlockBegin
  2
*D12
 70
     1
 10
0.0
 20
0.0
 30
0.0
  3
*D12
  1

  0
LINE
  5
1FB0
330
1FA1
100
AcDbEntity
  8
寸法線
 62
     0
440
 16777216
370
    -2
100
AcDbLine
 10
34523.11020738138
 20
28822.15085042292
 30
0.0
 11
34619.15376247963
 21
28822.15085042292
 31
0.0
  0
LINE
  5
1FB1
330
1FA1
100
AcDbEntity
  8
寸法線
 62
     0
440
 16777216
370
    -2
100
AcDbLine
 10
34484.11020738138
 20
28818.15085042292
 30
0.0
 11
34619.15376247963
 21
28818.15085042292
 31
0.0
  0
LINE
  5
1FB2
330
1FA1
100
AcDbEntity
  8
寸法線
 62
     0
440
 16777216
370
    -2
100
AcDbLine
 10
34617.90376247964
 20
28824.65085042292
 30
0.0
 11
34617.90376247964
 21
28827.15085042292
 31
0.0
  0
LINE
  5
1FB3
330
1FA1
100
AcDbEntity
  8
寸法線
 62
     0
440
 16777216
370
    -2
100
AcDbLine
 10
34617.90376247964
 20
28815.65085042292
 30
0.0
 11
34617.90376247964
 21
28798.06728971351
 31
0.0
  0
LINE
  5
1FB4
330
1FA1
100
AcDbEntity
  8
寸法線
 62
     0
440
 16777216
370
    -2
100
AcDbLine
 10
34617.90376247964
 20
28822.15085042292
 30
0.0
 11
34617.90376247964
 21
28818.15085042292
 31
0.0
  0
SOLID
  5
1FB5
330
1FA1
100
AcDbEntity
  8
寸法線
 62
     0
440
 16777216
100
AcDbTrace
 10
34617.48709581297
 20
28824.65085042292
 30
0.0
 11
34618.3204291463
 21
28824.65085042292
 31
0.0
 12
34617.90376247964
 22
28822.15085042292
 32
0.0
 13
34617.90376247964
 23
28822.15085042292
 33
0.0
  0
SOLID
  5
1FB6
330
1FA1
100
AcDbEntity
  8
寸法線
 62
     0
440
 16777216
100
AcDbTrace
 10
34617.48709581297
 20
28815.65085042292
 30
0.0
 11
34618.3204291463
 21
28815.65085042292
 31
0.0
 12
34617.90376247964
 22
28818.15085042292
 32
0.0
 13
34617.90376247964
 23
28818.15085042292
 33
0.0
  0
MTEXT
  5
1FB7
330
1FA1
100
AcDbEntity
  8
寸法線
 62
     0
440
 16777216
100
AcDbMText
 10
34607.27876247962
 20
28805.60907006822
 30
0.0
 40
20.0
 41
0.0
 46
0.0
 71
     5
 72
     1
  1
4
 11
0.0000000000000001
 21
1.0
 31
0.0
 73
     1
 44
1.0
  0
POINT
  5
1FB8
330
1FA1
100
AcDbEntity
  8
Defpoints
 62
     0
440
 16777216
100
AcDbPoint
 10
34522.48520738138
 20
28822.15085042292
 30
0.0
  0
POINT
  5
1FB9
330
1FA1
100
AcDbEntity
  8
Defpoints
 62
     0
440
 16777216
100
AcDbPoint
 10
34483.48520738138
 20
28818.15085042292
 30
0.0
  0
POINT
  5
1FBA
330
1FA1
100
AcDbEntity
  8
Defpoints
 62
     0
440
 16777216
100
AcDbPoint
 10
34617.90376247964
 20
28818.15085042292
 30
0.0
  0
ENDBLK
  5
1FA3
330
1FA1
100
AcDbEntity
  8
0
100
AcDbBlockEnd
  0
BLOCK
  5
1FBE
330
1FBD
100
AcDbEntity
  8
0
100
AcDbBlockBegin
  2
*D13
 70
     1
 10
0.0
 20
0.0
 30
0.0
  3
*D13
  1

  0
LINE
  5
1FCA
330
1FBD
100
AcDbEntity
  8
寸法線
 62
     0
440
 16777216
370
    -2
100
AcDbLine
 10
34523.11020738138
 20
28822.15085042292
 30
0.0
 11
34577.39637425928
 21
28822.15085042292
 31
0.0
  0
LINE
  5
1FCB
330
1FBD
100
AcDbEntity
  8
寸法線
 62
     0
440
 16777216
370
    -2
100
AcDbLine
 10
34523.11020738138
 20
28900.90085042291
 30
0.0
 11
34577.39637425928
 21
28900.90085042291
 31
0.0
  0
LINE
  5
1FCC
330
1FBD
100
AcDbEntity
  8
寸法線
 62
     0
440
 16777216
370
    -2
100
AcDbLine
 10
34576.14637425928
 20
28824.65085042292
 30
0.0
 11
34576.14637425928
 21
28898.40085042291
 31
0.0
  0
SOLID
  5
1FCD
330
1FBD
100
AcDbEntity
  8
寸法線
 62
     0
440
 16777216
100
AcDbTrace
 10
34575.72970759261
 20
28824.65085042292
 30
0.0
 11
34576.56304092594
 21
28824.65085042292
 31
0.0
 12
34576.14637425928
 22
28822.15085042292
 32
0.0
 13
34576.14637425928
 23
28822.15085042292
 33
0.0
  0
SOLID
  5
1FCE
330
1FBD
100
AcDbEntity
  8
寸法線
 62
     0
440
 16777216
100
AcDbTrace
 10
34575.72970759261
 20
28898.40085042291
 30
0.0
 11
34576.56304092594
 21
28898.40085042291
 31
0.0
 12
34576.14637425928
 22
28900.90085042291
 32
0.0
 13
34576.14637425928
 23
28900.90085042291
 33
0.0
  0
MTEXT
  5
1FCF
330
1FBD
100
AcDbEntity
  8
寸法線
 62
     0
440
 16777216
100
AcDbMText
 10
34563.50227466854
 20
28861.52585042292
 30
0.0
 40
20.0
 41
0.0
 46
0.0
 71
     5
 72
     1
  1
78,75
 11
0.0000000000000001
 21
1.0
 31
0.0
 73
     1
 44
1.0
  0
POINT
  5
1FD0
330
1FBD
100
AcDbEntity
  8
Defpoints
 62
     0
440
 16777216
100
AcDbPoint
 10
34522.48520738138
 20
28822.15085042292
 30
0.0
  0
POINT
  5
1FD1
330
1FBD
100
AcDbEntity
  8
Defpoints
 62
     0
440
 16777216
100
AcDbPoint
 10
34522.48520738137
 20
28900.90085042291
 30
0.0
  0
POINT
  5
1FD2
330
1FBD
100
AcDbEntity
  8
Defpoints
 62
     0
440
 16777216
100
AcDbPoint
 10
34576.14637425928
 20
28900.90085042291
 30
0.0
  0
ENDBLK
  5
1FBF
330
1FBD
100
AcDbEntity
  8
0
100
AcDbBlockEnd
  0
BLOCK
  5
1FD6
330
1FD5
100
AcDbEntity
  8
0
100
AcDbBlockBegin
  2
*D14
 70
     1
 10
0.0
 20
0.0
 30
0.0
  3
*D14
  1

  0
LINE
  5
1FE2
330
1FD5
100
AcDbEntity
  8
寸法線
 62
     0
440
 16777216
370
    -2
100
AcDbLine
 10
34698.51165228382
 20
28818.15085077193
 30
0.0
 11
34657.08552759084
 21
28818.15085077193
 31
0.0
  0
LINE
  5
1FE3
330
1FD5
100
AcDbEntity
  8
寸法線
 62
     0
440
 16777216
370
    -2
100
AcDbLine
 10
34706.76165228382
 20
28917.15085042292
 30
0.0
 11
34657.08552759084
 21
28917.15085042292
 31
0.0
  0
LINE
  5
1FE4
330
1FD5
100
AcDbEntity
  8
寸法線
 62
     0
440
 16777216
370
    -2
100
AcDbLine
 10
34658.33552759084
 20
28820.65085077194
 30
0.0
 11
34658.33552759084
 21
28914.65085042292
 31
0.0
  0
SOLID
  5
1FE5
330
1FD5
100
AcDbEntity
  8
寸法線
 62
     0
440
 16777216
100
AcDbTrace
 10
34657.91886092417
 20
28820.65085077194
 30
0.0
 11
34658.7521942575
 21
28820.65085077194
 31
0.0
 12
34658.33552759084
 22
28818.15085077193
 32
0.0
 13
34658.33552759084
 23
28818.15085077193
 33
0.0
  0
SOLID
  5
1FE6
330
1FD5
100
AcDbEntity
  8
寸法線
 62
     0
440
 16777216
100
AcDbTrace
 10
34657.91886092417
 20
28914.65085042292
 30
0.0
 11
34658.7521942575
 21
28914.65085042292
 31
0.0
 12
34658.33552759084
 22
28917.15085042292
 32
0.0
 13
34658.33552759084
 23
28917.15085042292
 33
0.0
  0
MTEXT
  5
1FE7
330
1FD5
100
AcDbEntity
  8
寸法線
 62
     0
440
 16777216
100
AcDbMText
 10
34647.4990678364
 20
28867.65085059743
 30
0.0
 40
20.0
 41
0.0
 46
0.0
 71
     5
 72
     1
  1
99
 11
0.0000000000000001
 21
1.0
 31
0.0
 73
     1
 44
1.0
  0
POINT
  5
1FE8
330
1FD5
100
AcDbEntity
  8
Defpoints
 62
     0
440
 16777216
100
AcDbPoint
 10
34699.13665228382
 20
28818.15085077193
 30
0.0
  0
POINT
  5
1FE9
330
1FD5
100
AcDbEntity
  8
Defpoints
 62
     0
440
 16777216
100
AcDbPoint
 10
34707.38665228382
 20
28917.15085042292
 30
0.0
  0
POINT
  5
1FEA
330
1FD5
100
AcDbEntity
  8
Defpoints
 62
     0
440
 16777216
100
AcDbPoint
 10
34658.33552759084
 20
28917.15085042292
 30
0.0
  0
ENDBLK
  5
1FD7
330
1FD5
100
AcDbEntity
  8
0
100
AcDbBlockEnd
  0
BLOCK
  5
1FEE
330
1FED
100
AcDbEntity
  8
0
100
AcDbBlockBegin
  2
*D15
 70
     1
 10
0.0
 20
0.0
 30
0.0
  3
*D15
  1

  0
LINE
  5
1FFA
330
1FED
100
AcDbEntity
  8
寸法線
 62
     0
440
 16777216
370
    -2
100
AcDbLine
 10
34687.18665228383
 20
28854.57585077194
 30
0.0
 11
34687.18665228383
 21
29016.8716840593
 31
0.0
  0
LINE
  5
1FFB
330
1FED
100
AcDbEntity
  8
寸法線
 62
     0
440
 16777216
370
    -2
100
AcDbLine
 10
34732.18665228383
 20
28854.57585077194
 30
0.0
 11
34732.18665228383
 21
29016.8716840593
 31
0.0
  0
LINE
  5
1FFC
330
1FED
100
AcDbEntity
  8
寸法線
 62
     0
440
 16777216
370
    -2
100
AcDbLine
 10
34689.68665228382
 20
29015.62168405931
 30
0.0
 11
34729.68665228382
 21
29015.62168405931
 31
0.0
  0
SOLID
  5
1FFD
330
1FED
100
AcDbEntity
  8
寸法線
 62
     0
440
 16777216
100
AcDbTrace
 10
34689.68665228382
 20
29016.03835072597
 30
0.0
 11
34689.68665228382
 21
29015.20501739264
 31
0.0
 12
34687.18665228383
 22
29015.62168405931
 32
0.0
 13
34687.18665228383
 23
29015.62168405931
 33
0.0
  0
SOLID
  5
1FFE
330
1FED
100
AcDbEntity
  8
寸法線
 62
     0
440
 16777216
100
AcDbTrace
 10
34729.68665228382
 20
29016.03835072597
 30
0.0
 11
34729.68665228382
 21
29015.20501739264
 31
0.0
 12
34732.18665228383
 22
29015.62168405931
 32
0.0
 13
34732.18665228383
 23
29015.62168405931
 33
0.0
  0
MTEXT
  5
1FFF
330
1FED
100
AcDbEntity
  8
寸法線
 62
     0
440
 16777216
100
AcDbMText
 10
34709.68665228383
 20
29026.41721611933
 30
0.0
 40
20.0
 41
0.0
 46
0.0
 71
     5
 72
     1
  1
45
 73
     1
 44
1.0
  0
POINT
  5
2000
330
1FED
100
AcDbEntity
  8
Defpoints
 62
     0
440
 16777216
100
AcDbPoint
 10
34687.18665228383
 20
28853.95085077193
 30
0.0
  0
POINT
  5
2001
330
1FED
100
AcDbEntity
  8
Defpoints
 62
     0
440
 16777216
100
AcDbPoint
 10
34732.18665228383
 20
28853.95085077193
 30
0.0
  0
POINT
  5
2002
330
1FED
100
AcDbEntity
  8
Defpoints
 62
     0
440
 16777216
100
AcDbPoint
 10
34732.18665228383
 20
29015.62168405931
 30
0.0
  0
ENDBLK
  5
1FEF
330
1FED
100
AcDbEntity
  8
0
100
AcDbBlockEnd
  0
BLOCK
  5
2006
330
2005
100
AcDbEntity
  8
0
100
AcDbBlockBegin
  2
*D16
 70
     1
 10
0.0
 20
0.0
 30
0.0
  3
*D16
  1

  0
LINE
  5
2013
330
2005
100
AcDbEntity
  8
寸法線
 62
     0
440
 16777216
370
    -2
100
AcDbLine
 10
34707.38665228382
 20
28920.77585042292
 30
0.0
 11
34707.38665228382
 21
28970.84347240071
 31
0.0
  0
LINE
  5
2014
330
2005
100
AcDbEntity
  8
寸法線
 62
     0
440
 16777216
370
    -2
100
AcDbLine
 10
34732.18665228383
 20
28854.57585077194
 30
0.0
 11
34732.18665228383
 21
28970.84347240071
 31
0.0
  0
LINE
  5
2015
330
2005
100
AcDbEntity
  8
寸法線
 62
     0
440
 16777216
370
    -2
100
AcDbLine
 10
34709.88665228382
 20
28969.59347240072
 30
0.0
 11
34729.68665228382
 21
28969.59347240072
 31
0.0
  0
LINE
  5
2016
330
2005
100
AcDbEntity
  8
寸法線
 62
     0
440
 16777216
370
    -2
100
AcDbLine
 10
34732.18665228383
 20
28969.59347240072
 30
0.0
 11
34788.269530865
 21
28969.59347240072
 31
0.0
  0
SOLID
  5
2017
330
2005
100
AcDbEntity
  8
寸法線
 62
     0
440
 16777216
100
AcDbTrace
 10
34709.88665228382
 20
28970.01013906738
 30
0.0
 11
34709.88665228382
 21
28969.17680573404
 31
0.0
 12
34707.38665228382
 22
28969.59347240072
 32
0.0
 13
34707.38665228382
 23
28969.59347240072
 33
0.0
  0
SOLID
  5
2018
330
2005
100
AcDbEntity
  8
寸法線
 62
     0
440
 16777216
100
AcDbTrace
 10
34729.68665228382
 20
28970.01013906738
 30
0.0
 11
34729.68665228382
 21
28969.17680573404
 31
0.0
 12
34732.18665228383
 22
28969.59347240072
 32
0.0
 13
34732.18665228383
 23
28969.59347240072
 33
0.0
  0
MTEXT
  5
2019
330
2005
100
AcDbEntity
  8
寸法線
 62
     0
440
 16777216
100
AcDbMText
 10
34761.47809157442
 20
28982.23757199144
 30
0.0
 40
20.0
 41
0.0
 46
0.0
 71
     5
 72
     1
  1
24,8
 73
     1
 44
1.0
  0
POINT
  5
201A
330
2005
100
AcDbEntity
  8
Defpoints
 62
     0
440
 16777216
100
AcDbPoint
 10
34707.38665228382
 20
28920.15085042292
 30
0.0
  0
POINT
  5
201B
330
2005
100
AcDbEntity
  8
Defpoints
 62
     0
440
 16777216
100
AcDbPoint
 10
34732.18665228383
 20
28853.95085077193
 30
0.0
  0
POINT
  5
201C
330
2005
100
AcDbEntity
  8
Defpoints
 62
     0
440
 16777216
100
AcDbPoint
 10
34732.18665228383
 20
28969.59347240072
 30
0.0
  0
ENDBLK
  5
2007
330
2005
100
AcDbEntity
  8
0
100
AcDbBlockEnd
  0
BLOCK
  5
2020
330
201F
100
AcDbEntity
  8
0
100
AcDbBlockBegin
  2
*D17
 70
     1
 10
0.0
 20
0.0
 30
0.0
  3
*D17
  1

  0
LINE
  5
202D
330
201F
100
AcDbEntity
  8
寸法線
 62
     0
440
 16777216
370
    -2
100
AcDbLine
 10
34707.38665228382
 20
28920.77585042292
 30
0.0
 11
34707.38665228382
 21
28970.84347240071
 31
0.0
  0
LINE
  5
202E
330
201F
100
AcDbEntity
  8
寸法線
 62
     0
440
 16777216
370
    -2
100
AcDbLine
 10
34687.18665228383
 20
28854.57585077194
 30
0.0
 11
34687.18665228383
 21
28970.84347240071
 31
0.0
  0
LINE
  5
202F
330
201F
100
AcDbEntity
  8
寸法線
 62
     0
440
 16777216
370
    -2
100
AcDbLine
 10
34704.88665228382
 20
28969.59347240072
 30
0.0
 11
34689.68665228382
 21
28969.59347240072
 31
0.0
  0
LINE
  5
2030
330
201F
100
AcDbEntity
  8
寸法線
 62
     0
440
 16777216
370
    -2
100
AcDbLine
 10
34687.18665228383
 20
28969.59347240072
 30
0.0
 11
34631.34933986909
 21
28969.59347240072
 31
0.0
  0
SOLID
  5
2031
330
201F
100
AcDbEntity
  8
寸法線
 62
     0
440
 16777216
100
AcDbTrace
 10
34704.88665228382
 20
28970.01013906738
 30
0.0
 11
34704.88665228382
 21
28969.17680573404
 31
0.0
 12
34707.38665228382
 22
28969.59347240072
 32
0.0
 13
34707.38665228382
 23
28969.59347240072
 33
0.0
  0
SOLID
  5
2032
330
201F
100
AcDbEntity
  8
寸法線
 62
     0
440
 16777216
100
AcDbTrace
 10
34689.68665228382
 20
28970.01013906738
 30
0.0
 11
34689.68665228382
 21
28969.17680573404
 31
0.0
 12
34687.18665228383
 22
28969.59347240072
 32
0.0
 13
34687.18665228383
 23
28969.59347240072
 33
0.0
  0
MTEXT
  5
2033
330
201F
100
AcDbEntity
  8
寸法線
 62
     0
440
 16777216
100
AcDbMText
 10
34658.01799607646
 20
28982.23757199144
 30
0.0
 40
20.0
 41
0.0
 46
0.0
 71
     5
 72
     1
  1
20,2
 73
     1
 44
1.0
  0
POINT
  5
2034
330
201F
100
AcDbEntity
  8
Defpoints
 62
     0
440
 16777216
100
AcDbPoint
 10
34707.38665228382
 20
28920.15085042292
 30
0.0
  0
POINT
  5
2035
330
201F
100
AcDbEntity
  8
Defpoints
 62
     0
440
 16777216
100
AcDbPoint
 10
34687.18665228383
 20
28853.95085077193
 30
0.0
  0
POINT
  5
2036
330
201F
100
AcDbEntity
  8
Defpoints
 62
     0
440
 16777216
100
AcDbPoint
 10
34687.18665228383
 20
28969.59347240072
 30
0.0
  0
ENDBLK
  5
2021
330
201F
100
AcDbEntity
  8
0
100
AcDbBlockEnd
  0
ENDSEC
  0
SECTION
  2
ENTITIES
  0
XLINE
  5
7DC
330
1F
100
AcDbEntity
  8
オフセット
100
AcDbXline
 10
32915.44093491146
 20
27902.11527306976
 30
0.0
 11
0.0
 21
-1.0
 31
0.0
  0
XLINE
  5
7E4
330
1F
100
AcDbEntity
  8
オフセット
100
AcDbXline
 10
32915.44093491146
 20
28102.11527306976
 30
0.0
 11
-1.0
 21
0.0
 31
0.0
  0
XLINE
  5
7E6
330
1F
100
AcDbEntity
  8
オフセット
100
AcDbXline
 10
33153.94093491146
 20
27902.11527306976
 30
0.0
 11
0.0
 21
-1.0
 31
0.0
  0
XLINE
  5
873
330
1F
100
AcDbEntity
  8
オフセット
100
AcDbXline
 10
32915.44093491146
 20
28273.73237812786
 30
0.0
 11
-1.0
 21
0.0
 31
0.0
  0
XLINE
  5
93D
330
1F
100
AcDbEntity
  8
オフセット
100
AcDbXline
 10
33316.24093491146
 20
27902.11527306976
 30
0.0
 11
0.0
 21
-1.0
 31
0.0
  0
XLINE
  5
9A0
330
1F
100
AcDbEntity
  8
オフセット
100
AcDbXline
 10
32915.44093491146
 20
28288.23237812785
 30
0.0
 11
-1.0
 21
0.0
 31
0.0
  0
XLINE
  5
9A1
330
1F
100
AcDbEntity
  8
オフセット
100
AcDbXline
 10
32915.44093491146
 20
28259.23237812785
 30
0.0
 11
-1.0
 21
0.0
 31
0.0
  0
XLINE
  5
9A2
330
1F
100
AcDbEntity
  8
オフセット
100
AcDbXline
 10
32915.44093491146
 20
28288.73237812786
 30
0.0
 11
-1.0
 21
0.0
 31
0.0
  0
XLINE
  5
9A3
330
1F
100
AcDbEntity
  8
オフセット
100
AcDbXline
 10
32915.44093491146
 20
28258.73237812785
 30
0.0
 11
-1.0
 21
0.0
 31
0.0
  0
XLINE
  5
9A6
330
1F
100
AcDbEntity
  8
オフセット
100
AcDbXline
 10
32915.44093491146
 20
28289.23237812785
 30
0.0
 11
-1.0
 21
0.0
 31
0.0
  0
XLINE
  5
9A7
330
1F
100
AcDbEntity
  8
オフセット
100
AcDbXline
 10
32915.44093491146
 20
28258.23237812786
 30
0.0
 11
-1.0
 21
0.0
 31
0.0
  0
XLINE
  5
9C5
330
1F
100
AcDbEntity
  8
オフセット
100
AcDbXline
 10
32930.94093491146
 20
27902.11527306976
 30
0.0
 11
0.0
 21
-1.0
 31
0.0
  0
LINE
  5
9F7
330
1F
100
AcDbEntity
  8
中心線
100
AcDbLine
 10
34473.48520738138
 20
29239.81389280758
 30
0.0
 11
34473.48520738138
 21
28798.81731629889
 31
0.0
  0
MTEXT
  5
A4E
330
1F
100
AcDbEntity
  8
寸法線
100
AcDbMText
 10
34190.56954352356
 20
29036.4459480941
 30
0.0
 40
20.0
 41
0.0
 46
0.0
 71
     5
 72
     1
  1
{\fMS PGothic|b0|i0|c128|p50;灯具取付寸法　　最内ピッチ　}910\P{\fMS PGothic|b0|i0|c128|p50;　　　　　　　　　　　最外ピッチ　}984
 73
     1
 44
1.0
  0
LINE
  5
B1F
330
1F
100
AcDbEntity
  8
枠線
100
AcDbLine
 10
34831.24093491148
 20
28330.48237812787
 30
0.0
 11
34831.24093491148
 21
28817.98237812787
 31
0.0
  0
LINE
  5
B20
330
1F
100
AcDbEntity
  8
枠線
100
AcDbLine
 10
34831.24093491148
 20
28817.98237812787
 30
0.0
 11
35356.24093491148
 21
28817.98237812787
 31
0.0
  0
LINE
  5
B21
330
1F
100
AcDbEntity
  8
枠線
100
AcDbLine
 10
34831.24093491148
 20
28382.98237812787
 30
0.0
 11
35356.24093491148
 21
28382.98237812787
 31
0.0
  0
LINE
  5
B22
330
1F
100
AcDbEntity
  8
枠線
100
AcDbLine
 10
34831.24093491148
 20
28435.48237812787
 30
0.0
 11
35356.24093491148
 21
28435.48237812787
 31
0.0
  0
LINE
  5
B23
330
1F
100
AcDbEntity
  8
枠線
100
AcDbLine
 10
34831.24093491148
 20
28487.98237812787
 30
0.0
 11
35356.24093491148
 21
28487.98237812787
 31
0.0
  0
LINE
  5
B24
330
1F
100
AcDbEntity
  8
枠線
100
AcDbLine
 10
34831.24093491148
 20
28540.48237812787
 30
0.0
 11
35356.24093491148
 21
28540.48237812787
 31
0.0
  0
LINE
  5
B25
330
1F
100
AcDbEntity
  8
枠線
100
AcDbLine
 10
34831.24093491148
 20
28592.98237812787
 30
0.0
 11
35356.24093491148
 21
28592.98237812787
 31
0.0
  0
LINE
  5
B26
330
1F
100
AcDbEntity
  8
枠線
100
AcDbLine
 10
34831.24093491148
 20
28645.48237812787
 30
0.0
 11
35356.24093491148
 21
28645.48237812787
 31
0.0
  0
LINE
  5
B27
330
1F
100
AcDbEntity
  8
枠線
100
AcDbLine
 10
34831.24093491148
 20
28697.98237812787
 30
0.0
 11
35356.24093491148
 21
28697.98237812787
 31
0.0
  0
LINE
  5
B28
330
1F
100
AcDbEntity
  8
枠線
100
AcDbLine
 10
34831.24093491148
 20
28750.48237812787
 30
0.0
 11
35356.24093491148
 21
28750.48237812787
 31
0.0
  0
LINE
  5
B29
330
1F
100
AcDbEntity
  8
枠線
100
AcDbLine
 10
34958.74093491148
 20
28817.98237812787
 30
0.0
 11
34958.74093491148
 21
28330.48237812787
 31
0.0
  0
LINE
  5
B2A
330
1F
100
AcDbEntity
  8
枠線
100
AcDbLine
 10
34966.24093491148
 20
28817.98237812787
 30
0.0
 11
34966.24093491148
 21
28330.48237812787
 31
0.0
  0
LINE
  5
B2B
330
1F
100
AcDbEntity
  8
枠線
100
AcDbLine
 10
35041.24093491148
 20
28487.98237812787
 30
0.0
 11
35041.24093491148
 21
28435.48237812787
 31
0.0
  0
LINE
  5
B2C
330
1F
100
AcDbEntity
  8
枠線
100
AcDbLine
 10
35048.74093491148
 20
28487.98237812787
 30
0.0
 11
35048.74093491148
 21
28435.48237812787
 31
0.0
  0
LINE
  5
B2D
330
1F
100
AcDbEntity
  8
枠線
100
AcDbLine
 10
35198.74093491148
 20
28487.98237812787
 30
0.0
 11
35198.74093491148
 21
28435.48237812787
 31
0.0
  0
LINE
  5
B2E
330
1F
100
AcDbEntity
  8
枠線
100
AcDbLine
 10
35206.24093491147
 20
28487.98237812787
 30
0.0
 11
35206.24093491147
 21
28435.48237812787
 31
0.0
  0
LINE
  5
B2F
330
1F
100
AcDbEntity
  8
枠線
100
AcDbLine
 10
35281.24093491148
 20
28487.98237812787
 30
0.0
 11
35281.24093491148
 21
28435.48237812787
 31
0.0
  0
LINE
  5
B30
330
1F
100
AcDbEntity
  8
枠線
100
AcDbLine
 10
35123.74093491148
 20
28487.98237812787
 30
0.0
 11
35123.74093491148
 21
28435.48237812787
 31
0.0
  0
LINE
  5
B31
330
1F
100
AcDbEntity
  8
枠線
100
AcDbLine
 10
34756.24093491147
 20
29732.98237812787
 30
0.0
 11
34756.24093491147
 21
29432.98237812787
 31
0.0
  0
LINE
  5
B32
330
1F
100
AcDbEntity
  8
枠線
100
AcDbLine
 10
34831.24093491148
 20
29732.98237812787
 30
0.0
 11
34831.24093491148
 21
29432.98237812787
 31
0.0
  0
LINE
  5
B33
330
1F
100
AcDbEntity
  8
枠線
100
AcDbLine
 10
34838.74093491148
 20
29432.98237812787
 30
0.0
 11
34838.74093491148
 21
29732.98237812787
 31
0.0
  0
LINE
  5
B34
330
1F
100
AcDbEntity
  8
枠線
100
AcDbLine
 10
34756.24093491147
 20
29657.98237812787
 30
0.0
 11
35356.24093491148
 21
29657.98237812787
 31
0.0
  0
LINE
  5
B35
330
1F
100
AcDbEntity
  8
枠線
100
AcDbLine
 10
34756.24093491147
 20
29612.98237812787
 30
0.0
 11
35356.24093491148
 21
29612.98237812787
 31
0.0
  0
LINE
  5
B36
330
1F
100
AcDbEntity
  8
枠線
100
AcDbLine
 10
34756.24093491147
 20
29567.98237812787
 30
0.0
 11
35356.24093491148
 21
29567.98237812787
 31
0.0
  0
LINE
  5
B37
330
1F
100
AcDbEntity
  8
枠線
100
AcDbLine
 10
34756.24093491147
 20
29522.98237812787
 30
0.0
 11
35356.24093491148
 21
29522.98237812787
 31
0.0
  0
LINE
  5
B38
330
1F
100
AcDbEntity
  8
枠線
100
AcDbLine
 10
34756.24093491147
 20
29477.98237812787
 30
0.0
 11
35356.24093491148
 21
29477.98237812787
 31
0.0
  0
LINE
  5
B39
330
1F
100
AcDbEntity
  8
枠線
100
AcDbLine
 10
34756.24093491147
 20
29432.98237812787
 30
0.0
 11
35356.24093491148
 21
29432.98237812787
 31
0.0
  0
LINE
  5
B3A
330
1F
100
AcDbEntity
  8
枠線
100
AcDbLine
 10
35063.74093491148
 20
29732.98237812787
 30
0.0
 11
35063.74093491148
 21
29432.98237812787
 31
0.0
  0
LINE
  5
B3B
330
1F
100
AcDbEntity
  8
枠線
100
AcDbLine
 10
35209.99093491147
 20
29732.98237812787
 30
0.0
 11
35209.99093491147
 21
29432.98237812787
 31
0.0
  0
LINE
  5
B3C
330
1F
100
AcDbEntity
  8
外形線
100
AcDbLine
 10
33353.74093491147
 20
29755.48237812787
 30
0.0
 11
33353.74093491147
 21
28307.98237812787
 31
0.0
  0
LINE
  5
B3D
330
1F
100
AcDbEntity
  8
外形線
100
AcDbLine
 10
35378.74093491148
 20
29755.48237812787
 30
0.0
 11
33353.74093491147
 21
29755.48237812787
 31
0.0
  0
LINE
  5
B3E
330
1F
100
AcDbEntity
  8
枠線
100
AcDbLine
 10
33376.24093491148
 20
29732.98237812787
 30
0.0
 11
33376.24093491148
 21
28330.48237812787
 31
0.0
  0
LINE
  5
B3F
330
1F
100
AcDbEntity
  8
枠線
100
AcDbLine
 10
33376.24093491148
 20
28330.48237812787
 30
0.0
 11
35356.24093491148
 21
28330.48237812787
 31
0.0
  0
LINE
  5
B40
330
1F
100
AcDbEntity
  8
枠線
100
AcDbLine
 10
35356.24093491148
 20
28330.48237812787
 30
0.0
 11
35356.24093491148
 21
29732.98237812787
 31
0.0
  0
LINE
  5
B41
330
1F
100
AcDbEntity
  8
枠線
100
AcDbLine
 10
35356.24093491148
 20
29732.98237812787
 30
0.0
 11
33376.24093491148
 21
29732.98237812787
 31
0.0
  0
LINE
  5
B42
330
1F
100
AcDbEntity
  8
枠線
100
AcDbLine
 10
34748.74093491147
 20
29732.98237812787
 30
0.0
 11
34748.74093491147
 21
29432.98237812787
 31
0.0
  0
LINE
  5
B43
330
1F
100
AcDbEntity
  8
枠線
100
AcDbLine
 10
34756.24093491147
 20
29432.98237812787
 30
0.0
 11
34756.24093491147
 21
29732.98237812787
 31
0.0
  0
LINE
  5
B44
330
1F
100
AcDbEntity
  8
枠線
100
AcDbLine
 10
34148.74093491147
 20
29732.98237812787
 30
0.0
 11
34148.74093491147
 21
29432.98237812787
 31
0.0
  0
LINE
  5
B45
330
1F
100
AcDbEntity
  8
枠線
100
AcDbLine
 10
34223.74093491148
 20
29732.98237812787
 30
0.0
 11
34223.74093491148
 21
29432.98237812787
 31
0.0
  0
LINE
  5
B46
330
1F
100
AcDbEntity
  8
枠線
100
AcDbLine
 10
34231.24093491148
 20
29432.98237812787
 30
0.0
 11
34231.24093491148
 21
29732.98237812787
 31
0.0
  0
LINE
  5
B47
330
1F
100
AcDbEntity
  8
枠線
100
AcDbLine
 10
34148.74093491147
 20
29657.98237812787
 30
0.0
 11
34748.74093491147
 21
29657.98237812787
 31
0.0
  0
LINE
  5
B48
330
1F
100
AcDbEntity
  8
枠線
100
AcDbLine
 10
34148.74093491147
 20
29612.98237812787
 30
0.0
 11
34748.74093491147
 21
29612.98237812787
 31
0.0
  0
LINE
  5
B49
330
1F
100
AcDbEntity
  8
枠線
100
AcDbLine
 10
34148.74093491147
 20
29567.98237812787
 30
0.0
 11
34748.74093491147
 21
29567.98237812787
 31
0.0
  0
LINE
  5
B4A
330
1F
100
AcDbEntity
  8
枠線
100
AcDbLine
 10
34148.74093491147
 20
29522.98237812787
 30
0.0
 11
34748.74093491147
 21
29522.98237812787
 31
0.0
  0
LINE
  5
B4B
330
1F
100
AcDbEntity
  8
枠線
100
AcDbLine
 10
34148.74093491147
 20
29477.98237812787
 30
0.0
 11
34748.74093491147
 21
29477.98237812787
 31
0.0
  0
LINE
  5
B4C
330
1F
100
AcDbEntity
  8
枠線
100
AcDbLine
 10
34148.74093491147
 20
29432.98237812787
 30
0.0
 11
34748.74093491147
 21
29432.98237812787
 31
0.0
  0
LINE
  5
B4D
330
1F
100
AcDbEntity
  8
枠線
100
AcDbLine
 10
34456.24093491148
 20
29732.98237812787
 30
0.0
 11
34456.24093491148
 21
29432.98237812787
 31
0.0
  0
LINE
  5
B4E
330
1F
100
AcDbEntity
  8
枠線
100
AcDbLine
 10
34602.49093491148
 20
29732.98237812787
 30
0.0
 11
34602.49093491148
 21
29432.98237812787
 31
0.0
  0
LINE
  5
B4F
330
1F
100
AcDbEntity
  8
枠線
100
AcDbLine
 10
34148.74093491147
 20
29432.98237812787
 30
0.0
 11
34148.74093491147
 21
29732.98237812787
 31
0.0
  0
LINE
  5
B50
330
1F
100
AcDbEntity
  8
外形線
100
AcDbLine
 10
35378.74093491148
 20
29755.48237812787
 30
0.0
 11
35378.74093491148
 21
28307.98237812787
 31
0.0
  0
LINE
  5
B51
330
1F
100
AcDbEntity
  8
外形線
100
AcDbLine
 10
35378.74093491148
 20
28307.98237812787
 30
0.0
 11
33353.74093491147
 21
28307.98237812787
 31
0.0
  0
MTEXT
  5
B52
330
1F
100
AcDbEntity
  8
寸法線
100
AcDbMText
 10
34342.33525250739
 20
29695.43420697478
 30
0.0
 40
37.50000000000001
 41
174.8674808517826
 46
0.0
 71
     5
 72
     5
  1
{\fMS PGothic|b0|i0|c128|p50;部品名}
 73
     1
 44
1.0
1001
ACAD
1000
ACAD_MTEXT_COLUMN_INFO_BEGIN
1070
    75
1070
     2
1070
    79
1070
     0
1070
    76
1070
     1
1070
    78
1070
     0
1070
    48
1040
174.8674808517826
1070
    49
1040
12.5
1070
    50
1070
     1
1040
0.0
1000
ACAD_MTEXT_COLUMN_INFO_END
  0
MTEXT
  5
B53
330
1F
100
AcDbEntity
  8
寸法線
100
AcDbMText
 10
34527.9602525073
 20
29695.54074106575
 30
0.0
 40
37.50000000000001
 41
109.1764692682045
 46
0.0
 71
     5
 72
     5
  1
{\fMS PGothic|b0|i0|c128|p50;材質}
 73
     1
 44
1.0
1001
ACAD
1000
ACAD_MTEXT_COLUMN_INFO_BEGIN
1070
    75
1070
     2
1070
    79
1070
     0
1070
    76
1070
     1
1070
    78
1070
     0
1070
    48
1040
109.1764692682045
1070
    49
1040
12.5
1070
    50
1070
     1
1040
0.0
1000
ACAD_MTEXT_COLUMN_INFO_END
  0
MTEXT
  5
B54
330
1F
100
AcDbEntity
  8
寸法線
100
AcDbMText
 10
34674.21025250742
 20
29695.3276728839
 30
0.0
 40
37.50000000000001
 41
115.2368875816973
 46
0.0
 71
     5
 72
     5
  1
{\fMS PGothic|b0|i0|c128|p50;摘要}
 73
     1
 44
1.0
1001
ACAD
1000
ACAD_MTEXT_COLUMN_INFO_BEGIN
1070
    75
1070
     2
1070
    79
1070
     0
1070
    76
1070
     1
1070
    78
1070
     0
1070
    48
1040
115.2368875816973
1070
    49
1040
12.5
1070
    50
1070
     1
1040
0.0
1000
ACAD_MTEXT_COLUMN_INFO_END
  0
MTEXT
  5
B55
330
1F
100
AcDbEntity
  8
寸法線
100
AcDbMText
 10
34187.64661731571
 20
29693.97555259668
 30
0.0
 40
22.5
 41
10.0
 46
0.0
 71
     5
 72
     5
  1
{\fMS PGothic|b0|i0|c128|p50;部番}
 73
     1
 44
1.0
1001
ACAD
1000
ACAD_MTEXT_COLUMN_INFO_BEGIN
1070
    75
1070
     2
1070
    79
1070
     0
1070
    76
1070
     1
1070
    78
1070
     0
1070
    48
1040
10.0
1070
    49
1040
12.5
1070
    50
1070
     1
1040
0.0
1000
ACAD_MTEXT_COLUMN_INFO_END
  0
MTEXT
  5
B56
330
1F
100
AcDbEntity
  8
寸法線
100
AcDbMText
 10
34186.24093491148
 20
29635.49772247873
 30
0.0
 40
26.25000000000001
 41
10.0
 46
0.0
 71
     5
 72
     5
  1
{\fMS PGothic|b0|i0|c128|p50;①}
 73
     1
 44
1.0
1001
ACAD
1000
ACAD_MTEXT_COLUMN_INFO_BEGIN
1070
    75
1070
     2
1070
    79
1070
     0
1070
    76
1070
     1
1070
    78
1070
     0
1070
    48
1040
10.0
1070
    49
1040
12.5
1070
    50
1070
     1
1040
0.0
1000
ACAD_MTEXT_COLUMN_INFO_END
  0
MTEXT
  5
B57
330
1F
100
AcDbEntity
  8
寸法線
100
AcDbMText
 10
34186.24093491148
 20
29590.49772247873
 30
0.0
 40
26.25000000000001
 41
10.0
 46
0.0
 71
     5
 72
     5
  1
{\fMS PGothic|b0|i0|c128|p50;②}
 73
     1
 44
1.0
1001
ACAD
1000
ACAD_MTEXT_COLUMN_INFO_BEGIN
1070
    75
1070
     2
1070
    79
1070
     0
1070
    76
1070
     1
1070
    78
1070
     0
1070
    48
1040
10.0
1070
    49
1040
12.5
1070
    50
1070
     1
1040
0.0
1000
ACAD_MTEXT_COLUMN_INFO_END
  0
MTEXT
  5
B58
330
1F
100
AcDbEntity
  8
寸法線
100
AcDbMText
 10
34186.24093491148
 20
29545.49772247876
 30
0.0
 40
26.25000000000001
 41
10.0
 46
0.0
 71
     5
 72
     5
  1
{\fMS PGothic|b0|i0|c128|p50;③}
 73
     1
 44
1.0
1001
ACAD
1000
ACAD_MTEXT_COLUMN_INFO_BEGIN
1070
    75
1070
     2
1070
    79
1070
     0
1070
    76
1070
     1
1070
    78
1070
     0
1070
    48
1040
10.0
1070
    49
1040
12.5
1070
    50
1070
     1
1040
0.0
1000
ACAD_MTEXT_COLUMN_INFO_END
  0
MTEXT
  5
B59
330
1F
100
AcDbEntity
  8
寸法線
100
AcDbMText
 10
34186.24093491148
 20
29500.49772247873
 30
0.0
 40
26.25000000000001
 41
10.0
 46
0.0
 71
     5
 72
     5
  1
{\fMS PGothic|b0|i0|c128|p50;④}
 73
     1
 44
1.0
1001
ACAD
1000
ACAD_MTEXT_COLUMN_INFO_BEGIN
1070
    75
1070
     2
1070
    79
1070
     0
1070
    76
1070
     1
1070
    78
1070
     0
1070
    48
1040
10.0
1070
    49
1040
12.5
1070
    50
1070
     1
1040
0.0
1000
ACAD_MTEXT_COLUMN_INFO_END
  0
MTEXT
  5
B5A
330
1F
100
AcDbEntity
  8
寸法線
100
AcDbMText
 10
34186.24093491148
 20
29455.49772247873
 30
0.0
 40
26.25000000000001
 41
10.0
 46
0.0
 71
     5
 72
     5
  1
{\fMS PGothic|b0|i0|c128|p50;⑤}
 73
     1
 44
1.0
1001
ACAD
1000
ACAD_MTEXT_COLUMN_INFO_BEGIN
1070
    75
1070
     2
1070
    79
1070
     0
1070
    76
1070
     1
1070
    78
1070
     0
1070
    48
1040
10.0
1070
    49
1040
12.5
1070
    50
1070
     1
1040
0.0
1000
ACAD_MTEXT_COLUMN_INFO_END
  0
MTEXT
  5
B5B
330
1F
100
AcDbEntity
  8
寸法線
100
AcDbMText
 10
34949.8352525073
 20
29695.43420697478
 30
0.0
 40
37.50000000000001
 41
208.789682174116
 46
0.0
 71
     5
 72
     5
  1
{\fMS PGothic|b0|i0|c128|p50;部品名}
 73
     1
 44
1.0
1001
ACAD
1000
ACAD_MTEXT_COLUMN_INFO_BEGIN
1070
    75
1070
     2
1070
    79
1070
     0
1070
    76
1070
     1
1070
    78
1070
     0
1070
    48
1040
208.789682174116
1070
    49
1040
12.5
1070
    50
1070
     1
1040
0.0
1000
ACAD_MTEXT_COLUMN_INFO_END
  0
MTEXT
  5
B5C
330
1F
100
AcDbEntity
  8
寸法線
100
AcDbMText
 10
35135.4602525073
 20
29695.54074106575
 30
0.0
 40
37.50000000000001
 41
121.2416595124814
 46
0.0
 71
     5
 72
     5
  1
{\fMS PGothic|b0|i0|c128|p50;材質}
 73
     1
 44
1.0
1001
ACAD
1000
ACAD_MTEXT_COLUMN_INFO_BEGIN
1070
    75
1070
     2
1070
    79
1070
     0
1070
    76
1070
     1
1070
    78
1070
     0
1070
    48
1040
121.2416595124814
1070
    49
1040
12.5
1070
    50
1070
     1
1040
0.0
1000
ACAD_MTEXT_COLUMN_INFO_END
  0
MTEXT
  5
B5D
330
1F
100
AcDbEntity
  8
寸法線
100
AcDbMText
 10
35281.7102525073
 20
29695.3276728839
 30
0.0
 40
37.50000000000001
 41
124.8927565777121
 46
0.0
 71
     5
 72
     5
  1
{\fMS PGothic|b0|i0|c128|p50;摘要}
 73
     1
 44
1.0
1001
ACAD
1000
ACAD_MTEXT_COLUMN_INFO_BEGIN
1070
    75
1070
     2
1070
    79
1070
     0
1070
    76
1070
     1
1070
    78
1070
     0
1070
    48
1040
124.8927565777121
1070
    49
1040
12.5
1070
    50
1070
     1
1040
0.0
1000
ACAD_MTEXT_COLUMN_INFO_END
  0
MTEXT
  5
B5E
330
1F
100
AcDbEntity
  8
寸法線
100
AcDbMText
 10
34795.14661731577
 20
29693.97555259668
 30
0.0
 40
22.5
 41
10.0
 46
0.0
 71
     5
 72
     5
  1
{\fMS PGothic|b0|i0|c128|p50;部番}
 73
     1
 44
1.0
1001
ACAD
1000
ACAD_MTEXT_COLUMN_INFO_BEGIN
1070
    75
1070
     2
1070
    79
1070
     0
1070
    76
1070
     1
1070
    78
1070
     0
1070
    48
1040
10.0
1070
    49
1040
12.5
1070
    50
1070
     1
1040
0.0
1000
ACAD_MTEXT_COLUMN_INFO_END
  0
MTEXT
  5
B5F
330
1F
100
AcDbEntity
  8
寸法線
100
AcDbMText
 10
34793.74093491153
 20
29635.49772247873
 30
0.0
 40
26.25000000000001
 41
10.0
 46
0.0
 71
     5
 72
     5
  1
{\fMS PGothic|b0|i0|c128|p50;⑥}
 73
     1
 44
1.0
1001
ACAD
1000
ACAD_MTEXT_COLUMN_INFO_BEGIN
1070
    75
1070
     2
1070
    79
1070
     0
1070
    76
1070
     1
1070
    78
1070
     0
1070
    48
1040
10.0
1070
    49
1040
12.5
1070
    50
1070
     1
1040
0.0
1000
ACAD_MTEXT_COLUMN_INFO_END
  0
MTEXT
  5
B60
330
1F
100
AcDbEntity
  8
寸法線
100
AcDbMText
 10
34793.74093491153
 20
29590.49772247873
 30
0.0
 40
26.25000000000001
 41
10.0
 46
0.0
 71
     5
 72
     5
  1
{\fMS PGothic|b0|i0|c128|p50;⑦}
 73
     1
 44
1.0
1001
ACAD
1000
ACAD_MTEXT_COLUMN_INFO_BEGIN
1070
    75
1070
     2
1070
    79
1070
     0
1070
    76
1070
     1
1070
    78
1070
     0
1070
    48
1040
10.0
1070
    49
1040
12.5
1070
    50
1070
     1
1040
0.0
1000
ACAD_MTEXT_COLUMN_INFO_END
  0
MTEXT
  5
B61
330
1F
100
AcDbEntity
  8
寸法線
100
AcDbMText
 10
34793.74093491153
 20
29545.49772247876
 30
0.0
 40
26.25000000000001
 41
10.0
 46
0.0
 71
     5
 72
     5
  1
{\fMS PGothic|b0|i0|c128|p50;⑧}
 73
     1
 44
1.0
1001
ACAD
1000
ACAD_MTEXT_COLUMN_INFO_BEGIN
1070
    75
1070
     2
1070
    79
1070
     0
1070
    76
1070
     1
1070
    78
1070
     0
1070
    48
1040
10.0
1070
    49
1040
12.5
1070
    50
1070
     1
1040
0.0
1000
ACAD_MTEXT_COLUMN_INFO_END
  0
MTEXT
  5
B62
330
1F
100
AcDbEntity
  8
寸法線
100
AcDbMText
 10
34793.74093491153
 20
29500.49772247873
 30
0.0
 40
26.25000000000001
 41
10.0
 46
0.0
 71
     5
 72
     5
  1
{\fMS PGothic|b0|i0|c128|p50;⑨}
 73
     1
 44
1.0
1001
ACAD
1000
ACAD_MTEXT_COLUMN_INFO_BEGIN
1070
    75
1070
     2
1070
    79
1070
     0
1070
    76
1070
     1
1070
    78
1070
     0
1070
    48
1040
10.0
1070
    49
1040
12.5
1070
    50
1070
     1
1040
0.0
1000
ACAD_MTEXT_COLUMN_INFO_END
  0
MTEXT
  5
B63
330
1F
100
AcDbEntity
  8
寸法線
100
AcDbMText
 10
34793.74093491153
 20
29455.49772247873
 30
0.0
 40
26.25000000000001
 41
10.0
 46
0.0
 71
     5
 72
     5
  1
{\fMS PGothic|b0|i0|c128|p50;⑩}
 73
     1
 44
1.0
1001
ACAD
1000
ACAD_MTEXT_COLUMN_INFO_BEGIN
1070
    75
1070
     2
1070
    79
1070
     0
1070
    76
1070
     1
1070
    78
1070
     0
1070
    48
1040
10.0
1070
    49
1040
12.5
1070
    50
1070
     1
1040
0.0
1000
ACAD_MTEXT_COLUMN_INFO_END
  0
TEXT
  5
B64
330
1F
100
AcDbEntity
  8
寸法線
100
AcDbText
 10
34973.80850170256
 20
28790.09250033819
 30
0.0
 40
16.125
  1
広告灯内用放電灯器具（LEDランプ用）
100
AcDbText
  0
TEXT
  5
B65
330
1F
100
AcDbEntity
  8
寸法線
100
AcDbText
 10
34974.49132900027
 20
28766.1981884437
 30
0.0
 40
11.25
  1
AC100/200V　　50/60Hz
100
AcDbText
  0
MTEXT
  5
B66
330
1F
100
AcDbEntity
  8
寸法線
100
AcDbMText
 10
34894.99093491148
 20
28721.94103785648
 30
0.0
 40
26.25000000000001
 41
134.5371276319638
 46
0.0
 71
     5
 72
     5
  1
{\fMS PGothic|b0|i0|c128|p50;品名}
 73
     1
 44
1.0
1001
ACAD
1000
ACAD_MTEXT_COLUMN_INFO_BEGIN
1070
    75
1070
     2
1070
    79
1070
     0
1070
    76
1070
     1
1070
    78
1070
     0
1070
    48
1040
134.5371276319638
1070
    49
1040
12.5
1070
    50
1070
     1
1040
0.0
1000
ACAD_MTEXT_COLUMN_INFO_END
  0
MTEXT
  5
B67
330
1F
100
AcDbEntity
  8
寸法線
100
AcDbMText
 10
34894.99093491148
 20
28669.36646399289
 30
0.0
 40
26.25000000000001
 41
107.3977478795059
 46
0.0
 71
     5
 72
     5
  1
{\fMS PGothic|b0|i0|c128|p50;型番}
 73
     1
 44
1.0
1001
ACAD
1000
ACAD_MTEXT_COLUMN_INFO_BEGIN
1070
    75
1070
     2
1070
    79
1070
     0
1070
    76
1070
     1
1070
    78
1070
     0
1070
    48
1040
107.3977478795059
1070
    49
1040
12.5
1070
    50
1070
     1
1040
0.0
1000
ACAD_MTEXT_COLUMN_INFO_END
  0
MTEXT
  5
B68
330
1F
100
AcDbEntity
  8
寸法線
100
AcDbMText
 10
34894.99093491148
 20
28616.86646399289
 30
0.0
 40
26.25000000000001
 41
111.0985654956457
 46
0.0
 71
     5
 72
     5
  1
{\fMS PGothic|b0|i0|c128|p50;図番}
 73
     1
 44
1.0
1001
ACAD
1000
ACAD_MTEXT_COLUMN_INFO_BEGIN
1070
    75
1070
     2
1070
    79
1070
     0
1070
    76
1070
     1
1070
    78
1070
     0
1070
    48
1040
111.0985654956457
1070
    49
1040
12.5
1070
    50
1070
     1
1040
0.0
1000
ACAD_MTEXT_COLUMN_INFO_END
  0
MTEXT
  5
B69
330
1F
100
AcDbEntity
  8
寸法線
100
AcDbMText
 10
34894.99093491148
 20
28564.06816853833
 30
0.0
 40
26.25000000000001
 41
79.75
 46
0.0
 71
     5
 72
     5
  1
{\fMS PGothic|b0|i0|c128|p50;尺度}
 73
     1
 44
1.0
1001
ACAD
1000
ACAD_MTEXT_COLUMN_INFO_BEGIN
1070
    75
1070
     2
1070
    79
1070
     0
1070
    76
1070
     1
1070
    78
1070
     0
1070
    48
1040
79.75
1070
    49
1040
12.5
1070
    50
1070
     1
1040
0.0
1000
ACAD_MTEXT_COLUMN_INFO_END
  0
MTEXT
  5
B6A
330
1F
100
AcDbEntity
  8
寸法線
100
AcDbMText
 10
34894.99093491148
 20
28512.38848103833
 30
0.0
 40
26.25000000000001
 41
79.75
 46
0.0
 71
     5
 72
     5
  1
{\fMS PGothic|b0|i0|c128|p50;日付}
 73
     1
 44
1.0
1001
ACAD
1000
ACAD_MTEXT_COLUMN_INFO_BEGIN
1070
    75
1070
     2
1070
    79
1070
     0
1070
    76
1070
     1
1070
    78
1070
     0
1070
    48
1040
79.75
1070
    49
1040
12.5
1070
    50
1070
     1
1040
0.0
1000
ACAD_MTEXT_COLUMN_INFO_END
  0
MTEXT
  5
B6B
330
1F
100
AcDbEntity
  8
寸法線
100
AcDbMText
 10
34894.99093491148
 20
28459.29189012924
 30
0.0
 40
26.25000000000001
 41
79.75
 46
0.0
 71
     5
 72
     5
  1
{\fMS PGothic|b0|i0|c128|p50;設計}
 73
     1
 44
1.0
1001
ACAD
1000
ACAD_MTEXT_COLUMN_INFO_BEGIN
1070
    75
1070
     2
1070
    79
1070
     0
1070
    76
1070
     1
1070
    78
1070
     0
1070
    48
1040
79.75
1070
    49
1040
12.5
1070
    50
1070
     1
1040
0.0
1000
ACAD_MTEXT_COLUMN_INFO_END
  0
MTEXT
  5
B6C
330
1F
100
AcDbEntity
  8
寸法線
100
AcDbMText
 10
35086.24093491154
 20
28462.21518558377
 30
0.0
 40
21.0
 41
77.95127031754964
 46
0.0
 71
     5
 72
     5
  1
{\fMS PGothic|b0|i0|c128|p50;製図}
 73
     1
 44
1.0
1001
ACAD
1000
ACAD_MTEXT_COLUMN_INFO_BEGIN
1070
    75
1070
     2
1070
    79
1070
     0
1070
    76
1070
     1
1070
    78
1070
     0
1070
    48
1040
77.95127031754964
1070
    49
1040
12.5
1070
    50
1070
     1
1040
0.0
1000
ACAD_MTEXT_COLUMN_INFO_END
  0
MTEXT
  5
B6D
330
1F
100
AcDbEntity
  8
寸法線
100
AcDbMText
 10
35243.74093491153
 20
28462.99075376565
 30
0.0
 40
21.0
 41
64.78344696047134
 46
0.0
 71
     5
 72
     5
  1
{\fMS PGothic|b0|i0|c128|p50;承認}
 73
     1
 44
1.0
1001
ACAD
1000
ACAD_MTEXT_COLUMN_INFO_BEGIN
1070
    75
1070
     2
1070
    79
1070
     0
1070
    76
1070
     1
1070
    78
1070
     0
1070
    48
1040
64.78344696047134
1070
    49
1040
12.5
1070
    50
1070
     1
1040
0.0
1000
ACAD_MTEXT_COLUMN_INFO_END
  0
MTEXT
  5
B6E
330
1F
100
AcDbEntity
  8
寸法線
100
AcDbMText
 10
35161.24093491153
 20
28358.97825559299
 30
0.0
 40
26.25000000000001
 41
479.1527611076308
 46
0.0
 71
     5
 72
     5
  1
{\fMS PGothic|b0|i0|c128|p50;高村電機工業株式会社}
 73
     1
 44
1.0
1001
ACAD
1000
ACAD_MTEXT_COLUMN_INFO_BEGIN
1070
    75
1070
     2
1070
    79
1070
     0
1070
    76
1070
     1
1070
    78
1070
     0
1070
    48
1040
479.1527611076308
1070
    49
1040
12.5
1070
    50
1070
     1
1040
0.0
1000
ACAD_MTEXT_COLUMN_INFO_END
  0
MTEXT
  5
B6F
330
1F
100
AcDbEntity
  8
寸法線
100
AcDbMText
 10
34976.77017264042
 20
28747.97637550353
 30
0.0
 40
30.00000000000002
 41
379.4707622710557
 46
0.0
 71
     1
 72
     5
  1
{\fMS PGothic|b0|i0|c128|p50;ゼブライト・V　}35W
 73
     1
 44
1.0
1001
ACAD
1000
ACAD_MTEXT_COLUMN_INFO_BEGIN
1070
    75
1070
     2
1070
    79
1070
     0
1070
    76
1070
     1
1070
    78
1070
     0
1070
    48
1040
379.4707622710557
1070
    49
1040
12.5
1070
    50
1070
     1
1040
0.0
1000
ACAD_MTEXT_COLUMN_INFO_END
  0
MTEXT
  5
B70
330
1F
100
AcDbEntity
  8
寸法線
100
AcDbMText
 10
34977.94011030515
 20
28689.02302503455
 30
0.0
 40
30.00000000000002
 41
326.790400944592
 46
0.0
 71
     1
 72
     5
  1
CSH{\fMS PGothic|b0|i0|c128|p50;‐}350KB-V
 73
     1
 44
1.0
1001
ACAD
1000
ACAD_MTEXT_COLUMN_INFO_BEGIN
1070
    75
1070
     2
1070
    79
1070
     0
1070
    76
1070
     1
1070
    78
1070
     0
1070
    48
1040
326.790400944592
1070
    49
1040
12.5
1070
    50
1070
     1
1040
0.0
1000
ACAD_MTEXT_COLUMN_INFO_END
  0
LINE
  5
B71
330
1F
100
AcDbEntity
  8
枠線
100
AcDbLine
 10
35157.49093491148
 20
28592.98237812787
 30
0.0
 11
35157.49093491148
 21
28540.48237812787
 31
0.0
  0
LINE
  5
B72
330
1F
100
AcDbEntity
  8
枠線
100
AcDbLine
 10
35164.99093491148
 20
28592.98237812787
 30
0.0
 11
35164.99093491148
 21
28540.48237812787
 31
0.0
  0
CIRCLE
  5
B73
330
1F
100
AcDbEntity
  8
枠線
100
AcDbCircle
 10
35221.24093491147
 20
28566.73237812787
 30
0.0
 40
15.0
  0
CIRCLE
  5
B74
330
1F
100
AcDbEntity
  8
枠線
100
AcDbCircle
 10
35221.24093491147
 20
28566.73237812787
 30
0.0
 40
7.5
  0
LINE
  5
B75
330
1F
100
AcDbEntity
  8
枠線
100
AcDbLine
 10
35277.49093491148
 20
28574.23237812787
 30
0.0
 11
35277.49093491148
 21
28559.23237812787
 31
0.0
  0
LINE
  5
B76
330
1F
100
AcDbEntity
  8
枠線
100
AcDbLine
 10
35277.49093491148
 20
28559.23237812787
 30
0.0
 11
35314.99093491148
 21
28551.73237812787
 31
0.0
  0
LINE
  5
B77
330
1F
100
AcDbEntity
  8
枠線
100
AcDbLine
 10
35314.99093491148
 20
28551.73237812787
 30
0.0
 11
35314.99093491148
 21
28581.73237812787
 31
0.0
  0
LINE
  5
B78
330
1F
100
AcDbEntity
  8
枠線
100
AcDbLine
 10
35314.99093491148
 20
28581.73237812787
 30
0.0
 11
35277.49093491148
 21
28574.23237812787
 31
0.0
  0
LINE
  5
B79
330
1F
100
AcDbEntity
  8
中心線
 48
0.5
100
AcDbLine
 10
35202.49093491147
 20
28566.73237812787
 30
0.0
 11
35318.74093491148
 21
28566.73237812787
 31
0.0
  0
LINE
  5
B7A
330
1F
100
AcDbEntity
  8
中心線
 48
0.5
100
AcDbLine
 10
35221.24093491147
 20
28585.48237812787
 30
0.0
 11
35221.24093491147
 21
28547.98237812787
 31
0.0
  0
MTEXT
  5
B7B
330
1F
100
AcDbEntity
  8
中心線
100
AcDbMText
 10
35062.10515516228
 20
28567.02177482419
 30
0.0
 40
30.00000000000002
 41
137.1373031534895
 46
0.0
 71
     5
 72
     5
  1
1  :  5
 73
     1
 44
1.0
1001
ACAD
1000
ACAD_MTEXT_COLUMN_INFO_BEGIN
1070
    75
1070
     2
1070
    79
1070
     0
1070
    76
1070
     1
1070
    78
1070
     0
1070
    48
1040
137.1373031534895
1070
    49
1040
12.5
1070
    50
1070
     1
1040
0.0
1000
ACAD_MTEXT_COLUMN_INFO_END
  0
MTEXT
  5
B7C
330
1F
100
AcDbEntity
  8
寸法線
100
AcDbMText
 10
34238.20906877174
 20
29649.15799909807
 30
0.0
 40
12.0
 41
151.6297294085016
 46
0.0
 71
     1
 72
     5
  1
{\fMS PGothic|b0|i0|c128|p50;器具本体}
 73
     1
 44
1.0
1001
ACAD
1000
ACAD_MTEXT_COLUMN_INFO_BEGIN
1070
    75
1070
     2
1070
    79
1070
     0
1070
    76
1070
     1
1070
    78
1070
     0
1070
    48
1040
151.6297294085016
1070
    49
1040
12.5
1070
    50
1070
     1
1040
0.0
1000
ACAD_MTEXT_COLUMN_INFO_END
  0
MTEXT
  5
B7D
330
1F
100
AcDbEntity
  8
寸法線
100
AcDbMText
 10
34464.31238690586
 20
29654.81214108685
 30
0.0
 40
10.0
 41
163.0743348696414
 46
0.0
 71
     1
 72
     5
  1
{\fMS PGothic|b0|i0|c128|p50;鋼鈑　}0.6{\fMS PGothic|b0|i0|c128|p50;ｔ}\P{\fMS PGothic|b0|i0|c128|p50;（亜鉛メッキ板）}
 73
     1
 44
1.0
1001
ACAD
1000
ACAD_MTEXT_COLUMN_INFO_BEGIN
1070
    75
1070
     2
1070
    79
1070
     0
1070
    76
1070
     1
1070
    78
1070
     0
1070
    48
1040
163.0743348696414
1070
    49
1040
12.5
1070
    50
1070
     1
1040
0.0
1000
ACAD_MTEXT_COLUMN_INFO_END
  0
MTEXT
  5
B7E
330
1F
100
AcDbEntity
  8
寸法線
100
AcDbMText
 10
34606.65688851665
 20
29644.09894835483
 30
0.0
 40
10.0
 41
127.6574633589698
 46
0.0
 71
     1
 72
     5
  1
{\fMS PGothic|b0|i0|c128|p50;ホーミング加工}
 73
     1
 44
1.0
1001
ACAD
1000
ACAD_MTEXT_COLUMN_INFO_BEGIN
1070
    75
1070
     2
1070
    79
1070
     0
1070
    76
1070
     1
1070
    78
1070
     0
1070
    48
1040
127.6574633589698
1070
    49
1040
12.5
1070
    50
1070
     1
1040
0.0
1000
ACAD_MTEXT_COLUMN_INFO_END
  0
MTEXT
  5
B7F
330
1F
100
AcDbEntity
  8
寸法線
100
AcDbMText
 10
34238.19917601458
 20
29557.16080846719
 30
0.0
 40
12.0
 41
177.2417588968819
 46
0.0
 71
     1
 72
     5
  1
{\fMS PGothic|b0|i0|c128|p50;絶縁ブッシング}
 73
     1
 44
1.0
1001
ACAD
1000
ACAD_MTEXT_COLUMN_INFO_BEGIN
1070
    75
1070
     2
1070
    79
1070
     0
1070
    76
1070
     1
1070
    78
1070
     0
1070
    48
1040
177.2417588968819
1070
    49
1040
12.5
1070
    50
1070
     1
1040
0.0
1000
ACAD_MTEXT_COLUMN_INFO_END
  0
MTEXT
  5
B80
330
1F
100
AcDbEntity
  8
寸法線
100
AcDbMText
 10
34467.06484389259
 20
29563.344556653
 30
0.0
 40
10.0
 41
112.0581813088574
 46
0.0
 71
     1
 72
     5
  1
P.P{\fMS PGothic|b0|i0|c128|p50;樹脂}
 73
     1
 44
1.0
1001
ACAD
1000
ACAD_MTEXT_COLUMN_INFO_BEGIN
1070
    75
1070
     2
1070
    79
1070
     0
1070
    76
1070
     1
1070
    78
1070
     0
1070
    48
1040
112.0581813088574
1070
    49
1040
12.5
1070
    50
1070
     1
1040
0.0
1000
ACAD_MTEXT_COLUMN_INFO_END
  0
MTEXT
  5
B81
330
1F
100
AcDbEntity
  8
寸法線
100
AcDbMText
 10
34235.8797623135
 20
29515.25266188939
 30
0.0
 40
12.0
 41
209.7639475286996
 46
0.0
 71
     1
 72
     5
  1
{\fMS PGothic|b0|i0|c128|p50;ランプソケット（固定側）}
 73
     1
 44
1.0
1001
ACAD
1000
ACAD_MTEXT_COLUMN_INFO_BEGIN
1070
    75
1070
     2
1070
    79
1070
     0
1070
    76
1070
     1
1070
    78
1070
     0
1070
    48
1040
209.7639475286996
1070
    49
1040
12.5
1070
    50
1070
     1
1040
0.0
1000
ACAD_MTEXT_COLUMN_INFO_END
  0
MTEXT
  5
B82
330
1F
100
AcDbEntity
  8
寸法線
100
AcDbMText
 10
34465.51858971544
 20
29518.34457732385
 30
0.0
 40
10.0
 41
114.358547341013
 46
0.0
 71
     1
 72
     5
  1
{\fMS PGothic|b0|i0|c128|p50;P.P樹脂\P黄銅}
 73
     1
 44
1.0
1001
ACAD
1000
ACAD_MTEXT_COLUMN_INFO_BEGIN
1070
    75
1070
     2
1070
    79
1070
     0
1070
    76
1070
     1
1070
    78
1070
     0
1070
    48
1040
114.358547341013
1070
    49
1040
12.5
1070
    50
1070
     1
1040
0.0
1000
ACAD_MTEXT_COLUMN_INFO_END
  0
MTEXT
  5
B83
330
1F
100
AcDbEntity
  8
寸法線
100
AcDbMText
 10
34238.19917601458
 20
29469.47971920457
 30
0.0
 40
12.0
 41
210.5417588968994
 46
0.0
 71
     1
 72
     5
  1
{\fMS PGothic|b0|i0|c128|p50;ランプソケット（スプリング側）}
 73
     1
 44
1.0
1001
ACAD
1000
ACAD_MTEXT_COLUMN_INFO_BEGIN
1070
    75
1070
     2
1070
    79
1070
     0
1070
    76
1070
     1
1070
    78
1070
     0
1070
    48
1040
210.5417588968994
1070
    49
1040
12.5
1070
    50
1070
     1
1040
0.0
1000
ACAD_MTEXT_COLUMN_INFO_END
  0
MTEXT
  5
B84
330
1F
100
AcDbEntity
  8
寸法線
100
AcDbMText
 10
34461.65288940209
 20
29474.11754067941
 30
0.0
 40
10.0
 41
140.8380455093865
 46
0.0
 71
     1
 72
     5
  1
P.P{\fMS PGothic|b0|i0|c128|p50;樹脂}\P{\fMS PGothic|b0|i0|c128|p50;黄銅}
 73
     1
 44
1.0
1001
ACAD
1000
ACAD_MTEXT_COLUMN_INFO_BEGIN
1070
    75
1070
     2
1070
    79
1070
     0
1070
    76
1070
     1
1070
    78
1070
     0
1070
    48
1040
140.8380455093865
1070
    49
1040
12.5
1070
    50
1070
     1
1040
0.0
1000
ACAD_MTEXT_COLUMN_INFO_END
  0
MTEXT
  5
B85
330
1F
100
AcDbEntity
  8
寸法線
100
AcDbMText
 10
34846.56983595912
 20
29649.37243782744
 30
0.0
 40
12.0
 41
181.3710989523388
 46
0.0
 71
     1
 72
     5
  1
{\fMS PGothic|b0|i0|c128|p50;電源装置用取付金具}
 73
     1
 44
1.0
1001
ACAD
1000
ACAD_MTEXT_COLUMN_INFO_BEGIN
1070
    75
1070
     2
1070
    79
1070
     0
1070
    76
1070
     1
1070
    78
1070
     0
1070
    48
1040
181.3710989523388
1070
    49
1040
12.5
1070
    50
1070
     1
1040
0.0
1000
ACAD_MTEXT_COLUMN_INFO_END
  0
LINE
  5
B87
330
1F
100
AcDbEntity
  8
外形線
100
AcDbLine
 10
33316.24093491148
 20
29774.23237812787
 30
0.0
 11
33316.24093491148
 21
28289.23237812787
 31
0.0
  0
LINE
  5
B88
330
1F
100
AcDbEntity
  8
外形線
100
AcDbLine
 10
33316.24093491148
 20
28289.23237812787
 30
0.0
 11
35416.24093491148
 21
28289.23237812787
 31
0.0
  0
LINE
  5
B89
330
1F
100
AcDbEntity
  8
外形線
100
AcDbLine
 10
35416.24093491148
 20
28289.23237812787
 30
0.0
 11
35416.24093491148
 21
29774.23237812787
 31
0.0
  0
LINE
  5
B8A
330
1F
100
AcDbEntity
  8
外形線
100
AcDbLine
 10
35416.24093491148
 20
29774.23237812787
 30
0.0
 11
33316.24093491148
 21
29774.23237812787
 31
0.0
  0
XLINE
  5
C19
330
1F
100
AcDbEntity
  8
オフセット
100
AcDbXline
 10
33489.19848660889
 20
27902.11527306976
 30
0.0
 11
0.0
 21
-1.0
 31
0.0
  0
XLINE
  5
C1A
330
1F
100
AcDbEntity
  8
オフセット
100
AcDbXline
 10
34731.19848660889
 20
27902.11527306976
 30
0.0
 11
0.0
 21
-1.0
 31
0.0
  0
XLINE
  5
C1B
330
1F
100
AcDbEntity
  8
オフセット
100
AcDbXline
 10
34751.19848660889
 20
27902.11527306976
 30
0.0
 11
0.0
 21
-1.0
 31
0.0
  0
XLINE
  5
C1C
330
1F
100
AcDbEntity
  8
オフセット
100
AcDbXline
 10
33469.19848660889
 20
27902.11527306976
 30
0.0
 11
0.0
 21
-1.0
 31
0.0
  0
XLINE
  5
C1E
330
1F
100
AcDbEntity
  8
オフセット
100
AcDbXline
 10
35007.19848660889
 20
27902.11527306976
 30
0.0
 11
0.0
 21
-1.0
 31
0.0
  0
XLINE
  5
C21
330
1F
100
AcDbEntity
  8
オフセット
100
AcDbXline
 10
34990.19848660889
 20
27902.11527306976
 30
0.0
 11
0.0
 21
-1.0
 31
0.0
  0
XLINE
  5
C2B
330
1F
100
AcDbEntity
  8
オフセット
100
AcDbXline
 10
33429.71752995483
 20
27902.11527306976
 30
0.0
 11
0.0
 21
-1.0
 31
0.0
  0
CIRCLE
  5
C36
330
1F
100
AcDbEntity
  8
○
100
AcDbCircle
 10
33597.73945370472
 20
29151.00110359943
 30
0.0
 40
15.0
  0
MTEXT
  5
C37
330
1F
100
AcDbEntity
  8
寸法線
100
AcDbMText
 10
33591.246625243
 20
29160.74495409043
 30
0.0
 40
20.0
 41
35.534113038535
 46
0.0
 71
     1
 72
     5
  1
1
 73
     1
 44
1.0
1001
ACAD
1000
ACAD_MTEXT_COLUMN_INFO_BEGIN
1070
    75
1070
     2
1070
    79
1070
     0
1070
    76
1070
     1
1070
    78
1070
     0
1070
    48
1040
35.534113038535
1070
    49
1040
12.5
1070
    50
1070
     1
1040
0.0
1000
ACAD_MTEXT_COLUMN_INFO_END
  0
MTEXT
  5
C3E
330
1F
100
AcDbEntity
  8
寸法線
100
AcDbMText
 10
34845.70906877174
 20
29604.15799909807
 30
0.0
 40
12.0
 41
199.244644231323
 46
0.0
 71
     1
 72
     5
  1
{\fMS PGothic|b0|i0|c128|p50;端子台用取付金具}
 73
     1
 44
1.0
1001
ACAD
1000
ACAD_MTEXT_COLUMN_INFO_BEGIN
1070
    75
1070
     2
1070
    79
1070
     0
1070
    76
1070
     1
1070
    78
1070
     0
1070
    48
1040
199.244644231323
1070
    49
1040
12.5
1070
    50
1070
     1
1040
0.0
1000
ACAD_MTEXT_COLUMN_INFO_END
  0
LINE
  5
C45
330
1F
100
AcDbEntity
  8
○
100
AcDbLine
 10
33608.91979359221
 20
29161.00110359943
 30
0.0
 11
33635.38456960272
 21
29204.61644661462
 31
0.0
  0
LINE
  5
C46
330
1F
100
AcDbEntity
  8
○
100
AcDbLine
 10
33604.74736242517
 20
29137.73878044827
 30
0.0
 11
33662.8862876975
 21
28824.8626759946
 31
0.0
  0
TEXT
  5
D49
330
1F
100
AcDbEntity
  8
1
 62
     3
100
AcDbText
 10
33889.69303976168
 20
28708.4526913164
 30
0.0
 40
16.875
  1
１．左記の様にランプをセットしてください
 41
0.6666666666670002
  7
BIGFONT
100
AcDbText
  0
TEXT
  5
D4A
330
1F
100
AcDbEntity
  8
1
 62
     3
100
AcDbText
 10
33911.79142843355
 20
28683.4081559974
 30
0.0
 40
16.875
  1
器具側の電極はスプリングソケット側になっています。
 41
0.6666666666670002
  7
BIGFONT
100
AcDbText
  0
TEXT
  5
D4B
330
1F
100
AcDbEntity
  8
1
 62
     3
100
AcDbText
 10
33912.52751241792
 20
28659.83637865364
 30
0.0
 40
16.875
  1
ランプの電極はマーク（シール）側になっています。
 41
0.6666666666670002
  7
BIGFONT
100
AcDbText
  0
TEXT
  5
D4C
330
1F
100
AcDbEntity
  8
1
 62
     3
100
AcDbText
 10
33912.52751241792
 20
28637.00190599739
 30
0.0
 40
16.875
  1
セット方向はランプはマーク（シール）が正面方向を
 41
0.6666666666670002
  7
BIGFONT
100
AcDbText
  0
TEXT
  5
D4D
330
1F
100
AcDbEntity
  8
1
 62
     3
100
AcDbText
 10
33892.38509705334
 20
28577.51578132291
 30
0.0
 40
16.875
  1
２．精密部品を使用しておりますので衝撃等を与えますと
 41
0.6666666666670002
  7
BIGFONT
100
AcDbText
  0
TEXT
  5
D4E
330
1F
100
AcDbEntity
  8
1
 62
     3
100
AcDbText
 10
33915.95687439709
 20
28553.20726895312
 30
0.0
 40
16.875
  1
誤動作もしくは不点の恐れがあります。
 41
0.6666666666670002
  7
BIGFONT
100
AcDbText
  0
TEXT
  5
D4F
330
1F
100
AcDbEntity
  8
1
 62
     3
100
AcDbText
 10
33891.64901306897
 20
28520.06029629687
 30
0.0
 40
16.875
  1
３．この製品は定電流式２４Ｖ仕様です。
 41
0.6666666666670002
  7
BIGFONT
100
AcDbText
  0
TEXT
  5
D50
330
1F
100
AcDbEntity
  8
1
 62
     3
100
AcDbText
 10
33913.01009705334
 20
28495.01575080533
 30
0.0
 40
16.875
  1
必ず専用のランプと安定器のセットでご使用下さい。
 41
0.6666666666670002
  7
BIGFONT
100
AcDbText
  0
TEXT
  5
D51
330
1F
100
AcDbEntity
  8
1
 62
     3
100
AcDbText
 10
33913.55469340751
 20
28613.96569180468
 30
0.0
 40
16.875
  1
向く様にして下さい。
 41
0.6666666666670002
  7
BIGFONT
100
AcDbText
  0
TEXT
  5
D52
330
1F
100
AcDbEntity
  8
1
 62
     3
100
AcDbText
 10
33549.91667257417
 20
28701.39177823046
 30
0.0
 40
15.0
  1
取扱い説明及び注意事項
 41
0.6666666666670002
  7
BIGFONT
100
AcDbText
  0
LINE
  5
D53
330
1F
100
AcDbEntity
  8
1
  6
Continuous
 62
     3
100
AcDbLine
 10
33708.74409083302
 20
28648.11793598234
 30
0.0
 11
33708.74409083302
 21
28629.36793598234
 31
0.0
  0
LINE
  5
D54
330
1F
100
AcDbEntity
  8
1
  6
Continuous
 62
     3
100
AcDbLine
 10
33708.74409083302
 20
28629.36793598234
 30
0.0
 11
33525.08337654731
 21
28629.36793598234
 31
0.0
  0
LINE
  5
D55
330
1F
100
AcDbEntity
  8
1
  6
Continuous
 62
     3
100
AcDbLine
 10
33525.08337654731
 20
28629.36793598234
 30
0.0
 11
33521.24409083303
 21
28629.36793598234
 31
0.0
  0
LINE
  5
D56
330
1F
100
AcDbEntity
  8
1
  6
Continuous
 62
     3
100
AcDbLine
 10
33521.24409083303
 20
28629.36793598234
 30
0.0
 11
33521.24409083303
 21
28648.11793598234
 31
0.0
  0
LINE
  5
D57
330
1F
100
AcDbEntity
  8
1
  6
Continuous
 62
     3
100
AcDbLine
 10
33521.24409083303
 20
28648.11793598234
 30
0.0
 11
33708.74409083302
 21
28648.11793598234
 31
0.0
  0
LINE
  5
D58
330
1F
100
AcDbEntity
  8
1
  6
Continuous
 62
     3
100
AcDbLine
 10
33708.74409083302
 20
28648.11793598234
 30
0.0
 11
33714.36909083302
 21
28648.11793598234
 31
0.0
  0
LINE
  5
D59
330
1F
100
AcDbEntity
  8
1
  6
Continuous
 62
     3
100
AcDbLine
 10
33714.36909083302
 20
28648.11793598234
 30
0.0
 11
33714.36909083302
 21
28629.36793598234
 31
0.0
  0
LINE
  5
D5A
330
1F
100
AcDbEntity
  8
1
  6
Continuous
 62
     3
100
AcDbLine
 10
33714.36909083302
 20
28629.36793598234
 30
0.0
 11
33708.74409083302
 21
28629.36793598234
 31
0.0
  0
LINE
  5
D5B
330
1F
100
AcDbEntity
  8
1
  6
Continuous
 62
     3
100
AcDbLine
 10
33521.24409083303
 20
28648.11793598234
 30
0.0
 11
33515.61909083303
 21
28648.11793598234
 31
0.0
  0
LINE
  5
D5C
330
1F
100
AcDbEntity
  8
1
  6
Continuous
 62
     3
100
AcDbLine
 10
33515.61909083303
 20
28648.11793598234
 30
0.0
 11
33515.61909083303
 21
28629.36793598234
 31
0.0
  0
LINE
  5
D5D
330
1F
100
AcDbEntity
  8
1
  6
Continuous
 62
     3
100
AcDbLine
 10
33515.61909083303
 20
28629.36793598234
 30
0.0
 11
33521.24409083303
 21
28629.36793598234
 31
0.0
  0
LINE
  5
D5E
330
1F
100
AcDbEntity
  8
1
  6
Continuous
 62
     3
100
AcDbLine
 10
33515.61909083303
 20
28642.49293598234
 30
0.0
 11
33509.99409083303
 21
28642.49293598234
 31
0.0
  0
LINE
  5
D5F
330
1F
100
AcDbEntity
  8
1
  6
Continuous
 62
     3
100
AcDbLine
 10
33515.61909083303
 20
28634.99293598234
 30
0.0
 11
33509.99409083303
 21
28634.99293598234
 31
0.0
  0
LINE
  5
D60
330
1F
100
AcDbEntity
  8
1
  6
Continuous
 62
     3
100
AcDbLine
 10
33714.36909083302
 20
28642.49293598234
 30
0.0
 11
33719.99409083302
 21
28642.49293598234
 31
0.0
  0
LINE
  5
D61
330
1F
100
AcDbEntity
  8
1
  6
Continuous
 62
     3
100
AcDbLine
 10
33714.36909083302
 20
28634.99293598234
 30
0.0
 11
33719.99409083302
 21
28634.99293598234
 31
0.0
  0
LINE
  5
D62
330
1F
100
AcDbEntity
  8
1
  6
Continuous
 62
     3
100
AcDbLine
 10
33747.71730511874
 20
28642.49293598234
 30
0.0
 11
33794.59230511874
 21
28642.49293598234
 31
0.0
  0
LINE
  5
D63
330
1F
100
AcDbEntity
  8
1
  6
Continuous
 62
     3
100
AcDbLine
 10
33794.59230511874
 20
28642.49293598234
 30
0.0
 11
33794.59230511874
 21
28574.01079312519
 31
0.0
  0
LINE
  5
D64
330
1F
100
AcDbEntity
  8
1
  6
Continuous
 62
     3
100
AcDbLine
 10
33794.59230511874
 20
28574.01079312519
 30
0.0
 11
33659.14587654731
 21
28574.01079312519
 31
0.0
  0
LINE
  5
D65
330
1F
100
AcDbEntity
  8
1
  6
Continuous
 62
     3
100
AcDbLine
 10
33747.71730511874
 20
28634.99293598234
 30
0.0
 11
33775.84230511874
 21
28634.99293598234
 31
0.0
  0
LINE
  5
D66
330
1F
100
AcDbEntity
  8
1
  6
Continuous
 62
     3
100
AcDbLine
 10
33775.84230511874
 20
28634.99293598234
 30
0.0
 11
33775.84230511874
 21
28581.51079312519
 31
0.0
  0
LINE
  5
D67
330
1F
100
AcDbEntity
  8
1
  6
Continuous
 62
     3
100
AcDbLine
 10
33775.84230511874
 20
28581.51079312519
 30
0.0
 11
33659.14587654731
 21
28581.51079312519
 31
0.0
  0
LINE
  5
D68
330
1F
100
AcDbEntity
  8
1
  6
Continuous
 62
     3
100
AcDbLine
 10
33659.14587654731
 20
28587.13579312519
 30
0.0
 11
33659.14587654731
 21
28568.38579312519
 31
0.0
  0
LINE
  5
D69
330
1F
100
AcDbEntity
  8
1
  6
Continuous
 62
     3
100
AcDbLine
 10
33659.14587654731
 20
28568.38579312519
 30
0.0
 11
33584.14587654731
 21
28568.38579312519
 31
0.0
  0
LINE
  5
D6A
330
1F
100
AcDbEntity
  8
1
  6
Continuous
 62
     3
100
AcDbLine
 10
33584.14587654731
 20
28568.38579312519
 30
0.0
 11
33584.14587654731
 21
28587.13579312519
 31
0.0
  0
LINE
  5
D6B
330
1F
100
AcDbEntity
  8
1
  6
Continuous
 62
     3
100
AcDbLine
 10
33584.14587654731
 20
28587.13579312519
 30
0.0
 11
33659.14587654731
 21
28587.13579312519
 31
0.0
  0
LINE
  5
D6C
330
1F
100
AcDbEntity
  8
1
  6
Continuous
 62
     3
100
AcDbLine
 10
33587.61313845207
 20
28568.38579312519
 30
0.0
 11
33587.61313845207
 21
28549.63579312519
 31
0.0
  0
LINE
  5
D6D
330
1F
100
AcDbEntity
  8
1
  6
Continuous
 62
     3
100
AcDbLine
 10
33587.61313845207
 20
28549.63579312519
 30
0.0
 11
33528.05956702351
 21
28549.63579312519
 31
0.0
  0
TEXT
  5
D6E
330
1F
100
AcDbEntity
  8
1
 62
     3
100
AcDbText
 10
33677.75956808199
 20
28584.45173509895
 30
0.0
 40
9.333333333333332
  1
赤
 41
0.6666666666670002
  7
BIGFONT
100
AcDbText
  0
TEXT
  5
D6F
330
1F
100
AcDbEntity
  8
1
 62
     3
100
AcDbText
 10
33680.22870463798
 20
28557.29122281054
 30
0.0
 40
9.333333333333332
  1
白
 41
0.6666666666670002
  7
BIGFONT
100
AcDbText
  0
TEXT
  5
D70
330
1F
100
AcDbEntity
  8
1
 62
     3
100
AcDbText
 10
33750.59908631115
 20
28619.01960619271
 30
0.0
 40
9.333333333333332
  1
赤
 41
0.6666666666670002
  7
BIGFONT
100
AcDbText
  0
TEXT
  5
D71
330
1F
100
AcDbEntity
  8
1
 62
     3
100
AcDbText
 10
33750.59908631115
 20
28647.41466641406
 30
0.0
 40
9.333333333333332
  1
白
 41
0.6666666666670002
  7
BIGFONT
100
AcDbText
  0
LINE
  5
D72
330
1F
100
AcDbEntity
  8
1
  6
Continuous
 62
     3
100
AcDbLine
 10
33703.11909083302
 20
28642.49293598234
 30
0.0
 11
33703.11909083302
 21
28634.99293598234
 31
0.0
  0
LINE
  5
D73
330
1F
100
AcDbEntity
  8
1
  6
Continuous
 62
     3
100
AcDbLine
 10
33703.11909083302
 20
28634.99293598234
 30
0.0
 11
33684.36909083302
 21
28634.99293598234
 31
0.0
  0
LINE
  5
D74
330
1F
100
AcDbEntity
  8
1
  6
Continuous
 62
     3
100
AcDbLine
 10
33684.36909083302
 20
28634.99293598234
 30
0.0
 11
33684.36909083302
 21
28642.49293598234
 31
0.0
  0
LINE
  5
D75
330
1F
100
AcDbEntity
  8
1
  6
Continuous
 62
     3
100
AcDbLine
 10
33684.36909083302
 20
28642.49293598234
 30
0.0
 11
33703.11909083302
 21
28642.49293598234
 31
0.0
  0
TEXT
  5
D76
330
1F
100
AcDbEntity
  8
1
 62
     3
100
AcDbText
 10
33687.13690776298
 20
28635.2607764401
 30
0.0
 40
6.383917490641332
  1
マーク
 41
0.692308381786
  7
BIGFONT
100
AcDbText
  0
TEXT
  5
D77
330
1F
100
AcDbEntity
  8
1
 62
     3
100
AcDbText
 10
33543.44629497001
 20
28584.18940599739
 30
0.0
 40
9.333333333333332
  1
白
 41
0.6666666666670002
  7
BIGFONT
100
AcDbText
  0
TEXT
  5
D78
330
1F
100
AcDbEntity
  8
1
 62
     3
100
AcDbText
 10
33543.44629497001
 20
28561.27270881314
 30
0.0
 40
9.333333333333332
  1
黒
 41
0.6666666666670002
  7
BIGFONT
100
AcDbText
  0
TEXT
  5
D79
330
1F
100
AcDbEntity
  8
1
 62
     3
100
AcDbText
 10
33563.01335139494
 20
28550.84702246479
 30
0.0
 40
9.333333333333332
  1
アース
 41
0.6666666666670002
  7
BIGFONT
100
AcDbText
  0
TEXT
  5
D7A
330
1F
100
AcDbEntity
  8
1
 62
     3
100
AcDbText
 10
33568.98224467704
 20
28536.39173754036
 30
0.0
 40
9.333333333333332
  1
緑
 41
0.6666666666670002
  7
BIGFONT
100
AcDbText
  0
LINE
  5
D7B
330
1F
100
AcDbEntity
  8
1
  6
Continuous
 62
     3
100
AcDbLine
 10
33747.71730511874
 20
28648.11793598234
 30
0.0
 11
33747.71730511874
 21
28629.36793598234
 31
0.0
  0
LINE
  5
D7C
330
1F
100
AcDbEntity
  8
1
  6
Continuous
 62
     3
100
AcDbLine
 10
33747.71730511874
 20
28629.36793598234
 30
0.0
 11
33726.46730511874
 21
28629.36793598234
 31
0.0
  0
LINE
  5
D7D
330
1F
100
AcDbEntity
  8
1
  6
Continuous
 62
     3
100
AcDbLine
 10
33726.46730511874
 20
28629.36793598234
 30
0.0
 11
33726.46730511874
 21
28648.11793598234
 31
0.0
  0
LINE
  5
D7E
330
1F
100
AcDbEntity
  8
1
  6
Continuous
 62
     3
100
AcDbLine
 10
33726.46730511874
 20
28648.11793598234
 30
0.0
 11
33747.71730511874
 21
28648.11793598234
 31
0.0
  0
LINE
  5
D7F
330
1F
100
AcDbEntity
  8
1
  6
Continuous
 62
     3
100
AcDbLine
 10
33482.49776936666
 20
28629.36793598234
 30
0.0
 11
33482.49776936666
 21
28648.11793598234
 31
0.0
  0
TEXT
  5
D80
330
1F
100
AcDbEntity
  8
1
 62
     3
100
AcDbText
 10
33635.17283712496
 20
28657.52273933072
 30
0.0
 40
11.25
  1
防沫ソケット配線接続側
 41
0.6666666666670002
  7
BIGFONT
100
AcDbText
  0
LINE
  5
D81
330
1F
100
AcDbEntity
  8
1
  6
Continuous
 62
     3
100
AcDbLine
 10
33740.1726622616
 20
28648.11793598234
 30
0.0
 11
33735.76561097955
 21
28655.55841217281
 31
0.0
  0
LINE
  5
D82
330
1F
100
AcDbEntity
  8
1
  6
Continuous
 62
     3
100
AcDbLine
 10
33482.49776936666
 20
28642.49293598234
 30
0.0
 11
33468.70312650951
 21
28642.49293598234
 31
0.0
  0
LINE
  5
D83
330
1F
100
AcDbEntity
  8
1
  6
Continuous
 62
     3
100
AcDbLine
 10
33482.49776936666
 20
28634.99293598234
 30
0.0
 11
33468.70312650951
 21
28634.99293598234
 31
0.0
  0
LINE
  5
D84
330
1F
100
AcDbEntity
  8
1
  6
Continuous
 62
     3
100
AcDbLine
 10
33473.12276936666
 20
28646.55543598234
 30
0.0
 11
33465.75669793809
 21
28639.68043598234
 31
0.0
  0
LINE
  5
D85
330
1F
100
AcDbEntity
  8
1
  6
Continuous
 62
     3
100
AcDbLine
 10
33466.24776936666
 20
28647.04650741091
 30
0.0
 11
33473.12276936666
 21
28639.18936455377
 31
0.0
  0
LINE
  5
D86
330
1F
100
AcDbEntity
  8
1
  6
Continuous
 62
     3
100
AcDbLine
 10
33472.63169793809
 20
28638.20722169663
 30
0.0
 11
33465.75669793809
 21
28630.35007883948
 31
0.0
  0
LINE
  5
D87
330
1F
100
AcDbEntity
  8
1
  6
Continuous
 62
     3
100
AcDbLine
 10
33466.73884079523
 20
28637.71615026805
 30
0.0
 11
33471.15848365237
 21
28631.33222169663
 31
0.0
  0
TEXT
  5
D88
330
1F
100
AcDbEntity
  8
1
 62
     3
100
AcDbText
 10
33760.47563253511
 20
28617.78502774218
 30
0.0
 40
9.333333333333332
  1
＋
 41
0.6666666666670002
  7
BIGFONT
100
AcDbText
  0
TEXT
  5
D89
330
1F
100
AcDbEntity
  8
1
 62
     3
100
AcDbText
 10
33759.24105408459
 20
28647.41466641406
 30
0.0
 40
9.333333333333332
  1
－
 41
0.6666666666670002
  7
BIGFONT
100
AcDbText
  0
TEXT
  5
D8A
330
1F
100
AcDbEntity
  8
1
 62
     3
100
AcDbText
 10
33688.87065206636
 20
28556.05664436002
 30
0.0
 40
9.333333333333332
  1
－
 41
0.6666666666670002
  7
BIGFONT
100
AcDbText
  0
TEXT
  5
D8B
330
1F
100
AcDbEntity
  8
1
 62
     3
100
AcDbText
 10
33687.63611430595
 20
28584.45173509895
 30
0.0
 40
9.333333333333332
  1
＋
 41
0.6666666666670002
  7
BIGFONT
100
AcDbText
  0
TEXT
  5
D8C
330
1F
100
AcDbEntity
  8
1
 62
     3
100
AcDbText
 10
33575.23224467704
 20
28631.33214688281
 30
0.0
 40
15.0
  1
ＬＥＤ　ランプ
 41
0.6666666666670002
  7
BIGFONT
100
AcDbText
  0
TEXT
  5
D8D
330
1F
100
AcDbEntity
  8
1
 62
     3
100
AcDbText
 10
33594.38320458762
 20
28571.68491100751
 30
0.0
 40
12.0
  1
ＬＥＤ用電源
 41
0.6666666666670002
  7
BIGFONT
100
AcDbText
  0
LINE
  5
D8E
330
1F
100
AcDbEntity
  8
1
  6
Continuous
 62
     3
100
AcDbLine
 10
33584.14587654731
 20
28581.51079312519
 30
0.0
 11
33541.12504321398
 21
28581.57031693472
 31
0.0
  0
LINE
  5
D8F
330
1F
100
AcDbEntity
  8
1
  6
Continuous
 62
     3
100
AcDbLine
 10
33584.14587654731
 20
28574.01079312519
 30
0.0
 11
33542.4345670235
 21
28574.01079312519
 31
0.0
  0
TEXT
  5
D90
330
1F
100
AcDbEntity
  8
1
 62
     3
100
AcDbText
 10
33513.92288798759
 20
28569.78470222135
 30
0.0
 40
15.0
  1
電源
 41
0.6666666666670002
  7
BIGFONT
100
AcDbText
  0
LINE
  5
D91
330
1F
100
AcDbEntity
  8
1
  6
Continuous
 62
     3
100
AcDbLine
 10
33745.62747889919
 20
28645.17490768737
 30
0.0
 11
33738.96081223252
 21
28645.17490768737
 31
0.0
  0
LINE
  5
D92
330
1F
100
AcDbEntity
  8
1
  6
Continuous
 62
     3
100
AcDbLine
 10
33738.96081223252
 20
28645.17490768737
 30
0.0
 11
33738.96081223252
 21
28632.19396558021
 31
0.0
  0
LINE
  5
D93
330
1F
100
AcDbEntity
  8
1
  6
Continuous
 62
     3
100
AcDbLine
 10
33738.96081223252
 20
28632.19396558021
 30
0.0
 11
33745.62747889919
 21
28632.19396558021
 31
0.0
  0
LINE
  5
D94
330
1F
100
AcDbEntity
  8
1
  6
Continuous
 62
     3
100
AcDbLine
 10
33745.62747889919
 20
28645.17490768737
 30
0.0
 11
33745.62747889919
 21
28632.19396558021
 31
0.0
  0
LINE
  5
D95
330
1F
100
AcDbEntity
  8
1
  6
Continuous
 62
     3
100
AcDbLine
 10
33482.49776936666
 20
28629.36793598234
 30
0.0
 11
33482.49776936666
 21
28648.11793598234
 31
0.0
  0
LINE
  5
D96
330
1F
100
AcDbEntity
  8
1
  6
Continuous
 62
     3
100
AcDbLine
 10
33482.49776936666
 20
28648.11793598234
 30
0.0
 11
33503.74776936666
 21
28648.11793598234
 31
0.0
  0
LINE
  5
D97
330
1F
100
AcDbEntity
  8
1
  6
Continuous
 62
     3
100
AcDbLine
 10
33503.74776936666
 20
28648.11793598234
 30
0.0
 11
33503.74776936666
 21
28629.36793598234
 31
0.0
  0
LINE
  5
D98
330
1F
100
AcDbEntity
  8
1
  6
Continuous
 62
     3
100
AcDbLine
 10
33503.74776936666
 20
28629.36793598234
 30
0.0
 11
33482.49776936666
 21
28629.36793598234
 31
0.0
  0
LINE
  5
D99
330
1F
100
AcDbEntity
  8
1
  6
Continuous
 62
     3
100
AcDbLine
 10
33484.58759558621
 20
28632.31096427731
 30
0.0
 11
33491.25426225287
 21
28632.31096427731
 31
0.0
  0
LINE
  5
D9A
330
1F
100
AcDbEntity
  8
1
  6
Continuous
 62
     3
100
AcDbLine
 10
33491.25426225287
 20
28632.31096427731
 30
0.0
 11
33491.25426225287
 21
28645.29190638447
 31
0.0
  0
LINE
  5
D9B
330
1F
100
AcDbEntity
  8
1
  6
Continuous
 62
     3
100
AcDbLine
 10
33491.25426225287
 20
28645.29190638447
 30
0.0
 11
33484.58759558621
 21
28645.29190638447
 31
0.0
  0
LINE
  5
D9C
330
1F
100
AcDbEntity
  8
1
  6
Continuous
 62
     3
100
AcDbLine
 10
33484.58759558621
 20
28632.31096427731
 30
0.0
 11
33484.58759558621
 21
28645.29190638447
 31
0.0
  0
MTEXT
  5
DDC
330
1F
100
AcDbEntity
  8
寸法線
100
AcDbMText
 10
34238.20906877174
 20
29604.15799909807
 30
0.0
 40
12.0
 41
190.7763382050179
 46
0.0
 71
     1
 72
     5
  1
{\fMS PGothic|b0|i0|c128|p50;ランプソケット取付金具}
 73
     1
 44
1.0
1001
ACAD
1000
ACAD_MTEXT_COLUMN_INFO_BEGIN
1070
    75
1070
     2
1070
    79
1070
     0
1070
    76
1070
     1
1070
    78
1070
     0
1070
    48
1040
190.7763382050179
1070
    49
1040
12.5
1070
    50
1070
     1
1040
0.0
1000
ACAD_MTEXT_COLUMN_INFO_END
  0
MTEXT
  5
DDD
330
1F
100
AcDbEntity
  8
寸法線
100
AcDbMText
 10
34464.31238690586
 20
29609.81214108685
 30
0.0
 40
10.0
 41
163.0743348696414
 46
0.0
 71
     1
 72
     5
  1
{\fMS PGothic|b0|i0|c128|p50;鋼鈑　}1{\fMS PGothic|b0|i0|c128|p50;ｔ}\P{\fMS PGothic|b0|i0|c128|p50;（亜鉛メッキ板）}
 73
     1
 44
1.0
1001
ACAD
1000
ACAD_MTEXT_COLUMN_INFO_BEGIN
1070
    75
1070
     2
1070
    79
1070
     0
1070
    76
1070
     1
1070
    78
1070
     0
1070
    48
1040
163.0743348696414
1070
    49
1040
12.5
1070
    50
1070
     1
1040
0.0
1000
ACAD_MTEXT_COLUMN_INFO_END
  0
CIRCLE
  5
DDF
330
1F
100
AcDbEntity
  8
○
100
AcDbCircle
 10
34604.5940771156
 20
29151.00110359943
 30
0.0
 40
15.0
  0
MTEXT
  5
DE0
330
1F
100
AcDbEntity
  8
寸法線
100
AcDbMText
 10
34598.10124865388
 20
29160.74495409043
 30
0.0
 40
20.0
 41
35.534113038535
 46
0.0
 71
     1
 72
     5
  1
2
 73
     1
 44
1.0
1001
ACAD
1000
ACAD_MTEXT_COLUMN_INFO_BEGIN
1070
    75
1070
     2
1070
    79
1070
     0
1070
    76
1070
     1
1070
    78
1070
     0
1070
    48
1040
35.534113038535
1070
    49
1040
12.5
1070
    50
1070
     1
1040
0.0
1000
ACAD_MTEXT_COLUMN_INFO_END
  0
LINE
  5
DE1
330
1F
100
AcDbEntity
  8
○
100
AcDbLine
 10
34594.36207878621
 20
29161.96952236365
 30
0.0
 11
34523.48520738138
 21
29214.63955901471
 31
0.0
  0
LINE
  5
DE2
330
1F
100
AcDbEntity
  8
○
100
AcDbLine
 10
34601.50908188509
 20
29136.32177103872
 30
0.0
 11
34521.03764395226
 21
28890.42484632611
 31
0.0
  0
XLINE
  5
13E2
330
1F
100
AcDbEntity
  8
オフセット
100
AcDbXline
 10
32915.44093491146
 20
27320.5371417979
 30
0.0
 11
-1.0
 21
0.0
 31
0.0
  0
XLINE
  5
149C
330
1F
100
AcDbEntity
  8
オフセット
100
AcDbXline
 10
32915.44093491146
 20
26734.21198645361
 30
0.0
 11
-1.0
 21
0.0
 31
0.0
  0
XLINE
  5
149D
330
1F
100
AcDbEntity
  8
オフセット
100
AcDbXline
 10
32915.44093491146
 20
26733.41198645361
 30
0.0
 11
-1.0
 21
0.0
 31
0.0
  0
XLINE
  5
150E
330
1F
100
AcDbEntity
  8
オフセット
100
AcDbXline
 10
35001.99848660889
 20
27902.11527306976
 30
0.0
 11
0.0
 21
-1.0
 31
0.0
  0
XLINE
  5
150F
330
1F
100
AcDbEntity
  8
オフセット
100
AcDbXline
 10
35014.99848660889
 20
27902.11527306976
 30
0.0
 11
0.0
 21
-1.0
 31
0.0
  0
MTEXT
  5
1588
330
1F
100
AcDbEntity
  8
寸法線
100
AcDbMText
 10
34846.56983595912
 20
29559.37243782744
 30
0.0
 40
12.0
 41
181.3710989523388
 46
0.0
 71
     1
 72
     5
  1
{\fMS PGothic|b0|i0|c128|p50;専用電源装置}
 73
     1
 44
1.0
1001
ACAD
1000
ACAD_MTEXT_COLUMN_INFO_BEGIN
1070
    75
1070
     2
1070
    79
1070
     0
1070
    76
1070
     1
1070
    78
1070
     0
1070
    48
1040
181.3710989523388
1070
    49
1040
12.5
1070
    50
1070
     1
1040
0.0
1000
ACAD_MTEXT_COLUMN_INFO_END
  0
MTEXT
  5
1589
330
1F
100
AcDbEntity
  8
寸法線
100
AcDbMText
 10
35215.80145399616
 20
29559.42136557689
 30
0.0
 40
8.0
 41
162.8281777420561
 46
0.0
 71
     1
 72
     5
  1
{\fMS PGothic|b0|i0|c128|p50;レシップ製定電流電源装置}\PK68-026C110-206
 73
     1
 44
1.0
1001
ACAD
1000
ACAD_MTEXT_COLUMN_INFO_BEGIN
1070
    75
1070
     2
1070
    79
1070
     0
1070
    76
1070
     1
1070
    78
1070
     0
1070
    48
1040
162.8281777420561
1070
    49
1040
12.5
1070
    50
1070
     1
1040
0.0
1000
ACAD_MTEXT_COLUMN_INFO_END
  0
MTEXT
  5
158A
330
1F
100
AcDbEntity
  8
寸法線
100
AcDbMText
 10
34845.70906877174
 20
29514.15799909807
 30
0.0
 40
12.0
 41
199.244644231323
 46
0.0
 71
     1
 72
     5
  1
{\fMS PGothic|b0|i0|c128|p50;電源用　アース付端子台}
 73
     1
 44
1.0
1001
ACAD
1000
ACAD_MTEXT_COLUMN_INFO_BEGIN
1070
    75
1070
     2
1070
    79
1070
     0
1070
    76
1070
     1
1070
    78
1070
     0
1070
    48
1040
199.244644231323
1070
    49
1040
12.5
1070
    50
1070
     1
1040
0.0
1000
ACAD_MTEXT_COLUMN_INFO_END
  0
XLINE
  5
1846
330
1F
100
AcDbEntity
  8
オフセット
100
AcDbXline
 10
32915.44093491146
 20
27245.39042780018
 30
0.0
 11
-1.0
 21
0.0
 31
0.0
  0
XLINE
  5
1847
330
1F
100
AcDbEntity
  8
オフセット
100
AcDbXline
 10
32915.44093491146
 20
29249.34278411469
 30
0.0
 11
-1.0
 21
0.0
 31
0.0
  0
XLINE
  5
1848
330
1F
100
AcDbEntity
  8
オフセット
100
AcDbXline
 10
32915.44093491146
 20
29189.34278411469
 30
0.0
 11
-1.0
 21
0.0
 31
0.0
  0
CIRCLE
  5
1849
330
1F
100
AcDbEntity
  8
○
100
AcDbCircle
 10
33479.48520738138
 20
29151.00110359943
 30
0.0
 40
15.0
  0
MTEXT
  5
184A
330
1F
100
AcDbEntity
  8
寸法線
100
AcDbMText
 10
33472.99237891966
 20
29160.74495409043
 30
0.0
 40
20.0
 41
35.534113038535
 46
0.0
 71
     1
 72
     5
  1
3
 73
     1
 44
1.0
1001
ACAD
1000
ACAD_MTEXT_COLUMN_INFO_BEGIN
1070
    75
1070
     2
1070
    79
1070
     0
1070
    76
1070
     1
1070
    78
1070
     0
1070
    48
1040
35.534113038535
1070
    49
1040
12.5
1070
    50
1070
     1
1040
0.0
1000
ACAD_MTEXT_COLUMN_INFO_END
  0
LINE
  5
184B
330
1F
100
AcDbEntity
  8
○
100
AcDbLine
 10
33490.66554726888
 20
29161.00110359943
 30
0.0
 11
33528.48520738138
 21
29212.63955901471
 31
0.0
  0
LINE
  5
184C
330
1F
100
AcDbEntity
  8
○
100
AcDbLine
 10
33486.91207632879
 20
29137.96877389066
 30
0.0
 11
33528.48520738138
 21
28820.24171719712
 31
0.0
  0
CIRCLE
  5
184D
330
1F
100
AcDbEntity
  8
○
100
AcDbCircle
 10
33420.00425072732
 20
29151.00110359943
 30
0.0
 40
15.0
  0
MTEXT
  5
184E
330
1F
100
AcDbEntity
  8
寸法線
100
AcDbMText
 10
33413.5114222656
 20
29160.74495409043
 30
0.0
 40
20.0
 41
35.534113038535
 46
0.0
 71
     1
 72
     5
  1
4
 73
     1
 44
1.0
1001
ACAD
1000
ACAD_MTEXT_COLUMN_INFO_BEGIN
1070
    75
1070
     2
1070
    79
1070
     0
1070
    76
1070
     1
1070
    78
1070
     0
1070
    48
1040
35.534113038535
1070
    49
1040
12.5
1070
    50
1070
     1
1040
0.0
1000
ACAD_MTEXT_COLUMN_INFO_END
  0
LINE
  5
184F
330
1F
100
AcDbEntity
  8
○
100
AcDbLine
 10
33431.18459061482
 20
29161.00110359943
 30
0.0
 11
33486.23545075389
 21
29201.17309067801
 31
0.0
  0
LINE
  5
1850
330
1F
100
AcDbEntity
  8
○
100
AcDbLine
 10
33423.76955189778
 20
29136.48137539619
 30
0.0
 11
33487.89258487256
 21
28905.65863264875
 31
0.0
  0
CIRCLE
  5
1851
330
1F
100
AcDbEntity
  8
○
100
AcDbCircle
 10
34538.50819116058
 20
29151.00110359943
 30
0.0
 40
15.0
  0
MTEXT
  5
1852
330
1F
100
AcDbEntity
  8
寸法線
100
AcDbMText
 10
34532.01536269886
 20
29160.74495409043
 30
0.0
 40
20.0
 41
35.534113038535
 46
0.0
 71
     1
 72
     5
  1
5
 73
     1
 44
1.0
1001
ACAD
1000
ACAD_MTEXT_COLUMN_INFO_BEGIN
1070
    75
1070
     2
1070
    79
1070
     0
1070
    76
1070
     1
1070
    78
1070
     0
1070
    48
1040
35.534113038535
1070
    49
1040
12.5
1070
    50
1070
     1
1040
0.0
1000
ACAD_MTEXT_COLUMN_INFO_END
  0
LINE
  5
1853
330
1F
100
AcDbEntity
  8
○
100
AcDbLine
 10
34530.61365791974
 20
29163.75556732431
 30
0.0
 11
34511.14255694149
 21
29207.54764728667
 31
0.0
  0
LINE
  5
1854
330
1F
100
AcDbEntity
  8
○
100
AcDbLine
 10
34537.03972538823
 20
29136.073156377
 30
0.0
 11
34502.25407129404
 21
28906.64528314951
 31
0.0
  0
CIRCLE
  5
1855
330
1F
100
AcDbEntity
  8
○
100
AcDbCircle
 10
33807.43111265244
 20
29151.00110359943
 30
0.0
 40
15.0
  0
MTEXT
  5
1856
330
1F
100
AcDbEntity
  8
寸法線
100
AcDbMText
 10
33800.93828419072
 20
29160.74495409043
 30
0.0
 40
20.0
 41
35.534113038535
 46
0.0
 71
     1
 72
     5
  1
6
 73
     1
 44
1.0
1001
ACAD
1000
ACAD_MTEXT_COLUMN_INFO_BEGIN
1070
    75
1070
     2
1070
    79
1070
     0
1070
    76
1070
     1
1070
    78
1070
     0
1070
    48
1040
35.534113038535
1070
    49
1040
12.5
1070
    50
1070
     1
1040
0.0
1000
ACAD_MTEXT_COLUMN_INFO_END
  0
LINE
  5
1857
330
1F
100
AcDbEntity
  8
○
100
AcDbLine
 10
33818.61145253994
 20
29161.00110359943
 30
0.0
 11
33865.05623782078
 21
29201.19620020203
 31
0.0
  0
LINE
  5
1858
330
1F
100
AcDbEntity
  8
○
100
AcDbLine
 10
33814.43444131871
 20
29137.73636132555
 30
0.0
 11
33874.12616310534
 21
28830.28589767592
 31
0.0
  0
CIRCLE
  5
1859
330
1F
100
AcDbEntity
  8
○
100
AcDbCircle
 10
33736.52792344729
 20
29151.00110359943
 30
0.0
 40
15.0
  0
MTEXT
  5
185A
330
1F
100
AcDbEntity
  8
寸法線
100
AcDbMText
 10
33730.03509498557
 20
29160.74495409043
 30
0.0
 40
20.0
 41
35.534113038535
 46
0.0
 71
     1
 72
     5
  1
7
 73
     1
 44
1.0
1001
ACAD
1000
ACAD_MTEXT_COLUMN_INFO_BEGIN
1070
    75
1070
     2
1070
    79
1070
     0
1070
    76
1070
     1
1070
    78
1070
     0
1070
    48
1040
35.534113038535
1070
    49
1040
12.5
1070
    50
1070
     1
1040
0.0
1000
ACAD_MTEXT_COLUMN_INFO_END
  0
LINE
  5
185B
330
1F
100
AcDbEntity
  8
○
100
AcDbLine
 10
33747.70826333479
 20
29161.00110359943
 30
0.0
 11
33782.96216663414
 21
29206.92548812403
 31
0.0
  0
LINE
  5
185C
330
1F
100
AcDbEntity
  8
○
100
AcDbLine
 10
33742.19737632015
 20
29137.11379629662
 30
0.0
 11
33786.56019230445
 21
28828.86409239924
 31
0.0
  0
CIRCLE
  5
185D
330
1F
100
AcDbEntity
  8
○
100
AcDbCircle
 10
33863.25094745166
 20
29151.00110359943
 30
0.0
 40
15.0
  0
MTEXT
  5
185E
330
1F
100
AcDbEntity
  8
寸法線
100
AcDbMText
 10
33856.75811898994
 20
29160.74495409043
 30
0.0
 40
20.0
 41
35.534113038535
 46
0.0
 71
     1
 72
     5
  1
8
 73
     1
 44
1.0
1001
ACAD
1000
ACAD_MTEXT_COLUMN_INFO_BEGIN
1070
    75
1070
     2
1070
    79
1070
     0
1070
    76
1070
     1
1070
    78
1070
     0
1070
    48
1040
35.534113038535
1070
    49
1040
12.5
1070
    50
1070
     1
1040
0.0
1000
ACAD_MTEXT_COLUMN_INFO_END
  0
LINE
  5
185F
330
1F
100
AcDbEntity
  8
○
100
AcDbLine
 10
33874.43128733916
 20
29161.00110359943
 30
0.0
 11
33911.60417143443
 21
29202.13955901472
 31
0.0
  0
LINE
  5
1860
330
1F
100
AcDbEntity
  8
○
100
AcDbLine
 10
33862.55670150311
 20
29136.01717812701
 30
0.0
 11
33932.19501758705
 21
28846.38910558928
 31
0.0
  0
CIRCLE
  5
1861
330
1F
100
AcDbEntity
  8
○
100
AcDbCircle
 10
33675.7625761625
 20
29151.00110359943
 30
0.0
 40
15.0
  0
MTEXT
  5
1862
330
1F
100
AcDbEntity
  8
寸法線
100
AcDbMText
 10
33669.26974770078
 20
29160.74495409043
 30
0.0
 40
20.0
 41
35.534113038535
 46
0.0
 71
     1
 72
     5
  1
9
 73
     1
 44
1.0
1001
ACAD
1000
ACAD_MTEXT_COLUMN_INFO_BEGIN
1070
    75
1070
     2
1070
    79
1070
     0
1070
    76
1070
     1
1070
    78
1070
     0
1070
    48
1040
35.534113038535
1070
    49
1040
12.5
1070
    50
1070
     1
1040
0.0
1000
ACAD_MTEXT_COLUMN_INFO_END
  0
LINE
  5
1863
330
1F
100
AcDbEntity
  8
○
100
AcDbLine
 10
33686.94291604999
 20
29161.00110359943
 30
0.0
 11
33720.62730904145
 21
29196.9732282024
 31
0.0
  0
LINE
  5
1864
330
1F
100
AcDbEntity
  8
○
100
AcDbLine
 10
33679.60238591868
 20
29136.50090149613
 30
0.0
 11
33717.18371446432
 21
28842.11120579946
 31
0.0
  0
LINE
  5
1AF6
330
1F
100
AcDbEntity
  8
外形線
100
AcDbLine
 10
33479.48520738138
 20
28832.15085042292
 30
0.0
 11
33479.48520738138
 21
28822.15085042292
 31
0.0
  0
LINE
  5
1AF7
330
1F
100
AcDbEntity
  8
外形線
100
AcDbLine
 10
33479.48520738138
 20
28822.15085042292
 30
0.0
 11
34522.48520738138
 21
28822.15085042292
 31
0.0
  0
LINE
  5
1AF8
102
{ACAD_REACTORS
330
1F9F
330
1FBB
330
1FD3
102
}
330
1F
100
AcDbEntity
  8
外形線
100
AcDbLine
 10
34522.48520738138
 20
28822.15085042292
 30
0.0
 11
34522.48520738138
 21
28832.15085042292
 31
0.0
  0
LINE
  5
1AF9
330
1F
100
AcDbEntity
  8
外形線
100
AcDbLine
 10
34522.48520738138
 20
28832.15085042292
 30
0.0
 11
34025.98520738138
 21
28832.15085042292
 31
0.0
  0
LINE
  5
1AFA
330
1F
100
AcDbEntity
  8
外形線
100
AcDbLine
 10
33517.98520738138
 20
28822.15085042292
 30
0.0
 11
33517.98520738138
 21
28818.65085042292
 31
0.0
  0
LINE
  5
1AFB
330
1F
100
AcDbEntity
  8
外形線
100
AcDbLine
 10
33518.48520738138
 20
28818.15085042292
 30
0.0
 11
33537.48520738138
 21
28818.15085042292
 31
0.0
  0
ARC
  5
1AFC
330
1F
100
AcDbEntity
  8
外形線
100
AcDbCircle
 10
33518.48520738138
 20
28818.65085042292
 30
0.0
 40
0.5
100
AcDbArc
 50
180.0
 51
270.0
  0
LINE
  5
1AFD
330
1F
100
AcDbEntity
  8
外形線
100
AcDbLine
 10
33537.98520738138
 20
28818.65085042292
 30
0.0
 11
33537.98520738138
 21
28822.15085042292
 31
0.0
  0
ARC
  5
1AFE
330
1F
100
AcDbEntity
  8
外形線
100
AcDbCircle
 10
33537.48520738138
 20
28818.65085042292
 30
0.0
 40
0.5
100
AcDbArc
 50
270.0
 51
0.0
  0
LINE
  5
1AFF
330
1F
100
AcDbEntity
  8
外形線
100
AcDbLine
 10
33537.98520738138
 20
28820.15085042292
 30
0.0
 11
33538.48520738138
 21
28820.15085042292
 31
0.0
  0
ARC
  5
1B00
330
1F
100
AcDbEntity
  8
外形線
100
AcDbCircle
 10
33538.95443097498
 20
28822.12682093093
 30
0.0
 40
2.030918567864959
100
AcDbArc
 50
256.6416865202843
 51
0.6779299878933172
  0
ARC
  5
1B01
330
1F
100
AcDbEntity
  8
外形線
100
AcDbCircle
 10
33538.9948236174
 20
28822.1077005588
 30
0.0
 40
1.617898346868975
100
AcDbArc
 50
251.6399975157823
 51
1.37194772126168
  0
LINE
  5
1B02
330
1F
100
AcDbEntity
  8
外形線
100
AcDbLine
 10
33538.48520738138
 20
28822.15085042292
 30
0.0
 11
33538.48520738138
 21
28820.57215949689
 31
0.0
  0
LINE
  5
1B03
330
1F
100
AcDbEntity
  8
外形線
100
AcDbLine
 10
34483.98520738138
 20
28822.15085042292
 30
0.0
 11
34483.98520738138
 21
28818.65085042292
 31
0.0
  0
LINE
  5
1B04
330
1F
100
AcDbEntity
  8
外形線
100
AcDbLine
 10
34483.48520738138
 20
28818.15085042292
 30
0.0
 11
34464.48520738138
 21
28818.15085042292
 31
0.0
  0
ARC
  5
1B05
102
{ACAD_REACTORS
330
1FBB
102
}
330
1F
100
AcDbEntity
  8
外形線
100
AcDbCircle
 10
34483.48520738138
 20
28818.65085042292
 30
0.0
 40
0.5
100
AcDbArc
 50
270.0
 51
0.0
  0
LINE
  5
1B06
330
1F
100
AcDbEntity
  8
外形線
100
AcDbLine
 10
34463.98520738138
 20
28818.65085042292
 30
0.0
 11
34463.98520738138
 21
28822.15085042292
 31
0.0
  0
ARC
  5
1B07
330
1F
100
AcDbEntity
  8
外形線
100
AcDbCircle
 10
34464.48520738138
 20
28818.65085042292
 30
0.0
 40
0.5
100
AcDbArc
 50
180.0
 51
270.0
  0
LINE
  5
1B08
330
1F
100
AcDbEntity
  8
外形線
100
AcDbLine
 10
34463.98520738138
 20
28820.15085042292
 30
0.0
 11
34463.48520738138
 21
28820.15085042292
 31
0.0
  0
ARC
  5
1B09
330
1F
100
AcDbEntity
  8
外形線
100
AcDbCircle
 10
34463.01598378779
 20
28822.12682093093
 30
0.0
 40
2.030918567864959
100
AcDbArc
 50
179.3220700121067
 51
283.3583134801272
  0
ARC
  5
1B0A
330
1F
100
AcDbEntity
  8
外形線
100
AcDbCircle
 10
34462.97559114537
 20
28822.1077005588
 30
0.0
 40
1.617898346868975
100
AcDbArc
 50
178.6280522787383
 51
288.3600024838197
  0
LINE
  5
1B0B
330
1F
100
AcDbEntity
  8
外形線
100
AcDbLine
 10
34463.48520738138
 20
28822.15085042292
 30
0.0
 11
34463.48520738138
 21
28820.57215949689
 31
0.0
  0
LINE
  5
1C21
330
1F
100
AcDbEntity
  8
外形線
100
AcDbLine
 10
34697.63665228382
 20
28838.8220667436
 30
0.0
 11
34697.63665228382
 21
28824.15085077194
 31
0.0
  0
LINE
  5
1C22
330
1F
100
AcDbEntity
  8
外形線
100
AcDbLine
 10
34697.63665228382
 20
28824.15085077194
 30
0.0
 11
34704.38665228382
 21
28824.15085077194
 31
0.0
  0
LINE
  5
1C23
330
1F
100
AcDbEntity
  8
外形線
100
AcDbLine
 10
34710.38665228382
 20
28824.15085077194
 30
0.0
 11
34717.13665228382
 21
28824.15085077194
 31
0.0
  0
LINE
  5
1C24
330
1F
100
AcDbEntity
  8
外形線
100
AcDbLine
 10
34717.13665228382
 20
28824.15085077194
 30
0.0
 11
34717.13665228382
 21
28838.8220667436
 31
0.0
  0
LINE
  5
1C25
330
1F
100
AcDbEntity
  8
外形線
100
AcDbLine
 10
34695.58665228382
 20
28832.15085077194
 30
0.0
 11
34695.58665228382
 21
28822.15085077194
 31
0.0
  0
LINE
  5
1C26
330
1F
100
AcDbEntity
  8
外形線
100
AcDbLine
 10
34695.58665228382
 20
28822.15085077194
 30
0.0
 11
34719.18665228383
 21
28822.15085077194
 31
0.0
  0
LINE
  5
1C27
330
1F
100
AcDbEntity
  8
外形線
100
AcDbLine
 10
34719.18665228383
 20
28822.15085077194
 30
0.0
 11
34719.18665228383
 21
28832.15085077194
 31
0.0
  0
LINE
  5
1C28
330
1F
100
AcDbEntity
  8
外形線
100
AcDbLine
 10
34695.58665228382
 20
28832.15085077194
 30
0.0
 11
34697.63665228382
 21
28832.15085077194
 31
0.0
  0
LINE
  5
1C29
330
1F
100
AcDbEntity
  8
外形線
100
AcDbLine
 10
34697.63665228382
 20
28832.15085077194
 30
0.0
 11
34697.63665228382
 21
28827.85085077193
 31
0.0
  0
LINE
  5
1C2A
330
1F
100
AcDbEntity
  8
外形線
100
AcDbLine
 10
34697.63665228382
 20
28827.85085077193
 30
0.0
 11
34697.03665228383
 21
28827.85085077193
 31
0.0
  0
LINE
  5
1C2B
330
1F
100
AcDbEntity
  8
外形線
100
AcDbLine
 10
34697.03665228383
 20
28827.85085077193
 30
0.0
 11
34697.03665228383
 21
28831.55085077194
 31
0.0
  0
LINE
  5
1C2C
330
1F
100
AcDbEntity
  8
外形線
100
AcDbLine
 10
34697.03665228383
 20
28831.55085077194
 30
0.0
 11
34696.18665228382
 21
28831.55085077194
 31
0.0
  0
LINE
  5
1C2D
330
1F
100
AcDbEntity
  8
外形線
100
AcDbLine
 10
34696.18665228382
 20
28831.55085077194
 30
0.0
 11
34696.18665228382
 21
28822.75085077193
 31
0.0
  0
LINE
  5
1C2E
330
1F
100
AcDbEntity
  8
外形線
100
AcDbLine
 10
34696.18665228382
 20
28822.75085077193
 30
0.0
 11
34704.38665228382
 21
28822.75085077193
 31
0.0
  0
LINE
  5
1C2F
330
1F
100
AcDbEntity
  8
外形線
100
AcDbLine
 10
34710.38665228382
 20
28822.75085077193
 30
0.0
 11
34718.58665228383
 21
28822.75085077193
 31
0.0
  0
LINE
  5
1C30
330
1F
100
AcDbEntity
  8
外形線
100
AcDbLine
 10
34718.58665228383
 20
28822.75085077193
 30
0.0
 11
34718.58665228383
 21
28831.55085077194
 31
0.0
  0
LINE
  5
1C31
330
1F
100
AcDbEntity
  8
外形線
100
AcDbLine
 10
34718.58665228383
 20
28831.55085077194
 30
0.0
 11
34717.73665228382
 21
28831.55085077194
 31
0.0
  0
LINE
  5
1C32
330
1F
100
AcDbEntity
  8
外形線
100
AcDbLine
 10
34717.73665228382
 20
28831.55085077194
 30
0.0
 11
34717.73665228382
 21
28827.85085077193
 31
0.0
  0
LINE
  5
1C33
330
1F
100
AcDbEntity
  8
外形線
100
AcDbLine
 10
34717.73665228382
 20
28827.85085077193
 30
0.0
 11
34717.13665228382
 21
28827.85085077193
 31
0.0
  0
LINE
  5
1C34
330
1F
100
AcDbEntity
  8
外形線
100
AcDbLine
 10
34717.13665228382
 20
28827.85085077193
 30
0.0
 11
34717.13665228382
 21
28832.15085077194
 31
0.0
  0
LINE
  5
1C35
330
1F
100
AcDbEntity
  8
外形線
100
AcDbLine
 10
34717.13665228382
 20
28832.15085077194
 30
0.0
 11
34719.18665228383
 21
28832.15085077194
 31
0.0
  0
LINE
  5
1C36
330
1F
100
AcDbEntity
  8
外形線
100
AcDbLine
 10
34704.38665228382
 20
28824.15085077194
 30
0.0
 11
34704.38665228382
 21
28822.15085077194
 31
0.0
  0
LINE
  5
1C37
330
1F
100
AcDbEntity
  8
外形線
100
AcDbLine
 10
34710.38665228382
 20
28824.15085077194
 30
0.0
 11
34710.38665228382
 21
28822.15085077194
 31
0.0
  0
LINE
  5
1C38
330
1F
100
AcDbEntity
  8
外形線
100
AcDbLine
 10
34699.13665228382
 20
28822.15085077194
 30
0.0
 11
34699.13665228382
 21
28818.15085077193
 31
0.0
  0
LINE
  5
1C39
102
{ACAD_REACTORS
330
1FEB
102
}
330
1F
100
AcDbEntity
  8
外形線
100
AcDbLine
 10
34699.13665228382
 20
28818.15085077193
 30
0.0
 11
34715.63665228382
 21
28818.15085077193
 31
0.0
  0
LINE
  5
1C3A
330
1F
100
AcDbEntity
  8
外形線
100
AcDbLine
 10
34715.63665228382
 20
28818.15085077193
 30
0.0
 11
34715.63665228382
 21
28822.15085077194
 31
0.0
  0
LINE
  5
1C3B
330
1F
100
AcDbEntity
  8
外形線
100
AcDbLine
 10
34697.63665228382
 20
28828.15085077194
 30
0.0
 11
34717.13665228382
 21
28828.15085077194
 31
0.0
  0
LINE
  5
1C3C
330
1F
100
AcDbEntity
  8
外形線
100
AcDbLine
 10
33480.98520738138
 20
28916.65085042292
 30
0.0
 11
33492.98520738138
 21
28916.65085042292
 31
0.0
  0
LINE
  5
1C3D
330
1F
100
AcDbEntity
  8
外形線
100
AcDbLine
 10
33493.98520738138
 20
28915.65085042291
 30
0.0
 11
33493.98520738138
 21
28886.15085042292
 31
0.0
  0
ARC
  5
1C3E
330
1F
100
AcDbEntity
  8
外形線
100
AcDbCircle
 10
33492.98520738138
 20
28915.65085042291
 30
0.0
 40
1.0
100
AcDbArc
 50
0.0
 51
90.0
  0
ARC
  5
1C3F
330
1F
100
AcDbEntity
  8
外形線
100
AcDbCircle
 10
33492.98520738138
 20
28886.15085042292
 30
0.0
 40
1.0
100
AcDbArc
 50
270.0
 51
0.0
  0
LINE
  5
1C40
330
1F
100
AcDbEntity
  8
外形線
100
AcDbLine
 10
33492.98520738138
 20
28885.15085042291
 30
0.0
 11
33485.38463487096
 21
28885.15085042291
 31
0.0
  0
LINE
  5
1C41
330
1F
100
AcDbEntity
  8
外形線
100
AcDbLine
 10
34522.48520738137
 20
28834.15085042292
 30
0.0
 11
34523.16848895438
 21
28835.51741356892
 31
0.0
  0
ARC
  5
1C42
330
1F
100
AcDbEntity
  8
外形線
100
AcDbCircle
 10
34520.48520738137
 20
28836.85905435542
 30
0.0
 40
3.0
100
AcDbArc
 50
333.4349488229198
 51
0.0
  0
LINE
  5
1C43
330
1F
100
AcDbEntity
  8
外形線
100
AcDbLine
 10
34523.48520738138
 20
28836.85905435542
 30
0.0
 11
34523.48520738138
 21
28879.73663720955
 31
0.0
  0
ARC
  5
1C44
330
1F
100
AcDbEntity
  8
外形線
100
AcDbCircle
 10
34522.98520738138
 20
28879.73663720955
 30
0.0
 40
0.5
100
AcDbArc
 50
0.0
 51
44.99999999955322
  0
LINE
  5
1C45
330
1F
100
AcDbEntity
  8
外形線
100
AcDbLine
 10
34523.33876077197
 20
28880.09019060015
 30
0.0
 11
34522.63165399078
 21
28880.79729738134
 31
0.0
  0
ARC
  5
1C46
330
1F
100
AcDbEntity
  8
外形線
100
AcDbCircle
 10
34522.98520738138
 20
28881.15085077194
 30
0.0
 40
0.5
100
AcDbArc
 50
180.0
 51
224.9999999995532
  0
LINE
  5
1C47
102
{ACAD_REACTORS
330
1FD3
102
}
330
1F
100
AcDbEntity
  8
外形線
100
AcDbLine
 10
34522.48520738137
 20
28881.15085077194
 30
0.0
 11
34522.48520738137
 21
28917.15085042292
 31
0.0
  0
LINE
  5
1C48
330
1F
100
AcDbEntity
  8
外形線
100
AcDbLine
 10
34521.48520738138
 20
28897.15085042292
 30
0.0
 11
34519.20930546083
 21
28896.69567003881
 31
0.0
  0
LINE
  5
1C49
330
1F
100
AcDbEntity
  8
外形線
100
AcDbLine
 10
34521.48520738138
 20
28897.15085042292
 30
0.0
 11
34521.48520738138
 21
28917.15085042292
 31
0.0
  0
LINE
  5
1C4A
102
{ACAD_REACTORS
330
1F9F
102
}
330
1F
100
AcDbEntity
  8
外形線
100
AcDbLine
 10
34521.48520738138
 20
28917.15085042292
 30
0.0
 11
34522.48520738137
 21
28917.15085042292
 31
0.0
  0
ELLIPSE
  5
1C4B
330
1F
100
AcDbEntity
  8
外形線
100
AcDbEllipse
 10
34519.12806452424
 20
28894.65085042292
 30
0.0
 11
2.35714285713766
 21
1.5
 31
0.0
210
0.0
220
0.0
230
-1.0
 40
0.6753514169109462
 41
3.682438273673346
 42
4.822127997503216
  0
ARC
  5
1C4C
330
1F
100
AcDbEntity
  8
外形線
100
AcDbCircle
 10
34519.79765386632
 20
28893.75392801163
 30
0.0
 40
3.0
100
AcDbArc
 50
101.3099324747151
 51
118.2155792741893
  0
LINE
  5
1C4D
330
1F
100
AcDbEntity
  8
外形線
100
AcDbLine
 10
34521.48520738138
 20
28916.65085042292
 30
0.0
 11
34520.98520738138
 21
28916.65085042292
 31
0.0
  0
LINE
  5
1C4E
330
1F
100
AcDbEntity
  8
外形線
100
AcDbLine
 10
34520.98520738138
 20
28916.65085042292
 30
0.0
 11
34520.98520738138
 21
28897.05085042292
 31
0.0
  0
LINE
  5
1C4F
330
1F
100
AcDbEntity
  8
外形線
100
AcDbLine
 10
34520.98520738138
 20
28916.65085042292
 30
0.0
 11
34506.98520738137
 21
28916.65085042292
 31
0.0
  0
LINE
  5
1C50
330
1F
100
AcDbEntity
  8
外形線
100
AcDbLine
 10
34505.98520738138
 20
28915.65085042292
 30
0.0
 11
34505.98520738138
 21
28886.15085042292
 31
0.0
  0
ARC
  5
1C51
330
1F
100
AcDbEntity
  8
外形線
100
AcDbCircle
 10
34506.98520738137
 20
28915.65085042292
 30
0.0
 40
1.0
100
AcDbArc
 50
90.0
 51
180.0
  0
ARC
  5
1C52
330
1F
100
AcDbEntity
  8
外形線
100
AcDbCircle
 10
34506.98520738137
 20
28886.15085042292
 30
0.0
 40
1.0
100
AcDbArc
 50
180.0
 51
270.0
  0
LINE
  5
1C53
330
1F
100
AcDbEntity
  8
外形線
100
AcDbLine
 10
34506.98520738137
 20
28885.15085042292
 30
0.0
 11
34516.58577989179
 21
28885.15085042292
 31
0.0
  0
LINE
  5
1C54
330
1F
100
AcDbEntity
  8
外形線
100
AcDbLine
 10
34516.5857798918
 20
28894.1845472777
 30
0.0
 11
34516.5857798918
 21
28885.15085042292
 31
0.0
  0
LINE
  5
1C55
330
1F
100
AcDbEntity
  8
外形線
100
AcDbLine
 10
34516.5857798918
 20
28885.15085042292
 30
0.0
 11
34516.58577989181
 21
28880.18972231101
 31
0.0
  0
ARC
  5
1C56
330
1F
100
AcDbEntity
  8
外形線
100
AcDbCircle
 10
34526.03319124312
 20
28881.60880089546
 30
0.0
 40
9.559246875214904
100
AcDbArc
 50
189.0121675995525
 51
216.8643310199858
  0
ARC
  5
1C57
330
1F
100
AcDbEntity
  8
外形線
100
AcDbCircle
 10
34517.98520738138
 20
28875.57403464369
 30
0.0
 40
0.5
100
AcDbArc
 50
359.9999999991662
 51
36.86433102115536
  0
ARC
  5
1C58
330
1F
100
AcDbEntity
  8
外形線
100
AcDbCircle
 10
34517.0857798918
 20
28880.18972231101
 30
0.0
 40
0.5
100
AcDbArc
 50
180.0
 51
189.0121675991434
  0
LINE
  5
1C59
330
1F
100
AcDbEntity
  8
外形線
100
AcDbLine
 10
34518.41287105762
 20
28832.15085042292
 30
0.0
 11
34518.48520738137
 21
28875.57403464368
 31
0.0
  0
LINE
  5
1C5A
330
1F
100
AcDbEntity
  8
外形線
100
AcDbLine
 10
34505.98520738138
 20
28912.20085042292
 30
0.0
 11
34497.48520738137
 21
28912.20085042292
 31
0.0
  0
ARC
  5
1C5B
330
1F
100
AcDbEntity
  8
外形線
100
AcDbCircle
 10
34497.48520738137
 20
28911.70085042293
 30
0.0
 40
0.5
100
AcDbArc
 50
90.0
 51
180.0
  0
LINE
  5
1C5C
330
1F
100
AcDbEntity
  8
外形線
100
AcDbLine
 10
34496.98520738138
 20
28911.70085042293
 30
0.0
 11
34496.98520738138
 21
28890.10085042292
 31
0.0
  0
LINE
  5
1C5D
330
1F
100
AcDbEntity
  8
外形線
100
AcDbLine
 10
34497.48520738137
 20
28889.60085042292
 30
0.0
 11
34505.98520738138
 21
28889.60085042292
 31
0.0
  0
ARC
  5
1C5E
330
1F
100
AcDbEntity
  8
外形線
100
AcDbCircle
 10
34497.48520738137
 20
28890.10085042292
 30
0.0
 40
0.5
100
AcDbArc
 50
180.0
 51
270.0
  0
LINE
  5
1C5F
330
1F
100
AcDbEntity
  8
外形線
100
AcDbLine
 10
34691.38665228384
 20
28900.90085042292
 30
0.0
 11
34691.38665228384
 21
28898.88528598584
 31
0.0
  0
LINE
  5
1C60
330
1F
100
AcDbEntity
  8
外形線
100
AcDbLine
 10
34723.38665228384
 20
28898.06139625002
 30
0.0
 11
34723.38665228384
 21
28900.90085042402
 31
0.0
  0
ARC
  5
1C61
102
{ACAD_REACTORS
330
1FEB
102
}
330
1F
100
AcDbEntity
  8
外形線
100
AcDbCircle
 10
34707.38665228383
 20
28901.14892734601
 30
0.0
 40
16.00192307691588
100
AcDbArc
 50
359.1117111338804
 51
180.8882888661196
  0
ARC
  5
1C62
330
1F
100
AcDbEntity
  8
外形線
100
AcDbCircle
 10
34707.38665228384
 20
28900.90085042292
 30
0.0
 40
16.24999999999987
100
AcDbArc
 50
194.1411102338186
 51
217.6271906288118
  0
ARC
  5
1C63
330
1F
100
AcDbEntity
  8
外形線
100
AcDbCircle
 10
34682.63665228384
 20
28881.82206639458
 30
0.0
 40
15.0
100
AcDbArc
 50
0.0
 51
37.62719062881175
  0
ARC
  5
1C64
330
1F
100
AcDbEntity
  8
外形線
100
AcDbCircle
 10
34699.38665228384
 20
28898.88528598584
 30
0.0
 40
8.0
100
AcDbArc
 50
180.0
 51
194.1411102338186
  0
ARC
  5
1C65
330
1F
100
AcDbEntity
  8
外形線
100
AcDbCircle
 10
34707.38665228384
 20
28900.90085042292
 30
0.0
 40
16.24999999999987
100
AcDbArc
 50
322.3728093711882
 51
349.9367255563571
  0
ARC
  5
1C66
330
1F
100
AcDbEntity
  8
外形線
100
AcDbCircle
 10
34732.13665228384
 20
28881.82206639458
 30
0.0
 40
15.0
100
AcDbArc
 50
142.3728093711882
 51
180.0
  0
LINE
  5
1C67
330
1F
100
AcDbEntity
  8
外形線
100
AcDbLine
 10
34695.58665228382
 20
28832.15085077194
 30
0.0
 11
34697.63665228382
 21
28832.15085077194
 31
0.0
  0
LINE
  5
1C68
330
1F
100
AcDbEntity
  8
外形線
100
AcDbLine
 10
34697.63665228382
 20
28832.15085077194
 30
0.0
 11
34697.63665228382
 21
28827.85085077193
 31
0.0
  0
LINE
  5
1C69
330
1F
100
AcDbEntity
  8
外形線
100
AcDbLine
 10
34697.63665228382
 20
28827.85085077193
 30
0.0
 11
34697.03665228383
 21
28827.85085077193
 31
0.0
  0
LINE
  5
1C6A
330
1F
100
AcDbEntity
  8
外形線
100
AcDbLine
 10
34697.03665228383
 20
28827.85085077193
 30
0.0
 11
34697.03665228383
 21
28831.55085077194
 31
0.0
  0
LINE
  5
1C6B
330
1F
100
AcDbEntity
  8
外形線
100
AcDbLine
 10
34697.03665228383
 20
28831.55085077194
 30
0.0
 11
34696.18665228382
 21
28831.55085077194
 31
0.0
  0
LINE
  5
1C6C
330
1F
100
AcDbEntity
  8
外形線
100
AcDbLine
 10
34718.58665228383
 20
28831.55085077194
 30
0.0
 11
34717.73665228382
 21
28831.55085077194
 31
0.0
  0
LINE
  5
1C6D
330
1F
100
AcDbEntity
  8
外形線
100
AcDbLine
 10
34717.73665228382
 20
28831.55085077194
 30
0.0
 11
34717.73665228382
 21
28827.85085077193
 31
0.0
  0
LINE
  5
1C6E
330
1F
100
AcDbEntity
  8
外形線
100
AcDbLine
 10
34717.73665228382
 20
28827.85085077193
 30
0.0
 11
34717.13665228382
 21
28827.85085077193
 31
0.0
  0
LINE
  5
1C6F
330
1F
100
AcDbEntity
  8
外形線
100
AcDbLine
 10
34717.13665228382
 20
28827.85085077193
 30
0.0
 11
34717.13665228382
 21
28832.15085077194
 31
0.0
  0
LINE
  5
1C70
330
1F
100
AcDbEntity
  8
外形線
100
AcDbLine
 10
34717.13665228382
 20
28832.15085077194
 30
0.0
 11
34719.18665228383
 21
28832.15085077194
 31
0.0
  0
LINE
  5
1C71
330
1F
100
AcDbEntity
  8
孔
100
AcDbLine
 10
34705.73665228384
 20
28913.50085042292
 30
0.0
 11
34705.73665228384
 21
28911.80085042292
 31
0.0
  0
LINE
  5
1C72
330
1F
100
AcDbEntity
  8
孔
100
AcDbLine
 10
34709.03665228384
 20
28913.50085042292
 30
0.0
 11
34709.03665228384
 21
28911.80085042292
 31
0.0
  0
ARC
  5
1C73
330
1F
100
AcDbEntity
  8
孔
100
AcDbCircle
 10
34707.38665228384
 20
28913.50085042293
 30
0.0
 40
1.650000000001455
100
AcDbArc
 50
359.9999999995831
 51
180.0000000004169
  0
ARC
  5
1C74
330
1F
100
AcDbEntity
  8
孔
100
AcDbCircle
 10
34707.38665228384
 20
28911.80085042292
 30
0.0
 40
1.650000000001455
100
AcDbArc
 50
180.0
 51
0.0
  0
CIRCLE
  5
1C75
330
1F
100
AcDbEntity
  8
孔
100
AcDbCircle
 10
34707.38665228384
 20
28902.15085042292
 30
0.0
 40
1.6
  0
LINE
  5
1C76
330
1F
100
AcDbEntity
  8
孔
100
AcDbLine
 10
34705.73665228384
 20
28893.50085042292
 30
0.0
 11
34705.73665228384
 21
28889.80085042292
 31
0.0
  0
LINE
  5
1C77
330
1F
100
AcDbEntity
  8
孔
100
AcDbLine
 10
34709.03665228384
 20
28893.50085042292
 30
0.0
 11
34709.03665228384
 21
28889.80085042292
 31
0.0
  0
ARC
  5
1C78
330
1F
100
AcDbEntity
  8
孔
100
AcDbCircle
 10
34707.38665228385
 20
28893.50085042293
 30
0.0
 40
1.650000000008731
100
AcDbArc
 50
359.9999999995831
 51
180.0000000004169
  0
ARC
  5
1C79
330
1F
100
AcDbEntity
  8
孔
100
AcDbCircle
 10
34707.38665228384
 20
28889.80085042291
 30
0.0
 40
1.650000000001455
100
AcDbArc
 50
179.9999999995831
 51
0.0000000004168817
  0
LINE
  5
1C7A
330
1F
100
AcDbEntity
  8
孔
100
AcDbLine
 10
34704.88665228384
 20
28881.65085042292
 30
0.0
 11
34704.88665228384
 21
28874.65085042292
 31
0.0
  0
LINE
  5
1C7B
330
1F
100
AcDbEntity
  8
孔
100
AcDbLine
 10
34709.88665228384
 20
28881.65085042292
 30
0.0
 11
34709.88665228384
 21
28874.65085042292
 31
0.0
  0
ARC
  5
1C7C
330
1F
100
AcDbEntity
  8
孔
100
AcDbCircle
 10
34707.38665228385
 20
28881.65085042292
 30
0.0
 40
2.500000000007275
100
AcDbArc
 50
0.0
 51
180.0
  0
ARC
  5
1C7D
330
1F
100
AcDbEntity
  8
孔
100
AcDbCircle
 10
34707.38665228385
 20
28874.65085042292
 30
0.0
 40
2.499999999992724
100
AcDbArc
 50
180.0
 51
0.0
  0
LINE
  5
1C7E
330
1F
100
AcDbEntity
  8
外形線
100
AcDbLine
 10
34697.63665228384
 20
28881.15085042292
 30
0.0
 11
34704.88665228384
 21
28881.15085042292
 31
0.0
  0
LINE
  5
1C7F
330
1F
100
AcDbEntity
  8
外形線
100
AcDbLine
 10
34709.88665228384
 20
28881.15085042292
 30
0.0
 11
34717.13665228384
 21
28881.15085042292
 31
0.0
  0
LINE
  5
1C80
330
1F
100
AcDbEntity
  8
外形線
100
AcDbLine
 10
34697.63665228382
 20
28834.15085042292
 30
0.0
 11
34704.43665228383
 21
28834.15085042292
 31
0.0
  0
LINE
  5
1C81
330
1F
100
AcDbEntity
  8
外形線
100
AcDbLine
 10
34710.33665228383
 20
28834.15085042292
 30
0.0
 11
34717.13665228382
 21
28834.15085042292
 31
0.0
  0
LINE
  5
1C82
330
1F
100
AcDbEntity
  8
外形線
100
AcDbLine
 10
34698.38665228384
 20
28906.90085042292
 30
0.0
 11
34698.38665228384
 21
28896.40085042292
 31
0.0
  0
LINE
  5
1C83
330
1F
100
AcDbEntity
  8
外形線
100
AcDbLine
 10
34702.88665228384
 20
28906.90085042292
 30
0.0
 11
34702.88665228384
 21
28896.40085042292
 31
0.0
  0
ARC
  5
1C84
330
1F
100
AcDbEntity
  8
外形線
100
AcDbCircle
 10
34700.63665228384
 20
28906.90085042292
 30
0.0
 40
2.250000000007275
100
AcDbArc
 50
0.0
 51
180.0
  0
ARC
  5
1C85
330
1F
100
AcDbEntity
  8
外形線
100
AcDbCircle
 10
34700.63665228384
 20
28896.40085042292
 30
0.0
 40
2.250000000007275
100
AcDbArc
 50
180.0
 51
0.0
  0
LINE
  5
1C86
330
1F
100
AcDbEntity
  8
外形線
100
AcDbLine
 10
34711.88665228383
 20
28906.90085042292
 30
0.0
 11
34711.88665228383
 21
28896.40085042292
 31
0.0
  0
LINE
  5
1C87
330
1F
100
AcDbEntity
  8
外形線
100
AcDbLine
 10
34716.38665228383
 20
28906.90085042292
 30
0.0
 11
34716.38665228383
 21
28896.40085042292
 31
0.0
  0
ARC
  5
1C88
330
1F
100
AcDbEntity
  8
外形線
100
AcDbCircle
 10
34714.13665228384
 20
28906.90085042292
 30
0.0
 40
2.250000000007275
100
AcDbArc
 50
0.0
 51
180.0
  0
ARC
  5
1C89
330
1F
100
AcDbEntity
  8
外形線
100
AcDbCircle
 10
34714.13665228384
 20
28896.40085042292
 30
0.0
 40
2.250000000007275
100
AcDbArc
 50
180.0
 51
0.0
  0
CIRCLE
  5
1C8A
330
1F
100
AcDbEntity
  8
孔
100
AcDbCircle
 10
34707.38665228383
 20
28834.15085042292
 30
0.0
 40
2.95
  0
LINE
  5
1C8B
330
1F
100
AcDbEntity
  8
外形線
100
AcDbLine
 10
33479.48520738138
 20
28834.15085042291
 30
0.0
 11
33478.80192580838
 21
28835.51741356892
 31
0.0
  0
ARC
  5
1C8C
330
1F
100
AcDbEntity
  8
外形線
100
AcDbCircle
 10
33481.48520738138
 20
28836.85905435542
 30
0.0
 40
3.0
100
AcDbArc
 50
180.0
 51
206.5650511770802
  0
LINE
  5
1C8D
330
1F
100
AcDbEntity
  8
外形線
100
AcDbLine
 10
33478.48520738138
 20
28836.85905435542
 30
0.0
 11
33478.48520738138
 21
28879.73663720954
 31
0.0
  0
ARC
  5
1C8E
330
1F
100
AcDbEntity
  8
外形線
100
AcDbCircle
 10
33478.98520738138
 20
28879.73663720954
 30
0.0
 40
0.5
100
AcDbArc
 50
135.0000000004468
 51
180.0
  0
LINE
  5
1C8F
330
1F
100
AcDbEntity
  8
外形線
100
AcDbLine
 10
33478.63165399079
 20
28880.09019060014
 30
0.0
 11
33479.33876077198
 21
28880.79729738133
 31
0.0
  0
ARC
  5
1C90
330
1F
100
AcDbEntity
  8
外形線
100
AcDbCircle
 10
33478.98520738138
 20
28881.15085077193
 30
0.0
 40
0.5
100
AcDbArc
 50
315.0000000004467
 51
0.0
  0
LINE
  5
1C91
330
1F
100
AcDbEntity
  8
外形線
100
AcDbLine
 10
33479.48520738138
 20
28881.15085077193
 30
0.0
 11
33479.48520738138
 21
28917.15085042291
 31
0.0
  0
LINE
  5
1C92
330
1F
100
AcDbEntity
  8
外形線
100
AcDbLine
 10
33480.48520738138
 20
28897.15085042291
 30
0.0
 11
33482.76110930193
 21
28896.6956700388
 31
0.0
  0
LINE
  5
1C93
330
1F
100
AcDbEntity
  8
外形線
100
AcDbLine
 10
33480.48520738138
 20
28897.15085042291
 30
0.0
 11
33480.48520738138
 21
28917.15085042291
 31
0.0
  0
LINE
  5
1C94
330
1F
100
AcDbEntity
  8
外形線
100
AcDbLine
 10
33480.48520738138
 20
28917.15085042291
 30
0.0
 11
33479.48520738138
 21
28917.15085042291
 31
0.0
  0
ELLIPSE
  5
1C95
330
1F
100
AcDbEntity
  8
外形線
100
AcDbEllipse
 10
33482.84235023852
 20
28894.65085042291
 30
0.0
 11
-2.35714285713766
 21
1.5
 31
0.0
210
0.0
220
0.0
230
1.0
 40
0.6753514169109462
 41
3.682438273673346
 42
4.822127997503216
  0
ARC
  5
1C96
330
1F
100
AcDbEntity
  8
外形線
100
AcDbCircle
 10
33482.17276089644
 20
28893.75392801163
 30
0.0
 40
3.0
100
AcDbArc
 50
61.7844207258107
 51
78.69006752528486
  0
LINE
  5
1C97
330
1F
100
AcDbEntity
  8
外形線
100
AcDbLine
 10
33480.48520738138
 20
28916.65085042292
 30
0.0
 11
33480.98520738138
 21
28916.65085042292
 31
0.0
  0
LINE
  5
1C98
330
1F
100
AcDbEntity
  8
外形線
100
AcDbLine
 10
33480.98520738138
 20
28916.65085042292
 30
0.0
 11
33480.98520738138
 21
28897.05085042292
 31
0.0
  0
LINE
  5
1C99
330
1F
100
AcDbEntity
  8
外形線
100
AcDbLine
 10
33485.38463487096
 20
28894.18454727769
 30
0.0
 11
33485.38463487096
 21
28885.15085042291
 31
0.0
  0
LINE
  5
1C9A
330
1F
100
AcDbEntity
  8
外形線
100
AcDbLine
 10
33485.38463487096
 20
28885.15085042291
 30
0.0
 11
33485.38463487095
 21
28880.18972231101
 31
0.0
  0
ARC
  5
1C9B
330
1F
100
AcDbEntity
  8
外形線
100
AcDbCircle
 10
33475.93722351964
 20
28881.60880089546
 30
0.0
 40
9.559246875214904
100
AcDbArc
 50
323.1356689800142
 51
350.9878324004474
  0
ARC
  5
1C9C
330
1F
100
AcDbEntity
  8
外形線
100
AcDbCircle
 10
33483.98520738137
 20
28875.57403464368
 30
0.0
 40
0.5
100
AcDbArc
 50
143.1356689786795
 51
180.0000000008337
  0
ARC
  5
1C9D
330
1F
100
AcDbEntity
  8
外形線
100
AcDbCircle
 10
33484.88463487096
 20
28880.18972231101
 30
0.0
 40
0.5
100
AcDbArc
 50
350.9878324004474
 51
0.0
  0
LINE
  5
1C9E
330
1F
100
AcDbEntity
  8
外形線
100
AcDbLine
 10
33483.55754370514
 20
28832.15085042291
 30
0.0
 11
33483.48520738138
 21
28875.57403464367
 31
0.0
  0
LINE
  5
1C9F
330
1F
100
AcDbEntity
  8
外形線
100
AcDbLine
 10
33479.48520738138
 20
28834.15085042291
 30
0.0
 11
33479.48520738138
 21
28832.15085042292
 31
0.0
  0
LINE
  5
1CA0
330
1F
100
AcDbEntity
  8
外形線
100
AcDbLine
 10
34522.48520738137
 20
28834.15085042292
 30
0.0
 11
34522.48520738138
 21
28832.15085042292
 31
0.0
  0
LINE
  5
1CA1
330
1F
100
AcDbEntity
  8
外形線
100
AcDbLine
 10
34697.63665228384
 20
28881.82206639458
 30
0.0
 11
34697.63665228382
 21
28832.15085077194
 31
0.0
  0
LINE
  5
1CA2
330
1F
100
AcDbEntity
  8
外形線
100
AcDbLine
 10
34717.13665228384
 20
28881.82206639458
 30
0.0
 11
34717.13665228382
 21
28832.15085077194
 31
0.0
  0
XLINE
  5
1CF7
330
1F
100
AcDbEntity
  8
オフセット
100
AcDbXline
 10
32915.44093491146
 20
27042.33714179789
 30
0.0
 11
-1.0
 21
0.0
 31
0.0
  0
XLINE
  5
1CF8
330
1F
100
AcDbEntity
  8
オフセット
100
AcDbXline
 10
33709.69848660889
 20
27902.11527306976
 30
0.0
 11
0.0
 21
-1.0
 31
0.0
  0
XLINE
  5
1CF9
330
1F
100
AcDbEntity
  8
オフセット
100
AcDbXline
 10
32915.44093491146
 20
27043.13714179789
 30
0.0
 11
-1.0
 21
0.0
 31
0.0
  0
LINE
  5
1CFF
330
1F
100
AcDbEntity
  8
外形線
100
AcDbLine
 10
33862.98520738138
 20
28832.15085042292
 30
0.0
 11
33794.98520738138
 21
28832.15085042292
 31
0.0
  0
LINE
  5
1D00
330
1F
100
AcDbEntity
  8
外形線
100
AcDbLine
 10
33699.98520738138
 20
28832.95085042292
 30
0.0
 11
33699.98520738138
 21
28825.25085042292
 31
0.0
  0
LINE
  5
1D01
330
1F
100
AcDbEntity
  8
外形線
100
AcDbLine
 10
33699.98520738138
 20
28825.25085042292
 30
0.0
 11
33794.98520738138
 21
28825.25085042292
 31
0.0
  0
LINE
  5
1D02
330
1F
100
AcDbEntity
  8
外形線
100
AcDbLine
 10
33794.98520738138
 20
28825.25085042292
 30
0.0
 11
33794.98520738138
 21
28832.95085042292
 31
0.0
  0
LINE
  5
1D03
330
1F
100
AcDbEntity
  8
外形線
100
AcDbLine
 10
33794.98520738138
 20
28832.95085042292
 30
0.0
 11
33699.98520738138
 21
28832.95085042292
 31
0.0
  0
LINE
  5
1D04
330
1F
100
AcDbEntity
  8
外形線
100
AcDbLine
 10
33703.98520738138
 20
28852.45085042292
 30
0.0
 11
33703.98520738138
 21
28833.45085042292
 31
0.0
  0
LINE
  5
1D05
330
1F
100
AcDbEntity
  8
外形線
100
AcDbLine
 10
33704.48520738138
 20
28832.95085042292
 30
0.0
 11
33725.98520738138
 21
28832.95085042292
 31
0.0
  0
ARC
  5
1D06
330
1F
100
AcDbEntity
  8
外形線
100
AcDbCircle
 10
33704.48520738138
 20
28833.45085042292
 30
0.0
 40
0.5
100
AcDbArc
 50
180.0
 51
270.0
  0
LINE
  5
1D07
330
1F
100
AcDbEntity
  8
外形線
100
AcDbLine
 10
33725.98520738138
 20
28841.95085042292
 30
0.0
 11
33725.98520738138
 21
28852.45085042292
 31
0.0
  0
ARC
  5
1D08
330
1F
100
AcDbEntity
  8
外形線
100
AcDbCircle
 10
33725.48520738138
 20
28852.45085042292
 30
0.0
 40
0.5
100
AcDbArc
 50
0.0
 51
90.0
  0
LINE
  5
1D09
330
1F
100
AcDbEntity
  8
外形線
100
AcDbLine
 10
33725.48520738138
 20
28852.95085042292
 30
0.0
 11
33704.48520738138
 21
28852.95085042292
 31
0.0
  0
ARC
  5
1D0A
330
1F
100
AcDbEntity
  8
外形線
100
AcDbCircle
 10
33704.48520738138
 20
28852.45085042292
 30
0.0
 40
0.5
100
AcDbArc
 50
90.0
 51
180.0
  0
LINE
  5
1D0B
330
1F
100
AcDbEntity
  8
外形線
100
AcDbLine
 10
33725.98520738138
 20
28832.95085042292
 30
0.0
 11
33737.48520738138
 21
28832.95085042292
 31
0.0
  0
LINE
  5
1D0C
330
1F
100
AcDbEntity
  8
外形線
100
AcDbLine
 10
33737.98520738138
 20
28833.45085042292
 30
0.0
 11
33737.98520738138
 21
28841.45085042292
 31
0.0
  0
ARC
  5
1D0D
330
1F
100
AcDbEntity
  8
外形線
100
AcDbCircle
 10
33737.48520738138
 20
28833.45085042292
 30
0.0
 40
0.5
100
AcDbArc
 50
270.0
 51
0.0
  0
ARC
  5
1D0E
330
1F
100
AcDbEntity
  8
外形線
100
AcDbCircle
 10
33737.48520738138
 20
28841.45085042292
 30
0.0
 40
0.5
100
AcDbArc
 50
0.0
 51
90.0
  0
LINE
  5
1D0F
330
1F
100
AcDbEntity
  8
外形線
100
AcDbLine
 10
33737.98520738138
 20
28841.95085042292
 30
0.0
 11
33725.98520738138
 21
28841.95085042292
 31
0.0
  0
LINE
  5
1D10
330
1F
100
AcDbEntity
  8
外形線
100
AcDbLine
 10
33726.48520738138
 20
28841.95085042292
 30
0.0
 11
33726.48520738138
 21
28843.45085042292
 31
0.0
  0
LINE
  5
1D11
330
1F
100
AcDbEntity
  8
外形線
100
AcDbLine
 10
33726.98520738138
 20
28843.95085042292
 30
0.0
 11
33737.48520738138
 21
28843.95085042292
 31
0.0
  0
ARC
  5
1D12
330
1F
100
AcDbEntity
  8
外形線
100
AcDbCircle
 10
33726.98520738138
 20
28843.45085042292
 30
0.0
 40
0.5
100
AcDbArc
 50
90.0
 51
180.0
  0
LINE
  5
1D13
330
1F
100
AcDbEntity
  8
外形線
100
AcDbLine
 10
33737.98520738138
 20
28843.45085042292
 30
0.0
 11
33737.98520738138
 21
28841.95085042292
 31
0.0
  0
ARC
  5
1D14
330
1F
100
AcDbEntity
  8
外形線
100
AcDbCircle
 10
33737.48520738138
 20
28843.45085042292
 30
0.0
 40
0.5
100
AcDbArc
 50
0.0
 51
90.0
  0
LINE
  5
1D15
330
1F
100
AcDbEntity
  8
中心線
 48
0.05
100
AcDbLine
 10
33714.98520738138
 20
28835.95085042292
 30
0.0
 11
33714.98520738138
 21
28829.95085042292
 31
0.0
  0
LINE
  5
1D16
330
1F
100
AcDbEntity
  8
外形線
100
AcDbLine
 10
33862.98520738138
 20
28833.75085042292
 30
0.0
 11
33862.98520738138
 21
28826.05085042293
 31
0.0
  0
LINE
  5
1D17
330
1F
100
AcDbEntity
  8
外形線
100
AcDbLine
 10
33862.98520738138
 20
28826.05085042293
 30
0.0
 11
33884.98520738138
 21
28826.05085042293
 31
0.0
  0
LINE
  5
1D18
330
1F
100
AcDbEntity
  8
外形線
100
AcDbLine
 10
33884.98520738138
 20
28826.05085042293
 30
0.0
 11
33884.98520738138
 21
28833.75085042292
 31
0.0
  0
LINE
  5
1D19
330
1F
100
AcDbEntity
  8
外形線
100
AcDbLine
 10
33884.98520738138
 20
28833.75085042292
 30
0.0
 11
33881.98520738138
 21
28833.75085042292
 31
0.0
  0
LINE
  5
1D1A
330
1F
100
AcDbEntity
  8
外形線
100
AcDbLine
 10
33878.98520738138
 20
28833.75085042292
 30
0.0
 11
33868.98520738138
 21
28833.75085042292
 31
0.0
  0
LINE
  5
1D1B
330
1F
100
AcDbEntity
  8
外形線
100
AcDbLine
 10
33865.98520738138
 20
28833.75085042292
 30
0.0
 11
33862.98520738138
 21
28833.75085042292
 31
0.0
  0
LINE
  5
1D1C
330
1F
100
AcDbEntity
  8
外形線
100
AcDbLine
 10
33865.98520738138
 20
28833.75085042292
 30
0.0
 11
33866.98520738138
 21
28832.95085042292
 31
0.0
  0
LINE
  5
1D1D
330
1F
100
AcDbEntity
  8
外形線
100
AcDbLine
 10
33866.98520738138
 20
28832.95085042292
 30
0.0
 11
33867.98520738138
 21
28832.95085042292
 31
0.0
  0
LINE
  5
1D1E
330
1F
100
AcDbEntity
  8
外形線
100
AcDbLine
 10
33867.98520738138
 20
28832.95085042292
 30
0.0
 11
33868.98520738138
 21
28833.75085042292
 31
0.0
  0
LINE
  5
1D1F
330
1F
100
AcDbEntity
  8
外形線
100
AcDbLine
 10
33878.98520738138
 20
28833.75085042292
 30
0.0
 11
33879.98520738138
 21
28832.95085042292
 31
0.0
  0
LINE
  5
1D20
330
1F
100
AcDbEntity
  8
外形線
100
AcDbLine
 10
33879.98520738138
 20
28832.95085042292
 30
0.0
 11
33880.98520738138
 21
28832.95085042292
 31
0.0
  0
LINE
  5
1D21
330
1F
100
AcDbEntity
  8
外形線
100
AcDbLine
 10
33880.98520738138
 20
28832.95085042292
 30
0.0
 11
33881.98520738138
 21
28833.75085042292
 31
0.0
  0
LINE
  5
1D22
330
1F
100
AcDbEntity
  8
外形線
100
AcDbLine
 10
34003.98520738138
 20
28833.75085042292
 30
0.0
 11
34003.98520738138
 21
28826.05085042293
 31
0.0
  0
LINE
  5
1D23
330
1F
100
AcDbEntity
  8
外形線
100
AcDbLine
 10
34003.98520738138
 20
28826.05085042293
 30
0.0
 11
34025.98520738138
 21
28826.05085042293
 31
0.0
  0
LINE
  5
1D24
330
1F
100
AcDbEntity
  8
外形線
100
AcDbLine
 10
34025.98520738138
 20
28826.05085042293
 30
0.0
 11
34025.98520738138
 21
28833.75085042292
 31
0.0
  0
LINE
  5
1D25
330
1F
100
AcDbEntity
  8
外形線
100
AcDbLine
 10
34025.98520738138
 20
28833.75085042292
 30
0.0
 11
34022.98520738138
 21
28833.75085042292
 31
0.0
  0
LINE
  5
1D26
330
1F
100
AcDbEntity
  8
外形線
100
AcDbLine
 10
34019.98520738138
 20
28833.75085042292
 30
0.0
 11
34009.98520738138
 21
28833.75085042292
 31
0.0
  0
LINE
  5
1D27
330
1F
100
AcDbEntity
  8
外形線
100
AcDbLine
 10
34006.98520738138
 20
28833.75085042292
 30
0.0
 11
34003.98520738138
 21
28833.75085042292
 31
0.0
  0
LINE
  5
1D28
330
1F
100
AcDbEntity
  8
外形線
100
AcDbLine
 10
34006.98520738138
 20
28833.75085042292
 30
0.0
 11
34007.98520738138
 21
28832.95085042292
 31
0.0
  0
LINE
  5
1D29
330
1F
100
AcDbEntity
  8
外形線
100
AcDbLine
 10
34007.98520738138
 20
28832.95085042292
 30
0.0
 11
34008.98520738138
 21
28832.95085042292
 31
0.0
  0
LINE
  5
1D2A
330
1F
100
AcDbEntity
  8
外形線
100
AcDbLine
 10
34008.98520738138
 20
28832.95085042292
 30
0.0
 11
34009.98520738138
 21
28833.75085042292
 31
0.0
  0
LINE
  5
1D2B
330
1F
100
AcDbEntity
  8
外形線
100
AcDbLine
 10
34019.98520738138
 20
28833.75085042292
 30
0.0
 11
34020.98520738138
 21
28832.95085042292
 31
0.0
  0
LINE
  5
1D2C
330
1F
100
AcDbEntity
  8
外形線
100
AcDbLine
 10
34020.98520738138
 20
28832.95085042292
 30
0.0
 11
34021.98520738138
 21
28832.95085042292
 31
0.0
  0
LINE
  5
1D2D
330
1F
100
AcDbEntity
  8
外形線
100
AcDbLine
 10
34021.98520738138
 20
28832.95085042292
 30
0.0
 11
34022.98520738138
 21
28833.75085042292
 31
0.0
  0
LINE
  5
1D2E
330
1F
100
AcDbEntity
  8
外形線
100
AcDbLine
 10
33880.28520738139
 20
28857.75085042292
 30
0.0
 11
33880.28520738139
 21
28833.75085042292
 31
0.0
  0
LINE
  5
1D2F
330
1F
100
AcDbEntity
  8
外形線
100
AcDbLine
 10
33880.28520738139
 20
28833.75085042292
 30
0.0
 11
34007.28520738139
 21
28833.75085042292
 31
0.0
  0
LINE
  5
1D30
330
1F
100
AcDbEntity
  8
外形線
100
AcDbLine
 10
34007.28520738139
 20
28833.75085042292
 30
0.0
 11
34007.28520738139
 21
28857.75085042292
 31
0.0
  0
ARC
  5
1D31
330
1F
100
AcDbEntity
  8
外形線
100
AcDbCircle
 10
34006.28520738139
 20
28857.75085042292
 30
0.0
 40
1.0
100
AcDbArc
 50
0.0
 51
90.0
  0
LINE
  5
1D32
330
1F
100
AcDbEntity
  8
外形線
100
AcDbLine
 10
34006.28520738139
 20
28858.75085042292
 30
0.0
 11
33881.28520738138
 21
28858.75085042292
 31
0.0
  0
ARC
  5
1D33
330
1F
100
AcDbEntity
  8
外形線
100
AcDbCircle
 10
33881.28520738138
 20
28857.75085042292
 30
0.0
 40
1.0
100
AcDbArc
 50
90.0
 51
180.0
  0
LINE
  5
1D34
330
1F
100
AcDbEntity
  8
外形線
100
AcDbLine
 10
33880.28520738139
 20
28841.75085042292
 30
0.0
 11
33876.68520738139
 21
28835.75085042292
 31
0.0
  0
LINE
  5
1D35
330
1F
100
AcDbEntity
  8
外形線
100
AcDbLine
 10
33876.68520738139
 20
28835.75085042292
 30
0.0
 11
33868.78520738139
 21
28835.75085042292
 31
0.0
  0
LINE
  5
1D36
330
1F
100
AcDbEntity
  8
外形線
100
AcDbLine
 10
33868.28520738139
 20
28835.25085042292
 30
0.0
 11
33868.28520738139
 21
28833.75085042292
 31
0.0
  0
ARC
  5
1D37
330
1F
100
AcDbEntity
  8
外形線
100
AcDbCircle
 10
33868.78520738139
 20
28835.25085042292
 30
0.0
 40
0.5
100
AcDbArc
 50
90.0
 51
180.0
  0
LINE
  5
1D38
330
1F
100
AcDbEntity
  8
外形線
100
AcDbLine
 10
33868.28520738139
 20
28833.75085042292
 30
0.0
 11
33880.28520738139
 21
28833.75085042292
 31
0.0
  0
LINE
  5
1D39
330
1F
100
AcDbEntity
  8
外形線
100
AcDbLine
 10
34007.28520738139
 20
28841.75085042292
 30
0.0
 11
34010.88520738138
 21
28835.75085042292
 31
0.0
  0
LINE
  5
1D3A
330
1F
100
AcDbEntity
  8
外形線
100
AcDbLine
 10
34010.88520738138
 20
28835.75085042292
 30
0.0
 11
34018.78520738139
 21
28835.75085042292
 31
0.0
  0
LINE
  5
1D3B
330
1F
100
AcDbEntity
  8
外形線
100
AcDbLine
 10
34019.28520738139
 20
28835.25085042292
 30
0.0
 11
34019.28520738139
 21
28833.75085042292
 31
0.0
  0
ARC
  5
1D3C
330
1F
100
AcDbEntity
  8
外形線
100
AcDbCircle
 10
34018.78520738139
 20
28835.25085042292
 30
0.0
 40
0.5
100
AcDbArc
 50
0.0
 51
90.0
  0
LINE
  5
1D3D
330
1F
100
AcDbEntity
  8
外形線
100
AcDbLine
 10
34019.28520738139
 20
28833.75085042292
 30
0.0
 11
34007.28520738139
 21
28833.75085042292
 31
0.0
  0
LINE
  5
1D3E
330
1F
100
AcDbEntity
  8
外形線
100
AcDbLine
 10
33699.98520738138
 20
28832.15085042292
 30
0.0
 11
33479.48520738138
 21
28832.15085042292
 31
0.0
  0
LINE
  5
1D3F
330
1F
100
AcDbEntity
  8
外形線
100
AcDbLine
 10
33862.98520738138
 20
28832.15085042292
 30
0.0
 11
33794.98520738138
 21
28832.15085042292
 31
0.0
  0
LINE
  5
1D40
330
1F
100
AcDbEntity
  8
外形線
100
AcDbLine
 10
34003.98520738138
 20
28832.15085042292
 30
0.0
 11
33884.98520738138
 21
28832.15085042292
 31
0.0
  0
LINE
  5
1D41
330
1F
100
AcDbEntity
  8
外形線
100
AcDbLine
 10
34732.18665228383
 20
28853.95085077193
 30
0.0
 11
34724.38665228382
 21
28853.95085077193
 31
0.0
  0
LINE
  5
1D42
330
1F
100
AcDbEntity
  8
外形線
100
AcDbLine
 10
34690.38665228384
 20
28853.95085077193
 30
0.0
 11
34687.18665228383
 21
28853.95085077193
 31
0.0
  0
LINE
  5
1D43
102
{ACAD_REACTORS
330
2003
330
2037
102
}
330
1F
100
AcDbEntity
  8
外形線
100
AcDbLine
 10
34687.18665228383
 20
28853.95085077193
 30
0.0
 11
34687.18665228383
 21
28833.95085077193
 31
0.0
  0
LINE
  5
1D44
330
1F
100
AcDbEntity
  8
外形線
100
AcDbLine
 10
34687.18665228383
 20
28833.95085077193
 30
0.0
 11
34732.18665228383
 21
28833.95085077193
 31
0.0
  0
LINE
  5
1D45
102
{ACAD_REACTORS
330
2003
330
201D
102
}
330
1F
100
AcDbEntity
  8
外形線
100
AcDbLine
 10
34732.18665228383
 20
28833.95085077193
 30
0.0
 11
34732.18665228383
 21
28853.95085077193
 31
0.0
  0
LINE
  5
1D46
330
1F
100
AcDbEntity
  8
外形線
100
AcDbLine
 10
34690.38665228383
 20
28844.95085077194
 30
0.0
 11
34687.18665228383
 21
28844.95085077194
 31
0.0
  0
LINE
  5
1D47
330
1F
100
AcDbEntity
  8
外形線
100
AcDbLine
 10
34687.18665228383
 20
28844.95085077194
 30
0.0
 11
34687.18665228383
 21
28842.95085077194
 31
0.0
  0
LINE
  5
1D48
330
1F
100
AcDbEntity
  8
外形線
100
AcDbLine
 10
34687.18665228383
 20
28842.95085077194
 30
0.0
 11
34690.38665228383
 21
28842.95085077193
 31
0.0
  0
LINE
  5
1D49
330
1F
100
AcDbEntity
  8
外形線
100
AcDbLine
 10
34720.88665228382
 20
28826.25085077194
 30
0.0
 11
34720.88665228382
 21
28833.95085077194
 31
0.0
  0
LINE
  5
1D4A
330
1F
100
AcDbEntity
  8
外形線
100
AcDbLine
 10
34710.3298648381
 20
28833.95085077194
 30
0.0
 11
34704.44343972956
 21
28833.95085077193
 31
0.0
  0
LINE
  5
1D4B
330
1F
100
AcDbEntity
  8
外形線
100
AcDbLine
 10
34693.88665228382
 20
28833.95085077194
 30
0.0
 11
34693.88665228382
 21
28826.25085077194
 31
0.0
  0
LINE
  5
1D4C
330
1F
100
AcDbEntity
  8
外形線
100
AcDbLine
 10
34693.88665228382
 20
28826.25085077194
 30
0.0
 11
34694.68665228383
 21
28826.25085077194
 31
0.0
  0
LINE
  5
1D4D
330
1F
100
AcDbEntity
  8
外形線
100
AcDbLine
 10
34694.68665228383
 20
28826.25085077194
 30
0.0
 11
34694.68665228383
 21
28833.15085077193
 31
0.0
  0
LINE
  5
1D4E
330
1F
100
AcDbEntity
  8
外形線
100
AcDbLine
 10
34694.68665228383
 20
28833.15085077193
 30
0.0
 11
34697.63665228382
 21
28833.15085077194
 31
0.0
  0
LINE
  5
1D4F
330
1F
100
AcDbEntity
  8
外形線
100
AcDbLine
 10
34704.6113143408
 20
28833.15085077194
 30
0.0
 11
34710.16199022686
 21
28833.15085077194
 31
0.0
  0
LINE
  5
1D50
330
1F
100
AcDbEntity
  8
外形線
100
AcDbLine
 10
34717.13665228381
 20
28833.15085077193
 30
0.0
 11
34720.08665228382
 21
28833.15085077193
 31
0.0
  0
LINE
  5
1D51
330
1F
100
AcDbEntity
  8
外形線
100
AcDbLine
 10
34720.08665228382
 20
28833.15085077193
 30
0.0
 11
34720.08665228382
 21
28826.25085077194
 31
0.0
  0
LINE
  5
1D52
330
1F
100
AcDbEntity
  8
外形線
100
AcDbLine
 10
34720.08665228382
 20
28826.25085077194
 30
0.0
 11
34720.88665228382
 21
28826.25085077194
 31
0.0
  0
LINE
  5
1D53
330
1F
100
AcDbEntity
  8
外形線
100
AcDbLine
 10
34720.08665228382
 20
28832.15085077194
 30
0.0
 11
34717.13665228382
 21
28832.15085077194
 31
0.0
  0
LINE
  5
1D54
330
1F
100
AcDbEntity
  8
外形線
100
AcDbLine
 10
34709.55517744994
 20
28832.15085077194
 30
0.0
 11
34705.21812711772
 21
28832.15085077194
 31
0.0
  0
LINE
  5
1D55
330
1F
100
AcDbEntity
  8
外形線
100
AcDbLine
 10
34697.63665228382
 20
28832.15085077194
 30
0.0
 11
34694.68665228383
 21
28832.15085077194
 31
0.0
  0
LINE
  5
1D56
330
1F
100
AcDbEntity
  8
外形線
100
AcDbLine
 10
34690.38665228383
 20
28833.95085077193
 30
0.0
 11
34690.38665228383
 21
28857.95085077194
 31
0.0
  0
LINE
  5
1D57
330
1F
100
AcDbEntity
  8
外形線
100
AcDbLine
 10
34691.38665228383
 20
28858.95085077193
 30
0.0
 11
34697.63665228383
 21
28858.95085077193
 31
0.0
  0
LINE
  5
1D58
330
1F
100
AcDbEntity
  8
外形線
100
AcDbLine
 10
34717.13665228383
 20
28858.95085077193
 30
0.0
 11
34723.38665228383
 21
28858.95085077193
 31
0.0
  0
ARC
  5
1D59
330
1F
100
AcDbEntity
  8
外形線
100
AcDbCircle
 10
34723.38665228383
 20
28857.95085077194
 30
0.0
 40
1.0
100
AcDbArc
 50
0.0
 51
90.0
  0
ARC
  5
1D5A
330
1F
100
AcDbEntity
  8
外形線
100
AcDbCircle
 10
34691.38665228383
 20
28857.95085077194
 30
0.0
 40
1.0
100
AcDbArc
 50
90.0
 51
180.0
  0
LINE
  5
1D5B
330
1F
100
AcDbEntity
  8
外形線
100
AcDbLine
 10
34724.38665228383
 20
28857.95085077194
 30
0.0
 11
34724.38665228383
 21
28833.95085077193
 31
0.0
  0
ARC
  5
1D5C
330
1F
100
AcDbEntity
  8
外形線
100
AcDbCircle
 10
34710.18665228383
 20
28835.45085077193
 30
0.0
 40
0.5
100
AcDbArc
 50
135.3331853032547
 51
180.0
  0
LINE
  5
1D5D
330
1F
100
AcDbEntity
  8
外形線
100
AcDbLine
 10
34705.08665228383
 20
28833.95085077193
 30
0.0
 11
34705.08665228383
 21
28835.45085077193
 31
0.0
  0
LINE
  5
1D5E
330
1F
100
AcDbEntity
  8
外形線
100
AcDbLine
 10
34709.68665228383
 20
28833.95085077193
 30
0.0
 11
34709.68665228383
 21
28835.45085077193
 31
0.0
  0
ARC
  5
1D5F
330
1F
100
AcDbEntity
  8
外形線
100
AcDbCircle
 10
34704.58665228383
 20
28835.45085077193
 30
0.0
 40
0.5
100
AcDbArc
 50
0.0
 51
44.66681469674528
  0
LINE
  5
1D60
330
1F
100
AcDbEntity
  8
外形線
100
AcDbLine
 10
34705.04945337411
 20
28835.95085077193
 30
0.0
 11
34709.72385119354
 21
28835.95085077194
 31
0.0
  0
LINE
  5
1D61
102
{ACAD_REACTORS
330
1FEB
330
201D
330
2037
102
}
330
1F
100
AcDbEntity
  8
中心線
100
AcDbLine
 10
34707.38665228382
 20
28920.15085042292
 30
0.0
 11
34707.38665228382
 21
28809.5260203261
 31
0.0
  0
LINE
  5
1D81
102
{ACAD_REACTORS
330
1FD3
102
}
330
1F
100
AcDbEntity
  8
中心線
100
AcDbLine
 10
33456.92377844156
 20
28900.90085042291
 30
0.0
 11
34745.13674466269
 21
28900.90085042291
 31
0.0
  0
LINE
  5
1D82
330
1F
100
AcDbEntity
  8
点線
100
AcDbLine
 10
33504.13492405956
 20
28885.79527761391
 30
0.0
 11
33504.92377844156
 21
28885.40085042291
 31
0.0
  0
ARC
  5
1D83
330
1F
100
AcDbEntity
  8
点線
100
AcDbCircle
 10
33503.68771046406
 20
28884.90085042291
 30
0.0
 40
1.0
100
AcDbArc
 50
63.43494882292347
 51
90.0
  0
LINE
  5
1D84
330
1F
100
AcDbEntity
  8
点線
100
AcDbLine
 10
33504.92377844156
 20
28885.40085042291
 30
0.0
 11
33504.92377844156
 21
28916.40085042292
 31
0.0
  0
LINE
  5
1D85
330
1F
100
AcDbEntity
  8
点線
100
AcDbLine
 10
33504.92377844156
 20
28916.40085042292
 30
0.0
 11
33504.13492405956
 21
28916.00642323192
 31
0.0
  0
ARC
  5
1D86
330
1F
100
AcDbEntity
  8
点線
100
AcDbCircle
 10
33503.68771046406
 20
28916.90085042291
 30
0.0
 40
1.0
100
AcDbArc
 50
270.0
 51
296.5650511770761
  0
LINE
  5
1D87
330
1F
100
AcDbEntity
  8
点線
100
AcDbLine
 10
33503.68771046406
 20
28915.90085042291
 30
0.0
 11
33494.92377844156
 21
28915.90085042291
 31
0.0
  0
LINE
  5
1D88
330
1F
100
AcDbEntity
  8
点線
100
AcDbLine
 10
33493.92377844156
 20
28914.90085042292
 30
0.0
 11
33493.92377844156
 21
28886.90085042291
 31
0.0
  0
ARC
  5
1D89
330
1F
100
AcDbEntity
  8
点線
100
AcDbCircle
 10
33494.92377844156
 20
28914.90085042292
 30
0.0
 40
1.0
100
AcDbArc
 50
90.0
 51
180.0
  0
LINE
  5
1D8A
330
1F
100
AcDbEntity
  8
点線
100
AcDbLine
 10
33494.92377844156
 20
28885.90085042292
 30
0.0
 11
33503.68771046406
 21
28885.90085042292
 31
0.0
  0
ARC
  5
1D8B
330
1F
100
AcDbEntity
  8
点線
100
AcDbCircle
 10
33494.92377844156
 20
28886.90085042291
 30
0.0
 40
1.0
100
AcDbArc
 50
180.0
 51
270.0
  0
LINE
  5
1D8C
330
1F
100
AcDbEntity
  8
点線
100
AcDbLine
 10
34483.71263282356
 20
28885.79527761391
 30
0.0
 11
34482.92377844156
 21
28885.40085042291
 31
0.0
  0
ARC
  5
1D8D
330
1F
100
AcDbEntity
  8
点線
100
AcDbCircle
 10
34484.15984641906
 20
28884.90085042291
 30
0.0
 40
1.0
100
AcDbArc
 50
90.0
 51
116.5650511770765
  0
LINE
  5
1D8E
330
1F
100
AcDbEntity
  8
点線
100
AcDbLine
 10
34482.92377844156
 20
28885.40085042291
 30
0.0
 11
34482.92377844156
 21
28916.40085042292
 31
0.0
  0
LINE
  5
1D8F
330
1F
100
AcDbEntity
  8
点線
100
AcDbLine
 10
34482.92377844156
 20
28916.40085042292
 30
0.0
 11
34483.71263282356
 21
28916.00642323192
 31
0.0
  0
ARC
  5
1D90
330
1F
100
AcDbEntity
  8
点線
100
AcDbCircle
 10
34484.15984641906
 20
28916.90085042291
 30
0.0
 40
1.0
100
AcDbArc
 50
243.4349488229235
 51
270.0
  0
LINE
  5
1D91
330
1F
100
AcDbEntity
  8
点線
100
AcDbLine
 10
34484.15984641906
 20
28915.90085042291
 30
0.0
 11
34492.92377844156
 21
28915.90085042291
 31
0.0
  0
LINE
  5
1D92
330
1F
100
AcDbEntity
  8
点線
100
AcDbLine
 10
34493.92377844156
 20
28914.90085042292
 30
0.0
 11
34493.92377844156
 21
28886.90085042291
 31
0.0
  0
ARC
  5
1D93
330
1F
100
AcDbEntity
  8
点線
100
AcDbCircle
 10
34492.92377844156
 20
28914.90085042292
 30
0.0
 40
1.0
100
AcDbArc
 50
0.0
 51
90.0
  0
LINE
  5
1D94
330
1F
100
AcDbEntity
  8
点線
100
AcDbLine
 10
34492.92377844156
 20
28885.90085042292
 30
0.0
 11
34484.15984641906
 21
28885.90085042292
 31
0.0
  0
ARC
  5
1D95
330
1F
100
AcDbEntity
  8
点線
100
AcDbCircle
 10
34492.92377844156
 20
28886.90085042291
 30
0.0
 40
1.0
100
AcDbArc
 50
270.0
 51
0.0
  0
LINE
  5
1D96
330
1F
100
AcDbEntity
  8
点線
100
AcDbLine
 10
33504.92377844156
 20
28915.40085042291
 30
0.0
 11
33993.92377844156
 21
28915.40085042291
 31
0.0
  0
LINE
  5
1D97
330
1F
100
AcDbEntity
  8
点線
100
AcDbLine
 10
33993.92377844156
 20
28915.40085042291
 30
0.0
 11
34482.92377844156
 21
28915.40085042291
 31
0.0
  0
LINE
  5
1D98
330
1F
100
AcDbEntity
  8
点線
100
AcDbLine
 10
34482.92377844156
 20
28886.40085042291
 30
0.0
 11
33993.92377844156
 21
28886.40085042291
 31
0.0
  0
LINE
  5
1D99
330
1F
100
AcDbEntity
  8
点線
100
AcDbLine
 10
33993.92377844156
 20
28886.40085042291
 30
0.0
 11
33504.92377844156
 21
28886.40085042291
 31
0.0
  0
LINE
  5
1DB0
330
1F
100
AcDbEntity
  8
中心線
100
AcDbLine
 10
33458.48520738138
 20
29214.63955901471
 30
0.0
 11
34540.70201678864
 21
29214.63955901472
 31
0.0
  0
CIRCLE
  5
1DB1
330
1F
100
AcDbEntity
  8
孔
100
AcDbCircle
 10
33873.98520738138
 20
29214.63955901471
 30
0.0
 40
2.1
  0
CIRCLE
  5
1DB2
330
1F
100
AcDbEntity
  8
孔
100
AcDbCircle
 10
34014.98520738138
 20
29214.63955901471
 30
0.0
 40
2.1
  0
LINE
  5
1DB3
330
1F
100
AcDbEntity
  8
孔
100
AcDbLine
 10
33862.96101224653
 20
29218.27263225639
 30
0.0
 11
33862.98520738138
 21
29218.08050011566
 31
0.0
  0
LINE
  5
1DB4
330
1F
100
AcDbEntity
  8
外形線
100
AcDbLine
 10
33699.98520738138
 20
29228.13955901471
 30
0.0
 11
33699.98520738138
 21
29201.13955901472
 31
0.0
  0
LINE
  5
1DB5
330
1F
100
AcDbEntity
  8
外形線
100
AcDbLine
 10
33699.98520738138
 20
29201.13955901472
 30
0.0
 11
33703.98520738138
 21
29201.13955901471
 31
0.0
  0
LINE
  5
1DB6
330
1F
100
AcDbEntity
  8
外形線
100
AcDbLine
 10
33737.98520738138
 20
29201.13955901472
 30
0.0
 11
33794.98520738138
 21
29201.13955901472
 31
0.0
  0
LINE
  5
1DB7
330
1F
100
AcDbEntity
  8
外形線
100
AcDbLine
 10
33794.98520738138
 20
29201.13955901472
 30
0.0
 11
33794.98520738138
 21
29228.13955901471
 31
0.0
  0
LINE
  5
1DB8
330
1F
100
AcDbEntity
  8
外形線
100
AcDbLine
 10
33794.98520738138
 20
29228.13955901471
 30
0.0
 11
33725.98520738138
 21
29228.13955901471
 31
0.0
  0
LINE
  5
1DB9
330
1F
100
AcDbEntity
  8
外形線
100
AcDbLine
 10
33703.98520738138
 20
29228.13955901471
 30
0.0
 11
33699.98520738138
 21
29228.13955901471
 31
0.0
  0
CIRCLE
  5
1DBA
330
1F
100
AcDbEntity
  8
外形線
100
AcDbCircle
 10
33754.98520738138
 20
29214.63955901471
 30
0.0
 40
2.299999999999999
  0
CIRCLE
  5
1DBB
330
1F
100
AcDbEntity
  8
外形線
100
AcDbCircle
 10
33774.98520738138
 20
29214.63955901471
 30
0.0
 40
1.6
  0
LINE
  5
1DBC
330
1F
100
AcDbEntity
  8
外形線
100
AcDbLine
 10
33703.98520738138
 20
29239.13955901472
 30
0.0
 11
33703.98520738138
 21
29195.13955901472
 31
0.0
  0
ARC
  5
1DBD
330
1F
100
AcDbEntity
  8
外形線
100
AcDbCircle
 10
33704.48520738138
 20
29239.13955901472
 30
0.0
 40
0.5
100
AcDbArc
 50
90.0
 51
180.0
  0
ARC
  5
1DBE
330
1F
100
AcDbEntity
  8
外形線
100
AcDbCircle
 10
33704.48520738138
 20
29195.13955901472
 30
0.0
 40
0.5
100
AcDbArc
 50
180.0
 51
270.0
  0
LINE
  5
1DBF
330
1F
100
AcDbEntity
  8
外形線
100
AcDbLine
 10
33704.48520738138
 20
29194.63955901472
 30
0.0
 11
33725.48520738138
 21
29194.63955901472
 31
0.0
  0
LINE
  5
1DC0
330
1F
100
AcDbEntity
  8
外形線
100
AcDbLine
 10
33725.98520738138
 20
29195.13955901472
 30
0.0
 11
33725.98520738138
 21
29239.13955901472
 31
0.0
  0
ARC
  5
1DC1
330
1F
100
AcDbEntity
  8
外形線
100
AcDbCircle
 10
33725.48520738138
 20
29195.13955901472
 30
0.0
 40
0.5
100
AcDbArc
 50
270.0
 51
0.0
  0
ARC
  5
1DC2
330
1F
100
AcDbEntity
  8
外形線
100
AcDbCircle
 10
33725.48520738138
 20
29239.13955901472
 30
0.0
 40
0.5
100
AcDbArc
 50
0.0
 51
90.0
  0
LINE
  5
1DC3
330
1F
100
AcDbEntity
  8
外形線
100
AcDbLine
 10
33725.48520738138
 20
29239.63955901472
 30
0.0
 11
33704.48520738138
 21
29239.63955901472
 31
0.0
  0
LINE
  5
1DC4
330
1F
100
AcDbEntity
  8
外形線
100
AcDbLine
 10
33725.98520738138
 20
29222.63955901472
 30
0.0
 11
33737.48520738138
 21
29222.63955901472
 31
0.0
  0
ARC
  5
1DC5
330
1F
100
AcDbEntity
  8
外形線
100
AcDbCircle
 10
33737.48520738138
 20
29222.13955901471
 30
0.0
 40
0.5
100
AcDbArc
 50
0.0
 51
90.0
  0
LINE
  5
1DC6
330
1F
100
AcDbEntity
  8
外形線
100
AcDbLine
 10
33737.98520738138
 20
29222.13955901471
 30
0.0
 11
33737.98520738138
 21
29195.13955901472
 31
0.0
  0
ARC
  5
1DC7
330
1F
100
AcDbEntity
  8
外形線
100
AcDbCircle
 10
33737.48520738138
 20
29195.13955901472
 30
0.0
 40
0.5
100
AcDbArc
 50
270.0
 51
0.0
  0
LINE
  5
1DC8
330
1F
100
AcDbEntity
  8
外形線
100
AcDbLine
 10
33737.48520738138
 20
29194.63955901472
 30
0.0
 11
33725.48520738138
 21
29194.63955901472
 31
0.0
  0
CIRCLE
  5
1DC9
330
1F
100
AcDbEntity
  8
孔
100
AcDbCircle
 10
33707.98520738138
 20
29232.13955901472
 30
0.0
 40
2.149999999999999
  0
CIRCLE
  5
1DCA
330
1F
100
AcDbEntity
  8
孔
100
AcDbCircle
 10
33721.98520738138
 20
29232.13955901472
 30
0.0
 40
2.149999999999999
  0
CIRCLE
  5
1DCB
330
1F
100
AcDbEntity
  8
孔
100
AcDbCircle
 10
33707.98520738138
 20
29213.13955901472
 30
0.0
 40
2.149999999999999
  0
CIRCLE
  5
1DCC
330
1F
100
AcDbEntity
  8
孔
100
AcDbCircle
 10
33721.98520738138
 20
29213.13955901472
 30
0.0
 40
2.149999999999999
  0
CIRCLE
  5
1DCD
330
1F
100
AcDbEntity
  8
孔
100
AcDbCircle
 10
33707.98520738138
 20
29203.13955901471
 30
0.0
 40
2.149999999999999
  0
CIRCLE
  5
1DCE
330
1F
100
AcDbEntity
  8
孔
100
AcDbCircle
 10
33721.98520738138
 20
29203.13955901471
 30
0.0
 40
2.149999999999999
  0
LINE
  5
1DCF
330
1F
100
AcDbEntity
  8
外形線
100
AcDbLine
 10
33712.98520738138
 20
29235.63955901471
 30
0.0
 11
33712.98520738138
 21
29227.63955901471
 31
0.0
  0
LINE
  5
1DD0
330
1F
100
AcDbEntity
  8
外形線
100
AcDbLine
 10
33712.98520738138
 20
29227.63955901471
 30
0.0
 11
33716.98520738138
 21
29227.63955901471
 31
0.0
  0
LINE
  5
1DD1
330
1F
100
AcDbEntity
  8
外形線
100
AcDbLine
 10
33716.98520738138
 20
29227.63955901471
 30
0.0
 11
33716.98520738138
 21
29235.63955901471
 31
0.0
  0
LINE
  5
1DD2
330
1F
100
AcDbEntity
  8
外形線
100
AcDbLine
 10
33716.98520738138
 20
29235.63955901471
 30
0.0
 11
33712.98520738138
 21
29235.63955901471
 31
0.0
  0
LINE
  5
1DD3
330
1F
100
AcDbEntity
  8
外形線
100
AcDbLine
 10
33712.98520738138
 20
29212.63955901471
 30
0.0
 11
33712.98520738138
 21
29202.63955901472
 31
0.0
  0
LINE
  5
1DD4
330
1F
100
AcDbEntity
  8
外形線
100
AcDbLine
 10
33712.98520738138
 20
29202.63955901472
 30
0.0
 11
33716.98520738138
 21
29202.63955901472
 31
0.0
  0
LINE
  5
1DD5
330
1F
100
AcDbEntity
  8
外形線
100
AcDbLine
 10
33716.98520738138
 20
29202.63955901472
 30
0.0
 11
33716.98520738138
 21
29212.63955901471
 31
0.0
  0
LINE
  5
1DD6
330
1F
100
AcDbEntity
  8
外形線
100
AcDbLine
 10
33716.98520738138
 20
29212.63955901471
 30
0.0
 11
33712.98520738138
 21
29212.63955901471
 31
0.0
  0
LINE
  5
1DD7
330
1F
100
AcDbEntity
  8
中心線
 48
0.05
100
AcDbLine
 10
33714.98520738138
 20
29223.63955901472
 30
0.0
 11
33719.98520738138
 21
29223.63955901472
 31
0.0
  0
LINE
  5
1DD8
330
1F
100
AcDbEntity
  8
中心線
 48
0.05
100
AcDbLine
 10
33714.98520738138
 20
29223.63955901472
 30
0.0
 11
33714.98520738138
 21
29228.63955901472
 31
0.0
  0
LINE
  5
1DD9
330
1F
100
AcDbEntity
  8
中心線
 48
0.05
100
AcDbLine
 10
33714.98520738138
 20
29223.63955901472
 30
0.0
 11
33709.98520738138
 21
29223.63955901472
 31
0.0
  0
LINE
  5
1DDA
330
1F
100
AcDbEntity
  8
中心線
 48
0.05
100
AcDbLine
 10
33714.98520738138
 20
29223.63955901472
 30
0.0
 11
33714.98520738138
 21
29218.63955901471
 31
0.0
  0
LINE
  5
1DDB
330
1F
100
AcDbEntity
  8
外形線
100
AcDbLine
 10
33726.48520738138
 20
29222.63955901472
 30
0.0
 11
33726.48520738138
 21
29212.63955901471
 31
0.0
  0
LINE
  5
1DDC
330
1F
100
AcDbEntity
  8
外形線
100
AcDbLine
 10
33726.48520738138
 20
29212.63955901471
 30
0.0
 11
33727.98520738138
 21
29212.63955901471
 31
0.0
  0
LINE
  5
1DDD
330
1F
100
AcDbEntity
  8
外形線
100
AcDbLine
 10
33727.98520738138
 20
29212.63955901471
 30
0.0
 11
33727.98520738138
 21
29204.63955901471
 31
0.0
  0
LINE
  5
1DDE
330
1F
100
AcDbEntity
  8
外形線
100
AcDbLine
 10
33727.98520738138
 20
29204.63955901471
 30
0.0
 11
33726.48520738138
 21
29204.63955901471
 31
0.0
  0
LINE
  5
1DDF
330
1F
100
AcDbEntity
  8
外形線
100
AcDbLine
 10
33726.48520738138
 20
29204.63955901471
 30
0.0
 11
33726.48520738138
 21
29194.63955901472
 31
0.0
  0
LINE
  5
1DE0
330
1F
100
AcDbEntity
  8
外形線
100
AcDbLine
 10
33732.98520738138
 20
29211.13955901472
 30
0.0
 11
33732.98520738138
 21
29206.13955901472
 31
0.0
  0
LINE
  5
1DE1
330
1F
100
AcDbEntity
  8
外形線
100
AcDbLine
 10
33732.98520738138
 20
29206.13955901472
 30
0.0
 11
33735.48520738138
 21
29206.13955901472
 31
0.0
  0
LINE
  5
1DE2
330
1F
100
AcDbEntity
  8
外形線
100
AcDbLine
 10
33735.48520738138
 20
29206.13955901472
 30
0.0
 11
33735.48520738138
 21
29211.13955901472
 31
0.0
  0
LINE
  5
1DE3
330
1F
100
AcDbEntity
  8
外形線
100
AcDbLine
 10
33735.48520738138
 20
29211.13955901472
 30
0.0
 11
33732.98520738138
 21
29211.13955901472
 31
0.0
  0
CIRCLE
  5
1DE4
330
1F
100
AcDbEntity
  8
外形線
100
AcDbCircle
 10
33873.98520738138
 20
29214.63955901471
 30
0.0
 40
2.149999999999999
  0
LINE
  5
1DE5
330
1F
100
AcDbEntity
  8
外形線
100
AcDbLine
 10
33862.98520738138
 20
29228.13955901471
 30
0.0
 11
33862.98520738138
 21
29201.13955901472
 31
0.0
  0
LINE
  5
1DE6
330
1F
100
AcDbEntity
  8
外形線
100
AcDbLine
 10
33862.98520738138
 20
29201.13955901472
 30
0.0
 11
33880.28520738139
 21
29201.13955901472
 31
0.0
  0
LINE
  5
1DE7
330
1F
100
AcDbEntity
  8
外形線
100
AcDbLine
 10
33880.28520738139
 20
29228.13955901471
 30
0.0
 11
33862.98520738138
 21
29228.13955901471
 31
0.0
  0
LINE
  5
1DE8
330
1F
100
AcDbEntity
  8
外形線
100
AcDbLine
 10
33865.98520738138
 20
29228.13955901471
 30
0.0
 11
33865.98520738138
 21
29201.13955901472
 31
0.0
  0
LINE
  5
1DE9
330
1F
100
AcDbEntity
  8
外形線
100
AcDbLine
 10
33868.98520738138
 20
29201.13955901472
 30
0.0
 11
33868.98520738137
 21
29208.63955901472
 31
0.0
  0
LINE
  5
1DEA
330
1F
100
AcDbEntity
  8
外形線
100
AcDbLine
 10
33868.98520738137
 20
29212.33955901471
 30
0.0
 11
33868.98520738138
 21
29216.93955901472
 31
0.0
  0
LINE
  5
1DEB
330
1F
100
AcDbEntity
  8
外形線
100
AcDbLine
 10
33868.98520738138
 20
29220.63955901472
 30
0.0
 11
33868.98520738138
 21
29228.13955901471
 31
0.0
  0
LINE
  5
1DEC
330
1F
100
AcDbEntity
  8
外形線
100
AcDbLine
 10
33878.98520738138
 20
29228.13955901471
 30
0.0
 11
33878.98520738138
 21
29220.63955901472
 31
0.0
  0
LINE
  5
1DED
330
1F
100
AcDbEntity
  8
外形線
100
AcDbLine
 10
33878.98520738138
 20
29208.63955901472
 30
0.0
 11
33878.98520738138
 21
29201.13955901472
 31
0.0
  0
CIRCLE
  5
1DEE
330
1F
100
AcDbEntity
  8
外形線
100
AcDbCircle
 10
34014.98520738138
 20
29214.63955901471
 30
0.0
 40
2.149999999999999
  0
LINE
  5
1DEF
330
1F
100
AcDbEntity
  8
外形線
100
AcDbLine
 10
34007.28520738139
 20
29201.13955901472
 30
0.0
 11
34025.98520738138
 21
29201.13955901472
 31
0.0
  0
LINE
  5
1DF0
330
1F
100
AcDbEntity
  8
外形線
100
AcDbLine
 10
34025.98520738138
 20
29201.13955901472
 30
0.0
 11
34025.98520738138
 21
29228.13955901471
 31
0.0
  0
LINE
  5
1DF1
330
1F
100
AcDbEntity
  8
外形線
100
AcDbLine
 10
34025.98520738138
 20
29228.13955901471
 30
0.0
 11
34007.28520738139
 21
29228.13955901471
 31
0.0
  0
LINE
  5
1DF2
330
1F
100
AcDbEntity
  8
外形線
100
AcDbLine
 10
34009.98520738138
 20
29201.13955901472
 30
0.0
 11
34009.98520738138
 21
29208.63955901472
 31
0.0
  0
LINE
  5
1DF3
330
1F
100
AcDbEntity
  8
外形線
100
AcDbLine
 10
34009.98520738138
 20
29220.63955901472
 30
0.0
 11
34009.98520738138
 21
29228.13955901471
 31
0.0
  0
LINE
  5
1DF4
330
1F
100
AcDbEntity
  8
外形線
100
AcDbLine
 10
34019.98520738138
 20
29228.13955901471
 30
0.0
 11
34019.98520738138
 21
29201.13955901472
 31
0.0
  0
LINE
  5
1DF5
330
1F
100
AcDbEntity
  8
外形線
100
AcDbLine
 10
34022.98520738138
 20
29201.13955901472
 30
0.0
 11
34022.98520738138
 21
29228.13955901471
 31
0.0
  0
LINE
  5
1DF6
330
1F
100
AcDbEntity
  8
外形線
100
AcDbLine
 10
33880.28520738139
 20
29230.63955901472
 30
0.0
 11
33880.28520738139
 21
29198.63955901472
 31
0.0
  0
ARC
  5
1DF7
330
1F
100
AcDbEntity
  8
外形線
100
AcDbCircle
 10
33881.28520738138
 20
29230.63955901472
 30
0.0
 40
1.0
100
AcDbArc
 50
90.0
 51
180.0
  0
LINE
  5
1DF8
330
1F
100
AcDbEntity
  8
外形線
100
AcDbLine
 10
33881.28520738138
 20
29197.63955901471
 30
0.0
 11
34006.28520738139
 21
29197.63955901471
 31
0.0
  0
ARC
  5
1DF9
330
1F
100
AcDbEntity
  8
外形線
100
AcDbCircle
 10
33881.28520738138
 20
29198.63955901472
 30
0.0
 40
1.0
100
AcDbArc
 50
180.0
 51
270.0
  0
LINE
  5
1DFA
330
1F
100
AcDbEntity
  8
外形線
100
AcDbLine
 10
34007.28520738139
 20
29198.63955901472
 30
0.0
 11
34007.28520738139
 21
29230.63955901472
 31
0.0
  0
ARC
  5
1DFB
330
1F
100
AcDbEntity
  8
外形線
100
AcDbCircle
 10
34006.28520738139
 20
29198.63955901472
 30
0.0
 40
1.0
100
AcDbArc
 50
270.0
 51
0.0
  0
LINE
  5
1DFC
330
1F
100
AcDbEntity
  8
外形線
100
AcDbLine
 10
34006.28520738139
 20
29231.63955901472
 30
0.0
 11
33881.28520738138
 21
29231.63955901472
 31
0.0
  0
ARC
  5
1DFD
330
1F
100
AcDbEntity
  8
外形線
100
AcDbCircle
 10
34006.28520738139
 20
29230.63955901472
 30
0.0
 40
1.0
100
AcDbArc
 50
0.0
 51
90.0
  0
LINE
  5
1DFE
330
1F
100
AcDbEntity
  8
外形線
100
AcDbLine
 10
33880.28520738139
 20
29220.63955901472
 30
0.0
 11
33868.58520738139
 21
29220.63955901472
 31
0.0
  0
LINE
  5
1DFF
330
1F
100
AcDbEntity
  8
外形線
100
AcDbLine
 10
33868.28520738139
 20
29220.33955901471
 30
0.0
 11
33868.28520738139
 21
29217.23955901472
 31
0.0
  0
ARC
  5
1E00
330
1F
100
AcDbEntity
  8
外形線
100
AcDbCircle
 10
33868.58520738139
 20
29217.23955901472
 30
0.0
 40
0.3
100
AcDbArc
 50
180.0
 51
270.0
  0
ARC
  5
1E01
330
1F
100
AcDbEntity
  8
外形線
100
AcDbCircle
 10
33868.58520738139
 20
29220.33955901471
 30
0.0
 40
0.3
100
AcDbArc
 50
90.0
 51
180.0
  0
LINE
  5
1E02
330
1F
100
AcDbEntity
  8
外形線
100
AcDbLine
 10
33868.58520738139
 20
29216.93955901472
 30
0.0
 11
33873.98520738138
 21
29216.93955901472
 31
0.0
  0
LINE
  5
1E03
330
1F
100
AcDbEntity
  8
外形線
100
AcDbLine
 10
33873.98520738138
 20
29212.33955901471
 30
0.0
 11
33868.58520738139
 21
29212.33955901471
 31
0.0
  0
ARC
  5
1E04
330
1F
100
AcDbEntity
  8
外形線
100
AcDbCircle
 10
33868.58520738139
 20
29212.03955901471
 30
0.0
 40
0.3
100
AcDbArc
 50
90.0
 51
180.0
  0
LINE
  5
1E05
330
1F
100
AcDbEntity
  8
外形線
100
AcDbLine
 10
33868.28520738139
 20
29212.03955901471
 30
0.0
 11
33868.28520738139
 21
29208.93955901472
 31
0.0
  0
LINE
  5
1E06
330
1F
100
AcDbEntity
  8
外形線
100
AcDbLine
 10
33868.58520738139
 20
29208.63955901472
 30
0.0
 11
33880.28520738139
 21
29208.63955901472
 31
0.0
  0
ARC
  5
1E07
330
1F
100
AcDbEntity
  8
外形線
100
AcDbCircle
 10
33868.58520738139
 20
29208.93955901472
 30
0.0
 40
0.3
100
AcDbArc
 50
180.0
 51
270.0
  0
ARC
  5
1E08
330
1F
100
AcDbEntity
  8
外形線
100
AcDbCircle
 10
33873.98520738138
 20
29214.63955901471
 30
0.0
 40
2.30000000000291
100
AcDbArc
 50
270.0
 51
90.0
  0
ARC
  5
1E09
330
1F
100
AcDbEntity
  8
外形線
100
AcDbCircle
 10
33876.95064645747
 20
29213.61513968863
 30
0.0
 40
6.030264183238933
100
AcDbArc
 50
56.4289276193567
 51
91.07027083668747
  0
ARC
  5
1E0A
330
1F
100
AcDbEntity
  8
外形線
100
AcDbCircle
 10
33876.83520738139
 20
29219.79432565275
 30
0.0
 40
0.15
100
AcDbArc
 50
180.0
 51
271.0702708366875
  0
LINE
  5
1E0B
330
1F
100
AcDbEntity
  8
外形線
100
AcDbLine
 10
33876.68520738139
 20
29220.63955901472
 30
0.0
 11
33876.68520738139
 21
29219.79432565275
 31
0.0
  0
ARC
  5
1E0C
330
1F
100
AcDbEntity
  8
外形線
100
AcDbCircle
 10
33876.95064645747
 20
29215.6639783408
 30
0.0
 40
6.030264183238933
100
AcDbArc
 50
268.9297291633125
 51
303.5710723806433
  0
ARC
  5
1E0D
330
1F
100
AcDbEntity
  8
外形線
100
AcDbCircle
 10
33876.83520738139
 20
29209.48479237668
 30
0.0
 40
0.15
100
AcDbArc
 50
88.92972916331252
 51
180.0
  0
LINE
  5
1E0E
330
1F
100
AcDbEntity
  8
外形線
100
AcDbLine
 10
33876.68520738139
 20
29208.63955901472
 30
0.0
 11
33876.68520738139
 21
29209.48479237668
 31
0.0
  0
LINE
  5
1E0F
330
1F
100
AcDbEntity
  8
外形線
100
AcDbLine
 10
34007.28520738139
 20
29220.63955901472
 30
0.0
 11
34018.98520738138
 21
29220.63955901472
 31
0.0
  0
LINE
  5
1E10
330
1F
100
AcDbEntity
  8
外形線
100
AcDbLine
 10
34019.28520738139
 20
29220.33955901471
 30
0.0
 11
34019.28520738139
 21
29217.23955901472
 31
0.0
  0
ARC
  5
1E11
330
1F
100
AcDbEntity
  8
外形線
100
AcDbCircle
 10
34018.98520738138
 20
29217.23955901472
 30
0.0
 40
0.3
100
AcDbArc
 50
270.0
 51
0.0
  0
ARC
  5
1E12
330
1F
100
AcDbEntity
  8
外形線
100
AcDbCircle
 10
34018.98520738138
 20
29220.33955901471
 30
0.0
 40
0.3
100
AcDbArc
 50
0.0
 51
90.0
  0
LINE
  5
1E13
330
1F
100
AcDbEntity
  8
外形線
100
AcDbLine
 10
34018.98520738138
 20
29216.93955901472
 30
0.0
 11
34013.58520738139
 21
29216.93955901472
 31
0.0
  0
LINE
  5
1E14
330
1F
100
AcDbEntity
  8
外形線
100
AcDbLine
 10
34013.58520738139
 20
29212.33955901471
 30
0.0
 11
34018.98520738138
 21
29212.33955901471
 31
0.0
  0
LINE
  5
1E15
330
1F
100
AcDbEntity
  8
外形線
100
AcDbLine
 10
34019.28520738139
 20
29212.03955901471
 30
0.0
 11
34019.28520738139
 21
29208.93955901472
 31
0.0
  0
ARC
  5
1E16
330
1F
100
AcDbEntity
  8
外形線
100
AcDbCircle
 10
34018.98520738138
 20
29212.03955901471
 30
0.0
 40
0.3
100
AcDbArc
 50
0.0
 51
90.0
  0
ARC
  5
1E17
330
1F
100
AcDbEntity
  8
外形線
100
AcDbCircle
 10
34018.98520738138
 20
29208.93955901472
 30
0.0
 40
0.3
100
AcDbArc
 50
270.0
 51
0.0
  0
LINE
  5
1E18
330
1F
100
AcDbEntity
  8
外形線
100
AcDbLine
 10
34018.98520738138
 20
29208.63955901472
 30
0.0
 11
34007.28520738139
 21
29208.63955901472
 31
0.0
  0
ARC
  5
1E19
330
1F
100
AcDbEntity
  8
外形線
100
AcDbCircle
 10
34013.58520738139
 20
29214.63955901471
 30
0.0
 40
2.30000000000291
100
AcDbArc
 50
90.0
 51
270.0
  0
ARC
  5
1E1A
330
1F
100
AcDbEntity
  8
外形線
100
AcDbCircle
 10
34010.6197683053
 20
29213.61513968863
 30
0.0
 40
6.030264183238933
100
AcDbArc
 50
88.92972916331252
 51
123.5710723801907
  0
ARC
  5
1E1B
330
1F
100
AcDbEntity
  8
外形線
100
AcDbCircle
 10
34010.73520738138
 20
29219.79432565275
 30
0.0
 40
0.15
100
AcDbArc
 50
268.9297291633125
 51
0.0
  0
LINE
  5
1E1C
330
1F
100
AcDbEntity
  8
外形線
100
AcDbLine
 10
34010.88520738138
 20
29220.63955901472
 30
0.0
 11
34010.88520738138
 21
29219.79432565275
 31
0.0
  0
ARC
  5
1E1D
330
1F
100
AcDbEntity
  8
外形線
100
AcDbCircle
 10
34010.6197683053
 20
29215.6639783408
 30
0.0
 40
6.030264183238933
100
AcDbArc
 50
236.4289276198093
 51
271.0702708366875
  0
ARC
  5
1E1E
330
1F
100
AcDbEntity
  8
外形線
100
AcDbCircle
 10
34010.73520738138
 20
29209.48479237668
 30
0.0
 40
0.15
100
AcDbArc
 50
0.0
 51
91.07027083668747
  0
LINE
  5
1E1F
330
1F
100
AcDbEntity
  8
外形線
100
AcDbLine
 10
34010.88520738138
 20
29208.63955901472
 30
0.0
 11
34010.88520738138
 21
29209.48479237668
 31
0.0
  0
LINE
  5
1E20
330
1F
100
AcDbEntity
  8
外形線
100
AcDbLine
 10
33893.78520738139
 20
29226.13955901471
 30
0.0
 11
33893.78520738139
 21
29203.13955901471
 31
0.0
  0
LINE
  5
1E21
330
1F
100
AcDbEntity
  8
外形線
100
AcDbLine
 10
33894.78520738139
 20
29202.13955901472
 30
0.0
 11
33992.78520738139
 21
29202.13955901472
 31
0.0
  0
ARC
  5
1E22
330
1F
100
AcDbEntity
  8
外形線
100
AcDbCircle
 10
33894.78520738139
 20
29203.13955901471
 30
0.0
 40
1.0
100
AcDbArc
 50
180.0
 51
270.0
  0
LINE
  5
1E23
330
1F
100
AcDbEntity
  8
外形線
100
AcDbLine
 10
33993.78520738139
 20
29203.13955901471
 30
0.0
 11
33993.78520738139
 21
29226.13955901471
 31
0.0
  0
ARC
  5
1E24
330
1F
100
AcDbEntity
  8
外形線
100
AcDbCircle
 10
33992.78520738139
 20
29203.13955901471
 30
0.0
 40
1.0
100
AcDbArc
 50
270.0
 51
0.0
  0
ARC
  5
1E25
330
1F
100
AcDbEntity
  8
外形線
100
AcDbCircle
 10
33992.78520738139
 20
29226.13955901471
 30
0.0
 40
1.0
100
AcDbArc
 50
0.0
 51
90.0
  0
LINE
  5
1E26
330
1F
100
AcDbEntity
  8
外形線
100
AcDbLine
 10
33992.78520738139
 20
29227.13955901472
 30
0.0
 11
33894.78520738139
 21
29227.13955901472
 31
0.0
  0
ARC
  5
1E27
330
1F
100
AcDbEntity
  8
外形線
100
AcDbCircle
 10
33894.78520738139
 20
29226.13955901471
 30
0.0
 40
1.0
100
AcDbArc
 50
90.0
 51
180.0
  0
LINE
  5
1E28
330
1F
100
AcDbEntity
  8
外形線
100
AcDbLine
 10
34522.48520738138
 20
29202.63955901472
 30
0.0
 11
34522.48520738138
 21
29226.63955901472
 31
0.0
  0
LINE
  5
1E29
330
1F
100
AcDbEntity
  8
外形線
100
AcDbLine
 10
34505.98520738138
 20
29226.63955901472
 30
0.0
 11
34497.48520738138
 21
29226.63955901472
 31
0.0
  0
ARC
  5
1E2A
330
1F
100
AcDbEntity
  8
外形線
100
AcDbCircle
 10
34497.48520738138
 20
29226.13955901471
 30
0.0
 40
0.5
100
AcDbArc
 50
90.0
 51
180.0
  0
LINE
  5
1E2B
330
1F
100
AcDbEntity
  8
外形線
100
AcDbLine
 10
33479.48520738138
 20
29226.63955901472
 30
0.0
 11
33479.48520738138
 21
29202.63955901472
 31
0.0
  0
LINE
  5
1E2C
330
1F
100
AcDbEntity
  8
外形線
100
AcDbLine
 10
34497.48520738138
 20
29202.63955901472
 30
0.0
 11
34505.98520738138
 21
29202.63955901472
 31
0.0
  0
LINE
  5
1E2D
330
1F
100
AcDbEntity
  8
外形線
100
AcDbLine
 10
34496.98520738138
 20
29225.63955901471
 30
0.0
 11
34025.98520738138
 21
29225.63955901471
 31
0.0
  0
LINE
  5
1E2E
330
1F
100
AcDbEntity
  8
外形線
100
AcDbLine
 10
33862.98520738138
 20
29225.63955901471
 30
0.0
 11
33794.98520738138
 21
29225.63955901471
 31
0.0
  0
LINE
  5
1E2F
330
1F
100
AcDbEntity
  8
外形線
100
AcDbLine
 10
33699.98520738138
 20
29225.63955901471
 30
0.0
 11
33493.98520738138
 21
29225.63955901471
 31
0.0
  0
LINE
  5
1E30
330
1F
100
AcDbEntity
  8
外形線
100
AcDbLine
 10
33493.98520738138
 20
29203.63955901472
 30
0.0
 11
33699.98520738138
 21
29203.63955901472
 31
0.0
  0
LINE
  5
1E31
330
1F
100
AcDbEntity
  8
外形線
100
AcDbLine
 10
33794.98520738138
 20
29203.63955901471
 30
0.0
 11
33862.98520738138
 21
29203.6395590147
 31
0.0
  0
LINE
  5
1E32
330
1F
100
AcDbEntity
  8
外形線
100
AcDbLine
 10
34025.98520738138
 20
29203.63955901471
 30
0.0
 11
34496.98520738138
 21
29203.63955901472
 31
0.0
  0
LINE
  5
1E33
330
1F
100
AcDbEntity
  8
外形線
100
AcDbLine
 10
33479.48520738138
 20
29223.63955901472
 30
0.0
 11
33478.48814871267
 21
29217.82337957779
 31
0.0
  0
ARC
  5
1E34
330
1F
100
AcDbEntity
  8
外形線
100
AcDbCircle
 10
33478.73474719363
 20
29217.78227983097
 30
0.0
 40
0.25
100
AcDbArc
 50
170.537677792045
 51
176.5230231830233
  0
ARC
  5
1E35
330
1F
100
AcDbEntity
  8
外形線
100
AcDbCircle
 10
33478.73474719363
 20
29217.78227983097
 30
0.0
 40
0.25
100
AcDbArc
 50
183.4769768169767
 51
243.4349488229235
  0
LINE
  5
1E36
102
{ACAD_REACTORS
330
1F87
102
}
330
1F
100
AcDbEntity
  8
外形線
100
AcDbLine
 10
33478.48520738138
 20
29217.79744169441
 30
0.0
 11
33478.48520738138
 21
29211.48167633503
 31
0.0
  0
LINE
  5
1E37
330
1F
100
AcDbEntity
  8
外形線
100
AcDbLine
 10
33478.62294379476
 20
29217.55867303322
 30
0.0
 11
33479.48520738138
 21
29217.13955901472
 31
0.0
  0
LINE
  5
1E38
330
1F
100
AcDbEntity
  8
外形線
100
AcDbLine
 10
33479.48520738138
 20
29205.63955901472
 30
0.0
 11
33478.48814871267
 21
29211.45573845164
 31
0.0
  0
ARC
  5
1E39
330
1F
100
AcDbEntity
  8
外形線
100
AcDbCircle
 10
33478.73474719363
 20
29211.49683819847
 30
0.0
 40
0.25
100
AcDbArc
 50
183.4769768169767
 51
189.4623222084304
  0
ARC
  5
1E3A
330
1F
100
AcDbEntity
  8
外形線
100
AcDbCircle
 10
33478.73474719363
 20
29211.49683819847
 30
0.0
 40
0.25
100
AcDbArc
 50
116.5650511770765
 51
176.5230231830233
  0
LINE
  5
1E3B
330
1F
100
AcDbEntity
  8
外形線
100
AcDbLine
 10
33478.62294379476
 20
29211.72044499622
 30
0.0
 11
33479.48520738138
 21
29212.13955901471
 31
0.0
  0
LINE
  5
1E3C
330
1F
100
AcDbEntity
  8
外形線
100
AcDbLine
 10
33479.48520738138
 20
29226.63955901472
 30
0.0
 11
33479.48520738138
 21
29230.63955901472
 31
0.0
  0
LINE
  5
1E3D
330
1F
100
AcDbEntity
  8
外形線
100
AcDbLine
 10
33479.48520738138
 20
29230.63955901472
 30
0.0
 11
33480.48520738138
 21
29230.63955901472
 31
0.0
  0
LINE
  5
1E3E
330
1F
100
AcDbEntity
  8
外形線
100
AcDbLine
 10
33480.48520738138
 20
29230.63955901472
 30
0.0
 11
33480.48520738138
 21
29198.63955901472
 31
0.0
  0
LINE
  5
1E3F
330
1F
100
AcDbEntity
  8
外形線
100
AcDbLine
 10
33480.48520738138
 20
29198.63955901472
 30
0.0
 11
33479.48520738138
 21
29198.63955901472
 31
0.0
  0
LINE
  5
1E40
330
1F
100
AcDbEntity
  8
外形線
100
AcDbLine
 10
33479.48520738138
 20
29198.63955901472
 30
0.0
 11
33479.48520738138
 21
29205.63955901472
 31
0.0
  0
LINE
  5
1E41
330
1F
100
AcDbEntity
  8
外形線
100
AcDbLine
 10
33480.48520738138
 20
29198.63955901472
 30
0.0
 11
33480.98520738138
 21
29198.63955901472
 31
0.0
  0
LINE
  5
1E42
330
1F
100
AcDbEntity
  8
外形線
100
AcDbLine
 10
33480.98520738138
 20
29198.63955901472
 30
0.0
 11
33480.98520738138
 21
29230.63955901472
 31
0.0
  0
LINE
  5
1E43
330
1F
100
AcDbEntity
  8
外形線
100
AcDbLine
 10
33480.98520738138
 20
29230.63955901472
 30
0.0
 11
33480.48520738138
 21
29230.63955901472
 31
0.0
  0
LINE
  5
1E44
330
1F
100
AcDbEntity
  8
外形線
100
AcDbLine
 10
33480.98520738138
 20
29198.63955901472
 30
0.0
 11
33492.98520738138
 21
29198.63955901472
 31
0.0
  0
LINE
  5
1E45
330
1F
100
AcDbEntity
  8
外形線
100
AcDbLine
 10
33493.98520738138
 20
29199.63955901472
 30
0.0
 11
33493.98520738138
 21
29229.63955901471
 31
0.0
  0
ARC
  5
1E46
330
1F
100
AcDbEntity
  8
外形線
100
AcDbCircle
 10
33492.98520738138
 20
29199.63955901472
 30
0.0
 40
1.0
100
AcDbArc
 50
270.0
 51
0.0
  0
LINE
  5
1E47
330
1F
100
AcDbEntity
  8
外形線
100
AcDbLine
 10
33492.98520738138
 20
29230.63955901472
 30
0.0
 11
33480.98520738138
 21
29230.63955901472
 31
0.0
  0
ARC
  5
1E48
330
1F
100
AcDbEntity
  8
外形線
100
AcDbCircle
 10
33492.98520738138
 20
29229.63955901471
 30
0.0
 40
1.0
100
AcDbArc
 50
0.0
 51
90.0
  0
LINE
  5
1E49
330
1F
100
AcDbEntity
  8
外形線
100
AcDbLine
 10
34522.48520738138
 20
29226.63955901472
 30
0.0
 11
34522.48520738138
 21
29202.63955901472
 31
0.0
  0
LINE
  5
1E4A
330
1F
100
AcDbEntity
  8
外形線
100
AcDbLine
 10
34522.48520738138
 20
29223.63955901472
 30
0.0
 11
34523.4822660501
 21
29217.82337957779
 31
0.0
  0
ARC
  5
1E4B
330
1F
100
AcDbEntity
  8
外形線
100
AcDbCircle
 10
34523.23566756914
 20
29217.78227983097
 30
0.0
 40
0.25
100
AcDbArc
 50
3.476976816976713
 51
9.46232220795494
  0
ARC
  5
1E4C
330
1F
100
AcDbEntity
  8
外形線
100
AcDbCircle
 10
34523.23566756914
 20
29217.78227983097
 30
0.0
 40
0.25
100
AcDbArc
 50
296.5650511770761
 51
356.5230231830233
  0
LINE
  5
1E4D
102
{ACAD_REACTORS
330
1F87
102
}
330
1F
100
AcDbEntity
  8
外形線
100
AcDbLine
 10
34523.48520738138
 20
29217.79744169441
 30
0.0
 11
34523.48520738138
 21
29211.48167633503
 31
0.0
  0
LINE
  5
1E4E
330
1F
100
AcDbEntity
  8
外形線
100
AcDbLine
 10
34523.34747096801
 20
29217.55867303322
 30
0.0
 11
34522.48520738138
 21
29217.13955901472
 31
0.0
  0
LINE
  5
1E4F
330
1F
100
AcDbEntity
  8
外形線
100
AcDbLine
 10
34522.48520738138
 20
29205.63955901472
 30
0.0
 11
34523.4822660501
 21
29211.45573845164
 31
0.0
  0
ARC
  5
1E50
330
1F
100
AcDbEntity
  8
外形線
100
AcDbCircle
 10
34523.23566756914
 20
29211.49683819847
 30
0.0
 40
0.25
100
AcDbArc
 50
350.5376777915696
 51
356.5230231830233
  0
ARC
  5
1E51
330
1F
100
AcDbEntity
  8
外形線
100
AcDbCircle
 10
34523.23566756914
 20
29211.49683819847
 30
0.0
 40
0.25
100
AcDbArc
 50
3.476976816976713
 51
63.43494882292347
  0
LINE
  5
1E52
330
1F
100
AcDbEntity
  8
外形線
100
AcDbLine
 10
34523.34747096801
 20
29211.72044499622
 30
0.0
 11
34522.48520738138
 21
29212.13955901471
 31
0.0
  0
LINE
  5
1E53
330
1F
100
AcDbEntity
  8
外形線
100
AcDbLine
 10
34522.48520738138
 20
29226.63955901472
 30
0.0
 11
34522.48520738138
 21
29230.63955901472
 31
0.0
  0
LINE
  5
1E54
330
1F
100
AcDbEntity
  8
外形線
100
AcDbLine
 10
34522.48520738138
 20
29230.63955901472
 30
0.0
 11
34521.48520738138
 21
29230.63955901472
 31
0.0
  0
LINE
  5
1E55
330
1F
100
AcDbEntity
  8
外形線
100
AcDbLine
 10
34521.48520738138
 20
29230.63955901472
 30
0.0
 11
34521.48520738138
 21
29198.63955901472
 31
0.0
  0
LINE
  5
1E56
330
1F
100
AcDbEntity
  8
外形線
100
AcDbLine
 10
34521.48520738138
 20
29198.63955901472
 30
0.0
 11
34522.48520738138
 21
29198.63955901472
 31
0.0
  0
LINE
  5
1E57
330
1F
100
AcDbEntity
  8
外形線
100
AcDbLine
 10
34522.48520738138
 20
29198.63955901472
 30
0.0
 11
34522.48520738138
 21
29205.63955901472
 31
0.0
  0
LINE
  5
1E58
330
1F
100
AcDbEntity
  8
外形線
100
AcDbLine
 10
34521.48520738138
 20
29198.63955901472
 30
0.0
 11
34520.98520738138
 21
29198.63955901472
 31
0.0
  0
LINE
  5
1E59
330
1F
100
AcDbEntity
  8
外形線
100
AcDbLine
 10
34520.98520738138
 20
29198.63955901472
 30
0.0
 11
34520.98520738138
 21
29230.63955901472
 31
0.0
  0
LINE
  5
1E5A
330
1F
100
AcDbEntity
  8
外形線
100
AcDbLine
 10
34520.98520738138
 20
29230.63955901472
 30
0.0
 11
34521.48520738138
 21
29230.63955901472
 31
0.0
  0
LINE
  5
1E5B
330
1F
100
AcDbEntity
  8
外形線
100
AcDbLine
 10
34520.98520738138
 20
29230.63955901472
 30
0.0
 11
34506.98520738138
 21
29230.63955901472
 31
0.0
  0
LINE
  5
1E5C
330
1F
100
AcDbEntity
  8
外形線
100
AcDbLine
 10
34505.98520738138
 20
29229.63955901471
 30
0.0
 11
34505.98520738138
 21
29199.63955901472
 31
0.0
  0
ARC
  5
1E5D
330
1F
100
AcDbEntity
  8
外形線
100
AcDbCircle
 10
34506.98520738138
 20
29229.63955901471
 30
0.0
 40
1.0
100
AcDbArc
 50
90.0
 51
180.0
  0
ARC
  5
1E5E
330
1F
100
AcDbEntity
  8
外形線
100
AcDbCircle
 10
34506.98520738138
 20
29199.63955901472
 30
0.0
 40
1.0
100
AcDbArc
 50
180.0
 51
270.0
  0
LINE
  5
1E5F
330
1F
100
AcDbEntity
  8
外形線
100
AcDbLine
 10
34506.98520738138
 20
29198.63955901472
 30
0.0
 11
34520.98520738138
 21
29198.63955901472
 31
0.0
  0
LINE
  5
1E60
330
1F
100
AcDbEntity
  8
外形線
100
AcDbLine
 10
34496.98520738138
 20
29226.13955901471
 30
0.0
 11
34496.98520738138
 21
29217.88955901472
 31
0.0
  0
ARC
  5
1E61
330
1F
100
AcDbEntity
  8
外形線
100
AcDbCircle
 10
34497.48520738138
 20
29217.88955901472
 30
0.0
 40
0.5
100
AcDbArc
 50
180.0
 51
270.0
  0
ARC
  5
1E62
330
1F
100
AcDbEntity
  8
外形線
100
AcDbCircle
 10
34497.48520738138
 20
29203.13955901471
 30
0.0
 40
0.5
100
AcDbArc
 50
180.0
 51
270.0
  0
LINE
  5
1E63
330
1F
100
AcDbEntity
  8
外形線
100
AcDbLine
 10
34497.48520738138
 20
29226.63955901472
 30
0.0
 11
34025.98520738138
 21
29226.63955901472
 31
0.0
  0
LINE
  5
1E64
330
1F
100
AcDbEntity
  8
外形線
100
AcDbLine
 10
33862.98520738138
 20
29226.63955901471
 30
0.0
 11
33794.98520738138
 21
29226.63955901472
 31
0.0
  0
LINE
  5
1E65
330
1F
100
AcDbEntity
  8
外形線
100
AcDbLine
 10
33699.98520738138
 20
29226.63955901472
 30
0.0
 11
33493.98520738138
 21
29226.63955901472
 31
0.0
  0
LINE
  5
1E66
330
1F
100
AcDbEntity
  8
外形線
100
AcDbLine
 10
33493.98520738138
 20
29202.63955901472
 30
0.0
 11
33699.98520738138
 21
29202.63955901472
 31
0.0
  0
LINE
  5
1E67
330
1F
100
AcDbEntity
  8
外形線
100
AcDbLine
 10
33794.98520738138
 20
29202.63955901472
 30
0.0
 11
33862.98520738138
 21
29202.63955901471
 31
0.0
  0
LINE
  5
1E68
330
1F
100
AcDbEntity
  8
外形線
100
AcDbLine
 10
34025.98520738138
 20
29202.63955901472
 30
0.0
 11
34497.48520738138
 21
29202.63955901472
 31
0.0
  0
LINE
  5
1E69
330
1F
100
AcDbEntity
  8
外形線
100
AcDbLine
 10
34505.98520738138
 20
29217.38955901472
 30
0.0
 11
34497.48520738138
 21
29217.38955901472
 31
0.0
  0
LINE
  5
1E6A
330
1F
100
AcDbEntity
  8
外形線
100
AcDbLine
 10
34505.98520738138
 20
29211.88955901472
 30
0.0
 11
34497.48520738138
 21
29211.88955901472
 31
0.0
  0
LINE
  5
1E6B
330
1F
100
AcDbEntity
  8
外形線
100
AcDbLine
 10
34498.48520738138
 20
29217.38955901472
 30
0.0
 11
34498.48520738138
 21
29211.88955901472
 31
0.0
  0
LINE
  5
1E6C
330
1F
100
AcDbEntity
  8
外形線
100
AcDbLine
 10
34496.98520738138
 20
29211.38955901472
 30
0.0
 11
34496.98520738138
 21
29203.13955901471
 31
0.0
  0
ARC
  5
1E6D
330
1F
100
AcDbEntity
  8
外形線
100
AcDbCircle
 10
34497.48520738138
 20
29211.38955901472
 30
0.0
 40
0.5
100
AcDbArc
 50
90.0
 51
180.0
  0
ARC
  5
1E6E
330
1F
100
AcDbEntity
  8
孔
100
AcDbCircle
 10
33547.48520738138
 20
29214.63955901471
 30
0.0
 40
5.0
100
AcDbArc
 50
270.0
 51
90.0
  0
ARC
  5
1E6F
330
1F
100
AcDbEntity
  8
孔
100
AcDbCircle
 10
33503.48520738138
 20
29214.63955901471
 30
0.0
 40
5.0
100
AcDbArc
 50
90.0
 51
143.1301023543253
  0
ARC
  5
1E70
330
1F
100
AcDbEntity
  8
孔
100
AcDbCircle
 10
33503.48520738138
 20
29214.63955901471
 30
0.0
 40
5.0
100
AcDbArc
 50
216.8698976456747
 51
270.0
  0
LINE
  5
1E71
330
1F
100
AcDbEntity
  8
孔
100
AcDbLine
 10
33493.98520738138
 20
29217.63955901472
 30
0.0
 11
33499.48520738138
 21
29217.63955901472
 31
0.0
  0
LINE
  5
1E72
330
1F
100
AcDbEntity
  8
孔
100
AcDbLine
 10
33493.98520738138
 20
29211.63955901472
 30
0.0
 11
33499.48520738138
 21
29211.63955901472
 31
0.0
  0
LINE
  5
1E73
330
1F
100
AcDbEntity
  8
孔
100
AcDbLine
 10
33503.48520738138
 20
29219.63955901471
 30
0.0
 11
33517.98520738138
 21
29219.63955901471
 31
0.0
  0
LINE
  5
1E74
330
1F
100
AcDbEntity
  8
孔
100
AcDbLine
 10
33537.98520738138
 20
29219.63955901471
 30
0.0
 11
33547.48520738138
 21
29219.63955901471
 31
0.0
  0
LINE
  5
1E75
330
1F
100
AcDbEntity
  8
孔
100
AcDbLine
 10
33503.48520738138
 20
29209.63955901472
 30
0.0
 11
33517.98520738138
 21
29209.63955901472
 31
0.0
  0
LINE
  5
1E76
330
1F
100
AcDbEntity
  8
孔
100
AcDbLine
 10
33537.98520738138
 20
29209.63955901472
 30
0.0
 11
33547.48520738138
 21
29209.63955901472
 31
0.0
  0
LINE
  5
1E77
330
1F
100
AcDbEntity
  8
外形線
100
AcDbLine
 10
33517.98520738138
 20
29218.63955901471
 30
0.0
 11
33517.98520738138
 21
29210.63955901471
 31
0.0
  0
LINE
  5
1E78
330
1F
100
AcDbEntity
  8
外形線
100
AcDbLine
 10
33521.48520738138
 20
29207.13955901471
 30
0.0
 11
33530.48520738138
 21
29207.13955901471
 31
0.0
  0
ARC
  5
1E79
330
1F
100
AcDbEntity
  8
外形線
100
AcDbCircle
 10
33534.48520738138
 20
29210.63955901471
 30
0.0
 40
3.5
100
AcDbArc
 50
270.0
 51
0.0
  0
ARC
  5
1E7A
330
1F
100
AcDbEntity
  8
外形線
100
AcDbCircle
 10
33521.48520738138
 20
29210.63955901471
 30
0.0
 40
3.5
100
AcDbArc
 50
180.0
 51
270.0
  0
LINE
  5
1E7B
330
1F
100
AcDbEntity
  8
外形線
100
AcDbLine
 10
33537.98520738138
 20
29210.63955901471
 30
0.0
 11
33537.98520738138
 21
29218.63955901471
 31
0.0
  0
ARC
  5
1E7C
330
1F
100
AcDbEntity
  8
外形線
100
AcDbCircle
 10
33534.48520738138
 20
29218.63955901471
 30
0.0
 40
3.5
100
AcDbArc
 50
0.0
 51
90.0
  0
LINE
  5
1E7D
330
1F
100
AcDbEntity
  8
外形線
100
AcDbLine
 10
33530.48520738138
 20
29222.13955901471
 30
0.0
 11
33521.48520738138
 21
29222.13955901471
 31
0.0
  0
ARC
  5
1E7E
330
1F
100
AcDbEntity
  8
外形線
100
AcDbCircle
 10
33521.48520738138
 20
29218.63955901471
 30
0.0
 40
3.5
100
AcDbArc
 50
90.0
 51
180.0
  0
LINE
  5
1E7F
330
1F
100
AcDbEntity
  8
外形線
100
AcDbLine
 10
33517.98520738138
 20
29218.63955901471
 30
0.0
 11
33519.98520738138
 21
29218.63955901471
 31
0.0
  0
LINE
  5
1E80
330
1F
100
AcDbEntity
  8
外形線
100
AcDbLine
 10
33519.98520738138
 20
29218.63955901471
 30
0.0
 11
33519.98520738138
 21
29210.63955901471
 31
0.0
  0
LINE
  5
1E81
330
1F
100
AcDbEntity
  8
外形線
100
AcDbLine
 10
33519.98520738138
 20
29210.63955901471
 30
0.0
 11
33517.98520738138
 21
29210.63955901471
 31
0.0
  0
LINE
  5
1E82
330
1F
100
AcDbEntity
  8
外形線
100
AcDbLine
 10
33530.48520738138
 20
29208.13955901472
 30
0.0
 11
33530.48520738138
 21
29205.63955901472
 31
0.0
  0
LINE
  5
1E83
330
1F
100
AcDbEntity
  8
外形線
100
AcDbLine
 10
33530.48520738138
 20
29205.63955901472
 30
0.0
 11
33534.48520738138
 21
29205.63955901472
 31
0.0
  0
LINE
  5
1E84
330
1F
100
AcDbEntity
  8
外形線
100
AcDbLine
 10
33534.48520738138
 20
29205.63955901472
 30
0.0
 11
33534.48520738138
 21
29208.13955901472
 31
0.0
  0
LINE
  5
1E85
330
1F
100
AcDbEntity
  8
外形線
100
AcDbLine
 10
33534.48520738138
 20
29208.13955901472
 30
0.0
 11
33530.48520738138
 21
29208.13955901472
 31
0.0
  0
LINE
  5
1E86
330
1F
100
AcDbEntity
  8
外形線
100
AcDbLine
 10
33530.48520738138
 20
29221.13955901472
 30
0.0
 11
33530.48520738138
 21
29223.63955901472
 31
0.0
  0
LINE
  5
1E87
330
1F
100
AcDbEntity
  8
外形線
100
AcDbLine
 10
33530.48520738138
 20
29223.63955901472
 30
0.0
 11
33534.48520738138
 21
29223.63955901472
 31
0.0
  0
LINE
  5
1E88
330
1F
100
AcDbEntity
  8
外形線
100
AcDbLine
 10
33534.48520738138
 20
29223.63955901472
 30
0.0
 11
33534.48520738138
 21
29221.13955901472
 31
0.0
  0
LINE
  5
1E89
330
1F
100
AcDbEntity
  8
外形線
100
AcDbLine
 10
33534.48520738138
 20
29221.13955901472
 30
0.0
 11
33530.48520738138
 21
29221.13955901472
 31
0.0
  0
LINE
  5
1E8A
330
1F
100
AcDbEntity
  8
外形線
100
AcDbLine
 10
33537.98520738138
 20
29217.63955901472
 30
0.0
 11
33540.98520738138
 21
29217.63955901472
 31
0.0
  0
LINE
  5
1E8B
330
1F
100
AcDbEntity
  8
外形線
100
AcDbLine
 10
33540.98520738138
 20
29217.63955901472
 30
0.0
 11
33540.98520738138
 21
29211.63955901472
 31
0.0
  0
LINE
  5
1E8C
330
1F
100
AcDbEntity
  8
外形線
100
AcDbLine
 10
33540.98520738138
 20
29211.63955901472
 30
0.0
 11
33537.98520738138
 21
29211.63955901472
 31
0.0
  0
LINE
  5
1E8D
330
1F
100
AcDbEntity
  8
外形線
100
AcDbLine
 10
33533.98520738138
 20
29216.63955901471
 30
0.0
 11
33522.98520738138
 21
29216.63955901471
 31
0.0
  0
LINE
  5
1E8E
330
1F
100
AcDbEntity
  8
外形線
100
AcDbLine
 10
33522.98520738138
 20
29216.63955901471
 30
0.0
 11
33522.98520738138
 21
29212.63955901471
 31
0.0
  0
LINE
  5
1E8F
330
1F
100
AcDbEntity
  8
外形線
100
AcDbLine
 10
33522.98520738138
 20
29212.63955901471
 30
0.0
 11
33533.98520738138
 21
29212.63955901471
 31
0.0
  0
ARC
  5
1E90
330
1F
100
AcDbEntity
  8
外形線
100
AcDbCircle
 10
33533.98520738138
 20
29214.63955901471
 30
0.0
 40
2.0
100
AcDbArc
 50
270.0
 51
90.0
  0
LINE
  5
1E91
330
1F
100
AcDbEntity
  8
外形線
100
AcDbLine
 10
33517.98520738138
 20
29211.38955901472
 30
0.0
 11
33518.98520738138
 21
29211.38955901472
 31
0.0
  0
LINE
  5
1E92
330
1F
100
AcDbEntity
  8
外形線
100
AcDbLine
 10
33518.98520738138
 20
29211.38955901472
 30
0.0
 11
33518.98520738138
 21
29217.88955901472
 31
0.0
  0
LINE
  5
1E93
330
1F
100
AcDbEntity
  8
外形線
100
AcDbLine
 10
33518.98520738138
 20
29217.88955901472
 30
0.0
 11
33517.98520738138
 21
29217.88955901472
 31
0.0
  0
LINE
  5
1E94
330
1F
100
AcDbEntity
  8
外形線
100
AcDbLine
 10
33493.98520738138
 20
29224.13955901471
 30
0.0
 11
33563.48520738138
 21
29224.13955901471
 31
0.0
  0
LINE
  5
1E95
330
1F
100
AcDbEntity
  8
外形線
100
AcDbLine
 10
33563.48520738138
 20
29224.13955901471
 30
0.0
 11
33563.48520738138
 21
29216.94215263796
 31
0.0
  0
LINE
  5
1E96
330
1F
100
AcDbEntity
  8
外形線
100
AcDbLine
 10
33563.48520738138
 20
29212.33696539147
 30
0.0
 11
33563.48520738138
 21
29205.13955901471
 31
0.0
  0
LINE
  5
1E97
330
1F
100
AcDbEntity
  8
外形線
100
AcDbLine
 10
33563.48520738138
 20
29205.13955901471
 30
0.0
 11
33493.98520738138
 21
29205.13955901471
 31
0.0
  0
LINE
  5
1E98
330
1F
100
AcDbEntity
  8
外形線
100
AcDbLine
 10
33493.98520738138
 20
29206.13955901472
 30
0.0
 11
33530.48520738138
 21
29206.13955901472
 31
0.0
  0
LINE
  5
1E99
330
1F
100
AcDbEntity
  8
外形線
100
AcDbLine
 10
33534.48520738138
 20
29206.13955901472
 30
0.0
 11
33563.48520738138
 21
29206.13955901472
 31
0.0
  0
LINE
  5
1E9A
330
1F
100
AcDbEntity
  8
外形線
100
AcDbLine
 10
33563.48520738138
 20
29223.13955901472
 30
0.0
 11
33534.48520738138
 21
29223.13955901472
 31
0.0
  0
LINE
  5
1E9B
330
1F
100
AcDbEntity
  8
外形線
100
AcDbLine
 10
33493.98520738138
 20
29223.13955901472
 30
0.0
 11
33530.48520738138
 21
29223.13955901472
 31
0.0
  0
LINE
  5
1E9C
330
1F
100
AcDbEntity
  8
外形線
100
AcDbLine
 10
33559.48520738138
 20
29218.13955901471
 30
0.0
 11
33555.48520738138
 21
29218.13955901471
 31
0.0
  0
LINE
  5
1E9D
330
1F
100
AcDbEntity
  8
外形線
100
AcDbLine
 10
33555.48520738138
 20
29218.13955901471
 30
0.0
 11
33555.48520738138
 21
29211.13955901472
 31
0.0
  0
LINE
  5
1E9E
330
1F
100
AcDbEntity
  8
外形線
100
AcDbLine
 10
33555.48520738138
 20
29211.13955901472
 30
0.0
 11
33559.48520738138
 21
29211.13955901472
 31
0.0
  0
LINE
  5
1E9F
330
1F
100
AcDbEntity
  8
外形線
100
AcDbLine
 10
33558.98520738138
 20
29211.13955901472
 30
0.0
 11
33558.98520738138
 21
29218.13955901471
 31
0.0
  0
LINE
  5
1EA0
330
1F
100
AcDbEntity
  8
外形線
100
AcDbLine
 10
33558.98520738138
 20
29218.13955901471
 30
0.0
 11
33566.58643563241
 21
29216.01379501707
 31
0.0
  0
LINE
  5
1EA1
330
1F
100
AcDbEntity
  8
外形線
100
AcDbLine
 10
33566.58643563241
 20
29213.26532301236
 30
0.0
 11
33558.98520738138
 21
29211.13955901472
 31
0.0
  0
ARC
  5
1EA2
330
1F
100
AcDbEntity
  8
外形線
100
AcDbCircle
 10
33565.98520738138
 20
29214.63955901471
 30
0.0
 40
1.5
100
AcDbArc
 50
293.6293777308591
 51
66.37062226914089
  0
LINE
  5
1EA3
330
1F
100
AcDbEntity
  8
外形線
100
AcDbLine
 10
33559.48520738138
 20
29218.13955901471
 30
0.0
 11
33559.48520738138
 21
29217.99972871839
 31
0.0
  0
LINE
  5
1EA4
330
1F
100
AcDbEntity
  8
外形線
100
AcDbLine
 10
33559.48520738138
 20
29211.13955901472
 30
0.0
 11
33559.48520738138
 21
29211.27938931104
 31
0.0
  0
LINE
  5
1EA5
330
1F
100
AcDbEntity
  8
孔
100
AcDbLine
 10
33580.48520738138
 20
29210.13955901472
 30
0.0
 11
33581.50940251623
 21
29218.27263225639
 31
0.0
  0
LINE
  5
1EA6
330
1F
100
AcDbEntity
  8
孔
100
AcDbLine
 10
33584.46101224653
 20
29218.27263225639
 30
0.0
 11
33585.48520738138
 21
29210.13955901472
 31
0.0
  0
ARC
  5
1EA7
330
1F
100
AcDbEntity
  8
孔
100
AcDbCircle
 10
33582.98520738138
 20
29218.0043040991
 30
0.0
 40
1.5
100
AcDbArc
 50
10.30484646891518
 51
169.6951535310848
  0
LINE
  5
1EA8
330
1F
100
AcDbEntity
  8
孔
100
AcDbLine
 10
33580.48520738138
 20
29210.13955901472
 30
0.0
 11
33585.48520738138
 21
29210.13955901472
 31
0.0
  0
LINE
  5
1EA9
330
1F
100
AcDbEntity
  8
孔
100
AcDbLine
 10
33580.48520738138
 20
29210.13955901472
 30
0.0
 11
33580.48520738138
 21
29209.63955901472
 31
0.0
  0
LINE
  5
1EAA
330
1F
100
AcDbEntity
  8
孔
100
AcDbLine
 10
33580.48520738138
 20
29209.63955901472
 30
0.0
 11
33585.48520738138
 21
29209.63955901472
 31
0.0
  0
LINE
  5
1EAB
330
1F
100
AcDbEntity
  8
孔
100
AcDbLine
 10
33585.48520738138
 20
29209.63955901472
 30
0.0
 11
33585.48520738138
 21
29210.13955901472
 31
0.0
  0
CIRCLE
  5
1EAC
330
1F
100
AcDbEntity
  8
孔
100
AcDbCircle
 10
33592.98520738138
 20
29214.63955901471
 30
0.0
 40
2.1
  0
CIRCLE
  5
1EAD
330
1F
100
AcDbEntity
  8
孔
100
AcDbCircle
 10
33620.98520738138
 20
29214.63955901471
 30
0.0
 40
2.1
  0
LINE
  5
1EAE
330
1F
100
AcDbEntity
  8
孔
100
AcDbLine
 10
33599.98520738138
 20
29218.13955901471
 30
0.0
 11
33599.98520738138
 21
29211.13955901472
 31
0.0
  0
LINE
  5
1EAF
330
1F
100
AcDbEntity
  8
孔
100
AcDbLine
 10
33599.98520738138
 20
29211.13955901472
 30
0.0
 11
33613.98520738138
 21
29211.13955901472
 31
0.0
  0
LINE
  5
1EB0
330
1F
100
AcDbEntity
  8
孔
100
AcDbLine
 10
33613.98520738138
 20
29211.13955901472
 30
0.0
 11
33613.98520738138
 21
29218.13955901471
 31
0.0
  0
LINE
  5
1EB1
330
1F
100
AcDbEntity
  8
孔
100
AcDbLine
 10
33613.98520738138
 20
29218.13955901471
 30
0.0
 11
33599.98520738138
 21
29218.13955901471
 31
0.0
  0
LINE
  5
1EB2
330
1F
100
AcDbEntity
  8
孔
100
AcDbLine
 10
33629.98520738138
 20
29210.13955901472
 30
0.0
 11
33631.00940251623
 21
29218.27263225639
 31
0.0
  0
LINE
  5
1EB3
330
1F
100
AcDbEntity
  8
孔
100
AcDbLine
 10
33633.96101224653
 20
29218.27263225639
 30
0.0
 11
33634.98520738138
 21
29210.13955901472
 31
0.0
  0
ARC
  5
1EB4
330
1F
100
AcDbEntity
  8
孔
100
AcDbCircle
 10
33632.48520738138
 20
29218.0043040991
 30
0.0
 40
1.5
100
AcDbArc
 50
10.30484646891518
 51
169.6951535310848
  0
LINE
  5
1EB5
330
1F
100
AcDbEntity
  8
孔
100
AcDbLine
 10
33629.98520738138
 20
29210.13955901472
 30
0.0
 11
33634.98520738138
 21
29210.13955901472
 31
0.0
  0
LINE
  5
1EB6
330
1F
100
AcDbEntity
  8
孔
100
AcDbLine
 10
33629.98520738138
 20
29210.13955901472
 30
0.0
 11
33629.98520738138
 21
29209.63955901472
 31
0.0
  0
LINE
  5
1EB7
330
1F
100
AcDbEntity
  8
孔
100
AcDbLine
 10
33629.98520738138
 20
29209.63955901472
 30
0.0
 11
33634.98520738138
 21
29209.63955901472
 31
0.0
  0
LINE
  5
1EB8
330
1F
100
AcDbEntity
  8
孔
100
AcDbLine
 10
33634.98520738138
 20
29209.63955901472
 30
0.0
 11
33634.98520738138
 21
29210.13955901472
 31
0.0
  0
LINE
  5
1EB9
330
1F
100
AcDbEntity
  8
孔
100
AcDbLine
 10
34383.48520738138
 20
29210.13955901472
 30
0.0
 11
34384.50940251623
 21
29218.27263225639
 31
0.0
  0
LINE
  5
1EBA
330
1F
100
AcDbEntity
  8
孔
100
AcDbLine
 10
34387.46101224653
 20
29218.27263225639
 30
0.0
 11
34388.48520738138
 21
29210.13955901472
 31
0.0
  0
ARC
  5
1EBB
330
1F
100
AcDbEntity
  8
孔
100
AcDbCircle
 10
34385.98520738138
 20
29218.0043040991
 30
0.0
 40
1.5
100
AcDbArc
 50
10.30484646891518
 51
169.6951535310848
  0
LINE
  5
1EBC
330
1F
100
AcDbEntity
  8
孔
100
AcDbLine
 10
34383.48520738138
 20
29210.13955901472
 30
0.0
 11
34388.48520738138
 21
29210.13955901472
 31
0.0
  0
LINE
  5
1EBD
330
1F
100
AcDbEntity
  8
孔
100
AcDbLine
 10
34383.48520738138
 20
29210.13955901472
 30
0.0
 11
34383.48520738138
 21
29209.63955901472
 31
0.0
  0
LINE
  5
1EBE
330
1F
100
AcDbEntity
  8
孔
100
AcDbLine
 10
34383.48520738138
 20
29209.63955901472
 30
0.0
 11
34388.48520738138
 21
29209.63955901472
 31
0.0
  0
LINE
  5
1EBF
330
1F
100
AcDbEntity
  8
孔
100
AcDbLine
 10
34388.48520738138
 20
29209.63955901472
 30
0.0
 11
34388.48520738138
 21
29210.13955901472
 31
0.0
  0
CIRCLE
  5
1EC0
330
1F
100
AcDbEntity
  8
孔
100
AcDbCircle
 10
33651.98520738138
 20
29214.63955901471
 30
0.0
 40
4.0
  0
CIRCLE
  5
1EC1
330
1F
100
AcDbEntity
  8
孔
100
AcDbCircle
 10
33651.98520738138
 20
29214.63955901471
 30
0.0
 40
5.0
  0
LINE
  5
1EC2
330
1F
100
AcDbEntity
  8
孔
100
AcDbLine
 10
33669.08520738142
 20
29216.73955901473
 30
0.0
 11
33678.88520738142
 21
29216.73955901473
 31
0.0
  0
LINE
  5
1EC3
330
1F
100
AcDbEntity
  8
孔
100
AcDbLine
 10
33669.08520738142
 20
29212.53955901473
 30
0.0
 11
33678.88520738142
 21
29212.53955901473
 31
0.0
  0
ARC
  5
1EC4
330
1F
100
AcDbEntity
  8
孔
100
AcDbCircle
 10
33669.0852073814
 20
29214.63955901471
 30
0.0
 40
2.100000000013096
100
AcDbArc
 50
89.99999999958312
 51
270.0000000004169
  0
ARC
  5
1EC5
330
1F
100
AcDbEntity
  8
孔
100
AcDbCircle
 10
33678.88520738143
 20
29214.63955901473
 30
0.0
 40
2.099999999998544
100
AcDbArc
 50
270.0
 51
90.0
  0
CIRCLE
  5
1EC6
330
1F
100
AcDbEntity
  8
孔
100
AcDbCircle
 10
33843.98520738138
 20
29214.63955901471
 30
0.0
 40
4.0
  0
CIRCLE
  5
1EC7
330
1F
100
AcDbEntity
  8
孔
100
AcDbCircle
 10
33843.98520738138
 20
29214.63955901471
 30
0.0
 40
5.0
  0
CIRCLE
  5
1EC8
330
1F
100
AcDbEntity
  8
孔
100
AcDbCircle
 10
34348.48520738136
 20
29218.63955901471
 30
0.0
 40
2.1
  0
CIRCLE
  5
1EC9
330
1F
100
AcDbEntity
  8
孔
100
AcDbCircle
 10
34348.48520738136
 20
29209.63955901472
 30
0.0
 40
1.5
  0
LINE
  5
1ECA
330
1F
100
AcDbEntity
  8
孔
100
AcDbLine
 10
34366.58520738138
 20
29216.73955901471
 30
0.0
 11
34376.38520738139
 21
29216.73955901471
 31
0.0
  0
LINE
  5
1ECB
330
1F
100
AcDbEntity
  8
孔
100
AcDbLine
 10
34366.58520738138
 20
29212.53955901472
 30
0.0
 11
34376.38520738139
 21
29212.53955901472
 31
0.0
  0
ARC
  5
1ECC
330
1F
100
AcDbEntity
  8
孔
100
AcDbCircle
 10
34366.58520738137
 20
29214.63955901471
 30
0.0
 40
2.099999999998544
100
AcDbArc
 50
89.99999999958312
 51
270.0000000004169
  0
ARC
  5
1ECD
330
1F
100
AcDbEntity
  8
孔
100
AcDbCircle
 10
34376.38520738139
 20
29214.6395590147
 30
0.0
 40
2.100000000013096
100
AcDbArc
 50
270.0
 51
90.0
  0
LINE
  5
1ECE
330
1F
100
AcDbEntity
  8
孔
100
AcDbLine
 10
34403.98520738138
 20
29218.13955901471
 30
0.0
 11
34409.98520738138
 21
29218.13955901471
 31
0.0
  0
LINE
  5
1ECF
330
1F
100
AcDbEntity
  8
孔
100
AcDbLine
 10
34403.98520738138
 20
29211.13955901472
 30
0.0
 11
34409.98520738138
 21
29211.13955901472
 31
0.0
  0
ARC
  5
1ED0
330
1F
100
AcDbEntity
  8
孔
100
AcDbCircle
 10
34409.9852073814
 20
29214.63955901471
 30
0.0
 40
3.5
100
AcDbArc
 50
269.9999999995831
 51
90.00000000041687
  0
ARC
  5
1ED1
330
1F
100
AcDbEntity
  8
孔
100
AcDbCircle
 10
34403.9852073814
 20
29214.63955901471
 30
0.0
 40
3.5
100
AcDbArc
 50
90.00000000041687
 51
269.9999999995831
  0
CIRCLE
  5
1ED2
330
1F
100
AcDbEntity
  8
孔
100
AcDbCircle
 10
34423.48520738138
 20
29214.63955901471
 30
0.0
 40
2.75
  0
ARC
  5
1ED3
330
1F
100
AcDbEntity
  8
孔
100
AcDbCircle
 10
34454.48520738138
 20
29214.63955901471
 30
0.0
 40
5.0
100
AcDbArc
 50
90.0
 51
270.0
  0
LINE
  5
1ED4
330
1F
100
AcDbEntity
  8
孔
100
AcDbLine
 10
34496.98520738138
 20
29219.63955901471
 30
0.0
 11
34483.98520738138
 21
29219.63955901471
 31
0.0
  0
LINE
  5
1ED5
330
1F
100
AcDbEntity
  8
孔
100
AcDbLine
 10
34463.98520738138
 20
29219.63955901471
 30
0.0
 11
34454.48520738138
 21
29219.63955901471
 31
0.0
  0
LINE
  5
1ED6
330
1F
100
AcDbEntity
  8
孔
100
AcDbLine
 10
34496.98520738138
 20
29209.63955901472
 30
0.0
 11
34483.98520738138
 21
29209.63955901472
 31
0.0
  0
LINE
  5
1ED7
330
1F
100
AcDbEntity
  8
孔
100
AcDbLine
 10
34463.98520738138
 20
29209.63955901472
 30
0.0
 11
34454.48520738138
 21
29209.63955901472
 31
0.0
  0
LINE
  5
1ED8
330
1F
100
AcDbEntity
  8
外形線
100
AcDbLine
 10
34483.98520738138
 20
29218.63955901471
 30
0.0
 11
34483.98520738138
 21
29210.63955901471
 31
0.0
  0
LINE
  5
1ED9
330
1F
100
AcDbEntity
  8
外形線
100
AcDbLine
 10
34480.48520738138
 20
29207.13955901471
 30
0.0
 11
34471.48520738138
 21
29207.13955901471
 31
0.0
  0
ARC
  5
1EDA
330
1F
100
AcDbEntity
  8
外形線
100
AcDbCircle
 10
34467.48520738138
 20
29210.63955901471
 30
0.0
 40
3.5
100
AcDbArc
 50
180.0
 51
270.0
  0
ARC
  5
1EDB
330
1F
100
AcDbEntity
  8
外形線
100
AcDbCircle
 10
34480.48520738138
 20
29210.63955901471
 30
0.0
 40
3.5
100
AcDbArc
 50
270.0
 51
0.0
  0
LINE
  5
1EDC
330
1F
100
AcDbEntity
  8
外形線
100
AcDbLine
 10
34463.98520738138
 20
29210.63955901471
 30
0.0
 11
34463.98520738138
 21
29218.63955901471
 31
0.0
  0
ARC
  5
1EDD
330
1F
100
AcDbEntity
  8
外形線
100
AcDbCircle
 10
34467.48520738138
 20
29218.63955901471
 30
0.0
 40
3.5
100
AcDbArc
 50
90.0
 51
180.0
  0
LINE
  5
1EDE
330
1F
100
AcDbEntity
  8
外形線
100
AcDbLine
 10
34471.48520738138
 20
29222.13955901471
 30
0.0
 11
34480.48520738138
 21
29222.13955901471
 31
0.0
  0
ARC
  5
1EDF
330
1F
100
AcDbEntity
  8
外形線
100
AcDbCircle
 10
34480.48520738138
 20
29218.63955901471
 30
0.0
 40
3.5
100
AcDbArc
 50
0.0
 51
90.0
  0
LINE
  5
1EE0
330
1F
100
AcDbEntity
  8
外形線
100
AcDbLine
 10
34483.98520738138
 20
29218.63955901471
 30
0.0
 11
34481.98520738138
 21
29218.63955901471
 31
0.0
  0
LINE
  5
1EE1
330
1F
100
AcDbEntity
  8
外形線
100
AcDbLine
 10
34481.98520738138
 20
29218.63955901471
 30
0.0
 11
34481.98520738138
 21
29210.63955901471
 31
0.0
  0
LINE
  5
1EE2
330
1F
100
AcDbEntity
  8
外形線
100
AcDbLine
 10
34481.98520738138
 20
29210.63955901471
 30
0.0
 11
34483.98520738138
 21
29210.63955901471
 31
0.0
  0
LINE
  5
1EE3
330
1F
100
AcDbEntity
  8
外形線
100
AcDbLine
 10
34471.48520738138
 20
29208.13955901472
 30
0.0
 11
34471.48520738138
 21
29205.63955901472
 31
0.0
  0
LINE
  5
1EE4
330
1F
100
AcDbEntity
  8
外形線
100
AcDbLine
 10
34471.48520738138
 20
29205.63955901472
 30
0.0
 11
34467.48520738138
 21
29205.63955901472
 31
0.0
  0
LINE
  5
1EE5
330
1F
100
AcDbEntity
  8
外形線
100
AcDbLine
 10
34467.48520738138
 20
29205.63955901472
 30
0.0
 11
34467.48520738138
 21
29208.13955901472
 31
0.0
  0
LINE
  5
1EE6
330
1F
100
AcDbEntity
  8
外形線
100
AcDbLine
 10
34467.48520738138
 20
29208.13955901472
 30
0.0
 11
34471.48520738138
 21
29208.13955901472
 31
0.0
  0
LINE
  5
1EE7
330
1F
100
AcDbEntity
  8
外形線
100
AcDbLine
 10
34471.48520738138
 20
29221.13955901472
 30
0.0
 11
34471.48520738138
 21
29223.63955901472
 31
0.0
  0
LINE
  5
1EE8
330
1F
100
AcDbEntity
  8
外形線
100
AcDbLine
 10
34471.48520738138
 20
29223.63955901472
 30
0.0
 11
34467.48520738138
 21
29223.63955901472
 31
0.0
  0
LINE
  5
1EE9
330
1F
100
AcDbEntity
  8
外形線
100
AcDbLine
 10
34467.48520738138
 20
29223.63955901472
 30
0.0
 11
34467.48520738138
 21
29221.13955901472
 31
0.0
  0
LINE
  5
1EEA
330
1F
100
AcDbEntity
  8
外形線
100
AcDbLine
 10
34467.48520738138
 20
29221.13955901472
 30
0.0
 11
34471.48520738138
 21
29221.13955901472
 31
0.0
  0
LINE
  5
1EEB
330
1F
100
AcDbEntity
  8
外形線
100
AcDbLine
 10
34463.98520738138
 20
29217.63955901472
 30
0.0
 11
34460.98520738138
 21
29217.63955901472
 31
0.0
  0
LINE
  5
1EEC
330
1F
100
AcDbEntity
  8
外形線
100
AcDbLine
 10
34460.98520738138
 20
29217.63955901472
 30
0.0
 11
34460.98520738138
 21
29211.63955901472
 31
0.0
  0
LINE
  5
1EED
330
1F
100
AcDbEntity
  8
外形線
100
AcDbLine
 10
34460.98520738138
 20
29211.63955901472
 30
0.0
 11
34463.98520738138
 21
29211.63955901472
 31
0.0
  0
LINE
  5
1EEE
330
1F
100
AcDbEntity
  8
外形線
100
AcDbLine
 10
34467.98520738138
 20
29216.63955901471
 30
0.0
 11
34478.98520738138
 21
29216.63955901471
 31
0.0
  0
LINE
  5
1EEF
330
1F
100
AcDbEntity
  8
外形線
100
AcDbLine
 10
34478.98520738138
 20
29216.63955901471
 30
0.0
 11
34478.98520738138
 21
29212.63955901471
 31
0.0
  0
LINE
  5
1EF0
330
1F
100
AcDbEntity
  8
外形線
100
AcDbLine
 10
34478.98520738138
 20
29212.63955901471
 30
0.0
 11
34467.98520738138
 21
29212.63955901471
 31
0.0
  0
ARC
  5
1EF1
330
1F
100
AcDbEntity
  8
外形線
100
AcDbCircle
 10
34467.98520738138
 20
29214.63955901471
 30
0.0
 40
2.0
100
AcDbArc
 50
90.0
 51
270.0
  0
LINE
  5
1EF2
330
1F
100
AcDbEntity
  8
外形線
100
AcDbLine
 10
34483.98520738138
 20
29211.38955901472
 30
0.0
 11
34482.98520738138
 21
29211.38955901472
 31
0.0
  0
LINE
  5
1EF3
330
1F
100
AcDbEntity
  8
外形線
100
AcDbLine
 10
34482.98520738138
 20
29211.38955901472
 30
0.0
 11
34482.98520738138
 21
29217.88955901472
 31
0.0
  0
LINE
  5
1EF4
330
1F
100
AcDbEntity
  8
外形線
100
AcDbLine
 10
34482.98520738138
 20
29217.88955901472
 30
0.0
 11
34483.98520738138
 21
29217.88955901472
 31
0.0
  0
LINE
  5
1EF5
330
1F
100
AcDbEntity
  8
外形線
100
AcDbLine
 10
34496.98520738138
 20
29224.13955901471
 30
0.0
 11
34438.48520738138
 21
29224.13955901471
 31
0.0
  0
LINE
  5
1EF6
330
1F
100
AcDbEntity
  8
外形線
100
AcDbLine
 10
34438.48520738138
 20
29224.13955901471
 30
0.0
 11
34438.48520738138
 21
29216.94215263796
 31
0.0
  0
LINE
  5
1EF7
330
1F
100
AcDbEntity
  8
外形線
100
AcDbLine
 10
34438.48520738138
 20
29212.33696539147
 30
0.0
 11
34438.48520738138
 21
29205.13955901471
 31
0.0
  0
LINE
  5
1EF8
330
1F
100
AcDbEntity
  8
外形線
100
AcDbLine
 10
34438.48520738138
 20
29205.13955901471
 30
0.0
 11
34496.98520738138
 21
29205.13955901471
 31
0.0
  0
LINE
  5
1EF9
330
1F
100
AcDbEntity
  8
外形線
100
AcDbLine
 10
34496.98520738138
 20
29206.13955901472
 30
0.0
 11
34471.48520738138
 21
29206.13955901472
 31
0.0
  0
LINE
  5
1EFA
330
1F
100
AcDbEntity
  8
外形線
100
AcDbLine
 10
34467.48520738138
 20
29206.13955901472
 30
0.0
 11
34438.48520738138
 21
29206.13955901472
 31
0.0
  0
LINE
  5
1EFB
330
1F
100
AcDbEntity
  8
外形線
100
AcDbLine
 10
34438.48520738138
 20
29223.13955901472
 30
0.0
 11
34467.48520738138
 21
29223.13955901472
 31
0.0
  0
LINE
  5
1EFC
330
1F
100
AcDbEntity
  8
外形線
100
AcDbLine
 10
34496.98520738138
 20
29223.13955901472
 30
0.0
 11
34471.48520738138
 21
29223.13955901472
 31
0.0
  0
LINE
  5
1EFD
330
1F
100
AcDbEntity
  8
外形線
100
AcDbLine
 10
34442.48520738138
 20
29218.13955901471
 30
0.0
 11
34446.48520738138
 21
29218.13955901471
 31
0.0
  0
LINE
  5
1EFE
330
1F
100
AcDbEntity
  8
外形線
100
AcDbLine
 10
34446.48520738138
 20
29218.13955901471
 30
0.0
 11
34446.48520738138
 21
29211.13955901472
 31
0.0
  0
LINE
  5
1EFF
330
1F
100
AcDbEntity
  8
外形線
100
AcDbLine
 10
34446.48520738138
 20
29211.13955901472
 30
0.0
 11
34442.48520738138
 21
29211.13955901472
 31
0.0
  0
LINE
  5
1F00
330
1F
100
AcDbEntity
  8
外形線
100
AcDbLine
 10
34442.98520738138
 20
29211.13955901472
 30
0.0
 11
34442.98520738138
 21
29218.13955901471
 31
0.0
  0
LINE
  5
1F01
330
1F
100
AcDbEntity
  8
外形線
100
AcDbLine
 10
34442.98520738138
 20
29218.13955901471
 30
0.0
 11
34435.38397913036
 21
29216.01379501707
 31
0.0
  0
LINE
  5
1F02
330
1F
100
AcDbEntity
  8
外形線
100
AcDbLine
 10
34435.38397913036
 20
29213.26532301236
 30
0.0
 11
34442.98520738138
 21
29211.13955901472
 31
0.0
  0
ARC
  5
1F03
330
1F
100
AcDbEntity
  8
外形線
100
AcDbCircle
 10
34435.98520738138
 20
29214.63955901471
 30
0.0
 40
1.5
100
AcDbArc
 50
113.6293777308591
 51
246.3706222691409
  0
LINE
  5
1F04
330
1F
100
AcDbEntity
  8
外形線
100
AcDbLine
 10
34442.48520738138
 20
29218.13955901471
 30
0.0
 11
34442.48520738138
 21
29217.99972871839
 31
0.0
  0
LINE
  5
1F05
330
1F
100
AcDbEntity
  8
外形線
100
AcDbLine
 10
34442.48520738138
 20
29211.13955901472
 30
0.0
 11
34442.48520738138
 21
29211.27938931104
 31
0.0
  0
CIRCLE
  5
1F06
330
1F
100
AcDbEntity
  8
孔
100
AcDbCircle
 10
33697.98520738138
 20
29214.63955901471
 30
0.0
 40
2.1
  0
CIRCLE
  5
1F07
330
1F
100
AcDbEntity
  8
孔
100
AcDbCircle
 10
33754.98520738138
 20
29214.63955901471
 30
0.0
 40
2.1
  0
CIRCLE
  5
1F08
330
1F
100
AcDbEntity
  8
孔
100
AcDbCircle
 10
33812.98520738138
 20
29214.63955901471
 30
0.0
 40
2.1
  0
CIRCLE
  5
1F09
330
1F
100
AcDbEntity
  8
孔
100
AcDbCircle
 10
33827.98520738138
 20
29214.63955901471
 30
0.0
 40
2.1
  0
CIRCLE
  5
1F0A
330
1F
100
AcDbEntity
  8
孔
100
AcDbCircle
 10
33873.98520738138
 20
29214.63955901471
 30
0.0
 40
2.1
  0
CIRCLE
  5
1F0B
330
1F
100
AcDbEntity
  8
孔
100
AcDbCircle
 10
34014.98520738138
 20
29214.63955901471
 30
0.0
 40
2.1
  0
CIRCLE
  5
1F0C
330
1F
100
AcDbEntity
  8
孔
100
AcDbCircle
 10
34029.98520738138
 20
29214.63955901471
 30
0.0
 40
2.1
  0
CIRCLE
  5
1F0D
330
1F
100
AcDbEntity
  8
孔
100
AcDbCircle
 10
34089.98520738138
 20
29214.63955901471
 30
0.0
 40
2.1
  0
LINE
  5
1F0E
330
1F
100
AcDbEntity
  8
孔
100
AcDbLine
 10
33685.98520738138
 20
29210.13955901472
 30
0.0
 11
33687.00940251623
 21
29218.27263225639
 31
0.0
  0
LINE
  5
1F0F
330
1F
100
AcDbEntity
  8
孔
100
AcDbLine
 10
33689.96101224653
 20
29218.27263225639
 30
0.0
 11
33690.98520738138
 21
29210.13955901472
 31
0.0
  0
ARC
  5
1F10
330
1F
100
AcDbEntity
  8
孔
100
AcDbCircle
 10
33688.48520738138
 20
29218.0043040991
 30
0.0
 40
1.5
100
AcDbArc
 50
10.30484646891518
 51
169.6951535310848
  0
LINE
  5
1F11
330
1F
100
AcDbEntity
  8
孔
100
AcDbLine
 10
33685.98520738138
 20
29210.13955901472
 30
0.0
 11
33690.98520738138
 21
29210.13955901472
 31
0.0
  0
LINE
  5
1F12
330
1F
100
AcDbEntity
  8
孔
100
AcDbLine
 10
33685.98520738138
 20
29210.13955901472
 30
0.0
 11
33685.98520738138
 21
29209.63955901472
 31
0.0
  0
LINE
  5
1F13
330
1F
100
AcDbEntity
  8
孔
100
AcDbLine
 10
33685.98520738138
 20
29209.63955901472
 30
0.0
 11
33690.98520738138
 21
29209.63955901472
 31
0.0
  0
LINE
  5
1F14
330
1F
100
AcDbEntity
  8
孔
100
AcDbLine
 10
33690.98520738138
 20
29209.63955901472
 30
0.0
 11
33690.98520738138
 21
29210.13955901472
 31
0.0
  0
LINE
  5
1F15
330
1F
100
AcDbEntity
  8
孔
100
AcDbLine
 10
33817.98520738138
 20
29210.13955901472
 30
0.0
 11
33819.00940251624
 21
29218.27263225639
 31
0.0
  0
LINE
  5
1F16
330
1F
100
AcDbEntity
  8
孔
100
AcDbLine
 10
33821.96101224653
 20
29218.27263225639
 30
0.0
 11
33822.98520738138
 21
29210.13955901472
 31
0.0
  0
ARC
  5
1F17
330
1F
100
AcDbEntity
  8
孔
100
AcDbCircle
 10
33820.48520738138
 20
29218.0043040991
 30
0.0
 40
1.5
100
AcDbArc
 50
10.30484646891518
 51
169.6951535310848
  0
LINE
  5
1F18
330
1F
100
AcDbEntity
  8
孔
100
AcDbLine
 10
33817.98520738138
 20
29210.13955901472
 30
0.0
 11
33822.98520738138
 21
29210.13955901472
 31
0.0
  0
LINE
  5
1F19
330
1F
100
AcDbEntity
  8
孔
100
AcDbLine
 10
33817.98520738138
 20
29210.13955901472
 30
0.0
 11
33817.98520738138
 21
29209.63955901472
 31
0.0
  0
LINE
  5
1F1A
330
1F
100
AcDbEntity
  8
孔
100
AcDbLine
 10
33817.98520738138
 20
29209.63955901472
 30
0.0
 11
33822.98520738138
 21
29209.63955901472
 31
0.0
  0
LINE
  5
1F1B
330
1F
100
AcDbEntity
  8
孔
100
AcDbLine
 10
33822.98520738138
 20
29209.63955901472
 30
0.0
 11
33822.98520738138
 21
29210.13955901472
 31
0.0
  0
LINE
  5
1F1C
330
1F
100
AcDbEntity
  8
孔
100
AcDbLine
 10
33858.98520738138
 20
29210.13955901472
 30
0.0
 11
33860.00940251623
 21
29218.27263225639
 31
0.0
  0
LINE
  5
1F1D
330
1F
100
AcDbEntity
  8
孔
100
AcDbLine
 10
33862.96101224653
 20
29218.27263225639
 30
0.0
 11
33862.98520738138
 21
29218.08050011558
 31
0.0
  0
ARC
  5
1F1E
330
1F
100
AcDbEntity
  8
孔
100
AcDbCircle
 10
33861.48520738138
 20
29218.0043040991
 30
0.0
 40
1.5
100
AcDbArc
 50
10.30484646891518
 51
169.6951535310848
  0
LINE
  5
1F1F
330
1F
100
AcDbEntity
  8
孔
100
AcDbLine
 10
33858.98520738138
 20
29210.13955901472
 30
0.0
 11
33862.98520738138
 21
29210.13955901472
 31
0.0
  0
LINE
  5
1F20
330
1F
100
AcDbEntity
  8
孔
100
AcDbLine
 10
33858.98520738138
 20
29210.13955901472
 30
0.0
 11
33858.98520738138
 21
29209.63955901472
 31
0.0
  0
LINE
  5
1F21
330
1F
100
AcDbEntity
  8
孔
100
AcDbLine
 10
33858.98520738138
 20
29209.63955901472
 30
0.0
 11
33862.98520738138
 21
29209.63955901472
 31
0.0
  0
LINE
  5
1F22
330
1F
100
AcDbEntity
  8
孔
100
AcDbLine
 10
34099.98520738138
 20
29210.13955901472
 30
0.0
 11
34101.00940251624
 21
29218.27263225639
 31
0.0
  0
LINE
  5
1F23
330
1F
100
AcDbEntity
  8
孔
100
AcDbLine
 10
34103.96101224653
 20
29218.27263225639
 30
0.0
 11
34104.98520738138
 21
29210.13955901472
 31
0.0
  0
ARC
  5
1F24
330
1F
100
AcDbEntity
  8
孔
100
AcDbCircle
 10
34102.48520738138
 20
29218.0043040991
 30
0.0
 40
1.5
100
AcDbArc
 50
10.30484646891518
 51
169.6951535310848
  0
LINE
  5
1F25
330
1F
100
AcDbEntity
  8
孔
100
AcDbLine
 10
34099.98520738138
 20
29210.13955901472
 30
0.0
 11
34104.98520738138
 21
29210.13955901472
 31
0.0
  0
LINE
  5
1F26
330
1F
100
AcDbEntity
  8
孔
100
AcDbLine
 10
34099.98520738138
 20
29210.13955901472
 30
0.0
 11
34099.98520738138
 21
29209.63955901472
 31
0.0
  0
LINE
  5
1F27
330
1F
100
AcDbEntity
  8
孔
100
AcDbLine
 10
34099.98520738138
 20
29209.63955901472
 30
0.0
 11
34104.98520738138
 21
29209.63955901472
 31
0.0
  0
LINE
  5
1F28
330
1F
100
AcDbEntity
  8
孔
100
AcDbLine
 10
34104.98520738138
 20
29209.63955901472
 30
0.0
 11
34104.98520738138
 21
29210.13955901472
 31
0.0
  0
LINE
  5
1F29
330
1F
100
AcDbEntity
  8
孔
100
AcDbLine
 10
33798.08520738138
 20
29216.73955901471
 30
0.0
 11
33801.88520738138
 21
29216.73955901471
 31
0.0
  0
LINE
  5
1F2A
330
1F
100
AcDbEntity
  8
孔
100
AcDbLine
 10
33798.08520738138
 20
29212.53955901472
 30
0.0
 11
33801.88520738138
 21
29212.53955901472
 31
0.0
  0
ARC
  5
1F2B
330
1F
100
AcDbEntity
  8
孔
100
AcDbCircle
 10
33798.08520738137
 20
29214.63955901471
 30
0.0
 40
2.099999999998544
100
AcDbArc
 50
89.99999999958312
 51
270.0000000004169
  0
ARC
  5
1F2C
330
1F
100
AcDbEntity
  8
孔
100
AcDbCircle
 10
33801.88520738138
 20
29214.6395590147
 30
0.0
 40
2.100000000013096
100
AcDbArc
 50
270.0
 51
90.0
  0
LINE
  5
1F2D
330
1F
100
AcDbEntity
  8
孔
100
AcDbLine
 10
34045.98520738138
 20
29218.63955901471
 30
0.0
 11
34072.98520738138
 21
29218.63955901471
 31
0.0
  0
LINE
  5
1F2E
330
1F
100
AcDbEntity
  8
孔
100
AcDbLine
 10
34045.98520738138
 20
29210.63955901471
 30
0.0
 11
34072.98520738138
 21
29210.63955901471
 31
0.0
  0
ARC
  5
1F2F
330
1F
100
AcDbEntity
  8
孔
100
AcDbCircle
 10
34045.98520738138
 20
29214.63955901471
 30
0.0
 40
4.0
100
AcDbArc
 50
90.0
 51
270.0
  0
ARC
  5
1F30
330
1F
100
AcDbEntity
  8
孔
100
AcDbCircle
 10
34072.98520738138
 20
29214.63955901471
 30
0.0
 40
4.0
100
AcDbArc
 50
270.0
 51
90.0
  0
XLINE
  5
1F3A
330
1F
100
AcDbEntity
  8
オフセット
100
AcDbXline
 10
32915.44093491146
 20
27361.1873949744
 30
0.0
 11
-1.0
 21
0.0
 31
0.0
  0
LINE
  5
1F3B
330
1F
100
AcDbEntity
  8
中心線
100
AcDbLine
 10
33528.48520738138
 20
29239.81389280758
 30
0.0
 11
33528.48520738138
 21
28798.81731629889
 31
0.0
  0
LINE
  5
1F66
330
1F
100
AcDbEntity
  8
寸法線
100
AcDbLine
 10
33528.48520738138
 20
29035.82913642521
 30
0.0
 11
33528.48520738138
 21
29036.45413642521
 31
0.0
  0
LINE
  5
1F67
330
1F
100
AcDbEntity
  8
寸法線
100
AcDbLine
 10
34473.48520738138
 20
29035.82913642521
 30
0.0
 11
34473.48520738138
 21
29036.45413642521
 31
0.0
  0
LINE
  5
1F68
330
1F
100
AcDbEntity
  8
寸法線
100
AcDbLine
 10
33530.98520738138
 20
29035.20413642521
 30
0.0
 11
34470.98520738138
 21
29035.20413642521
 31
0.0
  0
SOLID
  5
1F69
330
1F
100
AcDbEntity
  8
寸法線
100
AcDbTrace
 10
33530.98520738138
 20
29035.62080309188
 30
0.0
 11
33530.98520738138
 21
29034.78746975854
 31
0.0
 12
33528.48520738138
 22
29035.20413642521
 32
0.0
 13
33528.48520738138
 23
29035.20413642521
 33
0.0
  0
SOLID
  5
1F6A
330
1F
100
AcDbEntity
  8
寸法線
100
AcDbTrace
 10
34470.98520738138
 20
29035.62080309188
 30
0.0
 11
34470.98520738138
 21
29034.78746975854
 31
0.0
 12
34473.48520738138
 22
29035.20413642521
 32
0.0
 13
34473.48520738138
 23
29035.20413642521
 33
0.0
  0
DIMENSION
  5
1F70
102
{ACAD_XDICTIONARY
360
1F7D
102
}
102
{ACAD_REACTORS
330
1F87
102
}
330
1F
100
AcDbEntity
  8
寸法線
100
AcDbDimension
280
     0
  2
*D10
 10
34523.48520738138
 20
29300.12697633494
 30
0.0
 11
34000.98520738138
 21
29310.96343608938
 31
0.0
 70
    32
 71
     5
 42
1045.0
 73
     0
 74
     0
 75
     0
  3
ISO-25
100
AcDbAlignedDimension
 13
33478.48520738138
 23
29214.63955901471
 33
0.0
 14
34523.48520738138
 24
29214.63955901471
 34
0.0
100
AcDbRotatedDimension
  0
DIMENSION
  5
1F88
102
{ACAD_XDICTIONARY
360
1F95
102
}
102
{ACAD_REACTORS
330
1F9F
102
}
330
1F
100
AcDbEntity
  8
寸法線
100
AcDbDimension
280
     0
  2
*D11
 10
34617.90376247964
 20
28822.15085042292
 30
0.0
 11
34607.06730272519
 21
28869.65085042293
 31
0.0
 70
    33
 71
     5
 42
95.0
 73
     0
 74
     0
 75
     0
  3
ISO-25
100
AcDbAlignedDimension
 13
34522.48520738137
 23
28917.15085042292
 33
0.0
 14
34522.48520738138
 24
28822.15085042292
 34
0.0
  0
DIMENSION
  5
1FA0
102
{ACAD_XDICTIONARY
360
1FAF
102
}
102
{ACAD_REACTORS
330
1FBB
102
}
330
1F
100
AcDbEntity
  8
寸法線
100
AcDbDimension
280
     0
  2
*D12
 10
34617.90376247964
 20
28818.15085042292
 30
0.0
 11
34607.27876247962
 21
28805.60907006822
 31
0.0
 70
    32
 71
     5
 42
4.0
 73
     0
 74
     0
 75
     0
  3
ISO-25
100
AcDbAlignedDimension
 13
34522.48520738138
 23
28822.15085042292
 33
0.0
 14
34483.48520738138
 24
28818.15085042292
 34
0.0
 50
90.0
100
AcDbRotatedDimension
  0
DIMENSION
  5
1FBC
102
{ACAD_XDICTIONARY
360
1FC9
102
}
102
{ACAD_REACTORS
330
1FD3
102
}
330
1F
100
AcDbEntity
  8
寸法線
100
AcDbDimension
280
     0
  2
*D13
 10
34576.14637425928
 20
28900.90085042291
 30
0.0
 11
34563.50227466854
 21
28861.52585042292
 31
0.0
 70
    33
 71
     5
 42
78.74999999999272
 73
     0
 74
     0
 75
     0
  3
ISO-25
100
AcDbAlignedDimension
 13
34522.48520738138
 23
28822.15085042292
 33
0.0
 14
34522.48520738137
 24
28900.90085042291
 34
0.0
  0
DIMENSION
  5
1FD4
102
{ACAD_XDICTIONARY
360
1FE1
102
}
102
{ACAD_REACTORS
330
1FEB
102
}
330
1F
100
AcDbEntity
  8
寸法線
100
AcDbDimension
280
     0
  2
*D14
 10
34658.33552759084
 20
28917.15085042292
 30
0.0
 11
34647.4990678364
 21
28867.65085059743
 31
0.0
 70
    32
 71
     5
 42
98.99999965098686
 73
     0
 74
     0
 75
     0
  3
ISO-25
100
AcDbAlignedDimension
 13
34699.13665228382
 23
28818.15085077193
 33
0.0
 14
34707.38665228382
 24
28917.15085042292
 34
0.0
 50
90.0
100
AcDbRotatedDimension
  0
DIMENSION
  5
1FEC
102
{ACAD_XDICTIONARY
360
1FF9
102
}
102
{ACAD_REACTORS
330
2003
102
}
330
1F
100
AcDbEntity
  8
寸法線
100
AcDbDimension
280
     0
  2
*D15
 10
34732.18665228383
 20
29015.62168405931
 30
0.0
 11
34709.68665228383
 21
29026.41721611933
 31
0.0
 70
    32
 71
     5
 42
45.0
 73
     0
 74
     0
 75
     0
  3
ISO-25
100
AcDbAlignedDimension
 13
34687.18665228383
 23
28853.95085077193
 33
0.0
 14
34732.18665228383
 24
28853.95085077193
 34
0.0
100
AcDbRotatedDimension
  0
DIMENSION
  5
2004
102
{ACAD_XDICTIONARY
360
2012
102
}
102
{ACAD_REACTORS
330
201D
102
}
330
1F
100
AcDbEntity
  8
寸法線
100
AcDbDimension
280
     0
  2
*D16
 10
34732.18665228383
 20
28969.59347240072
 30
0.0
 11
34761.47809157442
 21
28982.23757199144
 31
0.0
 70
    32
 71
     5
 42
24.80000000000291
 73
     0
 74
     0
 75
     0
  3
ISO-25
100
AcDbAlignedDimension
 13
34707.38665228382
 23
28920.15085042292
 33
0.0
 14
34732.18665228383
 24
28853.95085077193
 34
0.0
100
AcDbRotatedDimension
  0
DIMENSION
  5
201E
102
{ACAD_XDICTIONARY
360
202C
102
}
102
{ACAD_REACTORS
330
2037
102
}
330
1F
100
AcDbEntity
  8
寸法線
100
AcDbDimension
280
     0
  2
*D17
 10
34687.18665228383
 20
28969.59347240072
 30
0.0
 11
34658.01799607646
 21
28982.23757199144
 31
0.0
 70
    32
 71
     5
 42
20.19999999999709
 73
     0
 74
     0
 75
     0
  3
ISO-25
100
AcDbAlignedDimension
 13
34707.38665228382
 23
28920.15085042292
 33
0.0
 14
34687.18665228383
 24
28853.95085077193
 34
0.0
100
AcDbRotatedDimension
  0
VIEWPORT
  5
318
102
{ACAD_XDICTIONARY
360
319
102
}
330
D2
100
AcDbEntity
 67
     1
  8
0
100
AcDbViewport
 10
205.0097503662109
 20
198.846392454756
 30
0.0
 40
511.3899719593863
 41
424.8889022343412
 68
     1
 69
     1
 12
205.0097503662109
 22
198.846392454756
 13
0.0
 23
0.0
 14
10.0
 24
10.0
 15
10.0
 25
10.0
 16
0.0
 26
0.0
 36
1.0
 17
0.0
 27
0.0
 37
0.0
 42
50.0
 43
0.0
 44
0.0
 45
424.8889022343412
 50
0.0
 51
0.0
 72
  1000
 90
   557088
  1

281
     0
 71
     1
 74
     0
110
0.0
120
0.0
130
0.0
111
1.0
121
0.0
131
0.0
112
0.0
122
1.0
132
0.0
 79
     0
146
0.0
170
     0
 61
     5
348
EC
292
     1
282
     1
141
0.0
142
0.0
 63
   250
421
  3355443
  0
VIEWPORT
  5
31C
102
{ACAD_XDICTIONARY
360
31D
102
}
330
D2
100
AcDbEntity
 67
     1
  8
外形線②
100
AcDbViewport
 10
128.5
 20
97.5
 30
0.0
 40
205.6
 41
156.0
 68
     2
 69
     2
 12
210.0
 22
148.5
 13
0.0
 23
0.0
 14
10.0
 24
10.0
 15
10.0
 25
10.0
 16
0.0
 26
0.0
 36
1.0
 17
0.0
 27
0.0
 37
0.0
 42
50.0
 43
0.0
 44
0.0
 45
321.3253284758076
 50
0.0
 51
0.0
 72
  1000
 90
   819808
  1

281
     0
 71
     1
 74
     0
110
0.0
120
0.0
130
0.0
111
1.0
121
0.0
131
0.0
112
0.0
122
1.0
132
0.0
 79
     0
146
0.0
170
     0
 61
     5
348
EC
292
     1
282
     1
141
0.0
142
0.0
 63
   250
421
  3355443
  0
ENDSEC
  0
SECTION
  2
OBJECTS
  0
DICTIONARY
  5
C
330
0
100
AcDbDictionary
281
     1
  3
ACAD_CIP_PREVIOUS_PRODUCT_INFO
350
20D
  3
ACAD_COLOR
350
79
  3
ACAD_DETAILVIEWSTYLE
350
212
  3
ACAD_GROUP
350
D
  3
ACAD_LAYOUT
350
1A
  3
ACAD_MATERIAL
350
78
  3
ACAD_MLEADERSTYLE
350
124
  3
ACAD_MLINESTYLE
350
17
  3
ACAD_PLOTSETTINGS
350
19
  3
ACAD_PLOTSTYLENAME
350
E
  3
ACAD_SCALELIST
350
103
  3
ACAD_SECTIONVIEWSTYLE
350
210
  3
ACAD_TABLESTYLE
350
97
  3
ACAD_VISUALSTYLE
350
E6
  3
ACDB_RECOMPOSE_DATA
350
2063
  3
AcDbVariableDictionary
350
67
  0
DICTIONARY
  5
1F6
330
2
100
AcDbDictionary
280
     1
281
     1
  3
ACAD_LAYERSTATES
360
1F7
  0
DICTIONARY
  5
133
330
10
100
AcDbDictionary
280
     1
281
     1
  0
DICTIONARY
  5
CEB
330
CEA
100
AcDbDictionary
280
     1
281
     1
  0
DICTIONARY
  5
1C5
330
1F
100
AcDbDictionary
280
     1
281
     1
  3
ACAD_SORTENTS
360
35E
  0
DICTIONARY
  5
1F7D
330
1F70
100
AcDbDictionary
280
     1
281
     1
  3
ACAD_DIMASSOC
360
1F87
  0
DICTIONARY
  5
1F95
330
1F88
100
AcDbDictionary
280
     1
281
     1
  3
ACAD_DIMASSOC
360
1F9F
  0
DICTIONARY
  5
1FAF
330
1FA0
100
AcDbDictionary
280
     1
281
     1
  3
ACAD_DIMASSOC
360
1FBB
  0
DICTIONARY
  5
1FC9
330
1FBC
100
AcDbDictionary
280
     1
281
     1
  3
ACAD_DIMASSOC
360
1FD3
  0
DICTIONARY
  5
1FE1
330
1FD4
100
AcDbDictionary
280
     1
281
     1
  3
ACAD_DIMASSOC
360
1FEB
  0
DICTIONARY
  5
1FF9
330
1FEC
100
AcDbDictionary
280
     1
281
     1
  3
ACAD_DIMASSOC
360
2003
  0
DICTIONARY
  5
2012
330
2004
100
AcDbDictionary
280
     1
281
     1
  3
ACAD_DIMASSOC
360
201D
  0
DICTIONARY
  5
202C
330
201E
100
AcDbDictionary
280
     1
281
     1
  3
ACAD_DIMASSOC
360
2037
  0
DICTIONARY
  5
319
330
318
100
AcDbDictionary
280
     1
281
     1
  3
ASDK_XREC_ANNOTATION_SCALE_INFO
360
31A
  0
DICTIONARY
  5
31D
330
31C
100
AcDbDictionary
280
     1
281
     1
  3
ASDK_XREC_ANNOTATION_SCALE_INFO
360
31E
  0
XRECORD
  5
20D
102
{ACAD_REACTORS
330
C
102
}
330
C
100
AcDbXrecord
280
     1
300
ACDLT
300
2016
300
ACDLT_F_S
  0
DICTIONARY
  5
79
102
{ACAD_REACTORS
330
C
102
}
330
C
100
AcDbDictionary
281
     1
  0
DICTIONARY
  5
212
102
{ACAD_REACTORS
330
C
102
}
330
C
100
AcDbDictionary
281
     1
  3
Metric50
350
213
  0
DICTIONARY
  5
D
102
{ACAD_REACTORS
330
C
102
}
330
C
100
AcDbDictionary
281
     1
  0
DICTIONARY
  5
1A
102
{ACAD_REACTORS
330
C
102
}
330
C
100
AcDbDictionary
281
     1
  3
Model
350
22
  3
レイアウト1
350
D3
  3
レイアウト2
350
D7
  0
DICTIONARY
  5
78
102
{ACAD_REACTORS
330
C
102
}
330
C
100
AcDbDictionary
281
     1
  3
ByBlock
350
E4
  3
ByLayer
350
E3
  3
Global
350
E5
  0
DICTIONARY
  5
124
102
{ACAD_REACTORS
330
C
102
}
330
C
100
AcDbDictionary
281
     1
  3
Annotative
350
132
  3
Standard
350
125
  0
DICTIONARY
  5
17
102
{ACAD_REACTORS
330
C
102
}
330
C
100
AcDbDictionary
281
     1
  3
Standard
350
18
  0
DICTIONARY
  5
19
102
{ACAD_REACTORS
330
C
102
}
330
C
100
AcDbDictionary
281
     1
  0
ACDBDICTIONARYWDFLT
  5
E
102
{ACAD_REACTORS
330
C
102
}
330
C
100
AcDbDictionary
281
     1
  3
Normal
350
F
100
AcDbDictionaryWithDefault
340
F
  0
DICTIONARY
  5
103
102
{ACAD_REACTORS
330
C
102
}
330
C
100
AcDbDictionary
281
     1
  3
A0
350
104
  3
A1
350
1B5
  3
A2
350
1B6
  3
A3
350
1B7
  3
A4
350
1B8
  3
A5
350
1B9
  3
A6
350
1BA
  3
A7
350
1BB
  3
A8
350
1BC
  3
A9
350
1BD
  3
B0
350
1BE
  3
B1
350
1BF
  3
B2
350
1C0
  3
B3
350
1C1
  3
B4
350
1C2
  3
B5
350
1C3
  3
B6
350
1C4
  0
DICTIONARY
  5
210
102
{ACAD_REACTORS
330
C
102
}
330
C
100
AcDbDictionary
281
     1
  3
Metric50
350
211
  0
DICTIONARY
  5
97
102
{ACAD_REACTORS
330
C
102
}
330
C
100
AcDbDictionary
281
     1
  3
Standard
350
98
  0
DICTIONARY
  5
E6
102
{ACAD_REACTORS
330
C
102
}
330
C
100
AcDbDictionary
281
     1
  3
2dWireframe
350
EC
  3
Basic
350
EB
  3
Brighten
350
F2
  3
ColorChange
350
F6
  3
Conceptual
350
EF
  3
Dim
350
F1
  3
EdgeColorOff
350
1DD
  3
Facepattern
350
F5
  3
Flat
350
E7
  3
FlatWithEdges
350
E8
  3
Gouraud
350
E9
  3
GouraudWithEdges
350
EA
  3
Hidden
350
EE
  3
JitterOff
350
1DB
  3
Linepattern
350
F4
  3
OverhangOff
350
1DC
  3
Realistic
350
F0
  3
Shaded
350
1EA
  3
Shaded with edges
350
1E9
  3
Shades of Gray
350
1E6
  3
Sketchy
350
1E7
  3
Thicken
350
F3
  3
Wireframe
350
ED
  3
X-Ray
350
1E8
  0
XRECORD
  5
2063
102
{ACAD_REACTORS
330
C
102
}
330
C
100
AcDbXrecord
280
     1
 90
        1
330
98
330
211
330
213
330
B52
330
B53
330
B54
330
B55
330
B56
330
B57
330
B58
330
B59
330
B5A
330
B5B
330
B5C
330
B5D
330
B5E
330
B5F
330
B60
330
B61
330
B62
330
B63
330
B66
330
B67
330
B68
330
B69
330
B6A
330
B6B
330
B6C
330
B6D
330
B6E
330
B6F
330
B70
330
B7B
330
B7C
330
B7D
330
B7E
330
B7F
330
B80
330
B81
330
B82
330
B83
330
B84
330
B85
330
C37
330
C3E
330
DDC
330
DDD
330
DE0
330
1588
330
1589
330
158A
330
184A
330
184E
330
1852
330
1856
330
185A
330
185E
330
1862
  0
DICTIONARY
  5
67
102
{ACAD_REACTORS
330
C
102
}
330
C
100
AcDbDictionary
281
     1
  3
CANNOSCALE
350
13D
  3
CMLEADERSTYLE
350
13C
  3
CTABLESTYLE
350
C5
  3
CVIEWDETAILSTYLE
350
21E
  3
CVIEWSECTIONSTYLE
350
21F
  3
DIMASSOC
350
68
  3
EXPORTMODELSPACE
350
DA8
  3
HIDETEXT
350
6C
  3
LAYEREVAL
350
1A5
  3
LAYERNOTIFY
350
1A6
  0
DICTIONARY
  5
1F7
102
{ACAD_REACTORS
330
1F6
102
}
330
1F6
100
AcDbDictionary
281
     1
  0
SORTENTSTABLE
  5
35E
102
{ACAD_REACTORS
330
1C5
102
}
330
1C5
100
AcDbSortentsTable
330
1F
331
1E47
  5
1E49
331
1E66
  5
1E68
331
9A2
  5
B3D
331
1E85
  5
1E87
331
1EA4
  5
1EA6
331
1C47
  5
1C57
331
1C66
  5
1C76
331
1C85
  5
1C95
331
1851
  5
1856
331
D9C
  5
1044
331
D95
  5
103D
331
D76
  5
D8D
331
D57
  5
D6E
331
1EFE
  5
1F00
331
1F1D
  5
1F1F
331
1EC0
  5
1EC2
331
1EDF
  5
1EE1
331
B28
  5
B54
331
1E48
  5
1E4A
331
1E67
  5
1E69
331
7DC
  5
7DC
331
9A3
  5
B3C
331
1E86
  5
1E88
331
1EA5
  5
1EA7
331
1C67
  5
1C77
331
1C86
  5
1C96
331
1CA0
  5
1D00
331
1852
  5
1857
331
DDC
  5
1045
331
D96
  5
103E
331
D77
  5
D8E
331
D58
  5
D6F
331
1EFF
  5
1F01
331
1F1E
  5
1F20
331
1EC1
  5
1EC3
331
1EE0
  5
1EE2
331
B29
  5
B55
331
B48
  5
B74
331
1E49
  5
1E4B
331
1E68
  5
1E6A
331
1E87
  5
1E89
331
1EA6
  5
1EA8
331
1C87
  5
1C97
331
1CA1
  5
1D02
331
1853
  5
1858
331
DDD
  5
1046
331
D97
  5
103F
331
D78
  5
D8F
331
D59
  5
D70
331
1F00
  5
1F02
331
1F1F
  5
1F21
331
1EC2
  5
1EC4
331
1EE1
  5
1EE3
331
B49
  5
B75
331
B2A
  5
B56
331
B68
  5
C20
331
1E4A
  5
1E4C
331
1E69
  5
1E6B
331
1E88
  5
1E8A
331
1EA7
  5
1EA9
331
1CA2
  5
1D03
331
1854
  5
1859
331
D79
  5
D90
331
D5A
  5
D71
331
1F01
  5
1F03
331
1EC3
  5
1EC5
331
1EE2
  5
1EE4
331
B2B
  5
B57
331
B4A
  5
B76
331
B69
  5
C21
331
1D00
  5
1D05
331
1E4B
  5
1E4D
331
1E6A
  5
1E6C
331
9A6
  5
95A
331
1E89
  5
1E8B
331
B88
  5
C4F
331
1855
  5
185A
331
DDF
  5
1047
331
150E
  5
864
331
D7A
  5
D91
331
D5B
  5
D72
331
1F02
  5
1F04
331
1EC4
  5
1EC6
331
1EE3
  5
1EE5
331
1D18
  5
1D1D
331
B6A
  5
C22
331
B2C
  5
B58
331
B4B
  5
B77
331
1D01
  5
1D06
331
1E4C
  5
1E4E
331
1E6B
  5
1E6D
331
1E8A
  5
1E8C
331
9A7
  5
955
331
A4E
  5
B4A
331
B89
  5
D49
331
1856
  5
185B
331
DE0
  5
1048
331
150F
  5
865
331
D7B
  5
D92
331
D5C
  5
D73
331
1F03
  5
1F05
331
C45
  5
D5E
331
1EC5
  5
1EC7
331
1EE4
  5
1EE6
331
1D19
  5
1D1E
331
1D38
  5
1D3D
331
B2D
  5
B59
331
B4C
  5
B78
331
B6B
  5
C23
331
1D02
  5
1D07
331
1E4D
  5
1E4F
331
1E6C
  5
1E6E
331
1E8B
  5
1E8D
331
B8A
  5
D4A
331
1857
  5
185C
331
1588
  5
184B
331
DE1
  5
1049
331
D7C
  5
D93
331
D5D
  5
D74
331
1F04
  5
1F06
331
C46
  5
D5F
331
1EC6
  5
1EC8
331
1EE5
  5
1EE7
331
1D1A
  5
1D1F
331
1D39
  5
1D3E
331
1D58
  5
1D5A
331
B2E
  5
B5A
331
B4D
  5
B79
331
B6C
  5
C24
331
1D03
  5
1D08
331
1E4E
  5
1E50
331
1E6D
  5
1E6F
331
1E8C
  5
1E8E
331
1858
  5
185D
331
1B00
  5
1B08
331
1589
  5
184C
331
DE2
  5
104A
331
D7D
  5
D94
331
D5E
  5
D75
331
1F05
  5
1F07
331
1EC7
  5
1EC9
331
1EE6
  5
1EE8
331
1D90
  5
1D92
331
1D1B
  5
1D20
331
1D3A
  5
1D3F
331
1D59
  5
1D5B
331
B2F
  5
B5B
331
B4E
  5
B7A
331
B6D
  5
C25
331
1D04
  5
1D09
331
1E4F
  5
1E51
331
1E6E
  5
1E70
331
1E8D
  5
1E8F
331
1859
  5
185E
331
1B01
  5
1B09
331
158A
  5
184D
331
D7E
  5
D95
331
D5F
  5
D76
331
1F06
  5
1F08
331
1EE7
  5
1EE9
331
1D91
  5
1D93
331
1D1C
  5
1D21
331
1D3B
  5
1D40
331
1D5A
  5
1D5C
331
B4F
  5
B7B
331
B6E
  5
C26
331
1D05
  5
1D0A
331
1E6F
  5
1E71
331
1E8E
  5
1E90
331
B30
  5
B5C
331
185A
  5
185F
331
1B02
  5
1B0A
331
D7F
  5
D96
331
1F07
  5
1F09
331
1D92
  5
1D94
331
1D1D
  5
1D22
331
1D3C
  5
1D41
331
1D5B
  5
1D5D
331
B6F
  5
C27
331
1D06
  5
1D0B
331
1E8F
  5
1E91
331
B31
  5
B5D
331
B50
  5
B7C
331
185B
  5
1860
331
1B03
  5
1B0B
331
1D93
  5
1D95
331
1D1E
  5
1D23
331
1D3D
  5
1D42
331
1D5C
  5
1D5E
331
1D07
  5
1D0C
331
B32
  5
B5E
331
B51
  5
B7D
331
B70
  5
C28
331
185C
  5
1861
331
1B04
  5
1B0C
331
1D94
  5
1D96
331
1D3E
  5
1B01
331
1D1F
  5
1D24
331
1D5D
  5
1D5F
331
1D08
  5
1D0D
331
B33
  5
B5F
331
B52
  5
B7E
331
B71
  5
C29
331
185D
  5
1862
331
1B05
  5
1B0D
331
1D95
  5
1D97
331
1D3F
  5
1B00
331
1D20
  5
1D25
331
1D5E
  5
1D60
331
1D09
  5
1D0E
331
C19
  5
83E
331
B34
  5
B60
331
B53
  5
B7F
331
B72
  5
C2A
331
185E
  5
1863
331
1B06
  5
1B0E
331
1D96
  5
1D98
331
1D40
  5
1AFF
331
1D21
  5
1D26
331
1D5F
  5
1D61
331
1D0A
  5
1D0F
331
C1A
  5
860
331
B35
  5
B61
331
B54
  5
B80
331
B73
  5
C2B
331
185F
  5
1864
331
1B07
  5
1B0F
331
1D97
  5
1D99
331
1D22
  5
1D27
331
1D41
  5
1D43
331
1D60
  5
1D81
331
1D0B
  5
1D10
331
C1B
  5
861
331
B36
  5
B62
331
B55
  5
B81
331
B74
  5
C2F
331
1B08
  5
1B10
331
13E2
  5
911
331
1860
  5
1868
331
1D98
  5
1DB0
331
1D23
  5
1D28
331
1D42
  5
1D44
331
1D61
  5
1D82
331
1D0C
  5
1D11
331
C1C
  5
840
331
B37
  5
B63
331
B56
  5
B82
331
B75
  5
C33
331
1861
  5
1880
331
1B09
  5
1B11
331
1D99
  5
1DB1
331
1D24
  5
1D29
331
1D43
  5
1D45
331
1D0D
  5
1D12
331
B38
  5
B64
331
B57
  5
B83
331
B76
  5
C34
331
1862
  5
1898
331
1B0A
  5
1C2F
331
1D25
  5
1D2A
331
1D44
  5
1D46
331
1D0E
  5
1D13
331
C1E
  5
862
331
B39
  5
B65
331
B58
  5
B84
331
B77
  5
C35
331
1863
  5
18B4
331
1B0B
  5
1C30
331
1D26
  5
1D2B
331
1D45
  5
1D47
331
1D0F
  5
1D14
331
B3A
  5
B66
331
B59
  5
B85
331
B78
  5
C36
331
1864
  5
18CC
331
1D27
  5
1D2C
331
1D46
  5
1D48
331
1D10
  5
1D15
331
B3B
  5
B67
331
B5A
  5
B86
331
B79
  5
C37
331
1846
  5
8B8
331
1F20
  5
1F22
331
1D28
  5
1D2D
331
1D47
  5
1D49
331
1D11
  5
1D16
331
C21
  5
866
331
B3C
  5
B68
331
B5B
  5
B87
331
B7A
  5
C38
331
1847
  5
86D
331
1F21
  5
1F23
331
1D29
  5
1D2E
331
1D48
  5
1D4A
331
1D12
  5
1D17
331
B3D
  5
B69
331
B5C
  5
B88
331
B7B
  5
C39
331
1848
  5
86E
331
1F22
  5
1F24
331
1D2A
  5
1D2F
331
1D49
  5
1D4B
331
1D13
  5
1D18
331
B3E
  5
B6A
331
B5D
  5
B89
331
B7C
  5
C3A
331
1F23
  5
1F25
331
1849
  5
184E
331
1DB0
  5
1DB2
331
1D2B
  5
1D30
331
1D4A
  5
1D4C
331
1D81
  5
1D83
331
1D14
  5
1D19
331
B3F
  5
B6B
331
B5E
  5
B8A
331
B7D
  5
C3B
331
1C21
  5
1C31
331
1F24
  5
1F26
331
184A
  5
184F
331
1DB1
  5
1DB3
331
1D2C
  5
1D31
331
1D4B
  5
1D4D
331
1D82
  5
1D84
331
1D15
  5
1D1A
331
B40
  5
B6C
331
B5F
  5
C17
331
B7E
  5
C3D
331
1C22
  5
1C32
331
1F25
  5
1F27
331
149C
  5
90F
331
184B
  5
1850
331
1DB2
  5
1DB4
331
1D2D
  5
1D32
331
1D4C
  5
1D4E
331
1D83
  5
1D85
331
1D16
  5
1D1B
331
1CF7
  5
8BA
331
B41
  5
B6D
331
B60
  5
C18
331
B7F
  5
C3E
331
1C23
  5
1C33
331
1F26
  5
1F28
331
149D
  5
910
331
184C
  5
1851
331
1DB3
  5
1DB5
331
1D2E
  5
1D33
331
1D4D
  5
1D4F
331
1D84
  5
1D86
331
1D17
  5
1D1C
331
B80
  5
C42
331
B42
  5
B6E
331
B61
  5
C19
331
1CF8
  5
83F
331
1C24
  5
1C34
331
1F27
  5
1F29
331
184D
  5
1852
331
1DB4
  5
1DB6
331
1D2F
  5
1D34
331
1D4E
  5
1D50
331
1D85
  5
1D87
331
B81
  5
C43
331
B43
  5
B6F
331
B62
  5
C1A
331
1CF9
  5
8C4
331
1F28
  5
1F2A
331
1DB8
  5
1DBA
331
1C25
  5
1C35
331
1AF6
  5
1AFB
331
184E
  5
1853
331
1DB5
  5
1DB7
331
1D30
  5
1D35
331
1D4F
  5
1D51
331
1D86
  5
1D88
331
B44
  5
B70
331
B63
  5
C1B
331
B82
  5
C44
331
1F29
  5
1F2B
331
1DB9
  5
1DBB
331
1DD8
  5
1DDA
331
1C26
  5
1C36
331
1AF7
  5
1AFC
331
184F
  5
1854
331
1DB6
  5
1DB8
331
1D31
  5
1D36
331
1D50
  5
1D52
331
1D87
  5
1D89
331
B45
  5
B71
331
B64
  5
C1C
331
B83
  5
C45
331
1F2A
  5
1F2C
331
1DBA
  5
1DBC
331
1DD9
  5
1DDB
331
1C27
  5
1C37
331
1DF8
  5
1DFA
331
1AF8
  5
1AFD
331
1DB7
  5
1DB9
331
1D32
  5
1D37
331
1D51
  5
1D53
331
1D88
  5
1D8A
331
B46
  5
B72
331
B65
  5
C1D
331
B84
  5
C46
331
1F2B
  5
1F2D
331
1DBB
  5
1DBD
331
1DDA
  5
1DDC
331
1DF9
  5
1DFB
331
1E18
  5
1E1A
331
1AF9
  5
1AFE
331
1D33
  5
1D38
331
1D52
  5
1D54
331
1D89
  5
1D8B
331
B47
  5
B73
331
B66
  5
C1E
331
B85
  5
C47
331
1F2C
  5
1F2E
331
1DBC
  5
1DBE
331
1DDB
  5
1DDD
331
1DFA
  5
1DFC
331
1E19
  5
1E1B
331
1AFA
  5
1B02
331
1D34
  5
1D39
331
1D53
  5
1D55
331
1D8A
  5
1D8C
331
1C28
  5
1C38
331
B67
  5
C1F
331
1DBD
  5
1DBF
331
1DDC
  5
1DDE
331
1DFB
  5
1DFD
331
1E1A
  5
1E1C
331
1AFB
  5
1B03
331
1F2D
  5
1F2F
331
1D35
  5
1D3A
331
1D54
  5
1D56
331
1D8B
  5
1D8D
331
1C29
  5
1C39
331
1C48
  5
1C58
331
B87
  5
C4E
331
1CFF
  5
1D04
331
1DBE
  5
1DC0
331
1DDD
  5
1DDF
331
1DFC
  5
1DFE
331
1E1B
  5
1E1D
331
1AFC
  5
1B04
331
1F2E
  5
1F30
331
1D36
  5
1D3B
331
1D55
  5
1D57
331
1D8C
  5
1D8E
331
1C2A
  5
1C3A
331
1C49
  5
1C59
331
1C68
  5
1C78
331
1DBF
  5
1DC1
331
1DDE
  5
1DE0
331
1DFD
  5
1DFF
331
1E1C
  5
1E1E
331
1F66
  5
1F66
331
1AFD
  5
1B05
331
1F2F
  5
1F3A
331
1C88
  5
1C98
331
1D37
  5
1D3C
331
1D56
  5
1D58
331
1D8D
  5
1D8F
331
1C2B
  5
1C3B
331
1C4A
  5
1C5A
331
1C69
  5
1C79
331
1DDF
  5
1DE1
331
1DFE
  5
1E00
331
1E1D
  5
1E1F
331
1DC0
  5
1DC2
331
1F67
  5
1F67
331
1AFE
  5
1B06
331
1F30
  5
1F3B
331
1C89
  5
1C99
331
1C4B
  5
1C5B
331
1D57
  5
1D59
331
1D8E
  5
1D90
331
1C2C
  5
1C3C
331
1C6A
  5
1C7A
331
1DFF
  5
1E01
331
1E1E
  5
1E20
331
1DC1
  5
1DC3
331
1DE0
  5
1DE2
331
1AFF
  5
1B07
331
1F68
  5
1F68
331
1C8A
  5
1C9A
331
1D8F
  5
1D91
331
1C2D
  5
1C3D
331
1C4C
  5
1C5C
331
1C6B
  5
1C7B
331
1E00
  5
1E02
331
1E1F
  5
1E21
331
1DC2
  5
1DC4
331
1DE1
  5
1DE3
331
1F69
  5
1F69
331
1C8B
  5
1C9B
331
1C2E
  5
1C3E
331
1C4D
  5
1C5D
331
1C6C
  5
1C7C
331
1E01
  5
1E03
331
1E20
  5
1E22
331
1DC3
  5
1DC5
331
1DE2
  5
1DE4
331
1F6A
  5
1F6A
331
1C8C
  5
1C9C
331
1C2F
  5
1C3F
331
1C4E
  5
1C5E
331
1C6D
  5
1C7D
331
1E02
  5
1E04
331
1E21
  5
1E23
331
1DC4
  5
1DC6
331
1DE3
  5
1DE5
331
1EA8
  5
1EAA
331
1E30
  5
1E32
331
1C8D
  5
1C9D
331
1C30
  5
1C40
331
1C4F
  5
1C5F
331
1C6E
  5
1C7E
331
1E03
  5
1E05
331
1E22
  5
1E24
331
1DC5
  5
1DC7
331
1DE4
  5
1DE6
331
1EA9
  5
1EAB
331
1EC8
  5
1ECA
331
1E31
  5
1E33
331
1E50
  5
1E52
331
1C8E
  5
1C9E
331
1C31
  5
1C41
331
1C50
  5
1C60
331
1C6F
  5
1C7F
331
7E4
  5
86C
331
1EE8
  5
1EEA
331
1E04
  5
1E06
331
1E23
  5
1E25
331
1DC6
  5
1DC8
331
1DE5
  5
1DE7
331
1EAA
  5
1EAC
331
1EC9
  5
1ECB
331
D60
  5
D77
331
1E70
  5
1E72
331
1E32
  5
1E34
331
1E51
  5
1E53
331
1C8F
  5
1C9F
331
1C32
  5
1C42
331
1C51
  5
1C61
331
1C70
  5
1C80
331
1F08
  5
1F0A
331
1EE9
  5
1EEB
331
C2B
  5
83C
331
1E05
  5
1E07
331
1E24
  5
1E26
331
1DC7
  5
1DC9
331
1DE6
  5
1DE8
331
1EAB
  5
1EAD
331
1ECA
  5
1ECC
331
D61
  5
D78
331
D80
  5
D97
331
1E71
  5
1E73
331
1E90
  5
1E92
331
1E33
  5
1E35
331
1E52
  5
1E54
331
1C90
  5
1CA0
331
1C33
  5
1C43
331
1C52
  5
1C62
331
1C71
  5
1C81
331
7E6
  5
83D
331
9C5
  5
7E5
331
1F09
  5
1F0B
331
1EEA
  5
1EEC
331
1E06
  5
1E08
331
1E25
  5
1E27
331
1DC8
  5
1DCA
331
1DE7
  5
1DE9
331
1EAC
  5
1EAE
331
1ECB
  5
1ECD
331
D62
  5
D79
331
D81
  5
D98
331
1E72
  5
1E74
331
1E91
  5
1E93
331
1E34
  5
1E36
331
1E53
  5
1E55
331
1C91
  5
1CA1
331
1C53
  5
1C63
331
1C34
  5
1C44
331
1C72
  5
1C82
331
1F0A
  5
1F0C
331
1EEB
  5
1EED
331
1E07
  5
1E09
331
1E26
  5
1E28
331
1DC9
  5
1DCB
331
1DE8
  5
1DEA
331
1EAD
  5
1EAF
331
1ECC
  5
1ECE
331
D63
  5
D7A
331
D82
  5
D99
331
1E73
  5
1E75
331
1E92
  5
1E94
331
1E35
  5
1E37
331
1E54
  5
1E56
331
1C92
  5
1CA2
331
1C54
  5
1C64
331
1C35
  5
1C45
331
1C73
  5
1C83
331
1F0B
  5
1F0D
331
1EEC
  5
1EEE
331
1E08
  5
1E0A
331
1E27
  5
1E29
331
1DCA
  5
1DCC
331
1DE9
  5
1DEB
331
1EAE
  5
1EB0
331
1ECD
  5
1ECF
331
D64
  5
D7B
331
D83
  5
D9A
331
1F3A
  5
93D
331
1E74
  5
1E76
331
1E93
  5
1E95
331
1E36
  5
1E38
331
1E55
  5
1E57
331
1C93
  5
1CEF
331
1C36
  5
1C46
331
1C55
  5
1C65
331
1C74
  5
1C84
331
1F0C
  5
1F0E
331
1EED
  5
1EEF
331
1E09
  5
1E0B
331
1E28
  5
1E2A
331
1DCB
  5
1DCD
331
1DEA
  5
1DEC
331
1EAF
  5
1EB1
331
1ECE
  5
1ED0
331
D65
  5
D7C
331
D84
  5
D9B
331
1F3B
  5
B42
331
1E75
  5
1E77
331
1E94
  5
1E96
331
1E37
  5
1E39
331
1E56
  5
1E58
331
1C94
  5
1CF0
331
1C37
  5
1C47
331
1C56
  5
1C66
331
1C75
  5
1C85
331
1F0D
  5
1F0F
331
1EEE
  5
1EF0
331
1EB0
  5
1EB2
331
1E0A
  5
1E0C
331
1E29
  5
1E2B
331
1DCC
  5
1DCE
331
1DEB
  5
1DED
331
1ECF
  5
1ED1
331
D66
  5
D7D
331
D85
  5
D9C
331
1E76
  5
1E78
331
1E95
  5
1E97
331
1E57
  5
1E59
331
1E38
  5
1E3A
331
1C95
  5
1CF1
331
1C38
  5
1C48
331
1C57
  5
1C67
331
1C76
  5
1C86
331
873
  5
954
331
D86
  5
DDC
331
D67
  5
D7E
331
1EB1
  5
1EB3
331
1ED0
  5
1ED2
331
1E0B
  5
1E0D
331
1E2A
  5
1E2C
331
1DCD
  5
1DCF
331
1DEC
  5
1DEE
331
1EEF
  5
1EF1
331
1F0E
  5
1F10
331
1E77
  5
1E79
331
1E96
  5
1E98
331
1C96
  5
1CF2
331
1E39
  5
1E3B
331
1E58
  5
1E5A
331
1C39
  5
1C49
331
1C58
  5
1C68
331
1C77
  5
1C87
331
D87
  5
DDD
331
D68
  5
D7F
331
1EB2
  5
1EB4
331
1ED1
  5
1ED3
331
1E0C
  5
1E0E
331
1E2B
  5
1E2D
331
1DCE
  5
1DD0
331
1DED
  5
1DEF
331
D49
  5
D60
331
1EF0
  5
1EF2
331
1F0F
  5
1F11
331
1E78
  5
1E7A
331
1E97
  5
1E99
331
1C97
  5
1CF3
331
1E3A
  5
1E3C
331
1E59
  5
1E5B
331
1C3A
  5
1C4A
331
1C59
  5
1C69
331
1C78
  5
1C88
331
D88
  5
DDF
331
D69
  5
D80
331
1EB3
  5
1EB5
331
1ED2
  5
1ED4
331
1E0D
  5
1E0F
331
1E2C
  5
1E2E
331
1DCF
  5
1DD1
331
1DEE
  5
1DF0
331
D4A
  5
D61
331
1EF1
  5
1EF3
331
1F10
  5
1F12
331
1E79
  5
1E7B
331
1E98
  5
1E9A
331
1C98
  5
1CF4
331
1E3B
  5
1E3D
331
1E5A
  5
1E5C
331
1C3B
  5
1C4B
331
1C5A
  5
1C6A
331
1C79
  5
1C89
331
D89
  5
DE0
331
D6A
  5
D81
331
1EB4
  5
1EB6
331
1ED3
  5
1ED5
331
1E0E
  5
1E10
331
1E2D
  5
1E2F
331
1DD0
  5
1DD2
331
1DEF
  5
1DF1
331
D4B
  5
D62
331
1EF2
  5
1EF4
331
1F11
  5
1F13
331
1E7A
  5
1E7C
331
1E99
  5
1E9B
331
1C99
  5
1CF5
331
1E3C
  5
1E3E
331
1E5B
  5
1E5D
331
1C5B
  5
1C6B
331
1C3C
  5
1C4C
331
1C7A
  5
1C8A
331
D8A
  5
DE1
331
D6B
  5
D82
331
1EB5
  5
1EB7
331
1ED4
  5
1ED6
331
1E0F
  5
1E11
331
1E2E
  5
1E30
331
1DD1
  5
1DD3
331
1DF0
  5
1DF2
331
D4C
  5
D63
331
1EF3
  5
1EF5
331
1F12
  5
1F14
331
1C9A
  5
1CF6
331
9F7
  5
B41
331
1E3D
  5
1E3F
331
1E5C
  5
1E5E
331
1C5C
  5
1C6C
331
1C3D
  5
1C4D
331
1C7B
  5
1C8B
331
1E7B
  5
1E7D
331
1E9A
  5
1E9C
331
D8B
  5
DE2
331
D6C
  5
D83
331
1ED5
  5
1ED7
331
D4D
  5
D64
331
1EB6
  5
1EB8
331
1E10
  5
1E12
331
1E2F
  5
1E31
331
1DD2
  5
1DD4
331
1DF1
  5
1DF3
331
C36
  5
D5B
331
1EF4
  5
1EF6
331
1F13
  5
1F15
331
1E3E
  5
1E40
331
1E5D
  5
1E5F
331
1C9B
  5
1CF7
331
1C3E
  5
1C4E
331
1C5D
  5
1C6D
331
1C7C
  5
1C8C
331
B1F
  5
B4B
331
1E7C
  5
1E7E
331
1E9B
  5
1E9D
331
D8C
  5
1034
331
D6D
  5
D84
331
1ED6
  5
1ED8
331
D4E
  5
D65
331
1EB7
  5
1EB9
331
1E11
  5
1E13
331
1DD3
  5
1DD5
331
1DF2
  5
1DF4
331
C37
  5
D5C
331
1EF5
  5
1EF7
331
1F14
  5
1F16
331
1E3F
  5
1E41
331
1E5E
  5
1E60
331
1C9C
  5
1CF8
331
1C3F
  5
1C4F
331
1C5E
  5
1C6E
331
1C7D
  5
1C8D
331
B20
  5
B4C
331
1E7D
  5
1E7F
331
1E9C
  5
1E9E
331
D8D
  5
1035
331
D6E
  5
D85
331
1EB8
  5
1EBA
331
1ED7
  5
1ED9
331
1E12
  5
1E14
331
1DD4
  5
1DD6
331
1DF3
  5
1DF5
331
D4F
  5
D66
331
1EF6
  5
1EF8
331
1F15
  5
1F17
331
1E40
  5
1E42
331
1E5F
  5
1E61
331
1C9D
  5
1CF9
331
1C40
  5
1C50
331
1C5F
  5
1C6F
331
1C7E
  5
1C8E
331
B21
  5
B4D
331
1E7E
  5
1E80
331
1E9D
  5
1E9F
331
D8E
  5
1036
331
D6F
  5
D86
331
D50
  5
D67
331
1EF7
  5
1EF9
331
1F16
  5
1F18
331
1E13
  5
1E15
331
1DD5
  5
1DD7
331
1DF4
  5
1DF6
331
1EB9
  5
1EBB
331
1ED8
  5
1EDA
331
1E41
  5
1E43
331
1E60
  5
1E62
331
1C9E
  5
1CFD
331
1C41
  5
1C51
331
1C60
  5
1C70
331
1C7F
  5
1C8F
331
B22
  5
B4E
331
1E7F
  5
1E81
331
1E9E
  5
1EA0
331
D8F
  5
1037
331
D70
  5
D87
331
D51
  5
D68
331
1EF8
  5
1EFA
331
1F17
  5
1F19
331
1E14
  5
1E16
331
1DD6
  5
1DD8
331
1DF5
  5
1DF7
331
1EBA
  5
1EBC
331
1ED9
  5
1EDB
331
1E42
  5
1E44
331
1E61
  5
1E63
331
B23
  5
B4F
331
1C9F
  5
1CFF
331
93D
  5
86A
331
1E80
  5
1E82
331
1E9F
  5
1EA1
331
1C42
  5
1C52
331
1C61
  5
1C71
331
1C80
  5
1C90
331
D90
  5
1038
331
D71
  5
D88
331
D52
  5
D69
331
1EF9
  5
1EFB
331
1F18
  5
1F1A
331
1E15
  5
1E17
331
1DD7
  5
1DD9
331
1DF6
  5
1DF8
331
1EBB
  5
1EBD
331
1EDA
  5
1EDC
331
1E43
  5
1E45
331
1E62
  5
1E64
331
B24
  5
B50
331
1E81
  5
1E83
331
1EA0
  5
1EA2
331
1C43
  5
1C53
331
1C62
  5
1C72
331
1C81
  5
1C91
331
D98
  5
1040
331
D91
  5
1039
331
D72
  5
D89
331
D53
  5
D6A
331
1EFA
  5
1EFC
331
1F19
  5
1F1B
331
1E16
  5
1E18
331
1DF7
  5
1DF9
331
1EBC
  5
1EBE
331
1EDB
  5
1EDD
331
1E44
  5
1E46
331
1E63
  5
1E65
331
B25
  5
B51
331
1E82
  5
1E84
331
1EA1
  5
1EA3
331
1C44
  5
1C54
331
1C63
  5
1C73
331
1C82
  5
1C92
331
D99
  5
1041
331
D92
  5
103A
331
D73
  5
D8A
331
D54
  5
D6B
331
1EFB
  5
1EFD
331
1F1A
  5
1F1C
331
1E17
  5
1E19
331
1EBD
  5
1EBF
331
1EDC
  5
1EDE
331
1E45
  5
1E47
331
1E64
  5
1E66
331
B26
  5
B52
331
9A0
  5
B3F
331
1E83
  5
1E85
331
1EA2
  5
1EA4
331
1C45
  5
1C55
331
1C64
  5
1C74
331
1C83
  5
1C93
331
D9A
  5
1042
331
D93
  5
103B
331
D74
  5
D8B
331
D55
  5
D6C
331
1EFC
  5
1EFE
331
1F1B
  5
1F1D
331
C3E
  5
D5D
331
1EBE
  5
1EC0
331
1EDD
  5
1EDF
331
1E46
  5
1E48
331
1E65
  5
1E67
331
B27
  5
B53
331
9A1
  5
B3E
331
1E84
  5
1E86
331
1EA3
  5
1EA5
331
1C46
  5
1C56
331
1C65
  5
1C75
331
1C84
  5
1C94
331
1850
  5
1855
331
D9B
  5
1043
331
D94
  5
103C
331
D75
  5
D8C
331
D56
  5
D6D
331
1EFD
  5
1EFF
331
1F1C
  5
1F1E
331
1EBF
  5
1EC1
331
1EDE
  5
1EE0
  0
DIMASSOC
  5
1F87
102
{ACAD_REACTORS
330
1F7D
102
}
330
1F7D
100
AcDbDimAssoc
330
1F70
 90
        3
 70
     0
 71
     0
  1
AcDbOsnapPointRef
 72
     2
331
1E36
 73
     2
 91
        0
 40
0.5000000000000001
 10
33478.48520738138
 20
29214.63955901471
 30
0.0
 75
     0
  1
AcDbOsnapPointRef
 72
     2
331
1E4D
 73
     2
 91
        0
 40
0.5000000000000001
 10
34523.48520738138
 20
29214.63955901471
 30
0.0
 75
     0
  0
DIMASSOC
  5
1F9F
102
{ACAD_REACTORS
330
1F95
102
}
330
1F95
100
AcDbDimAssoc
330
1F88
 90
        3
 70
     0
 71
     0
  1
AcDbOsnapPointRef
 72
     1
331
1C4A
 73
     2
 91
        0
 40
1.0
 10
34522.48520738137
 20
28917.15085042292
 30
0.0
 75
     0
  1
AcDbOsnapPointRef
 72
    13
331
1AF8
 73
     2
 91
        0
 40
0.0
 10
34522.48520738138
 20
28822.15085042292
 30
0.0
 75
     0
  0
DIMASSOC
  5
1FBB
102
{ACAD_REACTORS
330
1FAF
102
}
330
1FAF
100
AcDbDimAssoc
330
1FA0
 90
        3
 70
     0
 71
     0
  1
AcDbOsnapPointRef
 72
    13
331
1AF8
 73
     2
 91
        0
 40
0.0
 10
34522.48520738138
 20
28822.15085042292
 30
0.0
 75
     0
  1
AcDbOsnapPointRef
 72
    13
331
1B05
 73
     2
 91
        0
 40
4.712388980384689
 10
34483.48520738138
 20
28818.15085042292
 30
0.0
 75
     0
  0
DIMASSOC
  5
1FD3
102
{ACAD_REACTORS
330
1FC9
102
}
330
1FC9
100
AcDbDimAssoc
330
1FBC
 90
        3
 70
     0
 71
     0
  1
AcDbOsnapPointRef
 72
    13
331
1AF8
 73
     2
 91
        0
 40
0.0
 10
34522.48520738138
 20
28822.15085042292
 30
0.0
 75
     0
  1
AcDbOsnapPointRef
 72
     6
331
1D81
 73
     2
 91
        0
 40
0.8271624776961839
 10
34522.48520738137
 20
28900.90085042291
 30
0.0
332
1C47
 74
     2
 92
        0
 75
     0
  0
DIMASSOC
  5
1FEB
102
{ACAD_REACTORS
330
1FE1
102
}
330
1FE1
100
AcDbDimAssoc
330
1FD4
 90
        3
 70
     0
 71
     0
  1
AcDbOsnapPointRef
 72
    13
331
1C39
 73
     2
 91
        0
 40
0.0
 10
34699.13665228382
 20
28818.15085077193
 30
0.0
 75
     0
  1
AcDbOsnapPointRef
 72
     6
331
1D61
 73
     2
 91
        0
 40
0.0271186857179742
 10
34707.38665228382
 20
28917.15085042292
 30
0.0
332
1C61
 74
     2
 92
        0
 75
     0
  0
DIMASSOC
  5
2003
102
{ACAD_REACTORS
330
1FF9
102
}
330
1FF9
100
AcDbDimAssoc
330
1FEC
 90
        3
 70
     0
 71
     0
  1
AcDbOsnapPointRef
 72
    13
331
1D43
 73
     2
 91
        0
 40
0.0
 10
34687.18665228383
 20
28853.95085077193
 30
0.0
 75
     0
  1
AcDbOsnapPointRef
 72
     1
331
1D45
 73
     2
 91
        0
 40
1.0
 10
34732.18665228383
 20
28853.95085077193
 30
0.0
 75
     0
  0
DIMASSOC
  5
201D
102
{ACAD_REACTORS
330
2012
102
}
330
2012
100
AcDbDimAssoc
330
2004
 90
        3
 70
     0
 71
     0
  1
AcDbOsnapPointRef
 72
    13
331
1D61
 73
     2
 91
        0
 40
0.0
 10
34707.38665228382
 20
28920.15085042292
 30
0.0
 75
     0
  1
AcDbOsnapPointRef
 72
     1
331
1D45
 73
     2
 91
        0
 40
1.0
 10
34732.18665228383
 20
28853.95085077193
 30
0.0
 75
     0
  0
DIMASSOC
  5
2037
102
{ACAD_REACTORS
330
202C
102
}
330
202C
100
AcDbDimAssoc
330
201E
 90
        3
 70
     0
 71
     0
  1
AcDbOsnapPointRef
 72
    13
331
1D61
 73
     2
 91
        0
 40
0.0
 10
34707.38665228382
 20
28920.15085042292
 30
0.0
 75
     0
  1
AcDbOsnapPointRef
 72
    13
331
1D43
 73
     2
 91
        0
 40
0.0
 10
34687.18665228383
 20
28853.95085077193
 30
0.0
 75
     0
  0
XRECORD
  5
31A
102
{ACAD_REACTORS
330
319
102
}
330
319
100
AcDbXrecord
280
     1
 90
        1
340
104
  0
XRECORD
  5
31E
102
{ACAD_REACTORS
330
31D
102
}
330
31D
100
AcDbXrecord
280
     1
 90
        1
340
104
  0
ACDBDETAILVIEWSTYLE
  5
213
102
{ACAD_XDICTIONARY
360
22D
102
}
102
{ACAD_REACTORS
330
212
102
}
330
212
100
AcDbModelDocViewStyle
 70
     0
  3
Metric50
290
     0
100
AcDbDetailViewStyle
 70
     0
 71
     0
 90
        3
 71
     1
340
11
 62
   256
 40
5.0
340
0
 62
   256
 40
5.0
300

 40
0.0
280
     1
 71
     2
340
16
 90
       25
 62
   256
 71
     3
340
11
 62
   256
 40
5.0
 90
        0
 40
15.0
 90
        1
300
%<\AcVar ViewDetailId>% (%<\AcVar ViewScale \f "%sn">%)
 71
     4
340
16
 90
       25
 62
   256
340
16
 90
       25
 62
   256
280
     0
  0
LAYOUT
  5
22
102
{ACAD_XDICTIONARY
360
1FC
102
}
102
{ACAD_REACTORS
330
1A
102
}
330
1A
100
AcDbPlotSettings
  1

  2
Kyocera TASKalfa 3252ci(J) KX
  4
A3
  6

 40
4.984749794006347
 41
5.111724853515625
 42
5.154083251953125
 43
4.9847412109375
 44
297.0106506347656
 45
419.9889831542968
 46
0.0
 47
0.0
 48
0.0
 49
0.0
140
0.0
141
0.0
142
1.0
143
9.806410578662045
 70
 11952
 72
     1
 73
     1
 74
     0
  7
monochrome.stb
 75
     0
147
0.1019741109122964
 76
     0
 77
     2
 78
   300
148
-32876.12478992212
149
-27320.92452532269
100
AcDbLayout
  1
Model
 70
     1
 71
     0
 10
0.0
 20
0.0
 11
12.0
 21
9.0
 12
0.0
 22
0.0
 32
0.0
 14
0.0
 24
0.0
 34
0.0
 15
0.0
 25
0.0
 35
0.0
146
0.0
 13
0.0
 23
0.0
 33
0.0
 16
1.0
 26
0.0
 36
0.0
 17
0.0
 27
1.0
 37
0.0
 76
     0
330
1F
331
E1
1001
ACAD_PSEXT
1000
Kyocera TASKalfa 3252ci(J) KX
1000
Kyocera TASKalfa 3252ci(J) KX
1000
192.168.11.123
1000

1070
     0
  0
LAYOUT
  5
D3
102
{ACAD_REACTORS
330
1A
102
}
330
1A
100
AcDbPlotSettings
  1

  2
Kyocera TASKalfa 3050ci(J) KX
  4
A3
  6

 40
4.984749794006347
 41
5.111724853515625
 42
5.154083251953125
 43
4.9847412109375
 44
297.0106506347656
 45
419.9889831542968
 46
0.0
 47
0.0
 48
0.0
 49
0.0
140
0.0
141
0.0
142
1.0
143
1.0
 70
   688
 72
     1
 73
     1
 74
     5
  7
monochrome.stb
 75
    16
147
1.0
 76
     0
 77
     2
 78
   300
148
0.0
149
0.0
100
AcDbLayout
  1
レイアウト1
 70
     1
 71
     1
 10
-4.9847412109375
 20
-4.984749794006347
 11
415.0042419433593
 21
292.0259008407593
 12
0.0
 22
0.0
 32
0.0
 14
25.69999999999999
 24
19.5
 34
0.0
 15
231.3
 25
175.5
 35
0.0
146
0.0
 13
0.0
 23
0.0
 33
0.0
 16
1.0
 26
0.0
 36
0.0
 17
0.0
 27
1.0
 37
0.0
 76
     0
330
D2
331
318
1001
ACAD_PSEXT
1000
Kyocera TASKalfa 3050ci(J) KX
1000
Kyocera TASKalfa 3050ci(J) KX
1000
192.168.11.123
1000

1070
     0
  0
LAYOUT
  5
D7
102
{ACAD_REACTORS
330
1A
102
}
330
1A
100
AcDbPlotSettings
  1

  2
C:\Documents and Settings\basas\Application Data\Autodesk\AutoCAD 2005\R16.1\enu\plotters\Default Windows System Printer.pc3
  4

  6

 40
0.0
 41
0.0
 42
0.0
 43
0.0
 44
0.0
 45
0.0
 46
0.0
 47
0.0
 48
0.0
 49
0.0
140
0.0
141
0.0
142
1.0
143
1.0
 70
   688
 72
     0
 73
     0
 74
     5
  7
monochrome.stb
 75
    16
147
1.0
 76
     0
 77
     2
 78
   300
148
0.0
149
0.0
100
AcDbLayout
  1
レイアウト2
 70
     1
 71
     2
 10
0.0
 20
0.0
 11
12.0
 21
9.0
 12
0.0
 22
0.0
 32
0.0
 14
0.0
 24
0.0
 34
0.0
 15
0.0
 25
0.0
 35
0.0
146
0.0
 13
0.0
 23
0.0
 33
0.0
 16
1.0
 26
0.0
 36
0.0
 17
0.0
 27
1.0
 37
0.0
 76
     0
330
D6
  0
MATERIAL
  5
E4
102
{ACAD_XDICTIONARY
360
1F0
102
}
102
{ACAD_REACTORS
330
78
102
}
330
78
100
AcDbMaterial
  1
ByBlock
 94
       63
  0
MATERIAL
  5
E3
102
{ACAD_XDICTIONARY
360
1EE
102
}
102
{ACAD_REACTORS
330
78
102
}
330
78
100
AcDbMaterial
  1
ByLayer
 94
       63
  0
MATERIAL
  5
E5
102
{ACAD_XDICTIONARY
360
16A
102
}
102
{ACAD_REACTORS
330
78
102
}
330
78
100
AcDbMaterial
  1
Global
 43
0.0007999999797903
 43
0.0
 43
0.0
 43
0.0
 43
0.0
 43
0.0007999999797903
 43
0.0
 43
0.0
 43
0.0
 43
0.0
 43
1.0
 43
0.0
 43
0.0
 43
0.0
 43
0.0
 43
1.0
 49
0.0007999999797903
 49
0.0
 49
0.0
 49
0.0
 49
0.0
 49
0.0007999999797903
 49
0.0
 49
0.0
 49
0.0
 49
0.0
 49
1.0
 49
0.0
 49
0.0
 49
0.0
 49
0.0
 49
1.0
142
0.0007999999797903
142
0.0
142
0.0
142
0.0
142
0.0
142
0.0007999999797903
142
0.0
142
0.0
142
0.0
142
0.0
142
1.0
142
0.0
142
0.0
142
0.0
142
0.0
142
1.0
144
0.0007999999797903
144
0.0
144
0.0
144
0.0
144
0.0
144
0.0007999999797903
144
0.0
144
0.0
144
0.0
144
0.0
144
1.0
144
0.0
144
0.0
144
0.0
144
0.0
144
1.0
 94
       63
1001
ACAD
1070
    -1
1070
     3
1070
     0
1000

1071
        0
1070
     0
  0
MLEADERSTYLE
  5
132
102
{ACAD_REACTORS
330
124
102
}
330
124
100
AcDbMLeaderStyle
179
     2
170
     2
171
     1
172
     0
 90
        2
 40
0.0
 41
0.0
173
     1
 91
-1056964608
340
14
 92
       -2
290
     1
 42
2.0
291
     1
 43
8.0
  3
Standard
 44
4.0
300

342
11
174
     1
178
     1
175
     1
176
     0
 93
-1056964608
 45
4.0
292
     0
297
     0
 46
4.0
 94
-1056964608
 47
1.0
 49
1.0
140
1.0
293
     1
141
0.0
294
     1
177
     0
142
1.0
295
     0
296
     1
143
3.75
271
     0
272
     9
273
     9
298
     0
  0
MLEADERSTYLE
  5
125
102
{ACAD_REACTORS
330
124
102
}
330
124
100
AcDbMLeaderStyle
179
     2
170
     2
171
     1
172
     0
 90
        2
 40
0.0
 41
0.0
173
     1
 91
-1056964608
340
14
 92
       -2
290
     1
 42
2.0
291
     1
 43
8.0
  3
Standard
 44
4.0
300

342
11
174
     1
178
     1
175
     1
176
     0
 93
-1056964608
 45
4.0
292
     0
297
     0
 46
4.0
 94
-1056964608
 47
1.0
 49
1.0
140
1.0
293
     1
141
0.0
294
     1
177
     0
142
1.0
295
     0
296
     0
143
3.75
271
     0
272
     9
273
     9
298
     0
  0
MLINESTYLE
  5
18
102
{ACAD_REACTORS
330
17
102
}
330
17
100
AcDbMlineStyle
  2
STANDARD
 70
     0
  3

 62
   256
 51
90.0
 52
90.0
 71
     2
 49
0.5
 62
   256
  6
BYLAYER
 49
-0.5
 62
   256
  6
BYLAYER
  0
ACDBPLACEHOLDER
  5
F
102
{ACAD_REACTORS
330
E
102
}
330
E
  0
SCALE
  5
104
102
{ACAD_REACTORS
330
103
102
}
330
103
100
AcDbScale
 70
     0
300
1:1
140
1.0
141
1.0
290
     1
  0
SCALE
  5
1B5
102
{ACAD_REACTORS
330
103
102
}
330
103
100
AcDbScale
 70
     0
300
1:2
140
1.0
141
2.0
290
     0
  0
SCALE
  5
1B6
102
{ACAD_REACTORS
330
103
102
}
330
103
100
AcDbScale
 70
     0
300
1:4
140
1.0
141
4.0
290
     0
  0
SCALE
  5
1B7
102
{ACAD_REACTORS
330
103
102
}
330
103
100
AcDbScale
 70
     0
300
1:5
140
1.0
141
5.0
290
     0
  0
SCALE
  5
1B8
102
{ACAD_REACTORS
330
103
102
}
330
103
100
AcDbScale
 70
     0
300
1:8
140
1.0
141
8.0
290
     0
  0
SCALE
  5
1B9
102
{ACAD_REACTORS
330
103
102
}
330
103
100
AcDbScale
 70
     0
300
1:10
140
1.0
141
10.0
290
     0
  0
SCALE
  5
1BA
102
{ACAD_REACTORS
330
103
102
}
330
103
100
AcDbScale
 70
     0
300
1:16
140
1.0
141
16.0
290
     0
  0
SCALE
  5
1BB
102
{ACAD_REACTORS
330
103
102
}
330
103
100
AcDbScale
 70
     0
300
1:20
140
1.0
141
20.0
290
     0
  0
SCALE
  5
1BC
102
{ACAD_REACTORS
330
103
102
}
330
103
100
AcDbScale
 70
     0
300
1:30
140
1.0
141
30.0
290
     0
  0
SCALE
  5
1BD
102
{ACAD_REACTORS
330
103
102
}
330
103
100
AcDbScale
 70
     0
300
1:40
140
1.0
141
40.0
290
     0
  0
SCALE
  5
1BE
102
{ACAD_REACTORS
330
103
102
}
330
103
100
AcDbScale
 70
     0
300
1:50
140
1.0
141
50.0
290
     0
  0
SCALE
  5
1BF
102
{ACAD_REACTORS
330
103
102
}
330
103
100
AcDbScale
 70
     0
300
1:100
140
1.0
141
100.0
290
     0
  0
SCALE
  5
1C0
102
{ACAD_REACTORS
330
103
102
}
330
103
100
AcDbScale
 70
     0
300
2:1
140
2.0
141
1.0
290
     0
  0
SCALE
  5
1C1
102
{ACAD_REACTORS
330
103
102
}
330
103
100
AcDbScale
 70
     0
300
4:1
140
4.0
141
1.0
290
     0
  0
SCALE
  5
1C2
102
{ACAD_REACTORS
330
103
102
}
330
103
100
AcDbScale
 70
     0
300
8:1
140
8.0
141
1.0
290
     0
  0
SCALE
  5
1C3
102
{ACAD_REACTORS
330
103
102
}
330
103
100
AcDbScale
 70
     0
300
10:1
140
10.0
141
1.0
290
     0
  0
SCALE
  5
1C4
102
{ACAD_REACTORS
330
103
102
}
330
103
100
AcDbScale
 70
     0
300
100:1
140
100.0
141
1.0
290
     0
  0
ACDBSECTIONVIEWSTYLE
  5
211
102
{ACAD_XDICTIONARY
360
22B
102
}
102
{ACAD_REACTORS
330
210
102
}
330
210
100
AcDbModelDocViewStyle
 70
     0
  3
Metric50
290
     0
100
AcDbSectionViewStyle
 70
     0
 71
     0
 90
      102
 71
     1
340
11
 62
   256
 40
5.0
340
0
340
0
 62
   256
 40
5.0
300
I, O, Q, S, X, Z
 40
10.0
 90
        0
 40
2.5
 90
        0
 71
     2
340
16
 90
       25
 62
   256
340
16
 90
       50
 62
   256
 40
5.0
 40
2.5
 40
5.0
 71
     3
340
11
 62
   256
 40
5.0
 90
        0
 40
15.0
 90
        1
300
%<\AcVar ViewSectionStartId>%-%<\AcVar ViewSectionEndId>% (%<\AcVar ViewScale \f "%sn">%)
 71
     4
 62
   256
 62
   257
300
ANSI31
 40
1.0
 90
        0
290
     0
290
     0
 90
        6
 40
0.0
 40
1.570796326794896
 40
0.2617993877991494
 40
1.308996938995747
 40
-0.2617993877991494
 40
1.832595714594046
  0
TABLESTYLE
  5
98
102
{ACAD_XDICTIONARY
360
159
102
}
102
{ACAD_REACTORS
330
97
102
}
330
97
100
AcDbTableStyle
280
     0
  3
Standard
 70
     0
 71
     0
 40
1.5
 41
1.5
280
     0
281
     0
  7
Standard
140
4.5
170
     2
 62
     0
 63
     7
283
     0
 90
      512
 91
        0
  1

274
    -2
284
     1
 64
     0
275
    -2
285
     1
 65
     0
276
    -2
286
     1
 66
     0
277
    -2
287
     1
 67
     0
278
    -2
288
     1
 68
     0
279
    -2
289
     1
 69
     0
  7
Standard
140
6.0
170
     5
 62
     0
 63
     7
283
     0
 90
      512
 91
        0
  1

274
    -2
284
     1
 64
     0
275
    -2
285
     1
 65
     0
276
    -2
286
     1
 66
     0
277
    -2
287
     1
 67
     0
278
    -2
288
     1
 68
     0
279
    -2
289
     1
 69
     0
  7
Standard
140
4.5
170
     5
 62
     0
 63
     7
283
     0
 90
      512
 91
        0
  1

274
    -2
284
     1
 64
     0
275
    -2
285
     1
 65
     0
276
    -2
286
     1
 66
     0
277
    -2
287
     1
 67
     0
278
    -2
288
     1
 68
     0
279
    -2
289
     1
 69
     0
  0
VISUALSTYLE
  5
EC
102
{ACAD_REACTORS
330
E6
102
}
330
E6
100
AcDbVisualStyle
  2
2dWireframe
 70
     4
177
     3
291
     0
 70
    58
 90
        0
176
     1
 90
        2
176
     1
 90
        1
176
     1
 90
        0
176
     1
 40
0.6
176
     1
 40
30.0
176
     1
 62
     7
420
 16777215
176
     1
 90
        1
176
     1
 90
        4
176
     1
 62
     7
176
     1
 62
   257
176
     1
 90
        1
176
     1
 90
        1
176
     1
 40
1.0
176
     1
 90
        0
176
     1
 62
   257
176
     1
 40
1.0
176
     1
 90
        1
176
     1
 90
        6
176
     1
 90
        2
176
     1
 62
     7
176
     1
 90
        5
176
     1
 90
        0
176
     1
 90
        0
176
     1
290
     0
176
     1
 90
        1
176
     1
 40
0.0
176
     1
 90
        0
176
     1
290
     1
176
     1
290
     1
176
     1
290
     0
176
     1
290
     0
176
     1
290
     0
176
     1
290
     0
176
     1
290
     0
176
     1
290
     0
176
     1
290
     0
176
     1
 90
       50
176
     1
 40
0.0
176
     1
 40
1.0
176
     1
 90
        0
176
     1
 62
    18
420
        0
176
     1
 90
       50
176
     1
 90
        3
176
     1
 62
     5
420
      255
176
     1
290
     0
176
     1
 90
       50
176
     1
 90
       50
176
     1
 90
       50
176
     1
290
     0
176
     1
 90
       50
176
     1
 62
   256
176
     0
 40
1.0
176
     0
 90
        2
176
     1
  1
strokes_ogs.tif
176
     1
290
     0
176
     1
 40
1.0
176
     1
 40
1.0
176
     1
  0
VISUALSTYLE
  5
EB
102
{ACAD_REACTORS
330
E6
102
}
330
E6
100
AcDbVisualStyle
  2
Basic
 70
     7
177
     3
291
     1
 70
    58
 90
        1
176
     1
 90
        0
176
     1
 90
        1
176
     1
 90
        0
176
     1
 40
0.6
176
     1
 40
30.0
176
     1
 62
     7
420
 16777215
176
     1
 90
        0
176
     1
 90
        4
176
     1
 62
     7
176
     1
 62
   257
176
     1
 90
        1
176
     1
 90
        1
176
     1
 40
1.0
176
     1
 90
        8
176
     1
 62
     7
176
     1
 40
1.0
176
     1
 90
        1
176
     1
 90
        6
176
     1
 90
        2
176
     1
 62
     7
176
     1
 90
        5
176
     1
 90
        0
176
     1
 90
        0
176
     1
290
     0
176
     1
 90
        1
176
     1
 40
0.0
176
     1
 90
        0
176
     1
290
     0
176
     1
290
     1
176
     1
290
     1
176
     1
290
     0
176
     1
290
     0
176
     1
290
     0
176
     1
290
     0
176
     1
290
     0
176
     1
290
     0
176
     1
 90
       50
176
     1
 40
0.0
176
     1
 40
1.0
176
     1
 90
        0
176
     1
 62
    18
420
        0
176
     1
 90
       50
176
     1
 90
        3
176
     1
 62
     5
420
      255
176
     1
290
     0
176
     1
 90
       50
176
     1
 90
       50
176
     1
 90
       50
176
     1
290
     0
176
     1
 90
       50
176
     1
 62
   256
176
     0
 40
1.0
176
     0
 90
        2
176
     1
  1
strokes_ogs.tif
176
     1
290
     0
176
     1
 40
1.0
176
     1
 40
1.0
176
     1
  0
VISUALSTYLE
  5
F2
102
{ACAD_REACTORS
330
E6
102
}
330
E6
100
AcDbVisualStyle
  2
Brighten
 70
    12
177
     3
291
     1
 70
    58
 90
        2
176
     1
 90
        2
176
     1
 90
        1
176
     1
 90
        0
176
     1
 40
0.6
176
     1
 40
30.0
176
     1
 62
     7
420
 16777215
176
     1
 90
        1
176
     1
 90
        4
176
     1
 62
     7
176
     1
 62
   257
176
     1
 90
        1
176
     1
 90
        1
176
     1
 40
1.0
176
     1
 90
        8
176
     1
 62
     7
176
     1
 40
1.0
176
     1
 90
        1
176
     1
 90
        6
176
     1
 90
        2
176
     1
 62
     7
176
     1
 90
        5
176
     1
 90
        0
176
     1
 90
        0
176
     1
290
     0
176
     1
 90
        1
176
     1
 40
50.0
176
     1
 90
        0
176
     1
290
     0
176
     1
290
     1
176
     1
290
     1
176
     1
290
     0
176
     1
290
     0
176
     1
290
     0
176
     1
290
     0
176
     1
290
     0
176
     1
290
     0
176
     1
 90
       50
176
     1
 40
0.0
176
     1
 40
1.0
176
     1
 90
        0
176
     1
 62
    18
420
        0
176
     1
 90
       50
176
     1
 90
        3
176
     1
 62
     5
420
      255
176
     1
290
     0
176
     1
 90
       50
176
     1
 90
       50
176
     1
 90
       50
176
     1
290
     0
176
     1
 90
       50
176
     1
 62
   256
176
     0
 40
1.0
176
     0
 90
        2
176
     1
  1
strokes_ogs.tif
176
     1
290
     0
176
     1
 40
1.0
176
     1
 40
1.0
176
     1
  0
VISUALSTYLE
  5
F6
102
{ACAD_REACTORS
330
E6
102
}
330
E6
100
AcDbVisualStyle
  2
ColorChange
 70
    16
177
     3
291
     1
 70
    58
 90
        2
176
     1
 90
        2
176
     1
 90
        3
176
     1
 90
        0
176
     1
 40
0.6
176
     1
 40
30.0
176
     1
 62
     8
420
  8421504
176
     1
 90
        1
176
     1
 90
        4
176
     1
 62
     7
176
     1
 62
   257
176
     1
 90
        1
176
     1
 90
        1
176
     1
 40
1.0
176
     1
 90
        8
176
     1
 62
     8
420
  8421504
176
     1
 40
1.0
176
     1
 90
        1
176
     1
 90
        6
176
     1
 90
        2
176
     1
 62
     7
176
     1
 90
        5
176
     1
 90
        0
176
     1
 90
        0
176
     1
290
     0
176
     1
 90
        1
176
     1
 40
0.0
176
     1
 90
        0
176
     1
290
     0
176
     1
290
     1
176
     1
290
     1
176
     1
290
     0
176
     1
290
     0
176
     1
290
     0
176
     1
290
     0
176
     1
290
     0
176
     1
290
     0
176
     1
 90
       50
176
     1
 40
0.0
176
     1
 40
1.0
176
     1
 90
        0
176
     1
 62
    18
420
        0
176
     1
 90
       50
176
     1
 90
        3
176
     1
 62
     5
420
      255
176
     1
290
     0
176
     1
 90
       50
176
     1
 90
       50
176
     1
 90
       50
176
     1
290
     0
176
     1
 90
       50
176
     1
 62
   256
176
     0
 40
1.0
176
     0
 90
        2
176
     1
  1
strokes_ogs.tif
176
     1
290
     0
176
     1
 40
1.0
176
     1
 40
1.0
176
     1
  0
VISUALSTYLE
  5
EF
102
{ACAD_REACTORS
330
E6
102
}
330
E6
100
AcDbVisualStyle
  2
Conceptual
 70
     9
177
     3
291
     0
 70
    58
 90
        3
176
     1
 90
        2
176
     1
 90
        1
176
     1
 90
        0
176
     1
 40
0.6
176
     1
 40
30.0
176
     1
 62
     7
420
 16777215
176
     1
 90
        2
176
     1
 90
        2
176
     1
 62
     7
176
     1
 62
   257
176
     1
 90
        1
176
     1
 90
        1
176
     1
 40
40.0
176
     1
 90
        8
176
     1
 62
     7
176
     1
 40
1.0
176
     1
 90
        1
176
     1
 90
        6
176
     1
 90
        2
176
     1
 62
     7
176
     1
 90
        3
176
     1
 90
        0
176
     1
 90
        0
176
     1
290
     0
176
     1
 90
        1
176
     1
 40
0.0
176
     1
 90
        0
176
     1
290
     0
176
     1
290
     1
176
     1
290
     1
176
     1
290
     0
176
     1
290
     0
176
     1
290
     0
176
     1
290
     0
176
     1
290
     0
176
     1
290
     0
176
     1
 90
       50
176
     1
 40
0.0
176
     1
 40
1.0
176
     1
 90
        0
176
     1
 62
    18
420
        0
176
     1
 90
       50
176
     1
 90
        3
176
     1
 62
     5
420
      255
176
     1
290
     0
176
     1
 90
       50
176
     1
 90
       50
176
     1
 90
       50
176
     1
290
     0
176
     1
 90
       50
176
     1
 62
   256
176
     0
 40
1.0
176
     0
 90
        2
176
     1
  1
strokes_ogs.tif
176
     1
290
     0
176
     1
 40
1.0
176
     1
 40
1.0
176
     1
  0
VISUALSTYLE
  5
F1
102
{ACAD_REACTORS
330
E6
102
}
330
E6
100
AcDbVisualStyle
  2
Dim
 70
    11
177
     3
291
     1
 70
    58
 90
        2
176
     1
 90
        2
176
     1
 90
        1
176
     1
 90
        0
176
     1
 40
0.6
176
     1
 40
30.0
176
     1
 62
     7
420
 16777215
176
     1
 90
        1
176
     1
 90
        4
176
     1
 62
     7
176
     1
 62
   257
176
     1
 90
        1
176
     1
 90
        1
176
     1
 40
1.0
176
     1
 90
        8
176
     1
 62
     7
176
     1
 40
1.0
176
     1
 90
        1
176
     1
 90
        6
176
     1
 90
        2
176
     1
 62
     7
176
     1
 90
        5
176
     1
 90
        0
176
     1
 90
        0
176
     1
290
     0
176
     1
 90
        1
176
     1
 40
-50.0
176
     1
 90
        0
176
     1
290
     0
176
     1
290
     1
176
     1
290
     1
176
     1
290
     0
176
     1
290
     0
176
     1
290
     0
176
     1
290
     0
176
     1
290
     0
176
     1
290
     0
176
     1
 90
       50
176
     1
 40
0.0
176
     1
 40
1.0
176
     1
 90
        0
176
     1
 62
    18
420
        0
176
     1
 90
       50
176
     1
 90
        3
176
     1
 62
     5
420
      255
176
     1
290
     0
176
     1
 90
       50
176
     1
 90
       50
176
     1
 90
       50
176
     1
290
     0
176
     1
 90
       50
176
     1
 62
   256
176
     0
 40
1.0
176
     0
 90
        2
176
     1
  1
strokes_ogs.tif
176
     1
290
     0
176
     1
 40
1.0
176
     1
 40
1.0
176
     1
  0
VISUALSTYLE
  5
1DD
102
{ACAD_REACTORS
330
E6
102
}
330
E6
100
AcDbVisualStyle
  2
EdgeColorOff
 70
    22
177
     3
291
     1
 70
    58
 90
        2
176
     0
 90
        2
176
     0
 90
        0
176
     0
 90
        0
176
     0
 40
0.6
176
     0
 40
30.0
176
     0
 62
     7
420
 16777215
176
     0
 90
        1
176
     0
 90
        4
176
     0
 62
     7
176
     0
 62
   257
176
     0
 90
        1
176
     0
 90
        1
176
     0
 40
1.0
176
     0
 90
        8
176
     2
 62
     7
176
     0
 40
1.0
176
     0
 90
        1
176
     0
 90
        6
176
     0
 90
        2
176
     0
 62
     7
176
     0
 90
        5
176
     0
 90
        0
176
     0
 90
        0
176
     0
290
     0
176
     0
 90
        1
176
     0
 40
0.0
176
     0
 90
        0
176
     0
290
     0
176
     1
290
     1
176
     1
290
     1
176
     1
290
     0
176
     1
290
     0
176
     1
290
     0
176
     1
290
     0
176
     1
290
     0
176
     1
290
     0
176
     1
 90
       50
176
     1
 40
0.0
176
     1
 40
1.0
176
     1
 90
        0
176
     1
 62
    18
420
        0
176
     1
 90
       50
176
     1
 90
        3
176
     1
 62
     5
420
      255
176
     1
290
     0
176
     1
 90
       50
176
     1
 90
       50
176
     1
 90
       50
176
     1
290
     0
176
     1
 90
       50
176
     1
 62
   256
176
     0
 40
1.0
176
     0
 90
        2
176
     1
  1
strokes_ogs.tif
176
     1
290
     0
176
     1
 40
1.0
176
     1
 40
1.0
176
     1
  0
VISUALSTYLE
  5
F5
102
{ACAD_REACTORS
330
E6
102
}
330
E6
100
AcDbVisualStyle
  2
Facepattern
 70
    15
177
     3
291
     1
 70
    58
 90
        2
176
     1
 90
        2
176
     1
 90
        1
176
     1
 90
        0
176
     1
 40
0.6
176
     1
 40
30.0
176
     1
 62
     7
420
 16777215
176
     1
 90
        1
176
     1
 90
        4
176
     1
 62
     7
176
     1
 62
   257
176
     1
 90
        1
176
     1
 90
        1
176
     1
 40
1.0
176
     1
 90
        8
176
     1
 62
     7
176
     1
 40
1.0
176
     1
 90
        1
176
     1
 90
        6
176
     1
 90
        2
176
     1
 62
     7
176
     1
 90
        5
176
     1
 90
        0
176
     1
 90
        0
176
     1
290
     0
176
     1
 90
        1
176
     1
 40
0.0
176
     1
 90
        0
176
     1
290
     0
176
     1
290
     1
176
     1
290
     1
176
     1
290
     0
176
     1
290
     0
176
     1
290
     0
176
     1
290
     0
176
     1
290
     0
176
     1
290
     0
176
     1
 90
       50
176
     1
 40
0.0
176
     1
 40
1.0
176
     1
 90
        0
176
     1
 62
    18
420
        0
176
     1
 90
       50
176
     1
 90
        3
176
     1
 62
     5
420
      255
176
     1
290
     0
176
     1
 90
       50
176
     1
 90
       50
176
     1
 90
       50
176
     1
290
     0
176
     1
 90
       50
176
     1
 62
   256
176
     0
 40
1.0
176
     0
 90
        2
176
     1
  1
strokes_ogs.tif
176
     1
290
     0
176
     1
 40
1.0
176
     1
 40
1.0
176
     1
  0
VISUALSTYLE
  5
E7
102
{ACAD_REACTORS
330
E6
102
}
330
E6
100
AcDbVisualStyle
  2
Flat
 70
     0
177
     3
291
     1
 70
    58
 90
        2
176
     1
 90
        1
176
     1
 90
        1
176
     1
 90
        2
176
     1
 40
0.6
176
     1
 40
30.0
176
     1
 62
     7
420
 16777215
176
     1
 90
        0
176
     1
 90
        0
176
     1
 62
     7
176
     1
 62
   257
176
     1
 90
        1
176
     1
 90
        1
176
     1
 40
1.0
176
     1
 90
        8
176
     1
 62
     7
176
     1
 40
1.0
176
     1
 90
        1
176
     1
 90
        6
176
     1
 90
        2
176
     1
 62
     7
176
     1
 90
        5
176
     1
 90
        0
176
     1
 90
        0
176
     1
290
     0
176
     1
 90
       13
176
     1
 40
0.0
176
     1
 90
        0
176
     1
290
     0
176
     1
290
     1
176
     1
290
     1
176
     1
290
     0
176
     1
290
     0
176
     1
290
     0
176
     1
290
     0
176
     1
290
     0
176
     1
290
     0
176
     1
 90
       50
176
     1
 40
0.0
176
     1
 40
1.0
176
     1
 90
        0
176
     1
 62
    18
420
        0
176
     1
 90
       50
176
     1
 90
        3
176
     1
 62
     5
420
      255
176
     1
290
     0
176
     1
 90
       50
176
     1
 90
       50
176
     1
 90
       50
176
     1
290
     0
176
     1
 90
       50
176
     1
 62
   256
176
     0
 40
1.0
176
     0
 90
        2
176
     1
  1
strokes_ogs.tif
176
     1
290
     0
176
     1
 40
1.0
176
     1
 40
1.0
176
     1
  0
VISUALSTYLE
  5
E8
102
{ACAD_REACTORS
330
E6
102
}
330
E6
100
AcDbVisualStyle
  2
FlatWithEdges
 70
     1
177
     3
291
     1
 70
    58
 90
        2
176
     1
 90
        1
176
     1
 90
        1
176
     1
 90
        2
176
     1
 40
0.6
176
     1
 40
30.0
176
     1
 62
     7
420
 16777215
176
     1
 90
        1
176
     1
 90
        0
176
     1
 62
     7
176
     1
 62
   257
176
     1
 90
        1
176
     1
 90
        1
176
     1
 40
1.0
176
     1
 90
        0
176
     1
 62
   257
176
     1
 40
1.0
176
     1
 90
        1
176
     1
 90
        6
176
     1
 90
        2
176
     1
 62
     7
176
     1
 90
        5
176
     1
 90
        0
176
     1
 90
        0
176
     1
290
     0
176
     1
 90
       13
176
     1
 40
0.0
176
     1
 90
        0
176
     1
290
     0
176
     1
290
     1
176
     1
290
     1
176
     1
290
     0
176
     1
290
     0
176
     1
290
     0
176
     1
290
     0
176
     1
290
     0
176
     1
290
     0
176
     1
 90
       50
176
     1
 40
0.0
176
     1
 40
1.0
176
     1
 90
        0
176
     1
 62
    18
420
        0
176
     1
 90
       50
176
     1
 90
        3
176
     1
 62
     5
420
      255
176
     1
290
     0
176
     1
 90
       50
176
     1
 90
       50
176
     1
 90
       50
176
     1
290
     0
176
     1
 90
       50
176
     1
 62
   256
176
     0
 40
1.0
176
     0
 90
        2
176
     1
  1
strokes_ogs.tif
176
     1
290
     0
176
     1
 40
1.0
176
     1
 40
1.0
176
     1
  0
VISUALSTYLE
  5
E9
102
{ACAD_REACTORS
330
E6
102
}
330
E6
100
AcDbVisualStyle
  2
Gouraud
 70
     2
177
     3
291
     1
 70
    58
 90
        2
176
     1
 90
        2
176
     1
 90
        1
176
     1
 90
        2
176
     1
 40
0.6
176
     1
 40
30.0
176
     1
 62
     7
420
 16777215
176
     1
 90
        0
176
     1
 90
        0
176
     1
 62
     7
176
     1
 62
   257
176
     1
 90
        1
176
     1
 90
        1
176
     1
 40
1.0
176
     1
 90
        0
176
     1
 62
     7
176
     1
 40
1.0
176
     1
 90
        1
176
     1
 90
        6
176
     1
 90
        2
176
     1
 62
     7
176
     1
 90
        5
176
     1
 90
        0
176
     1
 90
        0
176
     1
290
     0
176
     1
 90
       13
176
     1
 40
0.0
176
     1
 90
        0
176
     1
290
     0
176
     1
290
     1
176
     1
290
     1
176
     1
290
     0
176
     1
290
     0
176
     1
290
     0
176
     1
290
     0
176
     1
290
     0
176
     1
290
     0
176
     1
 90
       50
176
     1
 40
0.0
176
     1
 40
1.0
176
     1
 90
        0
176
     1
 62
    18
420
        0
176
     1
 90
       50
176
     1
 90
        3
176
     1
 62
     5
420
      255
176
     1
290
     0
176
     1
 90
       50
176
     1
 90
       50
176
     1
 90
       50
176
     1
290
     0
176
     1
 90
       50
176
     1
 62
   256
176
     0
 40
1.0
176
     0
 90
        2
176
     1
  1
strokes_ogs.tif
176
     1
290
     0
176
     1
 40
1.0
176
     1
 40
1.0
176
     1
  0
VISUALSTYLE
  5
EA
102
{ACAD_REACTORS
330
E6
102
}
330
E6
100
AcDbVisualStyle
  2
GouraudWithEdges
 70
     3
177
     3
291
     1
 70
    58
 90
        2
176
     1
 90
        2
176
     1
 90
        1
176
     1
 90
        2
176
     1
 40
0.6
176
     1
 40
30.0
176
     1
 62
     7
420
 16777215
176
     1
 90
        1
176
     1
 90
        0
176
     1
 62
     7
176
     1
 62
   257
176
     1
 90
        1
176
     1
 90
        1
176
     1
 40
1.0
176
     1
 90
        0
176
     1
 62
   257
176
     1
 40
1.0
176
     1
 90
        1
176
     1
 90
        6
176
     1
 90
        2
176
     1
 62
     7
176
     1
 90
        5
176
     1
 90
        0
176
     1
 90
        0
176
     1
290
     0
176
     1
 90
       13
176
     1
 40
0.0
176
     1
 90
        0
176
     1
290
     0
176
     1
290
     1
176
     1
290
     1
176
     1
290
     0
176
     1
290
     0
176
     1
290
     0
176
     1
290
     0
176
     1
290
     0
176
     1
290
     0
176
     1
 90
       50
176
     1
 40
0.0
176
     1
 40
1.0
176
     1
 90
        0
176
     1
 62
    18
420
        0
176
     1
 90
       50
176
     1
 90
        3
176
     1
 62
     5
420
      255
176
     1
290
     0
176
     1
 90
       50
176
     1
 90
       50
176
     1
 90
       50
176
     1
290
     0
176
     1
 90
       50
176
     1
 62
   256
176
     0
 40
1.0
176
     0
 90
        2
176
     1
  1
strokes_ogs.tif
176
     1
290
     0
176
     1
 40
1.0
176
     1
 40
1.0
176
     1
  0
VISUALSTYLE
  5
EE
102
{ACAD_REACTORS
330
E6
102
}
330
E6
100
AcDbVisualStyle
  2
Hidden
 70
     6
177
     3
291
     0
 70
    58
 90
        1
176
     1
 90
        2
176
     1
 90
        2
176
     1
 90
        0
176
     1
 40
0.6
176
     1
 40
30.0
176
     1
 62
     7
420
 16777215
176
     1
 90
        2
176
     1
 90
        2
176
     1
 62
     7
176
     1
 62
   257
176
     1
 90
        2
176
     1
 90
        1
176
     1
 40
40.0
176
     1
 90
        0
176
     1
 62
   257
176
     1
 40
1.0
176
     1
 90
        1
176
     1
 90
        6
176
     1
 90
        2
176
     1
 62
     7
176
     1
 90
        3
176
     1
 90
        0
176
     1
 90
        0
176
     1
290
     0
176
     1
 90
        1
176
     1
 40
0.0
176
     1
 90
        0
176
     1
290
     0
176
     1
290
     1
176
     1
290
     1
176
     1
290
     0
176
     1
290
     0
176
     1
290
     0
176
     1
290
     0
176
     1
290
     0
176
     1
290
     0
176
     1
 90
       50
176
     1
 40
0.0
176
     1
 40
1.0
176
     1
 90
        0
176
     1
 62
    18
420
        0
176
     1
 90
       50
176
     1
 90
        3
176
     1
 62
     5
420
      255
176
     1
290
     0
176
     1
 90
       50
176
     1
 90
       50
176
     1
 90
       50
176
     1
290
     0
176
     1
 90
       50
176
     1
 62
   256
176
     0
 40
1.0
176
     0
 90
        2
176
     1
  1
strokes_ogs.tif
176
     1
290
     0
176
     1
 40
1.0
176
     1
 40
1.0
176
     1
  0
VISUALSTYLE
  5
1DB
102
{ACAD_REACTORS
330
E6
102
}
330
E6
100
AcDbVisualStyle
  2
JitterOff
 70
    20
177
     3
291
     1
 70
    58
 90
        2
176
     0
 90
        2
176
     0
 90
        0
176
     0
 90
        0
176
     0
 40
0.6
176
     0
 40
30.0
176
     0
 62
     7
420
 16777215
176
     0
 90
        1
176
     0
 90
        4
176
     0
 62
     7
176
     0
 62
   257
176
     0
 90
        1
176
     0
 90
        1
176
     0
 40
1.0
176
     0
 90
       10
176
     2
 62
     7
176
     0
 40
1.0
176
     0
 90
        1
176
     0
 90
        6
176
     0
 90
        2
176
     0
 62
     7
176
     0
 90
        5
176
     0
 90
        0
176
     0
 90
        0
176
     0
290
     0
176
     0
 90
        1
176
     0
 40
0.0
176
     0
 90
        0
176
     0
290
     0
176
     1
290
     1
176
     1
290
     1
176
     1
290
     0
176
     1
290
     0
176
     1
290
     0
176
     1
290
     0
176
     1
290
     0
176
     1
290
     0
176
     1
 90
       50
176
     1
 40
0.0
176
     1
 40
1.0
176
     1
 90
        0
176
     1
 62
    18
420
        0
176
     1
 90
       50
176
     1
 90
        3
176
     1
 62
     5
420
      255
176
     1
290
     0
176
     1
 90
       50
176
     1
 90
       50
176
     1
 90
       50
176
     1
290
     0
176
     1
 90
       50
176
     1
 62
   256
176
     0
 40
1.0
176
     0
 90
        2
176
     1
  1
strokes_ogs.tif
176
     1
290
     0
176
     1
 40
1.0
176
     1
 40
1.0
176
     1
  0
VISUALSTYLE
  5
F4
102
{ACAD_REACTORS
330
E6
102
}
330
E6
100
AcDbVisualStyle
  2
Linepattern
 70
    14
177
     3
291
     1
 70
    58
 90
        2
176
     1
 90
        2
176
     1
 90
        1
176
     1
 90
        0
176
     1
 40
0.6
176
     1
 40
30.0
176
     1
 62
     7
420
 16777215
176
     1
 90
        1
176
     1
 90
        4
176
     1
 62
     7
176
     1
 62
   257
176
     1
 90
        7
176
     1
 90
        7
176
     1
 40
1.0
176
     1
 90
        8
176
     1
 62
     7
176
     1
 40
1.0
176
     1
 90
        1
176
     1
 90
        6
176
     1
 90
        2
176
     1
 62
     7
176
     1
 90
        5
176
     1
 90
        0
176
     1
 90
        0
176
     1
290
     0
176
     1
 90
        1
176
     1
 40
0.0
176
     1
 90
        0
176
     1
290
     0
176
     1
290
     1
176
     1
290
     1
176
     1
290
     0
176
     1
290
     0
176
     1
290
     0
176
     1
290
     0
176
     1
290
     0
176
     1
290
     0
176
     1
 90
       50
176
     1
 40
0.0
176
     1
 40
1.0
176
     1
 90
        0
176
     1
 62
    18
420
        0
176
     1
 90
       50
176
     1
 90
        3
176
     1
 62
     5
420
      255
176
     1
290
     0
176
     1
 90
       50
176
     1
 90
       50
176
     1
 90
       50
176
     1
290
     0
176
     1
 90
       50
176
     1
 62
   256
176
     0
 40
1.0
176
     0
 90
        2
176
     1
  1
strokes_ogs.tif
176
     1
290
     0
176
     1
 40
1.0
176
     1
 40
1.0
176
     1
  0
VISUALSTYLE
  5
1DC
102
{ACAD_REACTORS
330
E6
102
}
330
E6
100
AcDbVisualStyle
  2
OverhangOff
 70
    21
177
     3
291
     1
 70
    58
 90
        2
176
     0
 90
        2
176
     0
 90
        0
176
     0
 90
        0
176
     0
 40
0.6
176
     0
 40
30.0
176
     0
 62
     7
420
 16777215
176
     0
 90
        1
176
     0
 90
        4
176
     0
 62
     7
176
     0
 62
   257
176
     0
 90
        1
176
     0
 90
        1
176
     0
 40
1.0
176
     0
 90
        9
176
     2
 62
     7
176
     0
 40
1.0
176
     0
 90
        1
176
     0
 90
        6
176
     0
 90
        2
176
     0
 62
     7
176
     0
 90
        5
176
     0
 90
        0
176
     0
 90
        0
176
     0
290
     0
176
     0
 90
        1
176
     0
 40
0.0
176
     0
 90
        0
176
     0
290
     0
176
     1
290
     1
176
     1
290
     1
176
     1
290
     0
176
     1
290
     0
176
     1
290
     0
176
     1
290
     0
176
     1
290
     0
176
     1
290
     0
176
     1
 90
       50
176
     1
 40
0.0
176
     1
 40
1.0
176
     1
 90
        0
176
     1
 62
    18
420
        0
176
     1
 90
       50
176
     1
 90
        3
176
     1
 62
     5
420
      255
176
     1
290
     0
176
     1
 90
       50
176
     1
 90
       50
176
     1
 90
       50
176
     1
290
     0
176
     1
 90
       50
176
     1
 62
   256
176
     0
 40
1.0
176
     0
 90
        2
176
     1
  1
strokes_ogs.tif
176
     1
290
     0
176
     1
 40
1.0
176
     1
 40
1.0
176
     1
  0
VISUALSTYLE
  5
F0
102
{ACAD_REACTORS
330
E6
102
}
330
E6
100
AcDbVisualStyle
  2
Realistic
 70
     8
177
     3
291
     0
 70
    58
 90
        2
176
     1
 90
        3
176
     1
 90
        0
176
     1
 90
        2
176
     1
 40
0.6
176
     1
 40
30.0
176
     1
 62
     7
420
 16777215
176
     1
 90
        0
176
     1
 90
        0
176
     1
 62
     7
176
     1
 62
   257
176
     1
 90
        1
176
     1
 90
        1
176
     1
 40
1.0
176
     1
 90
        8
176
     1
 62
   257
176
     1
 40
1.0
176
     1
 90
        1
176
     1
 90
        6
176
     1
 90
        2
176
     1
 62
     7
176
     1
 90
        3
176
     1
 90
        0
176
     1
 90
        0
176
     1
290
     0
176
     1
 90
       13
176
     1
 40
0.0
176
     1
 90
        0
176
     1
290
     0
176
     1
290
     1
176
     1
290
     1
176
     1
290
     0
176
     1
290
     0
176
     1
290
     0
176
     1
290
     0
176
     1
290
     0
176
     1
290
     0
176
     1
 90
       50
176
     1
 40
0.0
176
     1
 40
1.0
176
     1
 90
        0
176
     1
 62
    18
420
        0
176
     1
 90
       50
176
     1
 90
        3
176
     1
 62
     5
420
      255
176
     1
290
     0
176
     1
 90
       50
176
     1
 90
       50
176
     1
 90
       50
176
     1
290
     0
176
     1
 90
       50
176
     1
 62
   256
176
     0
 40
1.0
176
     0
 90
        2
176
     1
  1
strokes_ogs.tif
176
     1
290
     0
176
     1
 40
1.0
176
     1
 40
1.0
176
     1
  0
VISUALSTYLE
  5
1EA
102
{ACAD_REACTORS
330
E6
102
}
330
E6
100
AcDbVisualStyle
  2
Shaded
 70
    27
177
     3
291
     0
 70
    58
 90
        2
176
     1
 90
        2
176
     1
 90
        1
176
     1
 90
        2
176
     1
 40
0.6
176
     1
 40
30.0
176
     1
 62
     7
420
 16777215
176
     1
 90
        0
176
     1
 90
        4
176
     1
 62
     7
176
     1
 62
   257
176
     1
 90
        1
176
     1
 90
        1
176
     1
 40
1.0
176
     1
 90
        8
176
     1
 62
   257
176
     1
 40
1.0
176
     1
 90
        1
176
     1
 90
        6
176
     1
 90
        2
176
     1
 62
     8
420
  7895160
176
     1
 90
        3
176
     1
 90
        0
176
     1
 90
        0
176
     1
290
     0
176
     1
 90
        5
176
     1
 40
0.0
176
     1
 90
        0
176
     1
290
     0
176
     1
290
     1
176
     1
290
     1
176
     1
290
     0
176
     1
290
     0
176
     1
290
     0
176
     1
290
     0
176
     1
290
     0
176
     1
290
     0
176
     1
 90
       50
176
     1
 40
0.0
176
     1
 40
1.0
176
     1
 90
        0
176
     1
 62
    18
420
        0
176
     1
 90
       50
176
     1
 90
        3
176
     1
 62
     5
420
      255
176
     1
290
     0
176
     1
 90
       50
176
     1
 90
       50
176
     1
 90
       50
176
     1
290
     0
176
     1
 90
       50
176
     1
 62
   256
176
     0
 40
1.0
176
     0
 90
        2
176
     1
  1
strokes_ogs.tif
176
     1
290
     0
176
     1
 40
1.0
176
     1
 40
1.0
176
     1
  0
VISUALSTYLE
  5
1E9
102
{ACAD_REACTORS
330
E6
102
}
330
E6
100
AcDbVisualStyle
  2
Shaded with edges
 70
    26
177
     3
291
     0
 70
    58
 90
        2
176
     1
 90
        2
176
     1
 90
        1
176
     1
 90
        2
176
     1
 40
0.6
176
     1
 40
30.0
176
     1
 62
     7
420
 16777215
176
     1
 90
        1
176
     1
 90
       10
176
     1
 62
     7
176
     1
 62
   257
176
     1
 90
        2
176
     1
 90
        1
176
     1
 40
1.0
176
     1
 90
        8
176
     1
 62
   257
176
     1
 40
1.0
176
     1
 90
        1
176
     1
 90
        6
176
     1
 90
        2
176
     1
 62
     7
176
     1
 90
        3
176
     1
 90
        0
176
     1
 90
        0
176
     1
290
     0
176
     1
 90
        5
176
     1
 40
0.0
176
     1
 90
        0
176
     1
290
     0
176
     1
290
     1
176
     1
290
     1
176
     1
290
     0
176
     1
290
     0
176
     1
290
     0
176
     1
290
     0
176
     1
290
     0
176
     1
290
     0
176
     1
 90
       50
176
     1
 40
0.0
176
     1
 40
1.0
176
     1
 90
        0
176
     1
 62
    18
420
        0
176
     1
 90
       50
176
     1
 90
        3
176
     1
 62
     5
420
      255
176
     1
290
     0
176
     1
 90
       50
176
     1
 90
       50
176
     1
 90
       50
176
     1
290
     0
176
     1
 90
       50
176
     1
 62
   256
176
     0
 40
1.0
176
     0
 90
        2
176
     1
  1
strokes_ogs.tif
176
     1
290
     0
176
     1
 40
1.0
176
     1
 40
1.0
176
     1
  0
VISUALSTYLE
  5
1E6
102
{ACAD_REACTORS
330
E6
102
}
330
E6
100
AcDbVisualStyle
  2
Shades of Gray
 70
    23
177
     3
291
     0
 70
    58
 90
        2
176
     1
 90
        2
176
     1
 90
        3
176
     1
 90
        0
176
     1
 40
0.6
176
     1
 40
30.0
176
     1
 62
     7
420
 16777215
176
     1
 90
        2
176
     1
 90
        2
176
     1
 62
     7
176
     1
 62
     7
176
     1
 90
        1
176
     1
 90
        1
176
     1
 40
40.0
176
     1
 90
        8
176
     1
 62
     7
176
     1
 40
1.0
176
     1
 90
        1
176
     1
 90
        6
176
     1
 90
        2
176
     1
 62
     7
176
     1
 90
        3
176
     1
 90
        0
176
     1
 90
        0
176
     1
290
     0
176
     1
 90
        1
176
     1
 40
0.0
176
     1
 90
        0
176
     1
290
     0
176
     1
290
     1
176
     1
290
     1
176
     1
290
     0
176
     1
290
     0
176
     1
290
     0
176
     1
290
     0
176
     1
290
     0
176
     1
290
     0
176
     1
 90
       50
176
     1
 40
0.0
176
     1
 40
1.0
176
     1
 90
        0
176
     1
 62
    18
420
        0
176
     1
 90
       50
176
     1
 90
        3
176
     1
 62
     5
420
      255
176
     1
290
     0
176
     1
 90
       50
176
     1
 90
       50
176
     1
 90
       50
176
     1
290
     0
176
     1
 90
       50
176
     1
 62
   256
176
     0
 40
1.0
176
     0
 90
        2
176
     1
  1
strokes_ogs.tif
176
     1
290
     0
176
     1
 40
1.0
176
     1
 40
1.0
176
     1
  0
VISUALSTYLE
  5
1E7
102
{ACAD_REACTORS
330
E6
102
}
330
E6
100
AcDbVisualStyle
  2
Sketchy
 70
    24
177
     3
291
     0
 70
    58
 90
        1
176
     1
 90
        2
176
     1
 90
        2
176
     1
 90
        0
176
     1
 40
0.6
176
     1
 40
30.0
176
     1
 62
     7
420
 16777215
176
     1
 90
        2
176
     1
 90
        2
176
     1
 62
     7
176
     1
 62
     7
176
     1
 90
        1
176
     1
 90
        1
176
     1
 40
40.0
176
     1
 90
       11
176
     1
 62
     7
176
     1
 40
1.0
176
     1
 90
        1
176
     1
 90
        6
176
     1
 90
        2
176
     1
 62
     7
176
     1
 90
        6
176
     1
 90
        0
176
     1
 90
        0
176
     1
290
     0
176
     1
 90
        1
176
     1
 40
0.0
176
     1
 90
        0
176
     1
290
     0
176
     1
290
     1
176
     1
290
     1
176
     1
290
     0
176
     1
290
     0
176
     1
290
     0
176
     1
290
     0
176
     1
290
     0
176
     1
290
     0
176
     1
 90
       50
176
     1
 40
0.0
176
     1
 40
1.0
176
     1
 90
        0
176
     1
 62
    18
420
        0
176
     1
 90
       50
176
     1
 90
        3
176
     1
 62
     5
420
      255
176
     1
290
     0
176
     1
 90
       50
176
     1
 90
       50
176
     1
 90
       50
176
     1
290
     0
176
     1
 90
       50
176
     1
 62
   256
176
     0
 40
1.0
176
     0
 90
        2
176
     1
  1
strokes_ogs.tif
176
     1
290
     0
176
     1
 40
1.0
176
     1
 40
1.0
176
     1
  0
VISUALSTYLE
  5
F3
102
{ACAD_REACTORS
330
E6
102
}
330
E6
100
AcDbVisualStyle
  2
Thicken
 70
    13
177
     3
291
     1
 70
    58
 90
        2
176
     1
 90
        2
176
     1
 90
        1
176
     1
 90
        0
176
     1
 40
0.6
176
     1
 40
30.0
176
     1
 62
     7
420
 16777215
176
     1
 90
        1
176
     1
 90
        4
176
     1
 62
     7
176
     1
 62
   257
176
     1
 90
        1
176
     1
 90
        1
176
     1
 40
1.0
176
     1
 90
       12
176
     1
 62
     7
176
     1
 40
1.0
176
     1
 90
        1
176
     1
 90
        6
176
     1
 90
        2
176
     1
 62
     7
176
     1
 90
        5
176
     1
 90
        0
176
     1
 90
        0
176
     1
290
     0
176
     1
 90
        1
176
     1
 40
0.0
176
     1
 90
        0
176
     1
290
     0
176
     1
290
     1
176
     1
290
     1
176
     1
290
     0
176
     1
290
     0
176
     1
290
     0
176
     1
290
     0
176
     1
290
     0
176
     1
290
     0
176
     1
 90
       50
176
     1
 40
0.0
176
     1
 40
1.0
176
     1
 90
        0
176
     1
 62
    18
420
        0
176
     1
 90
       50
176
     1
 90
        3
176
     1
 62
     5
420
      255
176
     1
290
     0
176
     1
 90
       50
176
     1
 90
       50
176
     1
 90
       50
176
     1
290
     0
176
     1
 90
       50
176
     1
 62
   256
176
     0
 40
1.0
176
     0
 90
        2
176
     1
  1
strokes_ogs.tif
176
     1
290
     0
176
     1
 40
1.0
176
     1
 40
1.0
176
     1
  0
VISUALSTYLE
  5
ED
102
{ACAD_REACTORS
330
E6
102
}
330
E6
100
AcDbVisualStyle
  2
Wireframe
 70
     5
177
     3
291
     0
 70
    58
 90
        0
176
     1
 90
        2
176
     1
 90
        0
176
     1
 90
        0
176
     1
 40
0.6
176
     1
 40
30.0
176
     1
 62
     7
420
 16777215
176
     1
 90
        1
176
     1
 90
        4
176
     1
 62
     7
176
     1
 62
   257
176
     1
 90
        1
176
     1
 90
        1
176
     1
 40
1.0
176
     1
 90
        0
176
     1
 62
   257
176
     1
 40
1.0
176
     1
 90
        1
176
     1
 90
        6
176
     1
 90
        2
176
     1
 62
     7
176
     1
 90
        3
176
     1
 90
        0
176
     1
 90
        0
176
     1
290
     0
176
     1
 90
        1
176
     1
 40
0.0
176
     1
 90
        0
176
     1
290
     0
176
     1
290
     1
176
     1
290
     1
176
     1
290
     0
176
     1
290
     0
176
     1
290
     0
176
     1
290
     0
176
     1
290
     0
176
     1
290
     0
176
     1
 90
       50
176
     1
 40
0.0
176
     1
 40
1.0
176
     1
 90
        0
176
     1
 62
    18
420
        0
176
     1
 90
       50
176
     1
 90
        3
176
     1
 62
     5
420
      255
176
     1
290
     0
176
     1
 90
       50
176
     1
 90
       50
176
     1
 90
       50
176
     1
290
     0
176
     1
 90
       50
176
     1
 62
   256
176
     0
 40
1.0
176
     0
 90
        2
176
     1
  1
strokes_ogs.tif
176
     1
290
     0
176
     1
 40
1.0
176
     1
 40
1.0
176
     1
  0
VISUALSTYLE
  5
1E8
102
{ACAD_REACTORS
330
E6
102
}
330
E6
100
AcDbVisualStyle
  2
X-Ray
 70
    25
177
     3
291
     0
 70
    58
 90
        2
176
     1
 90
        2
176
     1
 90
        1
176
     1
 90
        1
176
     1
 40
0.5
176
     1
 40
30.0
176
     1
 62
     7
420
 16777215
176
     1
 90
        1
176
     1
 90
        0
176
     1
 62
     7
176
     1
 62
   257
176
     1
 90
        1
176
     1
 90
        1
176
     1
 40
1.0
176
     1
 90
        8
176
     1
 62
     7
176
     1
 40
1.0
176
     1
 90
        1
176
     1
 90
        6
176
     1
 90
        2
176
     1
 62
     7
176
     1
 90
        3
176
     1
 90
        0
176
     1
 90
        0
176
     1
290
     0
176
     1
 90
       13
176
     1
 40
0.0
176
     1
 90
        0
176
     1
290
     0
176
     1
290
     1
176
     1
290
     1
176
     1
290
     0
176
     1
290
     0
176
     1
290
     0
176
     1
290
     0
176
     1
290
     0
176
     1
290
     0
176
     1
 90
       50
176
     1
 40
0.0
176
     1
 40
1.0
176
     1
 90
        0
176
     1
 62
    18
420
        0
176
     1
 90
       50
176
     1
 90
        3
176
     1
 62
     5
420
      255
176
     1
290
     0
176
     1
 90
       50
176
     1
 90
       50
176
     1
 90
       50
176
     1
290
     0
176
     1
 90
       50
176
     1
 62
   256
176
     0
 40
1.0
176
     0
 90
        2
176
     1
  1
strokes_ogs.tif
176
     1
290
     0
176
     1
 40
1.0
176
     1
 40
1.0
176
     1
  0
DICTIONARYVAR
  5
13D
102
{ACAD_REACTORS
330
67
102
}
330
67
100
DictionaryVariables
280
     0
  1
1:1
  0
DICTIONARYVAR
  5
13C
102
{ACAD_REACTORS
330
67
102
}
330
67
100
DictionaryVariables
280
     0
  1
STANDARD
  0
DICTIONARYVAR
  5
C5
102
{ACAD_REACTORS
330
67
102
}
330
67
100
DictionaryVariables
280
     0
  1
STANDARD
  0
DICTIONARYVAR
  5
21E
102
{ACAD_REACTORS
330
67
102
}
330
67
100
DictionaryVariables
280
     0
  1
Metric50
  0
DICTIONARYVAR
  5
21F
102
{ACAD_REACTORS
330
67
102
}
330
67
100
DictionaryVariables
280
     0
  1
Metric50
  0
DICTIONARYVAR
  5
68
102
{ACAD_REACTORS
330
67
102
}
330
67
100
DictionaryVariables
280
     0
  1
2
  0
DICTIONARYVAR
  5
DA8
102
{ACAD_REACTORS
330
67
102
}
330
67
100
DictionaryVariables
280
     0
  1
2
  0
DICTIONARYVAR
  5
6C
102
{ACAD_REACTORS
330
67
102
}
330
67
100
DictionaryVariables
280
     0
  1
1
  0
DICTIONARYVAR
  5
1A5
102
{ACAD_REACTORS
330
67
102
}
330
67
100
DictionaryVariables
280
     0
  1
0
  0
DICTIONARYVAR
  5
1A6
102
{ACAD_REACTORS
330
67
102
}
330
67
100
DictionaryVariables
280
     0
  1
0
  0
DICTIONARY
  5
22D
330
213
100
AcDbDictionary
280
     1
281
     1
  3
ACAD_XREC_ROUNDTRIP
360
2062
  0
DICTIONARY
  5
1FC
330
22
100
AcDbDictionary
280
     1
281
     1
  3
AcPublish_PlotSettingsOverride
360
DA7
  0
DICTIONARY
  5
1F0
330
E4
100
AcDbDictionary
280
     1
281
     1
  3
FBXASSET
360
1F1
  0
DICTIONARY
  5
1EE
330
E3
100
AcDbDictionary
280
     1
281
     1
  3
FBXASSET
360
1EF
  0
DICTIONARY
  5
16A
330
E5
100
AcDbDictionary
280
     1
281
     1
  3
BUMPTILE
360
16C
  3
DIFFUSETILE
360
16B
  3
FBXASSET
360
1F2
  3
OPACITYTILE
360
16D
  3
REFLECTIONTILE
360
16E
  0
DICTIONARY
  5
22B
330
211
100
AcDbDictionary
280
     1
281
     1
  3
ACAD_XREC_ROUNDTRIP
360
2061
  0
DICTIONARY
  5
159
330
98
100
AcDbDictionary
280
     1
281
     1
  3
ACAD_ROUNDTRIP_2008_TABLESTYLE_CELLSTYLEMAP
360
2060
  0
XRECORD
  5
2062
102
{ACAD_REACTORS
330
22D
102
}
330
22D
100
AcDbXrecord
280
     1
102
DISPLAYNAME
  1
Metric50
102
FLAGS
 90
        0
  0
PLOTSETTINGS
  5
DA7
102
{ACAD_REACTORS
330
1FC
102
}
330
1FC
100
AcDbPlotSettings
  1

  2
Kyocera TASKalfa 3050ci(J) KX
  4
ANSI_A_(8.50_x_11.00_Inches)
  6

 40
4.984749794006347
 41
5.111724853515625
 42
5.154083251953125
 43
4.9847412109375
 44
297.0106506347656
 45
419.9889831542968
 46
0.0
 47
0.0
 48
33316.24093491148
 49
28289.23237812787
140
35416.24093491148
141
29774.23237812787
142
1.0
143
1.0
 70
 11952
 72
     1
 73
     1
 74
     4
  7

 75
    16
147
1.0
 76
     0
 77
     2
 78
   300
148
-33316.24093491148
149
-28289.23237812787
1001
ACAD_PSEXT
1000
Kyocera TASKalfa 3050ci(J) KX
1000
Kyocera TASKalfa 3050ci(J) KX
1000
192.168.11.123
1000

1070
     0
  0
XRECORD
  5
1F1
102
{ACAD_REACTORS
330
1F0
102
}
330
1F0
100
AcDbXrecord
280
     1
 70
     1
 90
429727718
  1
F226E010-5D7B-4EF0-9E0F-00A2E58668EA
310
504B03040A0000080000C270623B3DEE336E79000000790000001B0000006175746F6465736B2D64657369676E2D7061636B6167652E786D6C3C3F786D6C2076657273696F6E3D22312E302220656E636F64696E673D227574662D3822203F3E3C666F726D6174733E3C666F726D61743E687474703A2F2F736368656D612E
310
6175746F6465736B2E636F6D2F64657369676E2D7061636B6167652F323030393C2F666F726D61743E3C2F666F726D6174733E504B0304140006080800C270623BD486FD9CA0000000F4000000130000005B436F6E74656E745F54797065735D2E786D6C7D8EC10E82300C865F65E91D8A1E8C310C0EEA1BF002731658846E
310
D98AC1B77784ABF1D8FE5FBFBF75BBCE937A534CCEB38643598122B6FEE978D0B0485F9C41B54DDD7D022595594E1A469170414C76A4D9A4D207E29CF43ECE46F218070CC6BECC4078ACAA135ACF422C856C0E68EA1BF5669944DDD7BCDE7B1F8E415D77AECB980613C2E4AC91FC167A2B244592486606FC29C8FD7F045B9A
310
EF7053A7E60B504B0304140006080800C270623B132FA9F8EA0000007C01000008000000636F72652E786D6C8D90DD6EC3200C855F05F976223169D2D18850ADDDF6047B010434436D200A30EDF147FA236D77BBB2757C3EDB3A62FF3D5DC8975DA20B7E00562110EB7530CE8F03E474A21CC85E8A2584F4CB06C4ABC90EB0
310
CA20C5B8843CDF251D7CB23E15D50763EFA28AD12620FA529A01A2FEB493AA544EC511CFD5ACF4598DB6628FAEC0393B436E479C29FBDCC9D905E486BFBF1D5ED8336D78D7D2961F90F2233FD2572C8316D9B6EB1A51AFB014C94D8FFB7AB12A5903B241DC51C628361FACED71DB63FB84BC4714F56AFF03E5D9FC13CACEA7
310
4D737FF7864590AC3C721D4851AF5994720DAAD43537F903504B0304140006080800C270623B55019EA25F0000007C00000007000000636E782E786D6C4DCB3B0E80201045D1AD90E915ED2CF8AC45050C11660C8261F98AB1B07AC9C97D42D718D865D3E909258CFD00CCE24AC6E326A164D74DC0B4128928FF326038472B
310
A13128B1252AC747C6BAB984FC68F0B87FE8960A5C09FE86CFB69FBA01504B0304140006080800C270623B0B97CEAB6F010000D40300000C0000006662782F636F72652E786D6CC553ED6E8320147D15C2DF05416B3BD720CDDA6D4FB017A04A1DA98241307DFC5D3F9AAE4BB774BFE60F25E7DCCB3DE7207C736A6AD42BD7
310
696B721C470C23650A5B6A53E538F803C930DA08EEACF55FCA3032B251391E602C78E56C6867A8B0C62BE30135B6543328BB4E798C8A1A1639EE8A0FD5C848060F15DD316A657194958AE20868A813BCF30E04A069C8F0C6E2B03F713AE18287A0CB99D5254CD307AD1C168BECED75FB1C3F92245BA624CDB68C64BB6C475E
310
1810298B57CB65C2E9D02CB8D7CD595DE194F4AAC42261EC89C43161C97B9CAED96ACDD20796AD19E37428BF6A0A6D796753D0C62F9259EED4D66111839091F8E61622F2A8933DE8A182D32144F88C095F070D8140C85EEEEBB38F2340BD2ABC752930A50D17AA9775503095456C7CD0CF0B4EA74E983A6E0EAE6FCE48EE9E
310
F1FB8E70D4D25460427A58EE831F74F249C31C5AAB1CE9FD0919EB1A59DF67E317877FA22EE26F4A2A6C6DDD7F29A2F301D1F9F7A0C37D149F504B0304140006080800C270623BD9317DDA7D0000009D0000000B0000006662782F636E782E786D6C4DCCD10AC2201886E15B91FFDC966B53037588D27D8CE686E4344CA3CB
310
6F8B1D74F4C1C3C72B86CF1AD0DBE5974F5102399D01B9784F938F8B845A66CC010D4AE494CADF0D501C572761675062C9A93E0F9ADC3CD650360D3E3E0E34BDE1DA901EDFAE96E18ED00E6BC65A6C29B78651DEB28B864689E657DA760FAB2F504B0304140006080800C270623B609261632A010000120200003100000066
310
62782F43354338414331352D463944372D343136342D413737322D4436384443373638323733412F636F72652E786D6C8D515B6EC32010BC0AE22B55850D0E7E24C24491A39EA0172086A42831583CAA1CBF503B52FB971F16CDCECC0E2C3B3CA63BF856CE6B6B7A480A0C8132A395DA5C7B18C30575101C3873D6863F3408
310
8C98540F330C39BB3A1BE7151AAD09CA84841A2BD50A0AEF558060BCA74B0FFDF8A52651881812C3DF8A598C3771550529523BF138F3C1A5006019924FC8877AE88E03A9D1C7EED4224A1A8A8E6D5BA153D39D86B6E9AA767B64E522E42C462D57B996298EBE68E55E35C962CE829E9EF147A7445012F20AE31D2204E1EA93
310
D03D6EF698BEE36E8F312B33FD9F28CEF24551D4266CAB35EE22F39013562E0DCEA48DE7FB338C7ACCD60590E76DBC1ADF20C705C635D951562EC4F4FCE4D8D0D5D107EBD2F76E6EE7C425F562DB50CECABCA1547ED7976ADE26FF01504B0304140006080800C270623BAB1CAE584E01000033030000300000006662782F43
310
354338414331352D463944372D343136342D413737322D4436384443373638323733412F636E782E786D6CD593CD6EC32010845F0571AD6CE3D48AD20813A9873E410FBD12D82434182C7EAAE6EDBB2424CD25871E7B41D6EC30B3FA84F9E67BB2E40B4234DE8DB46F1925E094D7C6ED479AD3AE5951B2113C789FEE6C9438
310
39C1488B4C05DF079FE72A69D8C96C13AAD6B8631503449F83828872B949AC57D26200B826A308D316B4064D6E46FCDA41C05550DC9E483A00797BFD207EFB092A45DE9514C1BBD22178396BD39D891265658C238DEA00936C654E5E433CB65A26D9F6EDB5EBC14EBF49A45CB856E66048291F6939A9A81BB5C8917738143C
310
A680F4AA299D66A042CEB3354A2684DC9D8D178FE0D9B8B41CAAD720F880EE7EF93C0C18769E099ECC04D5A102C8049A8A05632F4DDF376CF1DE0F6BB65CB3E189ADD68CF1AED805DF7A6FEB258C81E067A2BC4BE012153DEFCAF811BEEA23DA0464EDC3E90F2011406DBDD0B965FC673EDDF97D23AE807F81F801504B0304
310
140006080800C270623BCB23EE24670500003C100000340000006662782F43354338414331352D463944372D343136342D413737322D4436384443373638323733412F6F626A656374732E786D6CAD575B8F9B3818FD2B887DE69664A6332B866A72ABA26ADAAA51AB7D182932E030EC0046B69966F6D7EF31180224D3662F
310
7908D8D8DFF57CC79FFDF7873C335E2817292BEE4CCF764D8316118BD322B9332BB9B76E4CE37DE073C6646F99691424A777A69A36033FE1AC2AF5544CF7A4CAE468763DFFC310112DA869441911E2CE14D113CD894D2AC9622A9EED98486227FB83EDD9CDC2A1D88493F26924B4249C16129662BE8014A331CA1B0E5DD309
310
7C477D0F7CF5AF574DDF5EE5D4FE0CF5A78590A4884E948DC44CBDD97235B9BAB5AE66B3A935BB9E78D67C3D5F5ADEBBA9BBB85E2C6EEF57B7502C2487246D09A77B33F880D8F034F29DE65367B136FC9C49112B0A1AD5FEC3C3DA662D31A6252D62E431A502DA7A5EBBC3A1A762D3FB3C5563ADB23F7D9957FD1D3D41ADED
310
EDB36F290BFF840BE21254704115AA9AF868471BFCB9C7A8858C65FA5B2A8C9C48CA539219591A72C25FCD004BD592C01F8851E8E40AE1CA0333F08EF2FAB6A2347E8DDD7356EEAB2C53D034831AD93BE09F4A515B96FE45F9796DB009B9AAD242DE6887E46B49CDE0D677EAC9C0578FE9447F6C0269EC339220E570B3F93A
310
7274A16A6FB334838FEBF0B055F5785E79C95949B954F001B4DAC4B54F1525ADD6BB28736A039C19C4FC1894AF88FC2794EFD114E48DA787D961A6B5484E0AB1673C476E6CB7FE196EFB62756FA72FE0B3D1EAD335DDCCBF5AEC3B9DB143C2782B7F00974ACDCD7FCFDF30667DA4F6D217F82F2830C6A73A94DB8864A09E87
310
B4404214288D8C610A5CBE0F0F66B0015382D9B18B644117909317DF79C177FC37B2C156B5FADEB34042477C7B01F323967559C0B637C072C293B562EDDC5B31BFFA5F6AE67EB9FDB8ADF89E44F44113CB92EED32295383B8FE0ED1B3448C4C0A367FAFA83F1188E9E2661DB4F42AE5509445BC55C053E690F0B35386A1E28
310
88B02F618AF3FC5F6878484544B38C149455AD96EE185258ED4846F709A8C226A0D3C908C59CBEA4AA9318AC189885B33EE269A942D61D7A1D4FDB6FF8F26DF309A03483F9EB1C687D3EAE0A8F741FB18CF15DF8BA6B98D004F8B06788EEEF4378EB883A4A0A105F63B9A51C1DE25D9CEEF79500EF9E89E2F7CDA29FA98E48
310
4E5FDA026A35363539033BA3F608D7F06D75A221E004073B2B76298E7194E559E57DDD6305A296FB86FCB0CACB1DC95955C84BC2E4B6FEB4D677C2FB5D8CF84164F46406DBFA69CD41D9318D8FA91AA0401D41677C1AA4673D995CAF5CCFB5AE96EFE6D66CB576ADDB95BBB65CF77EB2BABAB9BEBE59DD7716D596047E7B42
310
F56B10D1C489E8573CD561FEB63996AD193C10299C0F4D413949F3FCB6B1D116FB0EF600E0DDC64D5E6634A785240ABE0FEA25FB4AD0550C6434F39B9C24F402299F3F6C473660E6827D5F54A9D11FA3BD7A76A16AE1AC10F954E56141D26CB4513B6E9745A2DD6E43D93D1B466F876AA4E3893E54B02C8D4138B191509653
310
09DAB980ED794E0510D3EFCA637D7BB860F74BD30F4A1266B4B5E489A025CE04500DB855911CCE1BBFA185535DD49D89C3CE7EC69F2E44D340AAEF4CF09B4C232AEC10C7A36A7C6AE18000BAB08E0401355224193AEB665337EE76A9D8807E70026AFDDD924BBA25EDD7807873529638B507B45ADBA61544FFC8F1D61C8348
310
BC8695EC7C394E74CED46A50598D53FA6E8016E259AB3EA0BE7EEE9667D76B0611B9E89EF4531034522D497852DF0B947DDAA4FBE51707AD80B1F96C9459952097974BB23805982B55E0401150A165964402AA8BDF1FBF7086BB686EAC5340E071C1F29C157A70AFEFB2C6F60937D3F811B440D5F5434C5CCF7BACBB7E7D11
310
D98544509BC4E219136DC1290F465803204F8E539D0247E560B47CB334F4813183D01AB4274D69730D37503CEAE6A84AA54F96E54F1B7FA75E0A3070B4ECC1DF504B0304140006080000C270623B000000000000000000000000350000006662782F43354338414331352D463944372D343136342D413737322D4436384443
310
373638323733412F76657274696365732E62696E504B0304140006080800C270623BF270F1330600000004000000360000006662782F43354338414331352D463944372D343136342D413737322D4436384443373638323733412F747269616E676C65732E62696E636660600000504B0304140006080000C270623B000000
310
000000000000000000370000006662782F43354338414331352D463944372D343136342D413737322D4436384443373638323733412F617474726962757465732E62696E504B0304140006080800C270623B08DA0BD19000000041010000360000006662782F43354338414331352D463944372D343136342D413737322D44
310
36384443373638323733412F6469726563746F72792E786D6C858F410AC3201045AF22B36F53E9A60B35CBEEBAE80D244E44489C6234F4F835464A48035D0DF398FF9F8AF63D0E6CC63039F212F8F9020C7D47C6792B21C5FE7403D62A1188E2E60C98D7234A5830286103A55745067B9D86B8A3CF9C7F90C11DE607FB1443
310
96D7B6A82D282E9A152AD114D5EF2CB866EEE831B8EEA07A7BB5A8D7D61A2BAAEB7FD5F70921FF497D00504B0304140006080800C270623B00848760FC000000A00100003B0000006662782F43354338414331352D463944372D343136342D413737322D4436384443373638323733412F7265736F75726365732F636F7265
310
2E786D6C8D504B6E833010BD0A9A6D65B009201719474DDA9EA017B0CC84580936F2A7EAF16B0295DA5D3733A3F7D13C3D71FC9AEFC527FA609C1D8095140AB4DA8DC64E03A478211C8AA314DEB9F84B068555330EB0C220C5E45D5A76483B1BD1C68C5A37E20EAA103042A1EFF91820E82BCEAA54296645B8958BD2373561
310
C9CA4C679D1421FA1CA0D89EAC13A4C7E092D71844B5B152A464C65D63C6FCD35C0C7A9007FEFE767A611DA979DB90869F28E1677E26AF34130D655DDBD6A25ACD524433FF64D41E55C411644DE933618CD0FA83353DED7ADA3C51DE532AAA55FEC79496F19FA6646C3CD47BDCCD1640B21CE4414851AD7DE5F52833EFB55B
310
F90D504B010214000A0000080000C270623B3DEE336E79000000790000001B00000000000000000000000000000000006175746F6465736B2D64657369676E2D7061636B6167652E786D6C504B01021400140006080800C270623BD486FD9CA0000000F40000001300000000000000000000000000B20000005B436F6E7465
310
6E745F54797065735D2E786D6C504B01021400140006080800C270623B132FA9F8EA0000007C010000080000000000000000000000000083010000636F72652E786D6C504B01021400140006080800C270623B55019EA25F0000007C000000070000000000000000000000000093020000636E782E786D6C504B0102140014
310
0006080800C270623B0B97CEAB6F010000D40300000C00000000000000000000000000170300006662782F636F72652E786D6C504B01021400140006080800C270623BD9317DDA7D0000009D0000000B00000000000000000000000000B00400006662782F636E782E786D6C504B01021400140006080800C270623B609261
310
632A010000120200003100000000000000000000000000560500006662782F43354338414331352D463944372D343136342D413737322D4436384443373638323733412F636F72652E786D6C504B01021400140006080800C270623BAB1CAE584E010000330300003000000000000000000000000000CF0600006662782F43
310
354338414331352D463944372D343136342D413737322D4436384443373638323733412F636E782E786D6C504B01021400140006080800C270623BCB23EE24670500003C10000034000000000000000000000000006B0800006662782F43354338414331352D463944372D343136342D413737322D44363844433736383237
310
33412F6F626A656374732E786D6C504B01021400140006080000C270623B0000000000000000000000003500000000000000000000000000240E00006662782F43354338414331352D463944372D343136342D413737322D4436384443373638323733412F76657274696365732E62696E504B01021400140006080800C270
310
623BF270F13306000000040000003600000000000000000000000000770E00006662782F43354338414331352D463944372D343136342D413737322D4436384443373638323733412F747269616E676C65732E62696E504B01021400140006080000C270623B00000000000000000000000037000000000000000000000000
310
00D10E00006662782F43354338414331352D463944372D343136342D413737322D4436384443373638323733412F617474726962757465732E62696E504B01021400140006080800C270623B08DA0BD190000000410100003600000000000000000000000000260F00006662782F43354338414331352D463944372D343136
310
342D413737322D4436384443373638323733412F6469726563746F72792E786D6C504B01021400140006080800C270623B00848760FC000000A00100003B000000000000000000000000000A1000006662782F43354338414331352D463944372D343136342D413737322D4436384443373638323733412F7265736F757263
310
65732F636F72652E786D6C504B0506000000000E000E00800400005F1100000000
  0
XRECORD
  5
1EF
102
{ACAD_REACTORS
330
1EE
102
}
330
1EE
100
AcDbXrecord
280
     1
 70
     1
 90
429727718
  1
E2304D28-6187-4406-84E4-1B0A0969D8AC
310
504B03040A0000080000C270623B3DEE336E79000000790000001B0000006175746F6465736B2D64657369676E2D7061636B6167652E786D6C3C3F786D6C2076657273696F6E3D22312E302220656E636F64696E673D227574662D3822203F3E3C666F726D6174733E3C666F726D61743E687474703A2F2F736368656D612E
310
6175746F6465736B2E636F6D2F64657369676E2D7061636B6167652F323030393C2F666F726D61743E3C2F666F726D6174733E504B0304140006080800C270623BD486FD9CA0000000F4000000130000005B436F6E74656E745F54797065735D2E786D6C7D8EC10E82300C865F65E91D8A1E8C310C0EEA1BF002731658846E
310
D98AC1B77784ABF1D8FE5FBFBF75BBCE937A534CCEB38643598122B6FEE978D0B0485F9C41B54DDD7D022595594E1A469170414C76A4D9A4D207E29CF43ECE46F218070CC6BECC4078ACAA135ACF422C856C0E68EA1BF5669944DDD7BCDE7B1F8E415D77AECB980613C2E4AC91FC167A2B244592486606FC29C8FD7F045B9A
310
EF7053A7E60B504B0304140006080800C270623B6C505844EA0000007C01000008000000636F72652E786D6C8D90416EC3201045AF82665B61834B1DC7C244B5EB1BF402088883128365A0EAF18B13476A775DCDE8CF7F33A3CF4FDFF30D7D993558EF3AA00501649CF2DABAA98314CFB80174127CF53EFEB2017272361D6C
310
32083EAD3E2DBBA4BC8BC6C5AC3AAFCD2ECA104C04A46EB9E920A88B99652153CC8E702D16A9AE7232057D76194EC96AF4386275DE67CFD6AC20081DC7633D50FCC1688F197BA3F8FD30F6781846D2B3C3D83475C5CB0D163CDAF9795FAD4646A34154841C31A598549F94B5A46E097B214D4B082F37FB1F282DFA9F50B22E
310
BE56FBBB0F2C80A0F991FB40F072CB22977B50B96EB9891F504B0304140006080800C270623B55019EA25F0000007C00000007000000636E782E786D6C4DCB3B0E80201045D1AD90E915ED2CF8AC45050C11660C8261F98AB1B07AC9C97D42D718D865D3E909258CFD00CCE24AC6E326A164D74DC0B4128928FF326038472B
310
A13128B1252AC747C6BAB984FC68F0B87FE8960A5C09FE86CFB69FBA01504B0304140006080800C270623B85AE40E170010000D40300000C0000006662782F636F72652E786D6CC553ED6E8320147D15C2DF4501E7FA15A4593BDF602F40913A53058360FAF8BB7E345D976EE97ECD1F4ACEB9977BCE41F8F6DCD4A8D7AEAB
310
ACC9308B2946DA285B54A6CC70F0C76885D1567067ADFF528691918DCEF00063C14B67433B43CA1AAF8D07D4D842CFA0EC3AED3152352C32DCA90FDDC858060F15DD296EA53AC952C72C061AEA04EFBC0301681A32BCB1381ECE9C4CB8E02154C5CC56054CAB8E9576585096E7EBC59E456F29DB4569FAC2A2D765BE8BF6FB
310
9CEED265BE5A2D124E8666C17DD55CD429A7A5D7051609A5EB88B18826EF2CDDD0C586A64F74B5A19493A1FCA629B4C5834DA132FE3999E54E6D1D160C848CC437B71091479DEC410F119C0C21C2674CF83668080442F6F2505F7C9C00EAB5F2D6A5C014365CA95ED641C3541AD3F1413F2F38993A61EAB839B8BE3B237978
310
C6EF3BC2514B538209E96179087ED0C9270D7368AD7651EFCFC858D7C8FA311BBF38FC1375157F5792B2B575FFA588CC0744E6DF830CF7517C02504B0304140006080800C270623BD959F09C7C0000009D0000000B0000006662782F636E782E786D6C4DCCD10A83201886E15B91FFDC4A2BF0400D0BBD8F581632D3E13476
310
F9ABD1C18E3E78F878F9F0D93D3A6C7ABB180490AA0164C3232E2E6C024A5E310334489E62CC7F374061DEAD808B41F22DC5F2BA69B1EB5C7C3ED5BBF0BCB11F29514A1BACD44471C74C8BC7C968CC28D13D316DC71A06B5E4F5AF74EE15965F504B0304140006080800C270623BD97BE6F829010000120200003100000066
310
62782F35423231414145462D414143322D343846332D424346452D3832314535314633343830382F636F72652E786D6C8D515B6EC32010BC0AE22B55850D0E8EDC081339517C825E8018E2A2C460F1A872FC42ED48ED5F7E58343B333BB0ECF098EEE05B39AFAD6921293004CA0C566A33B630862B6A203870E6AC0D7F6810
310
1831A916661872363A1BE7151AAC09CA84841A2BD50A0AEF558060B8A74B0BFDF0A52651881812C3DF8A590C3731AA8214A99D789CF9E05200B00CC927E4F5B1225D77EE51D79D2A449B7E8B8EA7FE8C9A8A9C6BD26F69831B562E42CE62D472956B99E2E8AB56EE55932CE62CE8E9197F704A042521AF30FE4084205C7D12
310
BAC7BB3DA6EFB8D963CCCA4CFF278AB37C5114B509DB6A8DBBC83CE484954B833369E3E5FE0CA31EB37501E4791BAF8637C87181714D680AB110D3F393E38EAE8E3E5897BE7773BB242EA917DB1DE5ACCC1B4AE5777DA9E66DF21F504B0304140006080800C270623BAB1CAE584E01000033030000300000006662782F3542
310
3231414145462D414143322D343846332D424346452D3832314535314633343830382F636E782E786D6CD593CD6EC32010845F0571AD6CE3D48AD20813A9873E410FBD12D82434182C7EAAE6EDBB2424CD25871E7B41D6EC30B3FA84F9E67BB2E40B4234DE8DB46F1925E094D7C6ED479AD3AE5951B2113C789FEE6C943839
310
C1488B4C05DF079FE72A69D8C96C13AAD6B8631503449F83828872B949AC57D26200B826A308D316B4064D6E46FCDA41C05550DC9E483A00797BFD207EFB092A45DE9514C1BBD22178396BD39D891265658C238DEA00936C654E5E433CB65A26D9F6EDB5EBC14EBF49A45CB856E66048291F6939A9A81BB5C8917738143CA6
310
80F4AA299D66A042CEB3354A2684DC9D8D178FE0D9B8B41CAAD720F880EE7EF93C0C18769E099ECC04D5A102C8049A8A05632F4DDF376CF1DE0F6BB65CB3E189ADD68CF1AED805DF7A6FEB258C81E067A2BC4BE012153DEFCAF811BEEA23DA0464EDC3E90F2011406DBDD0B965FC673EDDF97D23AE807F81F801504B030414
310
0006080800C270623B086A6785630500003C100000340000006662782F35423231414145462D414143322D343846332D424346452D3832314535314633343830382F6F626A656374732E786D6CAD575D739B3814FD2B0CFB0C189BA4CE0EA193D849C6D34DDBA9A79D7DC88C47804CD8006224913AFDF57B040203B65BEF87
310
1F0C12D2FD3CF7E8CA7FBFCB33E3957291B2E2DA74ED8969D02262715A24D76625B7D6DC34DE073E674CF696994641727A6DAA6933F013CEAA524FC5744BAA4C8E66EF6FFF3444440B6A1A514684B83645F44C7362934AB2988A173B2692D8C97667BB76B3702836E1A47C1E092D09A78584A5982F20C5688C7287C389E904
310
BEA3BE07BEFAD7AB66A75739B53F43FD69212429A20365233133D75BDE4D2FAEAC0BCF9B59DEE5D4B56EEF6F9796FB6E36595C2E1657377757502C2487246D09A75B3378406C781AF94EF3A9B3581B7ECCA48815058D6AFFE1616DB39618D3921631F29852016D3DAF27C3A1AB62D3FB3C5363ADB23F7D9E57FD1D3D41ADED
310
EDB36F290BFF820BE21C54704115AA9AF868471BFC4DF6510B19CBF4B75418399194A72433B234E484BF990196AA25813F10A3D0C915C2950766E0EEE5F56D4569FC1ABBC7ACDC5659A6A0690635B237C03F95A2B62CFD41F9716DB009B9AAD242CEB543F2ADA46670E53BF564E0ABC76CAA3F368134B619499072B8D97C1D
310
39BA50B5B75A9AC187FB70B756F5785C79C95949B954F001B4DAC4B54F1525ADD63D2B736A039C19C47C1F942F88FC4794EFDE14E48DA73B6FE7692D9293426C19CF911B7B52FF8C49FB62756F872FE0B3D1EAC335DDCCBF5AEC3B9DB143C238953F804BA566FEDFF3378C591FA9BDF405FE2B0A8CF1990EE53A2219A8E731
310
2D9010054A23639802976FC39D19ACC0946076EC2259D005E4E0C5775EF11DFF8D6CB055ADBEF72C90D011DF9EC1FC88655D16B0ED04580E78B256AC9D3B15F38BFFA5666E96EB0FEB8A6F49441F35B12CE9362D5289B3730FDEBE4183440C3C7AA16FDF198FE1E86112D6FD24E45A9540B455CC55E093F6B05083BDE68182
310
08FB12A638CFFF8586C7544434CB484159D56AE98E2185D58E64749F802A6C023A9B8E50CCE96BAA3A89C18A815938EB239E962A64DDA1D7F1B47DC297AFAB8F00A519DCBEFD41DEFA8419EEE93E6219E39BF06DD330A109F061CF10DDDF86F0D61175941420BEC6724B393AC49B38DD6E2B01DE3D12C56FAB453F531D911C
310
BEB405D46A6C6AD2033BA3F608D7F06D75A221E004073B2B36298E7194E551E57DDD6305A2967B427E58E5E586E4AC2AE439619AB4FEB4D677C2FB5D8CF84E64F46C06EBFA69DD82B2631A9F48A83A828EF83448CFDD7436F196D3B975E9CEDF599E37B9B4E6DE9D67B9B7939BC9D5E5D5727E83F00F2BA03DA1FA358868E2
310
44F42B9EEA307F5DEDCBD60C1E8914CE4353504ED23CBFAE6CB4C5BE833D0078B771959719CD69218982EFA37AC9BE1074150319CDFC2A27093D43CAA787F5C806CC9CB1EFB32A35FA7DB457CF2E542D1C15229FAB3C2C489A8D366AC7EDB248B4DB6D28BB67C3E8ED508D743CD1870A96A53108273612CA722A413B67B03D
310
CFA90062FA5D79AC6F0F67EC7E6DFA4149C28CB6963C13B4C49900AA413A552487F3C66F68E15417756DE2B0B35FF0A70BD13490EA6B13FC26D3880A3BC4F1A81A9F5A3820802EAC2341809E144986CEBAD9D48DBB5D2A36A01F9C805A7FB7E49C6E49FB3520DE9C94254EED01ADD6B66905D13F72BC35C72012AF61253B5F
310
F6139D33B59A005C0377BA075A8817AD7A87FAFAB95BAE5DAF1944E4AC7BD24F41D048B524E1497D2F5041D726DD2C3F3B68058CD527A3CCAA04B93C5F92C529C05CA902078A800A2DB32412505DFCFEF49933DC4573E33E05049E162CCF59A10737FA2E6BAC9F71338D9F400B545D3FC474E2BA4F75D7AF2F229B90086A93
310
58BC60A22D38E5C1086B00E4C171AAAF678ECAC168F96A69E803C383D01AB4074D69730D37503CEAE6A84AA54F96E54F1B7FA75E0A1470B4ECC1DF504B0304140006080000C270623B000000000000000000000000350000006662782F35423231414145462D414143322D343846332D424346452D38323145353146333438
310
30382F76657274696365732E62696E504B0304140006080800C270623BF270F1330600000004000000360000006662782F35423231414145462D414143322D343846332D424346452D3832314535314633343830382F747269616E676C65732E62696E636660600000504B0304140006080000C270623B0000000000000000
310
00000000370000006662782F35423231414145462D414143322D343846332D424346452D3832314535314633343830382F617474726962757465732E62696E504B0304140006080800C270623B08DA0BD19000000041010000360000006662782F35423231414145462D414143322D343846332D424346452D383231453531
310
4633343830382F6469726563746F72792E786D6C858F410AC3201045AF22B36F53E9A60B35CBEEBAE80D244E44489C6234F4F835464A48035D0DF398FF9F8AF63D0E6CC63039F212F8F9020C7D47C6792B21C5FE7403D62A1188E2E60C98D7234A5830286103A55745067B9D86B8A3CF9C7F90C11DE607FB144396D7B6A82D
310
282E9A152AD114D5EF2CB866EEE831B8EEA07A7BB5A8D7D61A2BAAEB7FD5F70921FF497D00504B0304140006080800C270623B7FFB76DCFC000000A00100003B0000006662782F35423231414145462D414143322D343846332D424346452D3832314535314633343830382F7265736F75726365732F636F72652E786D6C8D
310
504B6E833010BD0A9A6D65B029250419478572835EC032136A25D8C89FAAC7AF09546A77DDCC8CDE47F3F4F8E56BB9679FE8BCB6A6039653C8D0283B69337710C39534905D0477D6865F32C88C5CB0830D06C16767E37A40CA9A802624D4D8090F507A8F0132754F47075E7DE02273194352F85BBE4A759333E62C4F74D209
310
EE834B01B2FDC9364138F4363A859E173B2B788C7A3A347A4A3FF555A30341D9389EEB8192B78AF5A4AA5E18793D8D3D198691F6D5696C9ABAE4C566163CE8E527A37228034E204A4ACF843142CB7756B5B46E69F5449B96525E6CF23FA6B84EFF34456DC27379C4DD6D1E044B411E84E0C5D6575A8F32D3DEBA15DF504B01
310
0214000A0000080000C270623B3DEE336E79000000790000001B00000000000000000000000000000000006175746F6465736B2D64657369676E2D7061636B6167652E786D6C504B01021400140006080800C270623BD486FD9CA0000000F40000001300000000000000000000000000B20000005B436F6E74656E745F5479
310
7065735D2E786D6C504B01021400140006080800C270623B6C505844EA0000007C010000080000000000000000000000000083010000636F72652E786D6C504B01021400140006080800C270623B55019EA25F0000007C000000070000000000000000000000000093020000636E782E786D6C504B01021400140006080800
310
C270623B85AE40E170010000D40300000C00000000000000000000000000170300006662782F636F72652E786D6C504B01021400140006080800C270623BD959F09C7C0000009D0000000B00000000000000000000000000B10400006662782F636E782E786D6C504B01021400140006080800C270623BD97BE6F829010000
310
120200003100000000000000000000000000560500006662782F35423231414145462D414143322D343846332D424346452D3832314535314633343830382F636F72652E786D6C504B01021400140006080800C270623BAB1CAE584E010000330300003000000000000000000000000000CE0600006662782F354232314141
310
45462D414143322D343846332D424346452D3832314535314633343830382F636E782E786D6C504B01021400140006080800C270623B086A6785630500003C10000034000000000000000000000000006A0800006662782F35423231414145462D414143322D343846332D424346452D3832314535314633343830382F6F62
310
6A656374732E786D6C504B01021400140006080000C270623B00000000000000000000000035000000000000000000000000001F0E00006662782F35423231414145462D414143322D343846332D424346452D3832314535314633343830382F76657274696365732E62696E504B01021400140006080800C270623BF270F1
310
3306000000040000003600000000000000000000000000720E00006662782F35423231414145462D414143322D343846332D424346452D3832314535314633343830382F747269616E676C65732E62696E504B01021400140006080000C270623B0000000000000000000000003700000000000000000000000000CC0E0000
310
6662782F35423231414145462D414143322D343846332D424346452D3832314535314633343830382F617474726962757465732E62696E504B01021400140006080800C270623B08DA0BD190000000410100003600000000000000000000000000210F00006662782F35423231414145462D414143322D343846332D424346
310
452D3832314535314633343830382F6469726563746F72792E786D6C504B01021400140006080800C270623B7FFB76DCFC000000A00100003B00000000000000000000000000051000006662782F35423231414145462D414143322D343846332D424346452D3832314535314633343830382F7265736F75726365732F636F
310
72652E786D6C504B0506000000000E000E00800400005A1100000000
  0
XRECORD
  5
16C
102
{ACAD_REACTORS
330
16A
102
}
330
16A
100
AcDbXrecord
280
     1
270
     1
271
     1
  0
XRECORD
  5
16B
102
{ACAD_REACTORS
330
16A
102
}
330
16A
100
AcDbXrecord
280
     1
270
     1
271
     1
  0
XRECORD
  5
1F2
102
{ACAD_REACTORS
330
16A
102
}
330
16A
100
AcDbXrecord
280
     1
 70
     0
 90
1673772943
  1
AEB1D1DA-B7DF-4CBA-830A-738AA2653737
310
504B03040A0000080000C270623B3DEE336E79000000790000001B0000006175746F6465736B2D64657369676E2D7061636B6167652E786D6C3C3F786D6C2076657273696F6E3D22312E302220656E636F64696E673D227574662D3822203F3E3C666F726D6174733E3C666F726D61743E687474703A2F2F736368656D612E
310
6175746F6465736B2E636F6D2F64657369676E2D7061636B6167652F323030393C2F666F726D61743E3C2F666F726D6174733E504B0304140006080800C270623BD486FD9CA0000000F4000000130000005B436F6E74656E745F54797065735D2E786D6C7D8EC10E82300C865F65E91D8A1E8C310C0EEA1BF002731658846E
310
D98AC1B77784ABF1D8FE5FBFBF75BBCE937A534CCEB38643598122B6FEE978D0B0485F9C41B54DDD7D022595594E1A469170414C76A4D9A4D207E29CF43ECE46F218070CC6BECC4078ACAA135ACF422C856C0E68EA1BF5669944DDD7BCDE7B1F8E415D77AECB980613C2E4AC91FC167A2B244592486606FC29C8FD7F045B9A
310
EF7053A7E60B504B0304140006080800C270623BC5983BD0EB0000007C01000008000000636F72652E786D6C8D904D6EC3201085AF82665B6103F1BF3091AB2427E80510262E4A0C9681AAC72F4E1CA9DD7535A337EF9B193D7EFC9EEFE84BAFDE38DB03CD08206D951B8D9D7A88E18A1B4047C157E7C22F1B202B67DDC326
310
83E0D3EAE2B24BCAD9A06D48AA75A3DE45E9BD0E80D43D353D78F5A96799C91892C3DFB245AA9B9C74465F5D826334237A1E3163DA67AE46AF20CABAA887E1FD82D9401A5C9CCA136ED8E58CEBF650B2BAA8CE557BE6F9060B1ECCFCBAAF562D831E4130425A4C2926EC83161DA93A52BC91A62384E79BFD0F1497F19F5034
310
361CD8FEEE13F320687AE431103CDFB248E51154AA5B6EE207504B0304140006080800C270623B55019EA25F0000007C00000007000000636E782E786D6C4DCB3B0E80201045D1AD90E915ED2CF8AC45050C11660C8261F98AB1B07AC9C97D42D718D865D3E909258CFD00CCE24AC6E326A164D74DC0B4128928FF32603847
310
2BA13128B1252AC747C6BAB984FC68F0B87FE8960A5C09FE86CFB69FBA01504B0304140006080800C270623BEE35DAD072010000D40300000C0000006662782F636F72652E786D6CC553ED6E8230147D95A67F1768411435A5C6457D82BD4085CA1AA125A5253EFE2E1FC6B938E37E8D1FD09C736FEF39A7946D2E75853A69
310
5B657486A3906224756E0AA5CB0C7B770A96186D38B3C6B86F65186951CB0CF730E6ACB4C63713941BEDA476806A53C809146D2B1D4679058B0CB7F9A7AC4528BC838AF61C36223F8B5286510834D471D63A0B02D038A47F637E3A5E181971CEBC57C5C4AA02A6A9939216F3799AA4DBEDFB2188B7741924BBF92E58C6877D
310
90AE66F3384D16FBC56ACF48DFCC9953F5555D6EA570B2C03CA67415445140E38F2859D3C59A266F74B9A69491BEFCAEC937C58B4D5E69378B27B9635B8B79044206E2875B88C8A15674A0877046FA10E133247C1F340402213B71ACAE3ECE00753277C626C014C6DFA84E545EC2541AD2E141BF2F18193B61EAB039B87E38
310
237E79C6F31DE1A8852EC18470B03C7AD7EB64A38629B446DAA07317A48DAD45F59A8D270EFF44DDC43F94949BCAD8FF5244A60322D3EF41FAFBC8BF00504B0304140006080800C270623BD65DADFA7E0000009D0000000B0000006662782F636E782E786D6C4DCCD10A83201886E15B91FFDC651665A0C64C771FB12C62A6
310
C3E9D8E5AF46073BFAE0E1E3E5FD6773E86DE36B0D5E40792180ACBF8769F58B809C66CC00F592C710D2DF0D901F372BE060907C89213F4F9AEC3C66977675AB7F9C488DBA1A4309AE06D6E25ADD4ADCB5BAC2A4D1BAA135EBD440A190BCF895F63DC2F20B504B0304140006080800C270623B16D345222A01000012020000
310
310000006662782F32454241454532302D334338372D344246312D393744332D3036444436323438394243322F636F72652E786D6C8D515B6EC32010BC0AE2AB55850DC4719C0813358F9EA01720405294182C1E558E5FA81DA9FDCB0F8B66676607966DEFC30D7C6B1F8CB33D241586405BE994B1971EA678461D045BCEBC
310
73F10F0D022B06DDC30243CE2EDEA57186A4B351DB9851EB949E4111828E10C85BBEF430C82F3D884AA49819E15A8D425EC54557A4CAEDCCE32C449F038069483921A7C7DDFBF148315AECBB156A761F04AD578705C2EDE1D0D2A65BEFF694D59390B3948C9AE546E538E66CB47FD6A488398B6678C4975E8BA855D663BC46
310
84204C3F49B3C1ED06376FB8DB60CCEA42FF274AA37A52948C8D0B3AC79D640172C2EAA9C19972E9747B84D1F7D1F908CABC97A0E52BE4B8C2784968CBEA89989F9F1DDB66760CD1F9FCBD2FD753E692E564DB369CD56543B9FCAE2FD7B24DFE03504B0304140006080800C270623BAB1CAE584E0100003303000030000000
310
6662782F32454241454532302D334338372D344246312D393744332D3036444436323438394243322F636E782E786D6CD593CD6EC32010845F0571AD6CE3D48AD20813A9873E410FBD12D82434182C7EAAE6EDBB2424CD25871E7B41D6EC30B3FA84F9E67BB2E40B4234DE8DB46F1925E094D7C6ED479AD3AE5951B2113C78
310
9FEE6C943839C1488B4C05DF079FE72A69D8C96C13AAD6B8631503449F83828872B949AC57D26200B826A308D316B4064D6E46FCDA41C05550DC9E483A00797BFD207EFB092A45DE9514C1BBD22178396BD39D891265658C238DEA00936C654E5E433CB65A26D9F6EDB5EBC14EBF49A45CB856E66048291F6939A9A81BB5C8
310
917738143CA680F4AA299D66A042CEB3354A2684DC9D8D178FE0D9B8B41CAAD720F880EE7EF93C0C18769E099ECC04D5A102C8049A8A05632F4DDF376CF1DE0F6BB65CB3E189ADD68CF1AED805DF7A6FEB258C81E067A2BC4BE012153DEFCAF811BEEA23DA0464EDC3E90F2011406DBDD0B965FC673EDDF97D23AE807F81F8
310
01504B0304140006080800C270623B849BF81A650500003B100000340000006662782F32454241454532302D334338372D344246312D393744332D3036444436323438394243322F6F626A656374732E786D6CAD575B739B3814FE2B0CFB0C98D869921D42C797A6E3E9A4CDD4D3CE3E64C62340266C406224913AFBEBF713
310
080CD869BD173F18248ECEF53B1705EFF7456EBD502133CE6E6DDF9DD81665314F3296DEDA95DA39D7B6F53E0C04E7AA47665B8C14F4D6D6DB7618A48257A5D94AE88E54B91AEDDE2DFEB0644C19B5AD382752DEDA327EA2057149A57842E5B39B1045DC74B7777DB7211CB24D05299F464C4B222853D014FB0C5CAC46297F
310
B89CD85E1878FA7B18E87F43357D9BCAABED19CACF985484C547C2466CA6FE6CF5E1E2F2C6B99CCDA6CEECDD85EF2CEE162BC7BF9A4E96EF96CB9BF9871B08964A8093D144D09D1D7E846F4416075EF3A9D3D8287E4AA5983346E3DA7E5858EB6C3826B4A42C411C332A21AD67F564B8F4B56F7A9FA77A6D44F6B7CFB3AA7F
310
A2C7A8D5BD7DF635E5D19F30419E830A21A94655E31F636883BFC9C16B11E7B9F99649AB208A8A8CE4569E458288573B04A9260983011B8D4EA111AE2DB043FFC0AFAF2B52E3D7D83DA5E5AECA730D4D3BAC91BD05FEA992B566D95F549C96069D10AB2A63EADA18A45E4B6A873781576F86817E4C2FCCC7C691D62E272942
310
0E339BAF2343973AF7D62B3BFC7417ED373A1F4F0B2F052FA9501A3E80561BB8F6A9BD64C4FA67454E1F8031039F1F9CF2159EFF8CF43DA882B8896C3FDBCF8C142508933B2E0AC4C69DD43F6BD2BE38DDDBF10BEAD988FA98A6DBF957C481D7293B2C186FC50FE0D2A1B9FEEFF11BFAAC8FD45EF8C2E00509C6C5D4B87213
310
931CA5E73E63088806A595736CA196EFA2BD1DAE512951D9718AE461E790A397C07BC177FC37BC51AD6AF1BD27434047F5F68CCA0F5FD66901DDDE00CB519DAC051BE3DEF2F9E5FF9233F3D5E6D3A6123B12D37B5358567497B14CA1771EC0DB576810888145CFF4F50717090C3D0EC2A61F84C28892F0B6F6B9767CDA360B
310
BD38481E0888712EE5BAE605BF90709FC998E639619457AD94AE0D69AC7645C6CC09C8C2C6A1D38B118A057DC9F42431A018A8855E1F8BACD42EEB9A5E57A7DD376CF9B6FE0C50823EE711C90F44D1A1DAC73CE7621BBD6E9B4268037B383204F7F721BA8D433DCD0580AFA1DC561CE3E16D92ED769544D93DE1C4EFEB653F
310
505D1D397E69F3A795D8A4E40CC519A94784416F2B13F38020E8EB9C6D33747164E549E17DD96301B2E6FB06FFA82ACA2D2978C5D4396E9AB4F6B4DA77CCFB438CFC4154FC64879BFAE92C50B1139A1C42350081EE40276C1A8467FE61E1AFFCD5DC595CADEE9CD9723177AEA793B97335BD9ECF2FDE5D4EAFA6579D46B526
310
61D036A87E0AC29B6888412532E3E66FEB43D6DAE13D51D2FBD8E4939736CF6F6B175371E0E10CF0DD1D5C17654E0BCA14D1E8BDD72FF95782A162C0A3D95F1724A56770F9F27133D2013B679C7BD099467F8CCE9ADDA5CE85934CD45355448C64F9E8A031DC2D596ACC6E5DD93D9B82DE2EF5CAF81363A8E47996A0DE2456
310
4A794115AACE19C55E14540231FDA13C319787334EBF34E3A022514E5B4D9E0826E25C02D5805B15ABE1BEF51B26383D44DDDAE875EE33FE4C22DA16427D6BA3BCA92CA6D28DD01DF5DC53330704308475351050232CCD31583787BA75774AFB06E5070DD0C8EF48CE19968C5D83BA5B90B244D31E54D55A372320FE4786B7
310
EA5844E135AA5467CB61A333A61683CC6A8C3257034C10CF46F41EF9F573B37CB7A61978E4AC6BD24F41D070751411697D2DD0FA1995E6AB070F9380B5FE629579952296E773720405982B9DE04011506178964401AACBDF1F1F04C755B4B0EE3240E071C98B8233B3989BABACB579C2C534794459A0FAF6212F26BEFF580F
310
FDE61EB28D88A42E49E43336DA84D3168CB006401E755313024FC76044BE5E59A661CCC0B406EDD14CDADCC22D248FBE38EA54E917CBF2A773BF5793020C02137BF837504B0304140006080000C270623B000000000000000000000000350000006662782F32454241454532302D334338372D344246312D393744332D3036
310
444436323438394243322F76657274696365732E62696E504B0304140006080800C270623BF270F1330600000004000000360000006662782F32454241454532302D334338372D344246312D393744332D3036444436323438394243322F747269616E676C65732E62696E636660600000504B0304140006080000C270623B
310
000000000000000000000000370000006662782F32454241454532302D334338372D344246312D393744332D3036444436323438394243322F617474726962757465732E62696E504B0304140006080800C270623B08DA0BD19000000041010000360000006662782F32454241454532302D334338372D344246312D393744
310
332D3036444436323438394243322F6469726563746F72792E786D6C858F410AC3201045AF22B36F53E9A60B35CBEEBAE80D244E44489C6234F4F835464A48035D0DF398FF9F8AF63D0E6CC63039F212F8F9020C7D47C6792B21C5FE7403D62A1188E2E60C98D7234A5830286103A55745067B9D86B8A3CF9C7F90C11DE607
310
FB144396D7B6A82D282E9A152AD114D5EF2CB866EEE831B8EEA07A7BB5A8D7D61A2BAAEB7FD5F70921FF497D00504B0304140006080800C270623BAD7266E1FD000000A00100003B0000006662782F32454241454532302D334338372D344246312D393744332D3036444436323438394243322F7265736F75726365732F63
310
6F72652E786D6C8D50596E833010BD0A9ADFCA6008BB8C23AAD013F4029699502BC1465EAA1EBF26A152FBD79F99D15B344F8F9DBFD67BF289D629A307C8530A096A6966A5970182BF9216923367D618FF4B0689162B0EB0C3C0D9624DD80E481AED51FB886A33E3010AE7D04322EFF118C0C90F5C452A828F0A774B37216F
310
62C1344F231D759C396F6380E4F9649FC02D3A13AC44C7B227CB59086A3E346A8E3FD555A1055E3565338EAF132946DA92F2525D485BBC4DA4E94E55D194F5547713CB7633675EAD3F19A545E171065E50DA913C27B478CFCB9ED63D2D5F68DB53CAB25DFEC714B6F99FA6A0B43F1547DCA7CD01CF639007C159B6F715D7A3
310
CCB8F76EF937504B010214000A0000080000C270623B3DEE336E79000000790000001B00000000000000000000000000000000006175746F6465736B2D64657369676E2D7061636B6167652E786D6C504B01021400140006080800C270623BD486FD9CA0000000F40000001300000000000000000000000000B20000005B43
310
6F6E74656E745F54797065735D2E786D6C504B01021400140006080800C270623BC5983BD0EB0000007C010000080000000000000000000000000083010000636F72652E786D6C504B01021400140006080800C270623B55019EA25F0000007C000000070000000000000000000000000094020000636E782E786D6C504B01
310
021400140006080800C270623BEE35DAD072010000D40300000C00000000000000000000000000180300006662782F636F72652E786D6C504B01021400140006080800C270623BD65DADFA7E0000009D0000000B00000000000000000000000000B40400006662782F636E782E786D6C504B01021400140006080800C27062
310
3B16D345222A0100001202000031000000000000000000000000005B0500006662782F32454241454532302D334338372D344246312D393744332D3036444436323438394243322F636F72652E786D6C504B01021400140006080800C270623BAB1CAE584E010000330300003000000000000000000000000000D406000066
310
62782F32454241454532302D334338372D344246312D393744332D3036444436323438394243322F636E782E786D6C504B01021400140006080800C270623B849BF81A650500003B1000003400000000000000000000000000700800006662782F32454241454532302D334338372D344246312D393744332D303644443632
310
3438394243322F6F626A656374732E786D6C504B01021400140006080000C270623B0000000000000000000000003500000000000000000000000000270E00006662782F32454241454532302D334338372D344246312D393744332D3036444436323438394243322F76657274696365732E62696E504B0102140014000608
310
0800C270623BF270F133060000000400000036000000000000000000000000007A0E00006662782F32454241454532302D334338372D344246312D393744332D3036444436323438394243322F747269616E676C65732E62696E504B01021400140006080000C270623B000000000000000000000000370000000000000000
310
0000000000D40E00006662782F32454241454532302D334338372D344246312D393744332D3036444436323438394243322F617474726962757465732E62696E504B01021400140006080800C270623B08DA0BD190000000410100003600000000000000000000000000290F00006662782F32454241454532302D33433837
310
2D344246312D393744332D3036444436323438394243322F6469726563746F72792E786D6C504B01021400140006080800C270623BAD7266E1FD000000A00100003B000000000000000000000000000D1000006662782F32454241454532302D334338372D344246312D393744332D3036444436323438394243322F726573
310
6F75726365732F636F72652E786D6C504B0506000000000E000E0080040000631100000000
  0
XRECORD
  5
16D
102
{ACAD_REACTORS
330
16A
102
}
330
16A
100
AcDbXrecord
280
     1
270
     1
271
     1
  0
XRECORD
  5
16E
102
{ACAD_REACTORS
330
16A
102
}
330
16A
100
AcDbXrecord
280
     1
270
     1
271
     1
  0
XRECORD
  5
2061
102
{ACAD_REACTORS
330
22B
102
}
330
22B
100
AcDbXrecord
280
     1
102
DISPLAYNAME
  1
Metric50
102
FLAGS
 90
        0
  0
CELLSTYLEMAP
  5
2060
102
{ACAD_REACTORS
330
159
102
}
330
159
100
AcDbCellStyleMap
 90
        3
300
CELLSTYLE
  1
TABLEFORMAT_BEGIN
 90
        5
170
     1
 91
        0
 92
    32768
 62
   257
 93
        1
300
CONTENTFORMAT
  1
CONTENTFORMAT_BEGIN
 90
        0
 91
        0
 92
      512
 93
        0
300

 40
0.0
140
1.0
 94
        5
 62
     0
340
11
144
6.0
309
CONTENTFORMAT_END
171
     1
301
MARGIN
  1
CELLMARGIN_BEGIN
 40
1.5
 40
1.5
 40
1.5
 40
1.5
 40
4.5
 40
4.5
309
CELLMARGIN_END
 94
        6
 95
        1
302
GRIDFORMAT
  1
GRIDFORMAT_BEGIN
 90
        0
 91
        1
 62
     0
 92
       -2
340
14
 93
        0
 40
1.125
309
GRIDFORMAT_END
 95
        2
302
GRIDFORMAT
  1
GRIDFORMAT_BEGIN
 90
        0
 91
        1
 62
     0
 92
       -2
340
14
 93
        0
 40
1.125
309
GRIDFORMAT_END
 95
        4
302
GRIDFORMAT
  1
GRIDFORMAT_BEGIN
 90
        0
 91
        1
 62
     0
 92
       -2
340
14
 93
        0
 40
1.125
309
GRIDFORMAT_END
 95
        8
302
GRIDFORMAT
  1
GRIDFORMAT_BEGIN
 90
        0
 91
        1
 62
     0
 92
       -2
340
14
 93
        0
 40
1.125
309
GRIDFORMAT_END
 95
       16
302
GRIDFORMAT
  1
GRIDFORMAT_BEGIN
 90
        0
 91
        1
 62
     0
 92
       -2
340
14
 93
        0
 40
1.125
309
GRIDFORMAT_END
 95
       32
302
GRIDFORMAT
  1
GRIDFORMAT_BEGIN
 90
        0
 91
        1
 62
     0
 92
       -2
340
14
 93
        0
 40
1.125
309
GRIDFORMAT_END
309
TABLEFORMAT_END
  1
CELLSTYLE_BEGIN
 90
        1
 91
        1
300
_TITLE
309
CELLSTYLE_END
300
CELLSTYLE
  1
TABLEFORMAT_BEGIN
 90
        5
170
     1
 91
        0
 92
        0
 62
   257
 93
        1
300
CONTENTFORMAT
  1
CONTENTFORMAT_BEGIN
 90
        0
 91
        0
 92
      512
 93
        0
300

 40
0.0
140
1.0
 94
        5
 62
     0
340
11
144
4.5
309
CONTENTFORMAT_END
171
     1
301
MARGIN
  1
CELLMARGIN_BEGIN
 40
1.5
 40
1.5
 40
1.5
 40
1.5
 40
4.5
 40
4.5
309
CELLMARGIN_END
 94
        6
 95
        1
302
GRIDFORMAT
  1
GRIDFORMAT_BEGIN
 90
        0
 91
        1
 62
     0
 92
       -2
340
14
 93
        0
 40
1.125
309
GRIDFORMAT_END
 95
        2
302
GRIDFORMAT
  1
GRIDFORMAT_BEGIN
 90
        0
 91
        1
 62
     0
 92
       -2
340
14
 93
        0
 40
1.125
309
GRIDFORMAT_END
 95
        4
302
GRIDFORMAT
  1
GRIDFORMAT_BEGIN
 90
        0
 91
        1
 62
     0
 92
       -2
340
14
 93
        0
 40
1.125
309
GRIDFORMAT_END
 95
        8
302
GRIDFORMAT
  1
GRIDFORMAT_BEGIN
 90
        0
 91
        1
 62
     0
 92
       -2
340
14
 93
        0
 40
1.125
309
GRIDFORMAT_END
 95
       16
302
GRIDFORMAT
  1
GRIDFORMAT_BEGIN
 90
        0
 91
        1
 62
     0
 92
       -2
340
14
 93
        0
 40
1.125
309
GRIDFORMAT_END
 95
       32
302
GRIDFORMAT
  1
GRIDFORMAT_BEGIN
 90
        0
 91
        1
 62
     0
 92
       -2
340
14
 93
        0
 40
1.125
309
GRIDFORMAT_END
309
TABLEFORMAT_END
  1
CELLSTYLE_BEGIN
 90
        2
 91
        1
300
_HEADER
309
CELLSTYLE_END
300
CELLSTYLE
  1
TABLEFORMAT_BEGIN
 90
        5
170
     1
 91
        0
 92
        0
 62
   257
 93
        1
300
CONTENTFORMAT
  1
CONTENTFORMAT_BEGIN
 90
        0
 91
        0
 92
      512
 93
        0
300

 40
0.0
140
1.0
 94
        2
 62
     0
340
11
144
4.5
309
CONTENTFORMAT_END
171
     1
301
MARGIN
  1
CELLMARGIN_BEGIN
 40
1.5
 40
1.5
 40
1.5
 40
1.5
 40
4.5
 40
4.5
309
CELLMARGIN_END
 94
        6
 95
        1
302
GRIDFORMAT
  1
GRIDFORMAT_BEGIN
 90
        0
 91
        1
 62
     0
 92
       -2
340
14
 93
        0
 40
1.125
309
GRIDFORMAT_END
 95
        2
302
GRIDFORMAT
  1
GRIDFORMAT_BEGIN
 90
        0
 91
        1
 62
     0
 92
       -2
340
14
 93
        0
 40
1.125
309
GRIDFORMAT_END
 95
        4
302
GRIDFORMAT
  1
GRIDFORMAT_BEGIN
 90
        0
 91
        1
 62
     0
 92
       -2
340
14
 93
        0
 40
1.125
309
GRIDFORMAT_END
 95
        8
302
GRIDFORMAT
  1
GRIDFORMAT_BEGIN
 90
        0
 91
        1
 62
     0
 92
       -2
340
14
 93
        0
 40
1.125
309
GRIDFORMAT_END
 95
       16
302
GRIDFORMAT
  1
GRIDFORMAT_BEGIN
 90
        0
 91
        1
 62
     0
 92
       -2
340
14
 93
        0
 40
1.125
309
GRIDFORMAT_END
 95
       32
302
GRIDFORMAT
  1
GRIDFORMAT_BEGIN
 90
        0
 91
        1
 62
     0
 92
       -2
340
14
 93
        0
 40
1.125
309
GRIDFORMAT_END
309
TABLEFORMAT_END
  1
CELLSTYLE_BEGIN
 90
        3
 91
        2
300
_DATA
309
CELLSTYLE_END
  0
ENDSEC
  0
SECTION
  2
ACDSDATA
 70
     2
 71
     8
  0
ACDSSCHEMA
 90
        0
  1
AcDb_Thumbnail_Schema
  2
AcDbDs::ID
280
    10
 91
        8
  2
Thumbnail_Data
280
    15
 91
        0
101
ACDSRECORD
 95
        0
 90
        1
  2
AcDbDs::TreatedAsObjectData
280
     1
291
     1
101
ACDSRECORD
 95
        0
 90
        2
  2
AcDbDs::Legacy
280
     1
291
     1
101
ACDSRECORD
  1
AcDbDs::ID
 90
        3
  2
AcDs:Indexable
280
     1
291
     1
101
ACDSRECORD
  1
AcDbDs::ID
 90
        4
  2
AcDbDs::HandleAttribute
280
     7
282
     1
  0
ACDSSCHEMA
 90
        1
  1
AcDbDs::TreatedAsObjectDataSchema
  2
AcDbDs::TreatedAsObjectData
280
     1
 91
        0
  0
ACDSSCHEMA
 90
        2
  1
AcDbDs::LegacySchema
  2
AcDbDs::Legacy
280
     1
 91
        0
  0
ACDSSCHEMA
 90
        3
  1
AcDbDs::IndexedPropertySchema
  2
AcDs:Indexable
280
     1
 91
        0
  0
ACDSSCHEMA
 90
        4
  1
AcDbDs::HandleAttributeSchema
  2
AcDbDs::HandleAttribute
280
     7
 91
        1
284
     1
  0
ACDSRECORD
 90
        0
  2
AcDbDs::ID
280
    10
320
22
  2
Thumbnail_Data
280
    15
 94
     3270
310
89504E470D0A1A0A0000000D49484452000001340000010008030000000AB47A1600000300504C5445212830000000C8C8C80000000000000000000000000000000000000000000000000000330000660000990000CC0000FF0033000033330033660033990033CC0033FF0066000066330066660066990066CC0066FF0099
310
000099330099660099990099CC0099FF00CC0000CC3300CC6600CC9900CCCC00CCFF00FF0000FF3300FF6600FF9900FFCC00FFFF3300003300333300663300993300CC3300FF3333003333333333663333993333CC3333FF3366003366333366663366993366CC3366FF3399003399333399663399993399CC3399FF33CC00
310
33CC3333CC6633CC9933CCCC33CCFF33FF0033FF3333FF6633FF9933FFCC33FFFF6600006600336600666600996600CC6600FF6633006633336633666633996633CC6633FF6666006666336666666666996666CC6666FF6699006699336699666699996699CC6699FF66CC0066CC3366CC6666CC9966CCCC66CCFF66FF0066
310
FF3366FF6666FF9966FFCC66FFFF9900009900339900669900999900CC9900FF9933009933339933669933999933CC9933FF9966009966339966669966999966CC9966FF9999009999339999669999999999CC9999FF99CC0099CC3399CC6699CC9999CCCC99CCFF99FF0099FF3399FF6699FF9999FFCC99FFFFCC0000CC00
310
33CC0066CC0099CC00CCCC00FFCC3300CC3333CC3366CC3399CC33CCCC33FFCC6600CC6633CC6666CC6699CC66CCCC66FFCC9900CC9933CC9966CC9999CC99CCCC99FFCCCC00CCCC33CCCC66CCCC99CCCCCCCCCCFFCCFF00CCFF33CCFF66CCFF99CCFFCCCCFFFFFF0000FF0033FF0066FF0099FF00CCFF00FFFF3300FF3333
310
FF3366FF3399FF33CCFF33FFFF6600FF6633FF6666FF6699FF66CCFF66FFFF9900FF9933FF9966FF9999FF99CCFF99FFFFCC00FFCC33FFCC66FFCC99FFCCCCFFCCFFFFFF00FFFF33FFFF66FFFF99FFFFCCFFFFFF0000000D0D0D1A1A1A2828283535354343435050505D5D5D6B6B6B787878868686939393A1A1A1AEAEAEBB
310
BBBBC9C9C9D6D6D6E4E4E4F1F1F1FFFFFF000000000000000000000000000000000000000000000000000000000000B21171F6000008144944415478DAED9D5B7A84200C85B39CBCB8FFCD741BBCD70B22C8457024209ED37ED38E8E88BF81040486E8B69479FDA3565ACFCCFAFFEDCDAA7D9B16DB072CBBB72DDB47F7CDFB
310
5BB63687D3A701A0917D5164A0AD7F0C05171A7BD0F4511A9DDEF1174E7F0468FA32F68B5A36ACAFD60F1DD0CCA698A5111BEBFA0BA73F00B49359F896E642B3A044A0915B3CFDF4078466901893728B27B10BEE8066EC74DFF917497F0C6874AE80722AC18CCDC5E9BF02DA22E6BFAAF2D2FF9CA531DBEEF19B96468773FC
310
8B00F9111A6B676CA5FF396844AEDFB4DEFB47AFD07677F25D68113A4968835A5A7E9D13A3932E9EC3D569E43614AB841C3416B4261AAFC19E1B72645B5A51FAEF8BD338AE1FA0F9E90FE008FC90E0516883C66925D0EE78CFB1E3B45A214741FAEF8156B597A32C0E7C4BC8C1957B3978C45E8EB290A33CB81D3CE42889D3
310
EE74427E23E47802DAA0BD1C45D0EE3882A1A1D5F19E5C923E428E51BB86107220E4E8AA970321C78D063B428E739CC625D07EF19E4342CB6E11DC8CD3460A39A8B8198590032107428E7E420E538347EAF20F0E80C97846701F9A194FF95D68F7420E1ED17B163E5801B4B290A01C1A3121E4C0F0D1D709D0000DD0000DD0
310
000DD0000DD0000DD0000DD0000DD0000DD0000DD0FA83C60F0CA100344003B4F36576ADDEA0BDC1D2C68656ABD4031AA0011AA0011AA0011AA07D175A2A5F9352535358DD41534A5DE46B6616A7A6427A14DA9C5E7FD0C2D76D6B628EEFA48C2D599AA267E8D0D2689A2693EBE58DD66C62FB3B9E0F55CBFBE555AD9BB7BD
310
F331A4BC73CD5B97FD3A9129AF68EF27A3E577B12F9DA9A937684BD35AF1C45BFE1673E299D08A69F9E59DDFB67BF9DCF2F1E3230BB5798BABE572E79F5D4B4A593A6ED79621DE33D5AAA3236E69E7D2A411AD7FCCC5EB52B21800D3B671DD9BB0B4CD522693604EF1DC125E53B5359FB249E7500ADA8F358E889A94D02834
310
7D0BD9CB149FDDA7F29D7FF58880AD3FDC0DB423579C0A2739B8B97E14654323F1221A7304C79F14B4203316883C3904AF2D34E7B2B994994413879BB60C42D0DCCB8E43E3D0561166FE59448BA807CD043E6C5C811DBD05FE77D71DF43F59199A39A51CB81334E77B234ED0EC48D2DACD36A9F3C1F5A185320268803624B4
310
40ADE4E48FFC372DAAB460A6B8559D0668F7420EA678E0981D70D4CE3EA7B3D115B460401644C91F85469C84D6D4D4387917012D179A609320D08C62406B048D18D0B2A109991A0BDFA4FC5E8E00B45EDC27A00D05EDA23FEDE25F91FEB426CC223DB759D00A3DC1A303B90783162D9F1F8676BF52AB0AADFD338267A07907
310
0E0ECD7D16DBF34C9504B48A9D9219D00A2D4DE4EE673CF76C05EDE261315349A556A378A6EE8F38B4BC27EC17D0CE7E57165ACD1967C5D06E7B828AD0A286C6046845D02A56ACE95143B7A03DEE0900ED51EFE977299C0DB3CA3CD39AD0C4C6A7F50FEDA29DFE6568477E3A8616EA5A9698ED5E039AD8F0D13434B21794EF
310
C7D2DA556A5168F62758DA7B1E0DCFDEA131BD01DAF598004003B40268FB39F3A009534B4444EDA111770C2D395F05D05E036D9B71D7B39452C108F6982BD9001A4F53D0D20A3C412D53E365EAAC5A274CC67AB4D619A1B2FD697A766ABF6B802D53755BAD1676513C6F5A5AF54A4D5BDAB19400872D4D89174F2A8126EB09
310
0C34532A3A289E6F7104FD41D3B51B254C2D3A4EB8B2A9B19547D3A7615EB75863766480560E8D006D186809F7597FD99C34B475050AD521349B83072DB01DD0D6E3F81C2A998F48433B79CF6DAD93E76C3B3BE488574A9C0F8DAA4253DD41BB16ABC64A5A9A9287E6D54EDE9D3E437389074EF6D45528B6321986B665AE4E
310
7BE4F7B5861A29D138B796D1F2AE57E84B51992ADDAF272C2D1A0AC56AE3BFBA9656BBF3F50947E0F76601DA8FD0A81DB4B708D0AA09D0000DD0000DD0000DD08AA1C934A3606980066837A1FD3A56A126B4EDA1D031D69AC9AC77B63EB8DFB7B238349281C6C7C2D4D9D7C9C95964641E83482EB72A67693747E3D8CF8756
310
D0F65B6365F2D07EBE4F7996761B9A46B2BD6C3FBC174E22D1D52F2D682401ED5CACF6E920B9FD35E7A389F60476EBDB11575FE0770DD178FEE9384E0B213B175377270BD4699D871C7E91D606454C2E38A1EF9A7D11347B62D7E1167670F60CB4DA0188F69EC42FB234B6EA61BB448A7D9DAE59375A185A4971E273293C1D
310
EAFF334EC871514F1559DADE380843630968245F3C83B1FD55DB20310CD04C2C916850552D9E67534834865206C25989087E49F8DF132175E22B90D86DE258A58AEDE5AE2875BD018F79B49FA805B49A9D90EC43D38EDAD4089EAD71C2D2C8A2662645BA3E945F1FDC9ACBCC2B9E9199A1641AE457E578C0067B4ECB3CB9B6
310
54936EA004347A0734B10298038DB88F16410C1A9DD722EC001A71D7D0BA93B63402B41B715AFD5E0E8E556469684E4B9CD3812E8D10A7B931AE5FA99743BBEE87A451FAD32E7A275C8C21A71A2243B1CEDBCF416B1FB8F6D39F16189E6FBA784A7A4412CF40E5A10978CFFDC16ED211647623850AEB7896663B04AF9A2F81
310
465168030E4B78559595D922100A6EC740B6C569BCBE740A2D5AFB93DCC3E12621C74F2DAB38B46685FE05D012AD266A430D23216FF772743C12D28BD3CEB6A7BF075C32D07D1D344A8C151285F66BA4263D9623388CC8F1A9B0B43E1BEC7004E5C12D66ACC0D206EBE5182C4E2366402BB534402B8746289EE5C59308D08A
310
5B04DC758B00711AE234400334400334400334400334C469B0344003344003344003B451A17D4C8F4083000DD0FA84F641FD0C0D02B4EAD03E2BDC7B08822008822008822008822008822008822008822008822008822008EA44FF96932A21366F8B560000000049454E44AE426082BA1E9A5A157ED63DBFD469893579C7B2
310
84D1D633F1CB9A9725440FC88B64CEAD09E073A03D690AAFE2A7C9E1A0D324ED315378F5015AE664A0EE24687E70FDE6D00A16D44F5C9062E23375DA23A0ED0C7767AB884E8076BB518E7D68B43DCD3214DABA40EF59D0281DEA204A57C20CEF9E4F5896700F3F4D26C6EAEE035C8E59EC9F4B2E6EBC19D000EDC3304ADCBD
310
1243E3E2664003344003B4BB43832120DC85F773434380066880066880066880063FEDE7FD3476CB1258DC332DC69BC5DDC57E0A7E79F969689B6BE4A25B0365164F80B13732AC92B6AEC7293EA5C0BE40D2C46D12811D11498041F220691E9A9434CAEE7888BA2874DA4CEE3E23953C3D4494C9A6FF4D810A34A47E9783DE
310
27691B0DE8766E09D000ED3268480D29814690B40E7953909FDE54BA3290B4A6CF01B45E6648DD0992064983A4C110001AA0011AA0011AA0011AA0011AA0011AA0011AA0011AA00D85F6071FF2081925625F020000000049454E44AE426082
  0
ACDSRECORD
 90
        0
  2
AcDbDs::ID
280
    10
320
D3
  2
Thumbnail_Data
280
    15
 94
     1155
310
89504E470D0A1A0A0000000D4948445200000100000000B5080300000087DCD12600000300504C5445FFFFFF000000C8C8C80000000000000000000000000000000000000000000000000000330000660000990000CC0000FF0033000033330033660033990033CC0033FF0066000066330066660066990066CC0066FF0099
310
000099330099660099990099CC0099FF00CC0000CC3300CC6600CC9900CCCC00CCFF00FF0000FF3300FF6600FF9900FFCC00FFFF3300003300333300663300993300CC3300FF3333003333333333663333993333CC3333FF3366003366333366663366993366CC3366FF3399003399333399663399993399CC3399FF33CC00
310
33CC3333CC6633CC9933CCCC33CCFF33FF0033FF3333FF6633FF9933FFCC33FFFF6600006600336600666600996600CC6600FF6633006633336633666633996633CC6633FF6666006666336666666666996666CC6666FF6699006699336699666699996699CC6699FF66CC0066CC3366CC6666CC9966CCCC66CCFF66FF0066
310
FF3366FF6666FF9966FFCC66FFFF9900009900339900669900999900CC9900FF9933009933339933669933999933CC9933FF9966009966339966669966999966CC9966FF9999009999339999669999999999CC9999FF99CC0099CC3399CC6699CC9999CCCC99CCFF99FF0099FF3399FF6699FF9999FFCC99FFFFCC0000CC00
310
33CC0066CC0099CC00CCCC00FFCC3300CC3333CC3366CC3399CC33CCCC33FFCC6600CC6633CC6666CC6699CC66CCCC66FFCC9900CC9933CC9966CC9999CC99CCCC99FFCCCC00CCCC33CCCC66CCCC99CCCCCCCCCCFFCCFF00CCFF33CCFF66CCFF99CCFFCCCCFFFFFF0000FF0033FF0066FF0099FF00CCFF00FFFF3300FF3333
310
FF3366FF3399FF33CCFF33FFFF6600FF6633FF6666FF6699FF66CCFF66FFFF9900FF9933FF9966FF9999FF99CCFF99FFFFCC00FFCC33FFCC66FFCC99FFCCCCFFCCFFFFFF00FFFF33FFFF66FFFF99FFFFCCFFFFFF0000000D0D0D1A1A1A2828283535354343435050505D5D5D6B6B6B787878868686939393A1A1A1AEAEAEBB
310
BBBBC9C9C9D6D6D6E4E4E4F1F1F1FFFFFF000000000000000000000000000000000000000000000000000000000000B0E2D2350000013E4944415478DAEDDDB11184301443C1DF7F998A5D0483134A30A07540018FB1F6A26356F99935D547801D20C97EB43D9F009D6F3FAE8000AE8000020860040570050410800214A080
310
0D1040000A508002364000012840010AD8000104A000052860030410800214A0800D1040000A508002364000012840010AD8000104A000052860030410800214A0800D104080BF2A9093E70D0AE4F05B39AE404B80082080004650005740000104A000056C80000250800214B001020840010A50C006082000052840011B20
310
800014A000056C80000250800214B001020840010A50C006082000052840011B20800014A000056C80000250800214B001020840010A50C006082000052840011B20800014A000056C80000250800214B0015F0F50F2EFF2BE2F303EB222802B208000021841016C407D80FD1BBCEF690304B803949F0B2119936F10150AC9
310
0000000049454E44AE426082
  0
ENDSEC
  0
EOF
