  0
SECTION
  2
HEADER
  9
$ACADVER
  1
AC1027
  9
$ACADMAINTVER
 70
   106
  9
$DWGCODEPAGE
  3
ANSI_932
  9
$LASTSAVEDBY
  1
takamura205
  9
$REQUIREDVERSIONS
160
                 0
  9
$INSBASE
 10
0.0
 20
0.0
 30
0.0
  9
$EXTMIN
 10
33316.24093491148
 20
28289.23237812787
 30
0.0
  9
$EXTMAX
 10
34996.24093491148
 20
29477.23237812787
 30
0.0
  9
$LIMMIN
 10
0.0
 20
0.0
  9
$LIMMAX
 10
420.0
 20
297.0
  9
$ORTHOMODE
 70
     0
  9
$REGENMODE
 70
     1
  9
$FILLMODE
 70
     1
  9
$QTEXTMODE
 70
     0
  9
$MIRRTEXT
 70
     0
  9
$LTSCALE
 40
1.0
  9
$ATTMODE
 70
     1
  9
$TEXTSIZE
 40
2.5
  9
$TRACEWID
 40
1.0
  9
$TEXTSTYLE
  7
Standard
  9
$CLAYER
  8
寸法線
  9
$CELTYPE
  6
ByLayer
  9
$CECOLOR
 62
   256
  9
$CELTSCALE
 40
1.0
  9
$DISPSILH
 70
     0
  9
$DIMSCALE
 40
1.0
  9
$DIMASZ
 40
2.5
  9
$DIMEXO
 40
0.625
  9
$DIMDLI
 40
3.75
  9
$DIMRND
 40
0.0
  9
$DIMDLE
 40
0.0
  9
$DIMEXE
 40
1.25
  9
$DIMTP
 40
0.0
  9
$DIMTM
 40
0.0
  9
$DIMTXT
 40
20.0
  9
$DIMCEN
 40
2.5
  9
$DIMTSZ
 40
0.0
  9
$DIMTOL
 70
     0
  9
$DIMLIM
 70
     0
  9
$DIMTIH
 70
     0
  9
$DIMTOH
 70
     0
  9
$DIMSE1
 70
     0
  9
$DIMSE2
 70
     0
  9
$DIMTAD
 70
     1
  9
$DIMZIN
 70
     8
  9
$DIMBLK
  1

  9
$DIMASO
 70
     1
  9
$DIMSHO
 70
     1
  9
$DIMPOST
  1

  9
$DIMAPOST
  1

  9
$DIMALT
 70
     0
  9
$DIMALTD
 70
     3
  9
$DIMALTF
 40
0.03937007874016
  9
$DIMLFAC
 40
1.0
  9
$DIMTOFL
 70
     1
  9
$DIMTVP
 40
0.0
  9
$DIMTIX
 70
     0
  9
$DIMSOXD
 70
     0
  9
$DIMSAH
 70
     0
  9
$DIMBLK1
  1

  9
$DIMBLK2
  1

  9
$DIMSTYLE
  2
ISO-25
  9
$DIMCLRD
 70
     0
  9
$DIMCLRE
 70
     0
  9
$DIMCLRT
 70
     0
  9
$DIMTFAC
 40
1.0
  9
$DIMGAP
 40
0.625
  9
$DIMJUST
 70
     0
  9
$DIMSD1
 70
     0
  9
$DIMSD2
 70
     0
  9
$DIMTOLJ
 70
     0
  9
$DIMTZIN
 70
     8
  9
$DIMALTZ
 70
     0
  9
$DIMALTTZ
 70
     0
  9
$DIMUPT
 70
     0
  9
$DIMDEC
 70
     2
  9
$DIMTDEC
 70
     2
  9
$DIMALTU
 70
     2
  9
$DIMALTTD
 70
     3
  9
$DIMTXSTY
  7
Standard
  9
$DIMAUNIT
 70
     0
  9
$DIMADEC
 70
     0
  9
$DIMALTRND
 40
0.0
  9
$DIMAZIN
 70
     0
  9
$DIMDSEP
 70
    44
  9
$DIMATFIT
 70
     3
  9
$DIMFRAC
 70
     0
  9
$DIMLDRBLK
  1

  9
$DIMLUNIT
 70
     2
  9
$DIMLWD
 70
    -2
  9
$DIMLWE
 70
    -2
  9
$DIMTMOVE
 70
     0
  9
$DIMFXL
 40
1.0
  9
$DIMFXLON
 70
     0
  9
$DIMJOGANG
 40
0.7853981633974483
  9
$DIMTFILL
 70
     0
  9
$DIMTFILLCLR
 70
     0
  9
$DIMARCSYM
 70
     0
  9
$DIMLTYPE
  6

  9
$DIMLTEX1
  6

  9
$DIMLTEX2
  6

  9
$DIMTXTDIRECTION
 70
     0
  9
$LUNITS
 70
     2
  9
$LUPREC
 70
     4
  9
$SKETCHINC
 40
1.0
  9
$FILLETRAD
 40
1.0
  9
$AUNITS
 70
     0
  9
$AUPREC
 70
     0
  9
$MENU
  1
.
  9
$ELEVATION
 40
0.0
  9
$PELEVATION
 40
0.0
  9
$THICKNESS
 40
0.0
  9
$LIMCHECK
 70
     0
  9
$CHAMFERA
 40
0.0
  9
$CHAMFERB
 40
0.0
  9
$CHAMFERC
 40
0.0
  9
$CHAMFERD
 40
0.0
  9
$SKPOLY
 70
     0
  9
$TDCREATE
 40
2457175.672123785
  9
$TDUCREATE
 40
2457175.297123785
  9
$TDUPDATE
 40
2457871.481794769
  9
$TDUUPDATE
 40
2457871.106794768
  9
$TDINDWG
 40
0.9710539815
  9
$TDUSRTIMER
 40
0.9710538773
  9
$USRTIMER
 70
     1
  9
$ANGBASE
 50
0.0
  9
$ANGDIR
 70
     0
  9
$PDMODE
 70
     0
  9
$PDSIZE
 40
0.0
  9
$PLINEWID
 40
0.0
  9
$SPLFRAME
 70
     0
  9
$SPLINETYPE
 70
     6
  9
$SPLINESEGS
 70
     8
  9
$HANDSEED
  5
2E45
  9
$SURFTAB1
 70
     6
  9
$SURFTAB2
 70
     6
  9
$SURFTYPE
 70
     6
  9
$SURFU
 70
     6
  9
$SURFV
 70
     6
  9
$UCSBASE
  2

  9
$UCSNAME
  2

  9
$UCSORG
 10
0.0
 20
0.0
 30
0.0
  9
$UCSXDIR
 10
1.0
 20
0.0
 30
0.0
  9
$UCSYDIR
 10
0.0
 20
1.0
 30
0.0
  9
$UCSORTHOREF
  2

  9
$UCSORTHOVIEW
 70
     0
  9
$UCSORGTOP
 10
0.0
 20
0.0
 30
0.0
  9
$UCSORGBOTTOM
 10
0.0
 20
0.0
 30
0.0
  9
$UCSORGLEFT
 10
0.0
 20
0.0
 30
0.0
  9
$UCSORGRIGHT
 10
0.0
 20
0.0
 30
0.0
  9
$UCSORGFRONT
 10
0.0
 20
0.0
 30
0.0
  9
$UCSORGBACK
 10
0.0
 20
0.0
 30
0.0
  9
$PUCSBASE
  2

  9
$PUCSNAME
  2

  9
$PUCSORG
 10
0.0
 20
0.0
 30
0.0
  9
$PUCSXDIR
 10
1.0
 20
0.0
 30
0.0
  9
$PUCSYDIR
 10
0.0
 20
1.0
 30
0.0
  9
$PUCSORTHOREF
  2

  9
$PUCSORTHOVIEW
 70
     0
  9
$PUCSORGTOP
 10
0.0
 20
0.0
 30
0.0
  9
$PUCSORGBOTTOM
 10
0.0
 20
0.0
 30
0.0
  9
$PUCSORGLEFT
 10
0.0
 20
0.0
 30
0.0
  9
$PUCSORGRIGHT
 10
0.0
 20
0.0
 30
0.0
  9
$PUCSORGFRONT
 10
0.0
 20
0.0
 30
0.0
  9
$PUCSORGBACK
 10
0.0
 20
0.0
 30
0.0
  9
$USERI1
 70
     0
  9
$USERI2
 70
     0
  9
$USERI3
 70
     0
  9
$USERI4
 70
     0
  9
$USERI5
 70
     0
  9
$USERR1
 40
0.0
  9
$USERR2
 40
0.0
  9
$USERR3
 40
0.0
  9
$USERR4
 40
0.0
  9
$USERR5
 40
0.0
  9
$WORLDVIEW
 70
     1
  9
$SHADEDGE
 70
     3
  9
$SHADEDIF
 70
    70
  9
$TILEMODE
 70
     1
  9
$MAXACTVP
 70
    64
  9
$PINSBASE
 10
0.0
 20
0.0
 30
0.0
  9
$PLIMCHECK
 70
     0
  9
$PEXTMIN
 10
25.69999999999999
 20
19.5
 30
0.0
  9
$PEXTMAX
 10
231.3
 20
175.5
 30
0.0
  9
$PLIMMIN
 10
-4.9847412109375
 20
-4.984749794006347
  9
$PLIMMAX
 10
415.0042419433593
 20
292.0259008407593
  9
$UNITMODE
 70
     0
  9
$VISRETAIN
 70
     1
  9
$PLINEGEN
 70
     0
  9
$PSLTSCALE
 70
     1
  9
$TREEDEPTH
 70
  3020
  9
$CMLSTYLE
  2
Standard
  9
$CMLJUST
 70
     0
  9
$CMLSCALE
 40
20.0
  9
$PROXYGRAPHICS
 70
     1
  9
$MEASUREMENT
 70
     1
  9
$CELWEIGHT
370
    -1
  9
$ENDCAPS
280
     0
  9
$JOINSTYLE
280
     0
  9
$LWDISPLAY
290
     0
  9
$INSUNITS
 70
     4
  9
$HYPERLINKBASE
  1

  9
$STYLESHEET
  1
monochrome.stb
  9
$XEDIT
290
     1
  9
$CEPSNTYPE
380
     0
  9
$PSTYLEMODE
290
     0
  9
$FINGERPRINTGUID
  2
{083708C7-F509-4151-B42C-06F3721D7F80}
  9
$VERSIONGUID
  2
{3A782559-D506-48AC-87B3-4AD1B3C60825}
  9
$EXTNAMES
290
     1
  9
$PSVPSCALE
 40
0.0
  9
$OLESTARTUP
290
     0
  9
$SORTENTS
280
   127
  9
$INDEXCTL
280
     0
  9
$HIDETEXT
280
     1
  9
$XCLIPFRAME
280
     2
  9
$HALOGAP
280
     0
  9
$OBSCOLOR
 70
   257
  9
$OBSLTYPE
280
     0
  9
$INTERSECTIONDISPLAY
280
     0
  9
$INTERSECTIONCOLOR
 70
   257
  9
$DIMASSOC
280
     2
  9
$PROJECTNAME
  1

  9
$CAMERADISPLAY
290
     0
  9
$LENSLENGTH
 40
50.0
  9
$CAMERAHEIGHT
 40
1524.0
  9
$STEPSPERSEC
 40
2.0
  9
$STEPSIZE
 40
6.0
  9
$3DDWFPREC
 40
2.0
  9
$PSOLWIDTH
 40
5.0
  9
$PSOLHEIGHT
 40
80.0
  9
$LOFTANG1
 40
1.570796326794896
  9
$LOFTANG2
 40
1.570796326794896
  9
$LOFTMAG1
 40
0.0
  9
$LOFTMAG2
 40
0.0
  9
$LOFTPARAM
 70
     7
  9
$LOFTNORMALS
280
     1
  9
$LATITUDE
 40
37.795
  9
$LONGITUDE
 40
-122.394
  9
$NORTHDIRECTION
 40
0.0
  9
$TIMEZONE
 70
 -8000
  9
$LIGHTGLYPHDISPLAY
280
     1
  9
$TILEMODELIGHTSYNCH
280
     1
  9
$CMATERIAL
347
E3
  9
$SOLIDHIST
280
     0
  9
$SHOWHIST
280
     1
  9
$DWFFRAME
280
     2
  9
$DGNFRAME
280
     0
  9
$REALWORLDSCALE
290
     1
  9
$INTERFERECOLOR
 62
     1
  9
$INTERFEREOBJVS
345
F0
  9
$INTERFEREVPVS
346
ED
  9
$CSHADOW
280
     0
  9
$SHADOWPLANELOCATION
 40
0.0
  0
ENDSEC
  0
SECTION
  2
CLASSES
  0
CLASS
  1
ACDBDICTIONARYWDFLT
  2
AcDbDictionaryWithDefault
  3
ObjectDBX Classes
 90
        0
 91
        1
280
     0
281
     0
  0
CLASS
  1
DICTIONARYVAR
  2
AcDbDictionaryVar
  3
ObjectDBX Classes
 90
        0
 91
       10
280
     0
281
     0
  0
CLASS
  1
TABLESTYLE
  2
AcDbTableStyle
  3
ObjectDBX Classes
 90
     4095
 91
        1
280
     0
281
     0
  0
CLASS
  1
MATERIAL
  2
AcDbMaterial
  3
ObjectDBX Classes
 90
     1153
 91
        3
280
     0
281
     0
  0
CLASS
  1
VISUALSTYLE
  2
AcDbVisualStyle
  3
ObjectDBX Classes
 90
     4095
 91
       24
280
     0
281
     0
  0
CLASS
  1
SCALE
  2
AcDbScale
  3
ObjectDBX Classes
 90
     1153
 91
       17
280
     0
281
     0
  0
CLASS
  1
MLEADERSTYLE
  2
AcDbMLeaderStyle
  3
ACDB_MLEADERSTYLE_CLASS
 90
     4095
 91
        2
280
     0
281
     0
  0
CLASS
  1
CELLSTYLEMAP
  2
AcDbCellStyleMap
  3
ObjectDBX Classes
 90
     1152
 91
        1
280
     0
281
     0
  0
CLASS
  1
EXACXREFPANELOBJECT
  2
ExAcXREFPanelObject
  3
EXAC_ESW
 90
     1025
 91
        0
280
     0
281
     0
  0
CLASS
  1
NPOCOLLECTION
  2
AcDbImpNonPersistentObjectsCollection
  3
ObjectDBX Classes
 90
     1153
 91
        0
280
     0
281
     0
  0
CLASS
  1
LAYER_INDEX
  2
AcDbLayerIndex
  3
ObjectDBX Classes
 90
        0
 91
        0
280
     0
281
     0
  0
CLASS
  1
SPATIAL_INDEX
  2
AcDbSpatialIndex
  3
ObjectDBX Classes
 90
        0
 91
        0
280
     0
281
     0
  0
CLASS
  1
IDBUFFER
  2
AcDbIdBuffer
  3
ObjectDBX Classes
 90
        0
 91
        0
280
     0
281
     0
  0
CLASS
  1
ACDBSECTIONVIEWSTYLE
  2
AcDbSectionViewStyle
  3
ObjectDBX Classes
 90
     1025
 91
        1
280
     0
281
     0
  0
CLASS
  1
ACDBDETAILVIEWSTYLE
  2
AcDbDetailViewStyle
  3
ObjectDBX Classes
 90
     1025
 91
        1
280
     0
281
     0
  0
CLASS
  1
DIMASSOC
  2
AcDbDimAssoc
  3
"AcDbDimAssoc|Product Desc:     AcDim ARX App For Dimension|Company:          Autodesk, Inc.|WEB Address:      www.autodesk.com"
 90
        0
 91
        7
280
     0
281
     0
  0
CLASS
  1
SORTENTSTABLE
  2
AcDbSortentsTable
  3
ObjectDBX Classes
 90
        0
 91
        1
280
     0
281
     0
  0
CLASS
  1
PLOTSETTINGS
  2
AcDbPlotSettings
  3
ObjectDBX Classes
 90
        0
 91
        1
280
     0
281
     0
  0
ENDSEC
  0
SECTION
  2
TABLES
  0
TABLE
  2
VPORT
  5
8
330
0
100
AcDbSymbolTable
 70
     1
  0
VPORT
  5
E1
330
8
100
AcDbSymbolTableRecord
100
AcDbViewportTableRecord
  2
*Active
 70
     0
 10
0.0
 20
0.0
 11
1.0
 21
1.0
 12
34590.43995902506
 22
29479.990965466
 13
0.0
 23
0.0
 14
10.0
 24
10.0
 15
10.0
 25
10.0
 16
0.0
 26
0.0
 36
1.0
 17
0.0
 27
0.0
 37
0.0
 40
3887.005316760141
 41
1.203585147247119
 42
50.0
 43
0.0
 44
0.0
 50
0.0
 51
0.0
 71
     0
 72
  1000
 73
     1
 74
     3
 75
     0
 76
     1
 77
     0
 78
     0
281
     0
 65
     1
110
0.0
120
0.0
130
0.0
111
1.0
121
0.0
131
0.0
112
0.0
122
1.0
132
0.0
 79
     0
146
0.0
348
EC
 60
     3
 61
     5
292
     1
282
     1
141
0.0
142
0.0
 63
   250
421
  3355443
1001
ACAD_NAV_VCDISPLAY
1070
     3
  0
ENDTAB
  0
TABLE
  2
LTYPE
  5
5
330
0
100
AcDbSymbolTable
 70
     4
  0
LTYPE
  5
14
330
5
100
AcDbSymbolTableRecord
100
AcDbLinetypeTableRecord
  2
ByBlock
 70
     0
  3

 72
    65
 73
     0
 40
0.0
  0
LTYPE
  5
15
330
5
100
AcDbSymbolTableRecord
100
AcDbLinetypeTableRecord
  2
ByLayer
 70
     0
  3

 72
    65
 73
     0
 40
0.0
  0
LTYPE
  5
16
330
5
100
AcDbSymbolTableRecord
100
AcDbLinetypeTableRecord
  2
Continuous
 70
     0
  3
Solid line
 72
    65
 73
     0
 40
0.0
  0
LTYPE
  5
25A
330
5
100
AcDbSymbolTableRecord
100
AcDbLinetypeTableRecord
  2
ACAD_ISO04W100
 70
     0
  3
ISO long-dash dot ____ . ____ . ____ . ____ . _
 72
    65
 73
     4
 40
30.0
 49
24.0
 74
     0
 49
-3.0
 74
     0
 49
0.0
 74
     0
 49
-3.0
 74
     0
  0
LTYPE
  5
25E
330
5
100
AcDbSymbolTableRecord
100
AcDbLinetypeTableRecord
  2
ACAD_ISO02W100
 70
     0
  3
ISO dash __ __ __ __ __ __ __ __ __ __ __ __ __
 72
    65
 73
     2
 40
15.0
 49
12.0
 74
     0
 49
-3.0
 74
     0
  0
LTYPE
  5
260
330
5
100
AcDbSymbolTableRecord
100
AcDbLinetypeTableRecord
  2
ACAD_ISO07W100
 70
     0
  3
ISO dot . . . . . . . . . . . . . . . . . . . .
 72
    65
 73
     2
 40
3.0
 49
0.0
 74
     0
 49
-3.0
 74
     0
  0
ENDTAB
  0
TABLE
  2
LAYER
  5
2
102
{ACAD_XDICTIONARY
360
1F6
102
}
330
0
100
AcDbSymbolTable
 70
    14
  0
LAYER
  5
10
102
{ACAD_XDICTIONARY
360
133
102
}
330
2
100
AcDbSymbolTableRecord
100
AcDbLayerTableRecord
  2
0
 70
     0
 62
     7
  6
Continuous
370
    -3
390
F
347
E5
348
0
  0
LAYER
  5
255
330
2
100
AcDbSymbolTableRecord
100
AcDbLayerTableRecord
  2
中心線
 70
     0
 62
     3
  6
ACAD_ISO04W100
370
     9
390
F
347
E5
348
0
1001
AcAecLayerStandard
1000

1000

1001
AcCmTransparency
1071
        0
  0
LAYER
  5
25B
330
2
100
AcDbSymbolTableRecord
100
AcDbLayerTableRecord
  2
外形線②
 70
     0
 62
     7
  6
Continuous
370
    15
390
F
347
E5
348
0
1001
AcAecLayerStandard
1000

1000

1001
AcCmTransparency
1071
        0
  0
LAYER
  5
25C
330
2
100
AcDbSymbolTableRecord
100
AcDbLayerTableRecord
  2
寸法線
 70
     0
 62
     3
  6
Continuous
370
    13
390
F
347
E5
348
0
1001
AcAecLayerStandard
1000

1000

1001
AcCmTransparency
1071
        0
  0
LAYER
  5
25D
330
2
100
AcDbSymbolTableRecord
100
AcDbLayerTableRecord
  2
点線
 70
     0
 62
     4
  6
ACAD_ISO02W100
370
     9
390
F
347
E5
348
0
1001
AcAecLayerStandard
1000

1000

1001
AcCmTransparency
1071
        0
  0
LAYER
  5
25F
330
2
100
AcDbSymbolTableRecord
100
AcDbLayerTableRecord
  2
オフセット
 70
     0
 62
    -6
  6
Continuous
370
    13
390
F
347
E5
348
0
1001
AcAecLayerStandard
1000

1000

1001
AcCmTransparency
1071
        0
  0
LAYER
  5
271
330
2
100
AcDbSymbolTableRecord
100
AcDbLayerTableRecord
  2
Defpoints
 70
     0
 62
     7
  6
Continuous
290
     0
370
    -3
390
F
347
E5
348
0
  0
LAYER
  5
2F1
330
2
100
AcDbSymbolTableRecord
100
AcDbLayerTableRecord
  2
ビューポート
 70
     0
 62
     3
  6
Continuous
370
    15
390
F
347
E5
348
0
1001
AcAecLayerStandard
1000

1000

1001
AcCmTransparency
1071
        0
  0
LAYER
  5
382
330
2
100
AcDbSymbolTableRecord
100
AcDbLayerTableRecord
  2
外形線
 70
     0
 62
     7
  6
Continuous
370
    15
390
F
347
E5
348
0
1001
AcAecLayerStandard
1000

1000

1001
AcCmTransparency
1071
        0
  0
LAYER
  5
430
330
2
100
AcDbSymbolTableRecord
100
AcDbLayerTableRecord
  2
LED器具
 70
     0
 62
     4
  6
Continuous
370
    13
390
F
347
E5
348
0
1001
AcAecLayerStandard
1000

1000

1001
AcCmTransparency
1071
        0
  0
LAYER
  5
44D
330
2
100
AcDbSymbolTableRecord
100
AcDbLayerTableRecord
  2
孔
 70
     0
 62
     4
  6
Continuous
370
    15
390
F
347
E5
348
0
1001
AcAecLayerStandard
1000

1000

1001
AcCmTransparency
1071
        0
  0
LAYER
  5
AAC
330
2
100
AcDbSymbolTableRecord
100
AcDbLayerTableRecord
  2
枠線
 70
     0
 62
     2
  6
Continuous
370
     9
390
F
347
E5
348
0
1001
AcAecLayerStandard
1000

1000

1001
AcCmTransparency
1071
        0
  0
LAYER
  5
CEA
102
{ACAD_XDICTIONARY
360
CEB
102
}
330
2
100
AcDbSymbolTableRecord
100
AcDbLayerTableRecord
  2
1
 70
     0
 62
     7
  6
Continuous
370
    -3
390
F
347
E5
348
0
  0
LAYER
  5
DBB
330
2
100
AcDbSymbolTableRecord
100
AcDbLayerTableRecord
  2
○
 70
     0
 62
     3
  6
Continuous
370
     9
390
F
347
E5
348
0
1001
AcAecLayerStandard
1000

1000

1001
AcCmTransparency
1071
        0
  0
ENDTAB
  0
TABLE
  2
STYLE
  5
3
330
0
100
AcDbSymbolTable
 70
     4
  0
STYLE
  5
11
330
3
100
AcDbSymbolTableRecord
100
AcDbTextStyleTableRecord
  2
Standard
 70
     0
 40
0.0
 41
1.0
 50
0.0
 71
     0
 42
2.5
  3
arial.ttf
  4

1001
ACAD
1000
Arial
1071
       34
  0
STYLE
  5
129
330
3
100
AcDbSymbolTableRecord
100
AcDbTextStyleTableRecord
  2
Annotative
 70
     0
 40
0.0
 41
1.0
 50
0.0
 71
     0
 42
2.5
  3
arial.ttf
  4

1001
AcadAnnotative
1000
AnnotativeData
1002
{
1070
     1
1070
     1
1002
}
1001
ACAD
1000
Arial
1071
       34
  0
STYLE
  5
259
330
3
100
AcDbSymbolTableRecord
100
AcDbTextStyleTableRecord
  2

 70
     1
 40
0.0
 41
1.0
 50
0.0
 71
     0
 42
2.5
  3
ltypeshp.shx
  4

  0
STYLE
  5
CEC
330
3
100
AcDbSymbolTableRecord
100
AcDbTextStyleTableRecord
  2
BIGFONT
 70
     0
 40
1.0
 41
1.0
 50
0.0
 71
     0
 42
1.0
  3
TXT
  4
BIGFONT
  0
ENDTAB
  0
TABLE
  2
VIEW
  5
6
330
0
100
AcDbSymbolTable
 70
     0
  0
ENDTAB
  0
TABLE
  2
UCS
  5
7
330
0
100
AcDbSymbolTable
 70
     0
  0
ENDTAB
  0
TABLE
  2
APPID
  5
9
330
0
100
AcDbSymbolTable
 70
    13
  0
APPID
  5
12
330
9
100
AcDbSymbolTableRecord
100
AcDbRegAppTableRecord
  2
ACAD
 70
     0
  0
APPID
  5
A0
330
9
100
AcDbSymbolTableRecord
100
AcDbRegAppTableRecord
  2
ACAD_PSEXT
 70
     0
  0
APPID
  5
12A
330
9
100
AcDbSymbolTableRecord
100
AcDbRegAppTableRecord
  2
AcadAnnoPO
 70
     0
  0
APPID
  5
12B
330
9
100
AcDbSymbolTableRecord
100
AcDbRegAppTableRecord
  2
AcadAnnotative
 70
     0
  0
APPID
  5
12C
330
9
100
AcDbSymbolTableRecord
100
AcDbRegAppTableRecord
  2
ACAD_DSTYLE_DIMJAG
 70
     0
  0
APPID
  5
12D
330
9
100
AcDbSymbolTableRecord
100
AcDbRegAppTableRecord
  2
ACAD_DSTYLE_DIMTALN
 70
     0
  0
APPID
  5
15C
330
9
100
AcDbSymbolTableRecord
100
AcDbRegAppTableRecord
  2
ACAD_MLEADERVER
 70
     0
  0
APPID
  5
20E
330
9
100
AcDbSymbolTableRecord
100
AcDbRegAppTableRecord
  2
ACAD_NAV_VCDISPLAY
 70
     0
  0
APPID
  5
256
330
9
100
AcDbSymbolTableRecord
100
AcDbRegAppTableRecord
  2
AcAecLayerStandard
 70
     0
  0
APPID
  5
257
330
9
100
AcDbSymbolTableRecord
100
AcDbRegAppTableRecord
  2
AcCmTransparency
 70
     0
  0
APPID
  5
264
330
9
100
AcDbSymbolTableRecord
100
AcDbRegAppTableRecord
  2
ACAD_EXEMPT_FROM_CAD_STANDARDS
 70
     0
  0
APPID
  5
26F
330
9
100
AcDbSymbolTableRecord
100
AcDbRegAppTableRecord
  2
ACAD_DSTYLE_DIMRADIAL_EXTENSION
 70
     0
  0
APPID
  5
A2B
330
9
100
AcDbSymbolTableRecord
100
AcDbRegAppTableRecord
  2
AcadAnnoMonitorAlertIconDisabled
 70
     0
  0
ENDTAB
  0
TABLE
  2
DIMSTYLE
  5
A
330
0
100
AcDbSymbolTable
 70
     3
100
AcDbDimStyleTable
 71
     2
340
27
340
12E
  0
DIMSTYLE
105
1A7
330
A
100
AcDbSymbolTableRecord
100
AcDbDimStyleTableRecord
  2
Standard
 70
     0
340
11
  0
DIMSTYLE
105
12E
330
A
100
AcDbSymbolTableRecord
100
AcDbDimStyleTableRecord
  2
Annotative
 70
     0
 40
0.0
 41
2.5
 42
0.625
 43
3.75
 44
1.25
 73
     0
 74
     0
 77
     1
 78
     8
140
2.5
141
2.5
143
0.03937007874016
147
0.625
171
     3
172
     1
271
     2
272
     2
274
     3
278
    44
283
     0
284
     8
340
11
1001
AcadAnnotative
1000
AnnotativeData
1002
{
1070
     1
1070
     1
1002
}
1001
ACAD_DSTYLE_DIMJAG
1070
   388
1040
1.5
1001
ACAD_DSTYLE_DIMTALN
1070
   392
1070
     0
  0
DIMSTYLE
105
27
102
{ACAD_REACTORS
330
2CF6
330
2D0E
330
2D26
330
2D42
330
2D5A
330
2D72
330
2D8C
102
}
330
A
100
AcDbSymbolTableRecord
100
AcDbDimStyleTableRecord
  2
ISO-25
 70
     0
 41
2.5
 42
0.625
 43
3.75
 44
1.25
 73
     0
 74
     0
 77
     1
 78
     8
140
20.0
141
2.5
143
0.03937007874016
147
0.625
171
     3
172
     1
271
     2
272
     2
274
     3
278
    44
283
     0
284
     8
340
11
1001
ACAD_DSTYLE_DIMJAG
1070
   388
1040
1.5
1001
ACAD_DSTYLE_DIMTALN
1070
   392
1070
     0
  0
ENDTAB
  0
TABLE
  2
BLOCK_RECORD
  5
1
330
0
100
AcDbSymbolTable
 70
     8
  0
BLOCK_RECORD
  5
1F
102
{ACAD_XDICTIONARY
360
1C5
102
}
330
1
100
AcDbSymbolTableRecord
100
AcDbBlockTableRecord
  2
*Model_Space
340
22
 70
     0
280
     1
281
     0
  0
BLOCK_RECORD
  5
D2
330
1
100
AcDbSymbolTableRecord
100
AcDbBlockTableRecord
  2
*Paper_Space
340
D3
 70
     0
280
     1
281
     0
  0
BLOCK_RECORD
  5
D6
330
1
100
AcDbSymbolTableRecord
100
AcDbBlockTableRecord
  2
*Paper_Space0
340
D7
 70
     0
280
     1
281
     0
  0
BLOCK_RECORD
  5
2CF7
330
1
100
AcDbSymbolTableRecord
100
AcDbBlockTableRecord
  2
*D1
340
0
 70
     0
280
     1
281
     0
  0
BLOCK_RECORD
  5
2D0F
330
1
100
AcDbSymbolTableRecord
100
AcDbBlockTableRecord
  2
*D2
340
0
 70
     0
280
     1
281
     0
  0
BLOCK_RECORD
  5
2D27
330
1
100
AcDbSymbolTableRecord
100
AcDbBlockTableRecord
  2
*D3
340
0
 70
     0
280
     1
281
     0
  0
BLOCK_RECORD
  5
2D43
330
1
100
AcDbSymbolTableRecord
100
AcDbBlockTableRecord
  2
*D4
340
0
 70
     0
280
     1
281
     0
  0
BLOCK_RECORD
  5
2D5B
330
1
100
AcDbSymbolTableRecord
100
AcDbBlockTableRecord
  2
*D5
340
0
 70
     0
280
     1
281
     0
  0
BLOCK_RECORD
  5
2D73
330
1
100
AcDbSymbolTableRecord
100
AcDbBlockTableRecord
  2
*D6
340
0
 70
     0
280
     1
281
     0
  0
BLOCK_RECORD
  5
2D8D
330
1
100
AcDbSymbolTableRecord
100
AcDbBlockTableRecord
  2
*D7
340
0
 70
     0
280
     1
281
     0
  0
ENDTAB
  0
ENDSEC
  0
SECTION
  2
BLOCKS
  0
BLOCK
  5
20
330
1F
100
AcDbEntity
  8
0
100
AcDbBlockBegin
  2
*Model_Space
 70
     0
 10
0.0
 20
0.0
 30
0.0
  3
*Model_Space
  1

  0
ENDBLK
  5
21
330
1F
100
AcDbEntity
  8
0
100
AcDbBlockEnd
  0
BLOCK
  5
D4
330
D2
100
AcDbEntity
 67
     1
  8
0
100
AcDbBlockBegin
  2
*Paper_Space
 70
     0
 10
0.0
 20
0.0
 30
0.0
  3
*Paper_Space
  1

  0
ENDBLK
  5
D5
330
D2
100
AcDbEntity
 67
     1
  8
0
100
AcDbBlockEnd
  0
BLOCK
  5
D8
330
D6
100
AcDbEntity
 67
     1
  8
0
100
AcDbBlockBegin
  2
*Paper_Space0
 70
     0
 10
0.0
 20
0.0
 30
0.0
  3
*Paper_Space0
  1

  0
ENDBLK
  5
D9
330
D6
100
AcDbEntity
 67
     1
  8
0
100
AcDbBlockEnd
  0
BLOCK
  5
2CF8
330
2CF7
100
AcDbEntity
  8
0
100
AcDbBlockBegin
  2
*D1
 70
     1
 10
0.0
 20
0.0
 30
0.0
  3
*D1
  1

  0
LINE
  5
2DA6
330
2CF7
100
AcDbEntity
  8
寸法線
 62
     0
440
 16777216
370
    -2
100
AcDbLine
 10
33717.19945434378
 20
29060.94304904735
 30
0.0
 11
33717.19945434378
 21
29127.0937584751
 31
0.0
  0
LINE
  5
2DA7
330
2CF7
100
AcDbEntity
  8
寸法線
 62
     0
440
 16777216
370
    -2
100
AcDbLine
 10
34391.19945434378
 20
29060.94304904735
 30
0.0
 11
34391.19945434378
 21
29127.0937584751
 31
0.0
  0
LINE
  5
2DA8
330
2CF7
100
AcDbEntity
  8
寸法線
 62
     0
440
 16777216
370
    -2
100
AcDbLine
 10
33719.69945434378
 20
29125.8437584751
 30
0.0
 11
34388.69945434378
 21
29125.8437584751
 31
0.0
  0
SOLID
  5
2DA9
330
2CF7
100
AcDbEntity
  8
寸法線
 62
     0
440
 16777216
100
AcDbTrace
 10
33719.69945434378
 20
29126.26042514176
 30
0.0
 11
33719.69945434378
 21
29125.42709180843
 31
0.0
 12
33717.19945434378
 22
29125.8437584751
 32
0.0
 13
33717.19945434378
 23
29125.8437584751
 33
0.0
  0
SOLID
  5
2DAA
330
2CF7
100
AcDbEntity
  8
寸法線
 62
     0
440
 16777216
100
AcDbTrace
 10
34388.69945434378
 20
29126.26042514176
 30
0.0
 11
34388.69945434378
 21
29125.42709180843
 31
0.0
 12
34391.19945434378
 22
29125.8437584751
 32
0.0
 13
34391.19945434378
 23
29125.8437584751
 33
0.0
  0
MTEXT
  5
2DAB
330
2CF7
100
AcDbEntity
  8
寸法線
 62
     0
440
 16777216
100
AcDbMText
 10
34054.19945434378
 20
29136.68021822953
 30
0.0
 40
20.0
 41
0.0
 46
0.0
 71
     5
 72
     1
  1
674
 73
     1
 44
1.0
  0
POINT
  5
2DAC
330
2CF7
100
AcDbEntity
  8
Defpoints
 62
     0
440
 16777216
100
AcDbPoint
 10
33717.19945434378
 20
29060.31804904735
 30
0.0
  0
POINT
  5
2DAD
330
2CF7
100
AcDbEntity
  8
Defpoints
 62
     0
440
 16777216
100
AcDbPoint
 10
34391.19945434378
 20
29060.31804904735
 30
0.0
  0
POINT
  5
2DAE
330
2CF7
100
AcDbEntity
  8
Defpoints
 62
     0
440
 16777216
100
AcDbPoint
 10
34391.19945434378
 20
29125.8437584751
 30
0.0
  0
ENDBLK
  5
2CF9
330
2CF7
100
AcDbEntity
  8
0
100
AcDbBlockEnd
  0
BLOCK
  5
2D10
330
2D0F
100
AcDbEntity
  8
0
100
AcDbBlockBegin
  2
*D2
 70
     1
 10
0.0
 20
0.0
 30
0.0
  3
*D2
  1

  0
LINE
  5
2DAF
330
2D0F
100
AcDbEntity
  8
寸法線
 62
     0
440
 16777216
370
    -2
100
AcDbLine
 10
34390.82445434377
 20
28868.97977163282
 30
0.0
 11
34446.00147763585
 21
28868.97977163282
 31
0.0
  0
LINE
  5
2DB0
330
2D0F
100
AcDbEntity
  8
寸法線
 62
     0
440
 16777216
370
    -2
100
AcDbLine
 10
34390.82445434378
 20
28773.97977163282
 30
0.0
 11
34446.00147763585
 21
28773.97977163282
 31
0.0
  0
LINE
  5
2DB1
330
2D0F
100
AcDbEntity
  8
寸法線
 62
     0
440
 16777216
370
    -2
100
AcDbLine
 10
34444.75147763585
 20
28866.47977163282
 30
0.0
 11
34444.75147763585
 21
28776.47977163283
 31
0.0
  0
SOLID
  5
2DB2
330
2D0F
100
AcDbEntity
  8
寸法線
 62
     0
440
 16777216
100
AcDbTrace
 10
34444.33481096919
 20
28866.47977163282
 30
0.0
 11
34445.16814430252
 21
28866.47977163282
 31
0.0
 12
34444.75147763585
 22
28868.97977163282
 32
0.0
 13
34444.75147763585
 23
28868.97977163282
 33
0.0
  0
SOLID
  5
2DB3
330
2D0F
100
AcDbEntity
  8
寸法線
 62
     0
440
 16777216
100
AcDbTrace
 10
34444.33481096919
 20
28776.47977163283
 30
0.0
 11
34445.16814430252
 21
28776.47977163283
 31
0.0
 12
34444.75147763585
 22
28773.97977163282
 32
0.0
 13
34444.75147763585
 23
28773.97977163282
 33
0.0
  0
MTEXT
  5
2DB4
330
2D0F
100
AcDbEntity
  8
寸法線
 62
     0
440
 16777216
100
AcDbMText
 10
34433.91501788141
 20
28821.47977163283
 30
0.0
 40
20.0
 41
0.0
 46
0.0
 71
     5
 72
     1
  1
95
 11
0.0000000000000001
 21
1.0
 31
0.0
 73
     1
 44
1.0
  0
POINT
  5
2DB5
330
2D0F
100
AcDbEntity
  8
Defpoints
 62
     0
440
 16777216
100
AcDbPoint
 10
34390.19945434377
 20
28868.97977163282
 30
0.0
  0
POINT
  5
2DB6
330
2D0F
100
AcDbEntity
  8
Defpoints
 62
     0
440
 16777216
100
AcDbPoint
 10
34390.19945434378
 20
28773.97977163282
 30
0.0
  0
POINT
  5
2DB7
330
2D0F
100
AcDbEntity
  8
Defpoints
 62
     0
440
 16777216
100
AcDbPoint
 10
34444.75147763585
 20
28773.97977163282
 30
0.0
  0
ENDBLK
  5
2D11
330
2D0F
100
AcDbEntity
  8
0
100
AcDbBlockEnd
  0
BLOCK
  5
2D28
330
2D27
100
AcDbEntity
  8
0
100
AcDbBlockBegin
  2
*D3
 70
     1
 10
0.0
 20
0.0
 30
0.0
  3
*D3
  1

  0
LINE
  5
2DB8
330
2D27
100
AcDbEntity
  8
寸法線
 62
     0
440
 16777216
370
    -2
100
AcDbLine
 10
34390.82445434378
 20
28773.97977163282
 30
0.0
 11
34446.00147763585
 21
28773.97977163282
 31
0.0
  0
LINE
  5
2DB9
330
2D27
100
AcDbEntity
  8
寸法線
 62
     0
440
 16777216
370
    -2
100
AcDbLine
 10
34351.82445434378
 20
28769.97977163282
 30
0.0
 11
34446.00147763585
 21
28769.97977163282
 31
0.0
  0
LINE
  5
2DBA
330
2D27
100
AcDbEntity
  8
寸法線
 62
     0
440
 16777216
370
    -2
100
AcDbLine
 10
34444.75147763585
 20
28776.47977163283
 30
0.0
 11
34444.75147763585
 21
28778.97977163283
 31
0.0
  0
LINE
  5
2DBB
330
2D27
100
AcDbEntity
  8
寸法線
 62
     0
440
 16777216
370
    -2
100
AcDbLine
 10
34444.75147763585
 20
28767.47977163283
 30
0.0
 11
34444.75147763585
 21
28749.89621092341
 31
0.0
  0
LINE
  5
2DBC
330
2D27
100
AcDbEntity
  8
寸法線
 62
     0
440
 16777216
370
    -2
100
AcDbLine
 10
34444.75147763585
 20
28773.97977163282
 30
0.0
 11
34444.75147763585
 21
28769.97977163282
 31
0.0
  0
SOLID
  5
2DBD
330
2D27
100
AcDbEntity
  8
寸法線
 62
     0
440
 16777216
100
AcDbTrace
 10
34444.33481096919
 20
28776.47977163283
 30
0.0
 11
34445.16814430252
 21
28776.47977163283
 31
0.0
 12
34444.75147763585
 22
28773.97977163282
 32
0.0
 13
34444.75147763585
 23
28773.97977163282
 33
0.0
  0
SOLID
  5
2DBE
330
2D27
100
AcDbEntity
  8
寸法線
 62
     0
440
 16777216
100
AcDbTrace
 10
34444.33481096919
 20
28767.47977163283
 30
0.0
 11
34445.16814430252
 21
28767.47977163283
 31
0.0
 12
34444.75147763585
 22
28769.97977163282
 32
0.0
 13
34444.75147763585
 23
28769.97977163282
 33
0.0
  0
MTEXT
  5
2DBF
330
2D27
100
AcDbEntity
  8
寸法線
 62
     0
440
 16777216
100
AcDbMText
 10
34434.12647763584
 20
28757.43799127812
 30
0.0
 40
20.0
 41
0.0
 46
0.0
 71
     5
 72
     1
  1
4
 11
0.0000000000000001
 21
1.0
 31
0.0
 73
     1
 44
1.0
  0
POINT
  5
2DC0
330
2D27
100
AcDbEntity
  8
Defpoints
 62
     0
440
 16777216
100
AcDbPoint
 10
34390.19945434378
 20
28773.97977163282
 30
0.0
  0
POINT
  5
2DC1
330
2D27
100
AcDbEntity
  8
Defpoints
 62
     0
440
 16777216
100
AcDbPoint
 10
34351.19945434378
 20
28769.97977163282
 30
0.0
  0
POINT
  5
2DC2
330
2D27
100
AcDbEntity
  8
Defpoints
 62
     0
440
 16777216
100
AcDbPoint
 10
34444.75147763585
 20
28769.97977163282
 30
0.0
  0
ENDBLK
  5
2D29
330
2D27
100
AcDbEntity
  8
0
100
AcDbBlockEnd
  0
BLOCK
  5
2D44
330
2D43
100
AcDbEntity
  8
0
100
AcDbBlockBegin
  2
*D4
 70
     1
 10
0.0
 20
0.0
 30
0.0
  3
*D4
  1

  0
LINE
  5
2DC3
330
2D43
100
AcDbEntity
  8
寸法線
 62
     0
440
 16777216
370
    -2
100
AcDbLine
 10
34532.09456707688
 20
28868.97977163283
 30
0.0
 11
34480.88847730785
 21
28868.97977163283
 31
0.0
  0
LINE
  5
2DC4
330
2D43
100
AcDbEntity
  8
寸法線
 62
     0
440
 16777216
370
    -2
100
AcDbLine
 10
34532.09456707687
 20
28769.97977198184
 30
0.0
 11
34480.88847730785
 21
28769.97977198184
 31
0.0
  0
LINE
  5
2DC5
330
2D43
100
AcDbEntity
  8
寸法線
 62
     0
440
 16777216
370
    -2
100
AcDbLine
 10
34482.13847730785
 20
28866.47977163283
 30
0.0
 11
34482.13847730785
 21
28772.47977198184
 31
0.0
  0
SOLID
  5
2DC6
330
2D43
100
AcDbEntity
  8
寸法線
 62
     0
440
 16777216
100
AcDbTrace
 10
34481.72181064118
 20
28866.47977163283
 30
0.0
 11
34482.55514397451
 21
28866.47977163283
 31
0.0
 12
34482.13847730785
 22
28868.97977163283
 32
0.0
 13
34482.13847730785
 23
28868.97977163283
 33
0.0
  0
SOLID
  5
2DC7
330
2D43
100
AcDbEntity
  8
寸法線
 62
     0
440
 16777216
100
AcDbTrace
 10
34481.72181064118
 20
28772.47977198184
 30
0.0
 11
34482.55514397451
 21
28772.47977198184
 31
0.0
 12
34482.13847730785
 22
28769.97977198184
 32
0.0
 13
34482.13847730785
 23
28769.97977198184
 33
0.0
  0
MTEXT
  5
2DC8
330
2D43
100
AcDbEntity
  8
寸法線
 62
     0
440
 16777216
100
AcDbMText
 10
34471.3020175534
 20
28819.47977180733
 30
0.0
 40
20.0
 41
0.0
 46
0.0
 71
     5
 72
     1
  1
99
 11
0.0000000000000001
 21
1.0
 31
0.0
 73
     1
 44
1.0
  0
POINT
  5
2DC9
330
2D43
100
AcDbEntity
  8
Defpoints
 62
     0
440
 16777216
100
AcDbPoint
 10
34532.71956707688
 20
28868.97977163283
 30
0.0
  0
POINT
  5
2DCA
330
2D43
100
AcDbEntity
  8
Defpoints
 62
     0
440
 16777216
100
AcDbPoint
 10
34532.71956707687
 20
28769.97977198184
 30
0.0
  0
POINT
  5
2DCB
330
2D43
100
AcDbEntity
  8
Defpoints
 62
     0
440
 16777216
100
AcDbPoint
 10
34482.13847730785
 20
28769.97977198184
 30
0.0
  0
ENDBLK
  5
2D45
330
2D43
100
AcDbEntity
  8
0
100
AcDbBlockEnd
  0
BLOCK
  5
2D5C
330
2D5B
100
AcDbEntity
  8
0
100
AcDbBlockBegin
  2
*D5
 70
     1
 10
0.0
 20
0.0
 30
0.0
  3
*D5
  1

  0
LINE
  5
2DCC
330
2D5B
100
AcDbEntity
  8
寸法線
 62
     0
440
 16777216
370
    -2
100
AcDbLine
 10
34512.51956707687
 20
28806.40477198184
 30
0.0
 11
34512.51956707687
 21
28950.10555731866
 31
0.0
  0
LINE
  5
2DCD
330
2D5B
100
AcDbEntity
  8
寸法線
 62
     0
440
 16777216
370
    -2
100
AcDbLine
 10
34557.51956707687
 20
28806.40477198184
 30
0.0
 11
34557.51956707687
 21
28950.10555731866
 31
0.0
  0
LINE
  5
2DCE
330
2D5B
100
AcDbEntity
  8
寸法線
 62
     0
440
 16777216
370
    -2
100
AcDbLine
 10
34515.01956707688
 20
28948.85555731867
 30
0.0
 11
34555.01956707688
 21
28948.85555731867
 31
0.0
  0
SOLID
  5
2DCF
330
2D5B
100
AcDbEntity
  8
寸法線
 62
     0
440
 16777216
100
AcDbTrace
 10
34515.01956707688
 20
28949.27222398533
 30
0.0
 11
34515.01956707688
 21
28948.438890652
 31
0.0
 12
34512.51956707687
 22
28948.85555731867
 32
0.0
 13
34512.51956707687
 23
28948.85555731867
 33
0.0
  0
SOLID
  5
2DD0
330
2D5B
100
AcDbEntity
  8
寸法線
 62
     0
440
 16777216
100
AcDbTrace
 10
34555.01956707688
 20
28949.27222398533
 30
0.0
 11
34555.01956707688
 21
28948.438890652
 31
0.0
 12
34557.51956707687
 22
28948.85555731867
 32
0.0
 13
34557.51956707687
 23
28948.85555731867
 33
0.0
  0
MTEXT
  5
2DD1
330
2D5B
100
AcDbEntity
  8
寸法線
 62
     0
440
 16777216
100
AcDbMText
 10
34535.01956707687
 20
28959.65108937869
 30
0.0
 40
20.0
 41
0.0
 46
0.0
 71
     5
 72
     1
  1
45
 73
     1
 44
1.0
  0
POINT
  5
2DD2
330
2D5B
100
AcDbEntity
  8
Defpoints
 62
     0
440
 16777216
100
AcDbPoint
 10
34512.51956707687
 20
28805.77977198184
 30
0.0
  0
POINT
  5
2DD3
330
2D5B
100
AcDbEntity
  8
Defpoints
 62
     0
440
 16777216
100
AcDbPoint
 10
34557.51956707687
 20
28805.77977198184
 30
0.0
  0
POINT
  5
2DD4
330
2D5B
100
AcDbEntity
  8
Defpoints
 62
     0
440
 16777216
100
AcDbPoint
 10
34557.51956707687
 20
28948.85555731867
 30
0.0
  0
ENDBLK
  5
2D5D
330
2D5B
100
AcDbEntity
  8
0
100
AcDbBlockEnd
  0
BLOCK
  5
2D74
330
2D73
100
AcDbEntity
  8
0
100
AcDbBlockBegin
  2
*D6
 70
     1
 10
0.0
 20
0.0
 30
0.0
  3
*D6
  1

  0
LINE
  5
2DD5
330
2D73
100
AcDbEntity
  8
寸法線
 62
     0
440
 16777216
370
    -2
100
AcDbLine
 10
34532.71956707687
 20
28872.60477163282
 30
0.0
 11
34532.71956707687
 21
28890.10555731866
 31
0.0
  0
LINE
  5
2DD6
330
2D73
100
AcDbEntity
  8
寸法線
 62
     0
440
 16777216
370
    -2
100
AcDbLine
 10
34557.51956707687
 20
28806.40477198184
 30
0.0
 11
34557.51956707687
 21
28890.10555731866
 31
0.0
  0
LINE
  5
2DD7
330
2D73
100
AcDbEntity
  8
寸法線
 62
     0
440
 16777216
370
    -2
100
AcDbLine
 10
34535.21956707687
 20
28888.85555731866
 30
0.0
 11
34555.01956707688
 21
28888.85555731866
 31
0.0
  0
LINE
  5
2DD8
330
2D73
100
AcDbEntity
  8
寸法線
 62
     0
440
 16777216
370
    -2
100
AcDbLine
 10
34557.51956707687
 20
28888.85555731866
 30
0.0
 11
34613.60244565805
 21
28888.85555731866
 31
0.0
  0
SOLID
  5
2DD9
330
2D73
100
AcDbEntity
  8
寸法線
 62
     0
440
 16777216
100
AcDbTrace
 10
34535.21956707687
 20
28889.27222398533
 30
0.0
 11
34535.21956707687
 21
28888.438890652
 31
0.0
 12
34532.71956707687
 22
28888.85555731866
 32
0.0
 13
34532.71956707687
 23
28888.85555731866
 33
0.0
  0
SOLID
  5
2DDA
330
2D73
100
AcDbEntity
  8
寸法線
 62
     0
440
 16777216
100
AcDbTrace
 10
34555.01956707688
 20
28889.27222398533
 30
0.0
 11
34555.01956707688
 21
28888.438890652
 31
0.0
 12
34557.51956707687
 22
28888.85555731866
 32
0.0
 13
34557.51956707687
 23
28888.85555731866
 33
0.0
  0
MTEXT
  5
2DDB
330
2D73
100
AcDbEntity
  8
寸法線
 62
     0
440
 16777216
100
AcDbMText
 10
34586.81100636746
 20
28901.49965690939
 30
0.0
 40
20.0
 41
0.0
 46
0.0
 71
     5
 72
     1
  1
24,8
 73
     1
 44
1.0
  0
POINT
  5
2DDC
330
2D73
100
AcDbEntity
  8
Defpoints
 62
     0
440
 16777216
100
AcDbPoint
 10
34532.71956707687
 20
28871.97977163283
 30
0.0
  0
POINT
  5
2DDD
330
2D73
100
AcDbEntity
  8
Defpoints
 62
     0
440
 16777216
100
AcDbPoint
 10
34557.51956707687
 20
28805.77977198184
 30
0.0
  0
POINT
  5
2DDE
330
2D73
100
AcDbEntity
  8
Defpoints
 62
     0
440
 16777216
100
AcDbPoint
 10
34557.51956707687
 20
28888.85555731866
 30
0.0
  0
ENDBLK
  5
2D75
330
2D73
100
AcDbEntity
  8
0
100
AcDbBlockEnd
  0
BLOCK
  5
2D8E
330
2D8D
100
AcDbEntity
  8
0
100
AcDbBlockBegin
  2
*D7
 70
     1
 10
0.0
 20
0.0
 30
0.0
  3
*D7
  1

  0
LINE
  5
2DDF
330
2D8D
100
AcDbEntity
  8
寸法線
 62
     0
440
 16777216
370
    -2
100
AcDbLine
 10
34532.71956707687
 20
28872.60477163282
 30
0.0
 11
34532.71956707687
 21
28890.10555731866
 31
0.0
  0
LINE
  5
2DE0
330
2D8D
100
AcDbEntity
  8
寸法線
 62
     0
440
 16777216
370
    -2
100
AcDbLine
 10
34512.51956707687
 20
28806.40477198184
 30
0.0
 11
34512.51956707687
 21
28890.10555731866
 31
0.0
  0
LINE
  5
2DE1
330
2D8D
100
AcDbEntity
  8
寸法線
 62
     0
440
 16777216
370
    -2
100
AcDbLine
 10
34530.21956707687
 20
28888.85555731866
 30
0.0
 11
34515.01956707688
 21
28888.85555731866
 31
0.0
  0
LINE
  5
2DE2
330
2D8D
100
AcDbEntity
  8
寸法線
 62
     0
440
 16777216
370
    -2
100
AcDbLine
 10
34512.51956707687
 20
28888.85555731866
 30
0.0
 11
34456.68225466214
 21
28888.85555731866
 31
0.0
  0
SOLID
  5
2DE3
330
2D8D
100
AcDbEntity
  8
寸法線
 62
     0
440
 16777216
100
AcDbTrace
 10
34530.21956707687
 20
28889.27222398533
 30
0.0
 11
34530.21956707687
 21
28888.438890652
 31
0.0
 12
34532.71956707687
 22
28888.85555731866
 32
0.0
 13
34532.71956707687
 23
28888.85555731866
 33
0.0
  0
SOLID
  5
2DE4
330
2D8D
100
AcDbEntity
  8
寸法線
 62
     0
440
 16777216
100
AcDbTrace
 10
34515.01956707688
 20
28889.27222398533
 30
0.0
 11
34515.01956707688
 21
28888.438890652
 31
0.0
 12
34512.51956707687
 22
28888.85555731866
 32
0.0
 13
34512.51956707687
 23
28888.85555731866
 33
0.0
  0
MTEXT
  5
2DE5
330
2D8D
100
AcDbEntity
  8
寸法線
 62
     0
440
 16777216
100
AcDbMText
 10
34483.35091086951
 20
28901.49965690939
 30
0.0
 40
20.0
 41
0.0
 46
0.0
 71
     5
 72
     1
  1
20,2
 73
     1
 44
1.0
  0
POINT
  5
2DE6
330
2D8D
100
AcDbEntity
  8
Defpoints
 62
     0
440
 16777216
100
AcDbPoint
 10
34532.71956707687
 20
28871.97977163283
 30
0.0
  0
POINT
  5
2DE7
330
2D8D
100
AcDbEntity
  8
Defpoints
 62
     0
440
 16777216
100
AcDbPoint
 10
34512.51956707687
 20
28805.77977198184
 30
0.0
  0
POINT
  5
2DE8
330
2D8D
100
AcDbEntity
  8
Defpoints
 62
     0
440
 16777216
100
AcDbPoint
 10
34512.51956707687
 20
28888.85555731866
 30
0.0
  0
ENDBLK
  5
2D8F
330
2D8D
100
AcDbEntity
  8
0
100
AcDbBlockEnd
  0
ENDSEC
  0
SECTION
  2
ENTITIES
  0
XLINE
  5
7E4
330
1F
100
AcDbEntity
  8
オフセット
100
AcDbXline
 10
32915.44093491146
 20
28102.11527306976
 30
0.0
 11
-1.0
 21
0.0
 31
0.0
  0
XLINE
  5
873
330
1F
100
AcDbEntity
  8
オフセット
100
AcDbXline
 10
32915.44093491146
 20
28273.73237812786
 30
0.0
 11
-1.0
 21
0.0
 31
0.0
  0
XLINE
  5
9A0
330
1F
100
AcDbEntity
  8
オフセット
100
AcDbXline
 10
32915.44093491146
 20
28288.23237812785
 30
0.0
 11
-1.0
 21
0.0
 31
0.0
  0
XLINE
  5
9A1
330
1F
100
AcDbEntity
  8
オフセット
100
AcDbXline
 10
32915.44093491146
 20
28259.23237812785
 30
0.0
 11
-1.0
 21
0.0
 31
0.0
  0
XLINE
  5
9A2
330
1F
100
AcDbEntity
  8
オフセット
100
AcDbXline
 10
32915.44093491146
 20
28288.73237812786
 30
0.0
 11
-1.0
 21
0.0
 31
0.0
  0
XLINE
  5
9A3
330
1F
100
AcDbEntity
  8
オフセット
100
AcDbXline
 10
32915.44093491146
 20
28258.73237812785
 30
0.0
 11
-1.0
 21
0.0
 31
0.0
  0
XLINE
  5
9A6
330
1F
100
AcDbEntity
  8
オフセット
100
AcDbXline
 10
32915.44093491146
 20
28289.23237812785
 30
0.0
 11
-1.0
 21
0.0
 31
0.0
  0
XLINE
  5
9A7
330
1F
100
AcDbEntity
  8
オフセット
100
AcDbXline
 10
32915.44093491146
 20
28258.23237812786
 30
0.0
 11
-1.0
 21
0.0
 31
0.0
  0
XLINE
  5
9C5
330
1F
100
AcDbEntity
  8
オフセット
100
AcDbXline
 10
32930.94093491146
 20
27902.11527306976
 30
0.0
 11
0.0
 21
-1.0
 31
0.0
  0
LINE
  5
B1F
330
1F
100
AcDbEntity
  8
枠線
100
AcDbLine
 10
34528.24093491148
 20
28322.23237812787
 30
0.0
 11
34528.24093491148
 21
28712.23237812787
 31
0.0
  0
LINE
  5
B20
330
1F
100
AcDbEntity
  8
枠線
100
AcDbLine
 10
34528.24093491148
 20
28712.23237812787
 30
0.0
 11
34948.24093491148
 21
28712.23237812787
 31
0.0
  0
LINE
  5
B21
330
1F
100
AcDbEntity
  8
枠線
100
AcDbLine
 10
34528.24093491148
 20
28364.23237812787
 30
0.0
 11
34948.24093491148
 21
28364.23237812787
 31
0.0
  0
LINE
  5
B22
330
1F
100
AcDbEntity
  8
枠線
100
AcDbLine
 10
34528.24093491148
 20
28406.23237812787
 30
0.0
 11
34948.24093491148
 21
28406.23237812787
 31
0.0
  0
LINE
  5
B23
330
1F
100
AcDbEntity
  8
枠線
100
AcDbLine
 10
34528.24093491148
 20
28448.23237812787
 30
0.0
 11
34948.24093491148
 21
28448.23237812787
 31
0.0
  0
LINE
  5
B24
330
1F
100
AcDbEntity
  8
枠線
100
AcDbLine
 10
34528.24093491148
 20
28490.23237812787
 30
0.0
 11
34948.24093491148
 21
28490.23237812787
 31
0.0
  0
LINE
  5
B25
330
1F
100
AcDbEntity
  8
枠線
100
AcDbLine
 10
34528.24093491148
 20
28532.23237812787
 30
0.0
 11
34948.24093491148
 21
28532.23237812787
 31
0.0
  0
LINE
  5
B26
330
1F
100
AcDbEntity
  8
枠線
100
AcDbLine
 10
34528.24093491148
 20
28574.23237812787
 30
0.0
 11
34948.24093491148
 21
28574.23237812787
 31
0.0
  0
LINE
  5
B27
330
1F
100
AcDbEntity
  8
枠線
100
AcDbLine
 10
34528.24093491148
 20
28616.23237812787
 30
0.0
 11
34948.24093491148
 21
28616.23237812787
 31
0.0
  0
LINE
  5
B28
330
1F
100
AcDbEntity
  8
枠線
100
AcDbLine
 10
34528.24093491148
 20
28658.23237812787
 30
0.0
 11
34948.24093491148
 21
28658.23237812787
 31
0.0
  0
LINE
  5
B29
330
1F
100
AcDbEntity
  8
枠線
100
AcDbLine
 10
34630.24093491148
 20
28712.23237812787
 30
0.0
 11
34630.24093491148
 21
28322.23237812787
 31
0.0
  0
LINE
  5
B2A
330
1F
100
AcDbEntity
  8
枠線
100
AcDbLine
 10
34636.24093491147
 20
28712.23237812787
 30
0.0
 11
34636.24093491147
 21
28322.23237812787
 31
0.0
  0
LINE
  5
B2B
330
1F
100
AcDbEntity
  8
枠線
100
AcDbLine
 10
34696.24093491148
 20
28448.23237812787
 30
0.0
 11
34696.24093491148
 21
28406.23237812787
 31
0.0
  0
LINE
  5
B2C
330
1F
100
AcDbEntity
  8
枠線
100
AcDbLine
 10
34702.24093491148
 20
28448.23237812787
 30
0.0
 11
34702.24093491148
 21
28406.23237812787
 31
0.0
  0
LINE
  5
B2D
330
1F
100
AcDbEntity
  8
枠線
100
AcDbLine
 10
34822.24093491148
 20
28448.23237812787
 30
0.0
 11
34822.24093491148
 21
28406.23237812787
 31
0.0
  0
LINE
  5
B2E
330
1F
100
AcDbEntity
  8
枠線
100
AcDbLine
 10
34828.24093491148
 20
28448.23237812787
 30
0.0
 11
34828.24093491148
 21
28406.23237812787
 31
0.0
  0
LINE
  5
B2F
330
1F
100
AcDbEntity
  8
枠線
100
AcDbLine
 10
34888.24093491148
 20
28448.23237812787
 30
0.0
 11
34888.24093491148
 21
28406.23237812787
 31
0.0
  0
LINE
  5
B30
330
1F
100
AcDbEntity
  8
枠線
100
AcDbLine
 10
34762.24093491147
 20
28448.23237812787
 30
0.0
 11
34762.24093491147
 21
28406.23237812787
 31
0.0
  0
LINE
  5
B31
330
1F
100
AcDbEntity
  8
枠線
100
AcDbLine
 10
34468.24093491148
 20
29444.23237812787
 30
0.0
 11
34468.24093491148
 21
29204.23237812787
 31
0.0
  0
LINE
  5
B32
330
1F
100
AcDbEntity
  8
枠線
100
AcDbLine
 10
34528.24093491148
 20
29444.23237812787
 30
0.0
 11
34528.24093491148
 21
29204.23237812787
 31
0.0
  0
LINE
  5
B33
330
1F
100
AcDbEntity
  8
枠線
100
AcDbLine
 10
34534.24093491148
 20
29204.23237812787
 30
0.0
 11
34534.24093491148
 21
29444.23237812787
 31
0.0
  0
LINE
  5
B34
330
1F
100
AcDbEntity
  8
枠線
100
AcDbLine
 10
34468.24093491148
 20
29384.23237812787
 30
0.0
 11
34948.24093491148
 21
29384.23237812787
 31
0.0
  0
LINE
  5
B35
330
1F
100
AcDbEntity
  8
枠線
100
AcDbLine
 10
34468.24093491148
 20
29348.23237812787
 30
0.0
 11
34948.24093491148
 21
29348.23237812787
 31
0.0
  0
LINE
  5
B36
330
1F
100
AcDbEntity
  8
枠線
100
AcDbLine
 10
34468.24093491148
 20
29312.23237812787
 30
0.0
 11
34948.24093491148
 21
29312.23237812787
 31
0.0
  0
LINE
  5
B37
330
1F
100
AcDbEntity
  8
枠線
100
AcDbLine
 10
34468.24093491148
 20
29276.23237812787
 30
0.0
 11
34948.24093491148
 21
29276.23237812787
 31
0.0
  0
LINE
  5
B38
330
1F
100
AcDbEntity
  8
枠線
100
AcDbLine
 10
34468.24093491148
 20
29240.23237812787
 30
0.0
 11
34948.24093491148
 21
29240.23237812787
 31
0.0
  0
LINE
  5
B39
330
1F
100
AcDbEntity
  8
枠線
100
AcDbLine
 10
34468.24093491148
 20
29204.23237812787
 30
0.0
 11
34948.24093491148
 21
29204.23237812787
 31
0.0
  0
LINE
  5
B3A
330
1F
100
AcDbEntity
  8
枠線
100
AcDbLine
 10
34714.24093491147
 20
29444.23237812787
 30
0.0
 11
34714.24093491147
 21
29204.23237812787
 31
0.0
  0
LINE
  5
B3B
330
1F
100
AcDbEntity
  8
枠線
100
AcDbLine
 10
34831.24093491148
 20
29444.23237812787
 30
0.0
 11
34831.24093491148
 21
29204.23237812787
 31
0.0
  0
LINE
  5
B3C
330
1F
100
AcDbEntity
  8
外形線
100
AcDbLine
 10
33346.24093491147
 20
29462.23237812787
 30
0.0
 11
33346.24093491147
 21
28304.23237812787
 31
0.0
  0
LINE
  5
B3D
330
1F
100
AcDbEntity
  8
外形線
100
AcDbLine
 10
34966.24093491148
 20
29462.23237812787
 30
0.0
 11
33346.24093491147
 21
29462.23237812787
 31
0.0
  0
LINE
  5
B3E
330
1F
100
AcDbEntity
  8
枠線
100
AcDbLine
 10
33364.24093491148
 20
29444.23237812787
 30
0.0
 11
33364.24093491148
 21
28322.23237812787
 31
0.0
  0
LINE
  5
B3F
330
1F
100
AcDbEntity
  8
枠線
100
AcDbLine
 10
33364.24093491148
 20
28322.23237812787
 30
0.0
 11
34948.24093491148
 21
28322.23237812787
 31
0.0
  0
LINE
  5
B40
330
1F
100
AcDbEntity
  8
枠線
100
AcDbLine
 10
34948.24093491148
 20
28322.23237812787
 30
0.0
 11
34948.24093491148
 21
29444.23237812787
 31
0.0
  0
LINE
  5
B41
330
1F
100
AcDbEntity
  8
枠線
100
AcDbLine
 10
34948.24093491148
 20
29444.23237812787
 30
0.0
 11
33364.24093491148
 21
29444.23237812787
 31
0.0
  0
LINE
  5
B42
330
1F
100
AcDbEntity
  8
枠線
100
AcDbLine
 10
34462.24093491148
 20
29444.23237812787
 30
0.0
 11
34462.24093491148
 21
29204.23237812787
 31
0.0
  0
LINE
  5
B43
330
1F
100
AcDbEntity
  8
枠線
100
AcDbLine
 10
34468.24093491148
 20
29204.23237812787
 30
0.0
 11
34468.24093491148
 21
29444.23237812787
 31
0.0
  0
LINE
  5
B44
330
1F
100
AcDbEntity
  8
枠線
100
AcDbLine
 10
33982.24093491148
 20
29444.23237812787
 30
0.0
 11
33982.24093491148
 21
29204.23237812787
 31
0.0
  0
LINE
  5
B45
330
1F
100
AcDbEntity
  8
枠線
100
AcDbLine
 10
34042.24093491148
 20
29444.23237812787
 30
0.0
 11
34042.24093491148
 21
29204.23237812787
 31
0.0
  0
LINE
  5
B46
330
1F
100
AcDbEntity
  8
枠線
100
AcDbLine
 10
34048.24093491148
 20
29204.23237812787
 30
0.0
 11
34048.24093491148
 21
29444.23237812787
 31
0.0
  0
LINE
  5
B47
330
1F
100
AcDbEntity
  8
枠線
100
AcDbLine
 10
33982.24093491148
 20
29384.23237812787
 30
0.0
 11
34462.24093491148
 21
29384.23237812787
 31
0.0
  0
LINE
  5
B48
330
1F
100
AcDbEntity
  8
枠線
100
AcDbLine
 10
33982.24093491148
 20
29348.23237812787
 30
0.0
 11
34462.24093491148
 21
29348.23237812787
 31
0.0
  0
LINE
  5
B49
330
1F
100
AcDbEntity
  8
枠線
100
AcDbLine
 10
33982.24093491148
 20
29312.23237812787
 30
0.0
 11
34462.24093491148
 21
29312.23237812787
 31
0.0
  0
LINE
  5
B4A
330
1F
100
AcDbEntity
  8
枠線
100
AcDbLine
 10
33982.24093491148
 20
29276.23237812787
 30
0.0
 11
34462.24093491148
 21
29276.23237812787
 31
0.0
  0
LINE
  5
B4B
330
1F
100
AcDbEntity
  8
枠線
100
AcDbLine
 10
33982.24093491148
 20
29240.23237812787
 30
0.0
 11
34462.24093491148
 21
29240.23237812787
 31
0.0
  0
LINE
  5
B4C
330
1F
100
AcDbEntity
  8
枠線
100
AcDbLine
 10
33982.24093491148
 20
29204.23237812787
 30
0.0
 11
34462.24093491148
 21
29204.23237812787
 31
0.0
  0
LINE
  5
B4D
330
1F
100
AcDbEntity
  8
枠線
100
AcDbLine
 10
34228.24093491148
 20
29444.23237812787
 30
0.0
 11
34228.24093491148
 21
29204.23237812787
 31
0.0
  0
LINE
  5
B4E
330
1F
100
AcDbEntity
  8
枠線
100
AcDbLine
 10
34345.24093491148
 20
29444.23237812787
 30
0.0
 11
34345.24093491148
 21
29204.23237812787
 31
0.0
  0
LINE
  5
B4F
330
1F
100
AcDbEntity
  8
枠線
100
AcDbLine
 10
33982.24093491148
 20
29204.23237812787
 30
0.0
 11
33982.24093491148
 21
29444.23237812787
 31
0.0
  0
LINE
  5
B50
330
1F
100
AcDbEntity
  8
外形線
100
AcDbLine
 10
34966.24093491148
 20
29462.23237812787
 30
0.0
 11
34966.24093491148
 21
28304.23237812787
 31
0.0
  0
LINE
  5
B51
330
1F
100
AcDbEntity
  8
外形線
100
AcDbLine
 10
34966.24093491148
 20
28304.23237812787
 30
0.0
 11
33346.24093491147
 21
28304.23237812787
 31
0.0
  0
MTEXT
  5
B52
330
1F
100
AcDbEntity
  8
寸法線
100
AcDbMText
 10
34137.11638898822
 20
29414.1938412054
 30
0.0
 40
30.00000000000001
 41
174.8674808517826
 46
0.0
 71
     5
 72
     5
  1
{\fMS PGothic|b0|i0|c128|p50;部品名}
 73
     1
 44
1.0
1001
ACAD
1000
ACAD_MTEXT_COLUMN_INFO_BEGIN
1070
    75
1070
     2
1070
    79
1070
     0
1070
    76
1070
     1
1070
    78
1070
     0
1070
    48
1040
174.8674808517826
1070
    49
1040
12.5
1070
    50
1070
     1
1040
0.0
1000
ACAD_MTEXT_COLUMN_INFO_END
  0
MTEXT
  5
B53
330
1F
100
AcDbEntity
  8
寸法線
100
AcDbMText
 10
34285.61638898813
 20
29414.27906847816
 30
0.0
 40
30.00000000000001
 41
109.1764692682045
 46
0.0
 71
     5
 72
     5
  1
{\fMS PGothic|b0|i0|c128|p50;材質}
 73
     1
 44
1.0
1001
ACAD
1000
ACAD_MTEXT_COLUMN_INFO_BEGIN
1070
    75
1070
     2
1070
    79
1070
     0
1070
    76
1070
     1
1070
    78
1070
     0
1070
    48
1040
109.1764692682045
1070
    49
1040
12.5
1070
    50
1070
     1
1040
0.0
1000
ACAD_MTEXT_COLUMN_INFO_END
  0
MTEXT
  5
B54
330
1F
100
AcDbEntity
  8
寸法線
100
AcDbMText
 10
34402.61638898822
 20
29414.10861393269
 30
0.0
 40
30.00000000000001
 41
115.2368875816973
 46
0.0
 71
     5
 72
     5
  1
{\fMS PGothic|b0|i0|c128|p50;摘要}
 73
     1
 44
1.0
1001
ACAD
1000
ACAD_MTEXT_COLUMN_INFO_BEGIN
1070
    75
1070
     2
1070
    79
1070
     0
1070
    76
1070
     1
1070
    78
1070
     0
1070
    48
1040
115.2368875816973
1070
    49
1040
12.5
1070
    50
1070
     1
1040
0.0
1000
ACAD_MTEXT_COLUMN_INFO_END
  0
MTEXT
  5
B55
330
1F
100
AcDbEntity
  8
寸法線
100
AcDbMText
 10
34013.36548083485
 20
29413.02691770291
 30
0.0
 40
18.0
 41
10.0
 46
0.0
 71
     5
 72
     5
  1
{\fMS PGothic|b0|i0|c128|p50;部番}
 73
     1
 44
1.0
1001
ACAD
1000
ACAD_MTEXT_COLUMN_INFO_BEGIN
1070
    75
1070
     2
1070
    79
1070
     0
1070
    76
1070
     1
1070
    78
1070
     0
1070
    48
1040
10.0
1070
    49
1040
12.5
1070
    50
1070
     1
1040
0.0
1000
ACAD_MTEXT_COLUMN_INFO_END
  0
MTEXT
  5
B56
330
1F
100
AcDbEntity
  8
寸法線
100
AcDbMText
 10
34012.24093491148
 20
29366.24465360855
 30
0.0
 40
21.00000000000001
 41
10.0
 46
0.0
 71
     5
 72
     5
  1
{\fMS PGothic|b0|i0|c128|p50;①}
 73
     1
 44
1.0
1001
ACAD
1000
ACAD_MTEXT_COLUMN_INFO_BEGIN
1070
    75
1070
     2
1070
    79
1070
     0
1070
    76
1070
     1
1070
    78
1070
     0
1070
    48
1040
10.0
1070
    49
1040
12.5
1070
    50
1070
     1
1040
0.0
1000
ACAD_MTEXT_COLUMN_INFO_END
  0
MTEXT
  5
B57
330
1F
100
AcDbEntity
  8
寸法線
100
AcDbMText
 10
34012.24093491148
 20
29330.24465360855
 30
0.0
 40
21.00000000000001
 41
10.0
 46
0.0
 71
     5
 72
     5
  1
{\fMS PGothic|b0|i0|c128|p50;②}
 73
     1
 44
1.0
1001
ACAD
1000
ACAD_MTEXT_COLUMN_INFO_BEGIN
1070
    75
1070
     2
1070
    79
1070
     0
1070
    76
1070
     1
1070
    78
1070
     0
1070
    48
1040
10.0
1070
    49
1040
12.5
1070
    50
1070
     1
1040
0.0
1000
ACAD_MTEXT_COLUMN_INFO_END
  0
MTEXT
  5
B58
330
1F
100
AcDbEntity
  8
寸法線
100
AcDbMText
 10
34012.24093491148
 20
29294.24465360858
 30
0.0
 40
21.00000000000001
 41
10.0
 46
0.0
 71
     5
 72
     5
  1
{\fMS PGothic|b0|i0|c128|p50;③}
 73
     1
 44
1.0
1001
ACAD
1000
ACAD_MTEXT_COLUMN_INFO_BEGIN
1070
    75
1070
     2
1070
    79
1070
     0
1070
    76
1070
     1
1070
    78
1070
     0
1070
    48
1040
10.0
1070
    49
1040
12.5
1070
    50
1070
     1
1040
0.0
1000
ACAD_MTEXT_COLUMN_INFO_END
  0
MTEXT
  5
B59
330
1F
100
AcDbEntity
  8
寸法線
100
AcDbMText
 10
34012.24093491148
 20
29258.24465360855
 30
0.0
 40
21.00000000000001
 41
10.0
 46
0.0
 71
     5
 72
     5
  1
{\fMS PGothic|b0|i0|c128|p50;④}
 73
     1
 44
1.0
1001
ACAD
1000
ACAD_MTEXT_COLUMN_INFO_BEGIN
1070
    75
1070
     2
1070
    79
1070
     0
1070
    76
1070
     1
1070
    78
1070
     0
1070
    48
1040
10.0
1070
    49
1040
12.5
1070
    50
1070
     1
1040
0.0
1000
ACAD_MTEXT_COLUMN_INFO_END
  0
MTEXT
  5
B5A
330
1F
100
AcDbEntity
  8
寸法線
100
AcDbMText
 10
34012.24093491148
 20
29222.24465360855
 30
0.0
 40
21.00000000000001
 41
10.0
 46
0.0
 71
     5
 72
     5
  1
{\fMS PGothic|b0|i0|c128|p50;⑤}
 73
     1
 44
1.0
1001
ACAD
1000
ACAD_MTEXT_COLUMN_INFO_BEGIN
1070
    75
1070
     2
1070
    79
1070
     0
1070
    76
1070
     1
1070
    78
1070
     0
1070
    48
1040
10.0
1070
    49
1040
12.5
1070
    50
1070
     1
1040
0.0
1000
ACAD_MTEXT_COLUMN_INFO_END
  0
MTEXT
  5
B5B
330
1F
100
AcDbEntity
  8
寸法線
100
AcDbMText
 10
34623.11638898813
 20
29414.1938412054
 30
0.0
 40
30.00000000000001
 41
208.789682174116
 46
0.0
 71
     5
 72
     5
  1
{\fMS PGothic|b0|i0|c128|p50;部品名}
 73
     1
 44
1.0
1001
ACAD
1000
ACAD_MTEXT_COLUMN_INFO_BEGIN
1070
    75
1070
     2
1070
    79
1070
     0
1070
    76
1070
     1
1070
    78
1070
     0
1070
    48
1040
208.789682174116
1070
    49
1040
12.5
1070
    50
1070
     1
1040
0.0
1000
ACAD_MTEXT_COLUMN_INFO_END
  0
MTEXT
  5
B5C
330
1F
100
AcDbEntity
  8
寸法線
100
AcDbMText
 10
34771.61638898813
 20
29414.27906847816
 30
0.0
 40
30.00000000000001
 41
121.2416595124814
 46
0.0
 71
     5
 72
     5
  1
{\fMS PGothic|b0|i0|c128|p50;材質}
 73
     1
 44
1.0
1001
ACAD
1000
ACAD_MTEXT_COLUMN_INFO_BEGIN
1070
    75
1070
     2
1070
    79
1070
     0
1070
    76
1070
     1
1070
    78
1070
     0
1070
    48
1040
121.2416595124814
1070
    49
1040
12.5
1070
    50
1070
     1
1040
0.0
1000
ACAD_MTEXT_COLUMN_INFO_END
  0
MTEXT
  5
B5D
330
1F
100
AcDbEntity
  8
寸法線
100
AcDbMText
 10
34888.61638898813
 20
29414.10861393269
 30
0.0
 40
30.00000000000001
 41
124.8927565777121
 46
0.0
 71
     5
 72
     5
  1
{\fMS PGothic|b0|i0|c128|p50;摘要}
 73
     1
 44
1.0
1001
ACAD
1000
ACAD_MTEXT_COLUMN_INFO_BEGIN
1070
    75
1070
     2
1070
    79
1070
     0
1070
    76
1070
     1
1070
    78
1070
     0
1070
    48
1040
124.8927565777121
1070
    49
1040
12.5
1070
    50
1070
     1
1040
0.0
1000
ACAD_MTEXT_COLUMN_INFO_END
  0
MTEXT
  5
B5E
330
1F
100
AcDbEntity
  8
寸法線
100
AcDbMText
 10
34499.36548083491
 20
29413.02691770291
 30
0.0
 40
18.0
 41
10.0
 46
0.0
 71
     5
 72
     5
  1
{\fMS PGothic|b0|i0|c128|p50;部番}
 73
     1
 44
1.0
1001
ACAD
1000
ACAD_MTEXT_COLUMN_INFO_BEGIN
1070
    75
1070
     2
1070
    79
1070
     0
1070
    76
1070
     1
1070
    78
1070
     0
1070
    48
1040
10.0
1070
    49
1040
12.5
1070
    50
1070
     1
1040
0.0
1000
ACAD_MTEXT_COLUMN_INFO_END
  0
MTEXT
  5
B5F
330
1F
100
AcDbEntity
  8
寸法線
100
AcDbMText
 10
34498.24093491153
 20
29366.24465360855
 30
0.0
 40
21.00000000000001
 41
10.0
 46
0.0
 71
     5
 72
     5
  1
{\fMS PGothic|b0|i0|c128|p50;⑥}
 73
     1
 44
1.0
1001
ACAD
1000
ACAD_MTEXT_COLUMN_INFO_BEGIN
1070
    75
1070
     2
1070
    79
1070
     0
1070
    76
1070
     1
1070
    78
1070
     0
1070
    48
1040
10.0
1070
    49
1040
12.5
1070
    50
1070
     1
1040
0.0
1000
ACAD_MTEXT_COLUMN_INFO_END
  0
MTEXT
  5
B60
330
1F
100
AcDbEntity
  8
寸法線
100
AcDbMText
 10
34498.24093491153
 20
29330.24465360855
 30
0.0
 40
21.00000000000001
 41
10.0
 46
0.0
 71
     5
 72
     5
  1
{\fMS PGothic|b0|i0|c128|p50;⑦}
 73
     1
 44
1.0
1001
ACAD
1000
ACAD_MTEXT_COLUMN_INFO_BEGIN
1070
    75
1070
     2
1070
    79
1070
     0
1070
    76
1070
     1
1070
    78
1070
     0
1070
    48
1040
10.0
1070
    49
1040
12.5
1070
    50
1070
     1
1040
0.0
1000
ACAD_MTEXT_COLUMN_INFO_END
  0
MTEXT
  5
B61
330
1F
100
AcDbEntity
  8
寸法線
100
AcDbMText
 10
34498.24093491153
 20
29294.24465360858
 30
0.0
 40
21.00000000000001
 41
10.0
 46
0.0
 71
     5
 72
     5
  1
{\fMS PGothic|b0|i0|c128|p50;⑧}
 73
     1
 44
1.0
1001
ACAD
1000
ACAD_MTEXT_COLUMN_INFO_BEGIN
1070
    75
1070
     2
1070
    79
1070
     0
1070
    76
1070
     1
1070
    78
1070
     0
1070
    48
1040
10.0
1070
    49
1040
12.5
1070
    50
1070
     1
1040
0.0
1000
ACAD_MTEXT_COLUMN_INFO_END
  0
MTEXT
  5
B62
330
1F
100
AcDbEntity
  8
寸法線
100
AcDbMText
 10
34498.24093491153
 20
29258.24465360855
 30
0.0
 40
21.00000000000001
 41
10.0
 46
0.0
 71
     5
 72
     5
  1
{\fMS PGothic|b0|i0|c128|p50;⑨}
 73
     1
 44
1.0
1001
ACAD
1000
ACAD_MTEXT_COLUMN_INFO_BEGIN
1070
    75
1070
     2
1070
    79
1070
     0
1070
    76
1070
     1
1070
    78
1070
     0
1070
    48
1040
10.0
1070
    49
1040
12.5
1070
    50
1070
     1
1040
0.0
1000
ACAD_MTEXT_COLUMN_INFO_END
  0
MTEXT
  5
B63
330
1F
100
AcDbEntity
  8
寸法線
100
AcDbMText
 10
34498.24093491153
 20
29222.24465360855
 30
0.0
 40
21.00000000000001
 41
10.0
 46
0.0
 71
     5
 72
     5
  1
{\fMS PGothic|b0|i0|c128|p50;⑩}
 73
     1
 44
1.0
1001
ACAD
1000
ACAD_MTEXT_COLUMN_INFO_BEGIN
1070
    75
1070
     2
1070
    79
1070
     0
1070
    76
1070
     1
1070
    78
1070
     0
1070
    48
1040
10.0
1070
    49
1040
12.5
1070
    50
1070
     1
1040
0.0
1000
ACAD_MTEXT_COLUMN_INFO_END
  0
TEXT
  5
B64
330
1F
100
AcDbEntity
  8
寸法線
100
AcDbText
 10
34642.29498834434
 20
28689.92047589611
 30
0.0
 40
12.9
  1
広告灯内用放電灯器具（LEDランプ用）
100
AcDbText
  0
TEXT
  5
B65
330
1F
100
AcDbEntity
  8
寸法線
100
AcDbText
 10
34642.84125018251
 20
28670.80502638053
 30
0.0
 40
9.0
  1
AC100/200V　　50/60Hz
100
AcDbText
  0
MTEXT
  5
B66
330
1F
100
AcDbEntity
  8
寸法線
100
AcDbMText
 10
34579.24093491147
 20
28635.39930591076
 30
0.0
 40
21.00000000000001
 41
134.5371276319638
 46
0.0
 71
     5
 72
     5
  1
{\fMS PGothic|b0|i0|c128|p50;品名}
 73
     1
 44
1.0
1001
ACAD
1000
ACAD_MTEXT_COLUMN_INFO_BEGIN
1070
    75
1070
     2
1070
    79
1070
     0
1070
    76
1070
     1
1070
    78
1070
     0
1070
    48
1040
134.5371276319638
1070
    49
1040
12.5
1070
    50
1070
     1
1040
0.0
1000
ACAD_MTEXT_COLUMN_INFO_END
  0
MTEXT
  5
B67
330
1F
100
AcDbEntity
  8
寸法線
100
AcDbMText
 10
34579.24093491147
 20
28593.33964681988
 30
0.0
 40
21.00000000000001
 41
107.3977478795059
 46
0.0
 71
     5
 72
     5
  1
{\fMS PGothic|b0|i0|c128|p50;型番}
 73
     1
 44
1.0
1001
ACAD
1000
ACAD_MTEXT_COLUMN_INFO_BEGIN
1070
    75
1070
     2
1070
    79
1070
     0
1070
    76
1070
     1
1070
    78
1070
     0
1070
    48
1040
107.3977478795059
1070
    49
1040
12.5
1070
    50
1070
     1
1040
0.0
1000
ACAD_MTEXT_COLUMN_INFO_END
  0
MTEXT
  5
B68
330
1F
100
AcDbEntity
  8
寸法線
100
AcDbMText
 10
34579.24093491147
 20
28551.33964681988
 30
0.0
 40
21.00000000000001
 41
111.0985654956457
 46
0.0
 71
     5
 72
     5
  1
{\fMS PGothic|b0|i0|c128|p50;図番}
 73
     1
 44
1.0
1001
ACAD
1000
ACAD_MTEXT_COLUMN_INFO_BEGIN
1070
    75
1070
     2
1070
    79
1070
     0
1070
    76
1070
     1
1070
    78
1070
     0
1070
    48
1040
111.0985654956457
1070
    49
1040
12.5
1070
    50
1070
     1
1040
0.0
1000
ACAD_MTEXT_COLUMN_INFO_END
  0
MTEXT
  5
B69
330
1F
100
AcDbEntity
  8
寸法線
100
AcDbMText
 10
34579.24093491147
 20
28509.10101045623
 30
0.0
 40
21.00000000000001
 41
79.75
 46
0.0
 71
     5
 72
     5
  1
{\fMS PGothic|b0|i0|c128|p50;尺度}
 73
     1
 44
1.0
1001
ACAD
1000
ACAD_MTEXT_COLUMN_INFO_BEGIN
1070
    75
1070
     2
1070
    79
1070
     0
1070
    76
1070
     1
1070
    78
1070
     0
1070
    48
1040
79.75
1070
    49
1040
12.5
1070
    50
1070
     1
1040
0.0
1000
ACAD_MTEXT_COLUMN_INFO_END
  0
MTEXT
  5
B6A
330
1F
100
AcDbEntity
  8
寸法線
100
AcDbMText
 10
34579.24093491147
 20
28467.75726045623
 30
0.0
 40
21.00000000000001
 41
79.75
 46
0.0
 71
     5
 72
     5
  1
{\fMS PGothic|b0|i0|c128|p50;日付}
 73
     1
 44
1.0
1001
ACAD
1000
ACAD_MTEXT_COLUMN_INFO_BEGIN
1070
    75
1070
     2
1070
    79
1070
     0
1070
    76
1070
     1
1070
    78
1070
     0
1070
    48
1040
79.75
1070
    49
1040
12.5
1070
    50
1070
     1
1040
0.0
1000
ACAD_MTEXT_COLUMN_INFO_END
  0
MTEXT
  5
B6B
330
1F
100
AcDbEntity
  8
寸法線
100
AcDbMText
 10
34579.24093491147
 20
28425.27998772897
 30
0.0
 40
21.00000000000001
 41
79.75
 46
0.0
 71
     5
 72
     5
  1
{\fMS PGothic|b0|i0|c128|p50;設計}
 73
     1
 44
1.0
1001
ACAD
1000
ACAD_MTEXT_COLUMN_INFO_BEGIN
1070
    75
1070
     2
1070
    79
1070
     0
1070
    76
1070
     1
1070
    78
1070
     0
1070
    48
1040
79.75
1070
    49
1040
12.5
1070
    50
1070
     1
1040
0.0
1000
ACAD_MTEXT_COLUMN_INFO_END
  0
MTEXT
  5
B6C
330
1F
100
AcDbEntity
  8
寸法線
100
AcDbMText
 10
34732.24093491154
 20
28427.61862409259
 30
0.0
 40
16.8
 41
77.95127031754964
 46
0.0
 71
     5
 72
     5
  1
{\fMS PGothic|b0|i0|c128|p50;製図}
 73
     1
 44
1.0
1001
ACAD
1000
ACAD_MTEXT_COLUMN_INFO_BEGIN
1070
    75
1070
     2
1070
    79
1070
     0
1070
    76
1070
     1
1070
    78
1070
     0
1070
    48
1040
77.95127031754964
1070
    49
1040
12.5
1070
    50
1070
     1
1040
0.0
1000
ACAD_MTEXT_COLUMN_INFO_END
  0
MTEXT
  5
B6D
330
1F
100
AcDbEntity
  8
寸法線
100
AcDbMText
 10
34858.24093491153
 20
28428.2390786381
 30
0.0
 40
16.8
 41
64.78344696047134
 46
0.0
 71
     5
 72
     5
  1
{\fMS PGothic|b0|i0|c128|p50;承認}
 73
     1
 44
1.0
1001
ACAD
1000
ACAD_MTEXT_COLUMN_INFO_BEGIN
1070
    75
1070
     2
1070
    79
1070
     0
1070
    76
1070
     1
1070
    78
1070
     0
1070
    48
1040
64.78344696047134
1070
    49
1040
12.5
1070
    50
1070
     1
1040
0.0
1000
ACAD_MTEXT_COLUMN_INFO_END
  0
MTEXT
  5
B6E
330
1F
100
AcDbEntity
  8
寸法線
100
AcDbMText
 10
34792.24093491153
 20
28345.02908009996
 30
0.0
 40
21.00000000000001
 41
479.1527611076308
 46
0.0
 71
     5
 72
     5
  1
{\fMS PGothic|b0|i0|c128|p50;高村電機工業株式会社}
 73
     1
 44
1.0
1001
ACAD
1000
ACAD_MTEXT_COLUMN_INFO_BEGIN
1070
    75
1070
     2
1070
    79
1070
     0
1070
    76
1070
     1
1070
    78
1070
     0
1070
    48
1040
479.1527611076308
1070
    49
1040
12.5
1070
    50
1070
     1
1040
0.0
1000
ACAD_MTEXT_COLUMN_INFO_END
  0
MTEXT
  5
B6F
330
1F
100
AcDbEntity
  8
寸法線
100
AcDbMText
 10
34644.66432509464
 20
28656.2275760284
 30
0.0
 40
24.00000000000002
 41
379.4707622710557
 46
0.0
 71
     1
 72
     5
  1
{\fMS PGothic|b0|i0|c128|p50;ゼブライト・V　}30W
 73
     1
 44
1.0
1001
ACAD
1000
ACAD_MTEXT_COLUMN_INFO_BEGIN
1070
    75
1070
     2
1070
    79
1070
     0
1070
    76
1070
     1
1070
    78
1070
     0
1070
    48
1040
379.4707622710557
1070
    49
1040
12.5
1070
    50
1070
     1
1040
0.0
1000
ACAD_MTEXT_COLUMN_INFO_END
  0
MTEXT
  5
B70
330
1F
100
AcDbEntity
  8
寸法線
100
AcDbMText
 10
34645.6002752264
 20
28609.06489565321
 30
0.0
 40
24.00000000000002
 41
326.790400944592
 46
0.0
 71
     1
 72
     5
  1
CSH{\fMS PGothic|b0|i0|c128|p50;‐}300KB-V
 73
     1
 44
1.0
1001
ACAD
1000
ACAD_MTEXT_COLUMN_INFO_BEGIN
1070
    75
1070
     2
1070
    79
1070
     0
1070
    76
1070
     1
1070
    78
1070
     0
1070
    48
1040
326.790400944592
1070
    49
1040
12.5
1070
    50
1070
     1
1040
24.8349249658936
1000
ACAD_MTEXT_COLUMN_INFO_END
  0
LINE
  5
B71
330
1F
100
AcDbEntity
  8
枠線
100
AcDbLine
 10
34789.24093491148
 20
28532.23237812787
 30
0.0
 11
34789.24093491148
 21
28490.23237812787
 31
0.0
  0
LINE
  5
B72
330
1F
100
AcDbEntity
  8
枠線
100
AcDbLine
 10
34795.24093491148
 20
28532.23237812787
 30
0.0
 11
34795.24093491148
 21
28490.23237812787
 31
0.0
  0
CIRCLE
  5
B73
330
1F
100
AcDbEntity
  8
枠線
100
AcDbCircle
 10
34840.24093491147
 20
28511.23237812787
 30
0.0
 40
12.0
  0
CIRCLE
  5
B74
330
1F
100
AcDbEntity
  8
枠線
100
AcDbCircle
 10
34840.24093491147
 20
28511.23237812787
 30
0.0
 40
6.0
  0
LINE
  5
B75
330
1F
100
AcDbEntity
  8
枠線
100
AcDbLine
 10
34885.24093491148
 20
28517.23237812787
 30
0.0
 11
34885.24093491148
 21
28505.23237812787
 31
0.0
  0
LINE
  5
B76
330
1F
100
AcDbEntity
  8
枠線
100
AcDbLine
 10
34885.24093491148
 20
28505.23237812787
 30
0.0
 11
34915.24093491148
 21
28499.23237812787
 31
0.0
  0
LINE
  5
B77
330
1F
100
AcDbEntity
  8
枠線
100
AcDbLine
 10
34915.24093491148
 20
28499.23237812787
 30
0.0
 11
34915.24093491148
 21
28523.23237812787
 31
0.0
  0
LINE
  5
B78
330
1F
100
AcDbEntity
  8
枠線
100
AcDbLine
 10
34915.24093491148
 20
28523.23237812787
 30
0.0
 11
34885.24093491148
 21
28517.23237812787
 31
0.0
  0
LINE
  5
B79
330
1F
100
AcDbEntity
  8
中心線
 48
0.5
100
AcDbLine
 10
34825.24093491148
 20
28511.23237812787
 30
0.0
 11
34918.24093491147
 21
28511.23237812787
 31
0.0
  0
LINE
  5
B7A
330
1F
100
AcDbEntity
  8
中心線
 48
0.5
100
AcDbLine
 10
34840.24093491147
 20
28526.23237812787
 30
0.0
 11
34840.24093491147
 21
28496.23237812787
 31
0.0
  0
MTEXT
  5
B7B
330
1F
100
AcDbEntity
  8
中心線
100
AcDbMText
 10
34712.93231111212
 20
28511.46389548492
 30
0.0
 40
24.00000000000002
 41
137.1373031534895
 46
0.0
 71
     5
 72
     5
  1
1  :  4
 73
     1
 44
1.0
1001
ACAD
1000
ACAD_MTEXT_COLUMN_INFO_BEGIN
1070
    75
1070
     2
1070
    79
1070
     0
1070
    76
1070
     1
1070
    78
1070
     0
1070
    48
1040
137.1373031534895
1070
    49
1040
12.5
1070
    50
1070
     1
1040
0.0
1000
ACAD_MTEXT_COLUMN_INFO_END
  0
MTEXT
  5
B7C
330
1F
100
AcDbEntity
  8
寸法線
100
AcDbMText
 10
34053.8154419997
 20
29377.17287490402
 30
0.0
 40
9.600000000000001
 41
151.6297294085016
 46
0.0
 71
     1
 72
     5
  1
{\fMS PGothic|b0|i0|c128|p50;器具本体}
 73
     1
 44
1.0
1001
ACAD
1000
ACAD_MTEXT_COLUMN_INFO_BEGIN
1070
    75
1070
     2
1070
    79
1070
     0
1070
    76
1070
     1
1070
    78
1070
     0
1070
    48
1040
151.6297294085016
1070
    49
1040
12.5
1070
    50
1070
     1
1040
0.0
1000
ACAD_MTEXT_COLUMN_INFO_END
  0
MTEXT
  5
B7D
330
1F
100
AcDbEntity
  8
寸法線
100
AcDbMText
 10
34234.698096507
 20
29381.69618849504
 30
0.0
 40
8.0
 41
163.0743348696414
 46
0.0
 71
     1
 72
     5
  1
{\fMS PGothic|b0|i0|c128|p50;鋼鈑　}0.6{\fMS PGothic|b0|i0|c128|p50;ｔ}\P{\fMS PGothic|b0|i0|c128|p50;（亜鉛メッキ板）}
 73
     1
 44
1.0
1001
ACAD
1000
ACAD_MTEXT_COLUMN_INFO_BEGIN
1070
    75
1070
     2
1070
    79
1070
     0
1070
    76
1070
     1
1070
    78
1070
     0
1070
    48
1040
163.0743348696414
1070
    49
1040
12.5
1070
    50
1070
     1
1040
0.0
1000
ACAD_MTEXT_COLUMN_INFO_END
  0
MTEXT
  5
B7E
330
1F
100
AcDbEntity
  8
寸法線
100
AcDbMText
 10
34348.57369779563
 20
29373.12563430944
 30
0.0
 40
8.0
 41
127.6574633589698
 46
0.0
 71
     1
 72
     5
  1
{\fMS PGothic|b0|i0|c128|p50;ホーミング加工}
 73
     1
 44
1.0
1001
ACAD
1000
ACAD_MTEXT_COLUMN_INFO_BEGIN
1070
    75
1070
     2
1070
    79
1070
     0
1070
    76
1070
     1
1070
    78
1070
     0
1070
    48
1040
127.6574633589698
1070
    49
1040
12.5
1070
    50
1070
     1
1040
0.0
1000
ACAD_MTEXT_COLUMN_INFO_END
  0
MTEXT
  5
B7F
330
1F
100
AcDbEntity
  8
寸法線
100
AcDbMText
 10
34053.80752779395
 20
29303.57512239933
 30
0.0
 40
9.600000000000001
 41
177.2417588968819
 46
0.0
 71
     1
 72
     5
  1
{\fMS PGothic|b0|i0|c128|p50;絶縁ブッシング}
 73
     1
 44
1.0
1001
ACAD
1000
ACAD_MTEXT_COLUMN_INFO_BEGIN
1070
    75
1070
     2
1070
    79
1070
     0
1070
    76
1070
     1
1070
    78
1070
     0
1070
    48
1040
177.2417588968819
1070
    49
1040
12.5
1070
    50
1070
     1
1040
0.0
1000
ACAD_MTEXT_COLUMN_INFO_END
  0
MTEXT
  5
B80
330
1F
100
AcDbEntity
  8
寸法線
100
AcDbMText
 10
34236.90006209636
 20
29308.52212094796
 30
0.0
 40
8.0
 41
112.0581813088574
 46
0.0
 71
     1
 72
     5
  1
P.P{\fMS PGothic|b0|i0|c128|p50;樹脂}
 73
     1
 44
1.0
1001
ACAD
1000
ACAD_MTEXT_COLUMN_INFO_BEGIN
1070
    75
1070
     2
1070
    79
1070
     0
1070
    76
1070
     1
1070
    78
1070
     0
1070
    48
1040
112.0581813088574
1070
    49
1040
12.5
1070
    50
1070
     1
1040
0.0
1000
ACAD_MTEXT_COLUMN_INFO_END
  0
MTEXT
  5
B81
330
1F
100
AcDbEntity
  8
寸法線
100
AcDbMText
 10
34051.95199683309
 20
29270.04860513708
 30
0.0
 40
9.600000000000001
 41
209.7639475286996
 46
0.0
 71
     1
 72
     5
  1
{\fMS PGothic|b0|i0|c128|p50;ランプソケット（固定側）}
 73
     1
 44
1.0
1001
ACAD
1000
ACAD_MTEXT_COLUMN_INFO_BEGIN
1070
    75
1070
     2
1070
    79
1070
     0
1070
    76
1070
     1
1070
    78
1070
     0
1070
    48
1040
209.7639475286996
1070
    49
1040
12.5
1070
    50
1070
     1
1040
0.0
1000
ACAD_MTEXT_COLUMN_INFO_END
  0
MTEXT
  5
B82
330
1F
100
AcDbEntity
  8
寸法線
100
AcDbMText
 10
34235.66305875464
 20
29272.52213748464
 30
0.0
 40
8.0
 41
114.358547341013
 46
0.0
 71
     1
 72
     5
  1
{\fMS PGothic|b0|i0|c128|p50;P.P樹脂\P黄銅}
 73
     1
 44
1.0
1001
ACAD
1000
ACAD_MTEXT_COLUMN_INFO_BEGIN
1070
    75
1070
     2
1070
    79
1070
     0
1070
    76
1070
     1
1070
    78
1070
     0
1070
    48
1040
114.358547341013
1070
    49
1040
12.5
1070
    50
1070
     1
1040
0.0
1000
ACAD_MTEXT_COLUMN_INFO_END
  0
MTEXT
  5
B83
330
1F
100
AcDbEntity
  8
寸法線
100
AcDbMText
 10
34053.80752779395
 20
29233.43025098923
 30
0.0
 40
9.600000000000001
 41
210.5417588968994
 46
0.0
 71
     1
 72
     5
  1
{\fMS PGothic|b0|i0|c128|p50;ランプソケット（スプリング側）}
 73
     1
 44
1.0
1001
ACAD
1000
ACAD_MTEXT_COLUMN_INFO_BEGIN
1070
    75
1070
     2
1070
    79
1070
     0
1070
    76
1070
     1
1070
    78
1070
     0
1070
    48
1040
210.5417588968994
1070
    49
1040
12.5
1070
    50
1070
     1
1040
0.0
1000
ACAD_MTEXT_COLUMN_INFO_END
  0
MTEXT
  5
B84
330
1F
100
AcDbEntity
  8
寸法線
100
AcDbMText
 10
34232.57049850398
 20
29237.14050816909
 30
0.0
 40
8.0
 41
140.8380455093865
 46
0.0
 71
     1
 72
     5
  1
P.P{\fMS PGothic|b0|i0|c128|p50;樹脂}\P{\fMS PGothic|b0|i0|c128|p50;黄銅}
 73
     1
 44
1.0
1001
ACAD
1000
ACAD_MTEXT_COLUMN_INFO_BEGIN
1070
    75
1070
     2
1070
    79
1070
     0
1070
    76
1070
     1
1070
    78
1070
     0
1070
    48
1040
140.8380455093865
1070
    49
1040
12.5
1070
    50
1070
     1
1040
0.0
1000
ACAD_MTEXT_COLUMN_INFO_END
  0
LINE
  5
B87
330
1F
100
AcDbEntity
  8
外形線
100
AcDbLine
 10
33316.24093491148
 20
29477.23237812787
 30
0.0
 11
33316.24093491148
 21
28289.23237812787
 31
0.0
  0
LINE
  5
B88
330
1F
100
AcDbEntity
  8
外形線
100
AcDbLine
 10
33316.24093491148
 20
28289.23237812787
 30
0.0
 11
34996.24093491148
 21
28289.23237812787
 31
0.0
  0
LINE
  5
B89
330
1F
100
AcDbEntity
  8
外形線
100
AcDbLine
 10
34996.24093491148
 20
28289.23237812787
 30
0.0
 11
34996.24093491148
 21
29477.23237812787
 31
0.0
  0
LINE
  5
B8A
330
1F
100
AcDbEntity
  8
外形線
100
AcDbLine
 10
34996.24093491148
 20
29477.23237812787
 30
0.0
 11
33316.24093491148
 21
29477.23237812787
 31
0.0
  0
XLINE
  5
C17
330
1F
100
AcDbEntity
  8
オフセット
100
AcDbXline
 10
32915.44093491146
 20
29033.35326060758
 30
0.0
 11
-1.0
 21
0.0
 31
0.0
  0
XLINE
  5
C18
330
1F
100
AcDbEntity
  8
オフセット
100
AcDbXline
 10
32915.44093491146
 20
29197.60326060758
 30
0.0
 11
-1.0
 21
0.0
 31
0.0
  0
XLINE
  5
C22
330
1F
100
AcDbEntity
  8
オフセット
100
AcDbXline
 10
32915.44093491146
 20
29049.60326060757
 30
0.0
 11
-1.0
 21
0.0
 31
0.0
  0
XLINE
  5
C23
330
1F
100
AcDbEntity
  8
オフセット
100
AcDbXline
 10
32915.44093491146
 20
29059.60326060758
 30
0.0
 11
-1.0
 21
0.0
 31
0.0
  0
XLINE
  5
C24
330
1F
100
AcDbEntity
  8
オフセット
100
AcDbXline
 10
32915.44093491146
 20
28972.60326060758
 30
0.0
 11
-1.0
 21
0.0
 31
0.0
  0
XLINE
  5
C25
330
1F
100
AcDbEntity
  8
オフセット
100
AcDbXline
 10
32915.44093491146
 20
28962.60326060758
 30
0.0
 11
-1.0
 21
0.0
 31
0.0
  0
XLINE
  5
C27
330
1F
100
AcDbEntity
  8
オフセット
100
AcDbXline
 10
32915.44093491146
 20
29144.60326060757
 30
0.0
 11
-1.0
 21
0.0
 31
0.0
  0
XLINE
  5
C42
330
1F
100
AcDbEntity
  8
オフセット
100
AcDbXline
 10
32915.44093491146
 20
29149.60326060758
 30
0.0
 11
-1.0
 21
0.0
 31
0.0
  0
XLINE
  5
C43
330
1F
100
AcDbEntity
  8
オフセット
100
AcDbXline
 10
32915.44093491146
 20
29134.60326060758
 30
0.0
 11
-1.0
 21
0.0
 31
0.0
  0
XLINE
  5
C44
330
1F
100
AcDbEntity
  8
オフセット
100
AcDbXline
 10
32915.44093491146
 20
29154.60326060757
 30
0.0
 11
-1.0
 21
0.0
 31
0.0
  0
TEXT
  5
D49
330
1F
100
AcDbEntity
  8
1
 62
     3
100
AcDbText
 10
33939.33499018451
 20
28569.20060006948
 30
0.0
 40
13.5
  1
１．左記の様にランプをセットしてください
 41
0.6666666666670002
  7
BIGFONT
100
AcDbText
  0
TEXT
  5
D4A
330
1F
100
AcDbEntity
  8
1
 62
     3
100
AcDbText
 10
33957.01370112201
 20
28549.16497181427
 30
0.0
 40
13.5
  1
器具側の電極はスプリングソケット側になっています。
 41
0.6666666666670002
  7
BIGFONT
100
AcDbText
  0
TEXT
  5
D4B
330
1F
100
AcDbEntity
  8
1
 62
     3
100
AcDbText
 10
33957.60256830951
 20
28530.30754993927
 30
0.0
 40
13.5
  1
ランプの電極はマーク（シール）側になっています。
 41
0.6666666666670002
  7
BIGFONT
100
AcDbText
  0
TEXT
  5
D4C
330
1F
100
AcDbEntity
  8
1
 62
     3
100
AcDbText
 10
33957.60256830951
 20
28512.03997181427
 30
0.0
 40
13.5
  1
セット方向はランプはマーク（シール）が正面方向を
 41
0.6666666666670002
  7
BIGFONT
100
AcDbText
  0
TEXT
  5
D4D
330
1F
100
AcDbEntity
  8
1
 62
     3
100
AcDbText
 10
33941.48863601782
 20
28464.45107207469
 30
0.0
 40
13.5
  1
２．精密部品を使用しておりますので衝撃等を与えますと
 41
0.6666666666670002
  7
BIGFONT
100
AcDbText
  0
TEXT
  5
D4E
330
1F
100
AcDbEntity
  8
1
 62
     3
100
AcDbText
 10
33960.34605789282
 20
28445.00426217886
 30
0.0
 40
13.5
  1
誤動作もしくは不点の恐れがあります。
 41
0.6666666666670002
  7
BIGFONT
100
AcDbText
  0
TEXT
  5
D4F
330
1F
100
AcDbEntity
  8
1
 62
     3
100
AcDbText
 10
33940.89976883032
 20
28418.48668405386
 30
0.0
 40
13.5
  1
３．この製品は定電流式２４Ｖ仕様です。
 41
0.6666666666670002
  7
BIGFONT
100
AcDbText
  0
TEXT
  5
D50
330
1F
100
AcDbEntity
  8
1
 62
     3
100
AcDbText
 10
33957.98863601782
 20
28398.45104766062
 30
0.0
 40
13.5
  1
必ず専用のランプと安定器のセットでご使用下さい。
 41
0.6666666666670002
  7
BIGFONT
100
AcDbText
  0
TEXT
  5
D51
330
1F
100
AcDbEntity
  8
1
 62
     3
100
AcDbText
 10
33958.42431310115
 20
28493.6110004601
 30
0.0
 40
13.5
  1
向く様にして下さい。
 41
0.6666666666670002
  7
BIGFONT
100
AcDbText
  0
TEXT
  5
D52
330
1F
100
AcDbEntity
  8
1
 62
     3
100
AcDbText
 10
33667.5138964345
 20
28563.55186960073
 30
0.0
 40
12.0
  1
取扱い説明及び注意事項
 41
0.6666666666670002
  7
BIGFONT
100
AcDbText
  0
LINE
  5
D53
330
1F
100
AcDbEntity
  8
1
  6
Continuous
 62
     3
100
AcDbLine
 10
33794.57583104157
 20
28520.93279580223
 30
0.0
 11
33794.57583104157
 21
28505.93279580223
 31
0.0
  0
LINE
  5
D54
330
1F
100
AcDbEntity
  8
1
  6
Continuous
 62
     3
100
AcDbLine
 10
33794.57583104157
 20
28505.93279580223
 30
0.0
 11
33647.64725961299
 21
28505.93279580223
 31
0.0
  0
LINE
  5
D55
330
1F
100
AcDbEntity
  8
1
  6
Continuous
 62
     3
100
AcDbLine
 10
33647.64725961299
 20
28505.93279580223
 30
0.0
 11
33644.57583104157
 21
28505.93279580223
 31
0.0
  0
LINE
  5
D56
330
1F
100
AcDbEntity
  8
1
  6
Continuous
 62
     3
100
AcDbLine
 10
33644.57583104157
 20
28505.93279580223
 30
0.0
 11
33644.57583104157
 21
28520.93279580223
 31
0.0
  0
LINE
  5
D57
330
1F
100
AcDbEntity
  8
1
  6
Continuous
 62
     3
100
AcDbLine
 10
33644.57583104157
 20
28520.93279580223
 30
0.0
 11
33794.57583104157
 21
28520.93279580223
 31
0.0
  0
LINE
  5
D58
330
1F
100
AcDbEntity
  8
1
  6
Continuous
 62
     3
100
AcDbLine
 10
33794.57583104157
 20
28520.93279580223
 30
0.0
 11
33799.07583104157
 21
28520.93279580223
 31
0.0
  0
LINE
  5
D59
330
1F
100
AcDbEntity
  8
1
  6
Continuous
 62
     3
100
AcDbLine
 10
33799.07583104157
 20
28520.93279580223
 30
0.0
 11
33799.07583104157
 21
28505.93279580223
 31
0.0
  0
LINE
  5
D5A
330
1F
100
AcDbEntity
  8
1
  6
Continuous
 62
     3
100
AcDbLine
 10
33799.07583104157
 20
28505.93279580223
 30
0.0
 11
33794.57583104157
 21
28505.93279580223
 31
0.0
  0
LINE
  5
D5B
330
1F
100
AcDbEntity
  8
1
  6
Continuous
 62
     3
100
AcDbLine
 10
33644.57583104157
 20
28520.93279580223
 30
0.0
 11
33640.07583104157
 21
28520.93279580223
 31
0.0
  0
LINE
  5
D5C
330
1F
100
AcDbEntity
  8
1
  6
Continuous
 62
     3
100
AcDbLine
 10
33640.07583104157
 20
28520.93279580223
 30
0.0
 11
33640.07583104157
 21
28505.93279580223
 31
0.0
  0
LINE
  5
D5D
330
1F
100
AcDbEntity
  8
1
  6
Continuous
 62
     3
100
AcDbLine
 10
33640.07583104157
 20
28505.93279580223
 30
0.0
 11
33644.57583104157
 21
28505.93279580223
 31
0.0
  0
LINE
  5
D5E
330
1F
100
AcDbEntity
  8
1
  6
Continuous
 62
     3
100
AcDbLine
 10
33640.07583104157
 20
28516.43279580223
 30
0.0
 11
33635.57583104157
 21
28516.43279580223
 31
0.0
  0
LINE
  5
D5F
330
1F
100
AcDbEntity
  8
1
  6
Continuous
 62
     3
100
AcDbLine
 10
33640.07583104157
 20
28510.43279580223
 30
0.0
 11
33635.57583104157
 21
28510.43279580223
 31
0.0
  0
LINE
  5
D60
330
1F
100
AcDbEntity
  8
1
  6
Continuous
 62
     3
100
AcDbLine
 10
33799.07583104157
 20
28516.43279580223
 30
0.0
 11
33803.57583104157
 21
28516.43279580223
 31
0.0
  0
LINE
  5
D61
330
1F
100
AcDbEntity
  8
1
  6
Continuous
 62
     3
100
AcDbLine
 10
33799.07583104157
 20
28510.43279580223
 30
0.0
 11
33803.57583104157
 21
28510.43279580223
 31
0.0
  0
LINE
  5
D62
330
1F
100
AcDbEntity
  8
1
  6
Continuous
 62
     3
100
AcDbLine
 10
33825.75440247015
 20
28516.43279580223
 30
0.0
 11
33863.25440247015
 21
28516.43279580223
 31
0.0
  0
LINE
  5
D63
330
1F
100
AcDbEntity
  8
1
  6
Continuous
 62
     3
100
AcDbLine
 10
33863.25440247015
 20
28516.43279580223
 30
0.0
 11
33863.25440247015
 21
28461.64708151652
 31
0.0
  0
LINE
  5
D64
330
1F
100
AcDbEntity
  8
1
  6
Continuous
 62
     3
100
AcDbLine
 10
33863.25440247015
 20
28461.64708151652
 30
0.0
 11
33754.89725961299
 21
28461.64708151652
 31
0.0
  0
LINE
  5
D65
330
1F
100
AcDbEntity
  8
1
  6
Continuous
 62
     3
100
AcDbLine
 10
33825.75440247015
 20
28510.43279580223
 30
0.0
 11
33848.25440247015
 21
28510.43279580223
 31
0.0
  0
LINE
  5
D66
330
1F
100
AcDbEntity
  8
1
  6
Continuous
 62
     3
100
AcDbLine
 10
33848.25440247015
 20
28510.43279580223
 30
0.0
 11
33848.25440247015
 21
28467.64708151652
 31
0.0
  0
LINE
  5
D67
330
1F
100
AcDbEntity
  8
1
  6
Continuous
 62
     3
100
AcDbLine
 10
33848.25440247015
 20
28467.64708151652
 30
0.0
 11
33754.89725961299
 21
28467.64708151652
 31
0.0
  0
LINE
  5
D68
330
1F
100
AcDbEntity
  8
1
  6
Continuous
 62
     3
100
AcDbLine
 10
33754.89725961299
 20
28472.14708151652
 30
0.0
 11
33754.89725961299
 21
28457.14708151652
 31
0.0
  0
LINE
  5
D69
330
1F
100
AcDbEntity
  8
1
  6
Continuous
 62
     3
100
AcDbLine
 10
33754.89725961299
 20
28457.14708151652
 30
0.0
 11
33694.89725961299
 21
28457.14708151652
 31
0.0
  0
LINE
  5
D6A
330
1F
100
AcDbEntity
  8
1
  6
Continuous
 62
     3
100
AcDbLine
 10
33694.89725961299
 20
28457.14708151652
 30
0.0
 11
33694.89725961299
 21
28472.14708151652
 31
0.0
  0
LINE
  5
D6B
330
1F
100
AcDbEntity
  8
1
  6
Continuous
 62
     3
100
AcDbLine
 10
33694.89725961299
 20
28472.14708151652
 30
0.0
 11
33754.89725961299
 21
28472.14708151652
 31
0.0
  0
LINE
  5
D6C
330
1F
100
AcDbEntity
  8
1
  6
Continuous
 62
     3
100
AcDbLine
 10
33697.67106913681
 20
28457.14708151652
 30
0.0
 11
33697.67106913681
 21
28442.14708151652
 31
0.0
  0
LINE
  5
D6D
330
1F
100
AcDbEntity
  8
1
  6
Continuous
 62
     3
100
AcDbLine
 10
33697.67106913681
 20
28442.14708151652
 30
0.0
 11
33650.02821199396
 21
28442.14708151652
 31
0.0
  0
TEXT
  5
D6E
330
1F
100
AcDbEntity
  8
1
 62
     3
100
AcDbText
 10
33769.78821284075
 20
28469.99983509553
 30
0.0
 40
7.466666666666665
  1
赤
 41
0.6666666666670002
  7
BIGFONT
100
AcDbText
  0
TEXT
  5
D6F
330
1F
100
AcDbEntity
  8
1
 62
     3
100
AcDbText
 10
33771.76352208555
 20
28448.2714252648
 30
0.0
 40
7.466666666666665
  1
白
 41
0.6666666666670002
  7
BIGFONT
100
AcDbText
  0
TEXT
  5
D70
330
1F
100
AcDbEntity
  8
1
 62
     3
100
AcDbText
 10
33828.05982742408
 20
28497.65413197053
 30
0.0
 40
7.466666666666665
  1
赤
 41
0.6666666666670002
  7
BIGFONT
100
AcDbText
  0
TEXT
  5
D71
330
1F
100
AcDbEntity
  8
1
 62
     3
100
AcDbText
 10
33828.05982742408
 20
28520.37018014761
 30
0.0
 40
7.466666666666665
  1
白
 41
0.6666666666670002
  7
BIGFONT
100
AcDbText
  0
LINE
  5
D72
330
1F
100
AcDbEntity
  8
1
  6
Continuous
 62
     3
100
AcDbLine
 10
33790.07583104157
 20
28516.43279580223
 30
0.0
 11
33790.07583104157
 21
28510.43279580223
 31
0.0
  0
LINE
  5
D73
330
1F
100
AcDbEntity
  8
1
  6
Continuous
 62
     3
100
AcDbLine
 10
33790.07583104157
 20
28510.43279580223
 30
0.0
 11
33775.07583104157
 21
28510.43279580223
 31
0.0
  0
LINE
  5
D74
330
1F
100
AcDbEntity
  8
1
  6
Continuous
 62
     3
100
AcDbLine
 10
33775.07583104157
 20
28510.43279580223
 30
0.0
 11
33775.07583104157
 21
28516.43279580223
 31
0.0
  0
LINE
  5
D75
330
1F
100
AcDbEntity
  8
1
  6
Continuous
 62
     3
100
AcDbLine
 10
33775.07583104157
 20
28516.43279580223
 30
0.0
 11
33790.07583104157
 21
28516.43279580223
 31
0.0
  0
TEXT
  5
D76
330
1F
100
AcDbEntity
  8
1
 62
     3
100
AcDbText
 10
33777.29008458553
 20
28510.64706816844
 30
0.0
 40
5.107133992513066
  1
マーク
 41
0.692308381786
  7
BIGFONT
100
AcDbText
  0
TEXT
  5
D77
330
1F
100
AcDbEntity
  8
1
 62
     3
100
AcDbText
 10
33662.33759435116
 20
28469.78997181427
 30
0.0
 40
7.466666666666665
  1
白
 41
0.6666666666670002
  7
BIGFONT
100
AcDbText
  0
TEXT
  5
D78
330
1F
100
AcDbEntity
  8
1
 62
     3
100
AcDbText
 10
33662.33759435116
 20
28451.45661406687
 30
0.0
 40
7.466666666666665
  1
黒
 41
0.6666666666670002
  7
BIGFONT
100
AcDbText
  0
TEXT
  5
D79
330
1F
100
AcDbEntity
  8
1
 62
     3
100
AcDbText
 10
33677.99123949111
 20
28443.11606498819
 30
0.0
 40
7.466666666666665
  1
アース
 41
0.6666666666670002
  7
BIGFONT
100
AcDbText
  0
TEXT
  5
D7A
330
1F
100
AcDbEntity
  8
1
 62
     3
100
AcDbText
 10
33682.76635411677
 20
28431.55183704865
 30
0.0
 40
7.466666666666665
  1
緑
 41
0.6666666666670002
  7
BIGFONT
100
AcDbText
  0
LINE
  5
D7B
330
1F
100
AcDbEntity
  8
1
  6
Continuous
 62
     3
100
AcDbLine
 10
33825.75440247015
 20
28520.93279580223
 30
0.0
 11
33825.75440247015
 21
28505.93279580223
 31
0.0
  0
LINE
  5
D7C
330
1F
100
AcDbEntity
  8
1
  6
Continuous
 62
     3
100
AcDbLine
 10
33825.75440247015
 20
28505.93279580223
 30
0.0
 11
33808.75440247015
 21
28505.93279580223
 31
0.0
  0
LINE
  5
D7D
330
1F
100
AcDbEntity
  8
1
  6
Continuous
 62
     3
100
AcDbLine
 10
33808.75440247015
 20
28505.93279580223
 30
0.0
 11
33808.75440247015
 21
28520.93279580223
 31
0.0
  0
LINE
  5
D7E
330
1F
100
AcDbEntity
  8
1
  6
Continuous
 62
     3
100
AcDbLine
 10
33808.75440247015
 20
28520.93279580223
 30
0.0
 11
33825.75440247015
 21
28520.93279580223
 31
0.0
  0
LINE
  5
D7F
330
1F
100
AcDbEntity
  8
1
  6
Continuous
 62
     3
100
AcDbLine
 10
33613.57877386849
 20
28505.93279580223
 30
0.0
 11
33613.57877386849
 21
28520.93279580223
 31
0.0
  0
TEXT
  5
D80
330
1F
100
AcDbEntity
  8
1
 62
     3
100
AcDbText
 10
33735.71882807512
 20
28528.45663848094
 30
0.0
 40
9.0
  1
防沫ソケット配線接続側
 41
0.6666666666670002
  7
BIGFONT
100
AcDbText
  0
LINE
  5
D81
330
1F
100
AcDbEntity
  8
1
  6
Continuous
 62
     3
100
AcDbLine
 10
33819.71868818444
 20
28520.93279580223
 30
0.0
 11
33816.19304715878
 21
28526.88517675461
 31
0.0
  0
LINE
  5
D82
330
1F
100
AcDbEntity
  8
1
  6
Continuous
 62
     3
100
AcDbLine
 10
33613.57877386849
 20
28516.43279580223
 30
0.0
 11
33602.54305958275
 21
28516.43279580223
 31
0.0
  0
LINE
  5
D83
330
1F
100
AcDbEntity
  8
1
  6
Continuous
 62
     3
100
AcDbLine
 10
33613.57877386849
 20
28510.43279580223
 30
0.0
 11
33602.54305958275
 21
28510.43279580223
 31
0.0
  0
LINE
  5
D84
330
1F
100
AcDbEntity
  8
1
  6
Continuous
 62
     3
100
AcDbLine
 10
33606.07877386849
 20
28519.68279580223
 30
0.0
 11
33600.18591672562
 21
28514.18279580223
 31
0.0
  0
LINE
  5
D85
330
1F
100
AcDbEntity
  8
1
  6
Continuous
 62
     3
100
AcDbLine
 10
33600.57877386849
 20
28520.07565294508
 30
0.0
 11
33606.07877386849
 21
28513.78993865937
 31
0.0
  0
LINE
  5
D86
330
1F
100
AcDbEntity
  8
1
  6
Continuous
 62
     3
100
AcDbLine
 10
33605.68591672562
 20
28513.00422437367
 30
0.0
 11
33600.18591672562
 21
28506.71851008794
 31
0.0
  0
LINE
  5
D87
330
1F
100
AcDbEntity
  8
1
  6
Continuous
 62
     3
100
AcDbLine
 10
33600.97163101133
 20
28512.61136723081
 30
0.0
 11
33604.50734529704
 21
28507.50422437366
 31
0.0
  0
TEXT
  5
D88
330
1F
100
AcDbEntity
  8
1
 62
     3
100
AcDbText
 10
33835.96106440325
 20
28496.6664692101
 30
0.0
 40
7.466666666666665
  1
＋
 41
0.6666666666670002
  7
BIGFONT
100
AcDbText
  0
TEXT
  5
D89
330
1F
100
AcDbEntity
  8
1
 62
     3
100
AcDbText
 10
33834.97340164283
 20
28520.37018014761
 30
0.0
 40
7.466666666666665
  1
－
 41
0.6666666666670002
  7
BIGFONT
100
AcDbText
  0
TEXT
  5
D8A
330
1F
100
AcDbEntity
  8
1
 62
     3
100
AcDbText
 10
33778.67708002824
 20
28447.28376250437
 30
0.0
 40
7.466666666666665
  1
－
 41
0.6666666666670002
  7
BIGFONT
100
AcDbText
  0
TEXT
  5
D8B
330
1F
100
AcDbEntity
  8
1
 62
     3
100
AcDbText
 10
33777.6894498199
 20
28469.99983509553
 30
0.0
 40
7.466666666666665
  1
＋
 41
0.6666666666670002
  7
BIGFONT
100
AcDbText
  0
TEXT
  5
D8C
330
1F
100
AcDbEntity
  8
1
 62
     3
100
AcDbText
 10
33687.76635411677
 20
28507.50416452261
 30
0.0
 40
12.0
  1
ＬＥＤ　ランプ
 41
0.6666666666670002
  7
BIGFONT
100
AcDbText
  0
TEXT
  5
D8D
330
1F
100
AcDbEntity
  8
1
 62
     3
100
AcDbText
 10
33703.08712204524
 20
28459.78637582236
 30
0.0
 40
9.600000000000001
  1
ＬＥＤ用電源
 41
0.6666666666670002
  7
BIGFONT
100
AcDbText
  0
LINE
  5
D8E
330
1F
100
AcDbEntity
  8
1
  6
Continuous
 62
     3
100
AcDbLine
 10
33694.89725961299
 20
28467.64708151652
 30
0.0
 11
33660.48059294633
 21
28467.69470056414
 31
0.0
  0
LINE
  5
D8F
330
1F
100
AcDbEntity
  8
1
  6
Continuous
 62
     3
100
AcDbLine
 10
33694.89725961299
 20
28461.64708151652
 30
0.0
 11
33661.52821199396
 21
28461.64708151652
 31
0.0
  0
TEXT
  5
D90
330
1F
100
AcDbEntity
  8
1
 62
     3
100
AcDbText
 10
33638.71886876521
 20
28458.26620879344
 30
0.0
 40
12.0
  1
電源
 41
0.6666666666670002
  7
BIGFONT
100
AcDbText
  0
LINE
  5
D91
330
1F
100
AcDbEntity
  8
1
  6
Continuous
 62
     3
100
AcDbLine
 10
33824.0825414945
 20
28518.57837316625
 30
0.0
 11
33818.74920816119
 21
28518.57837316625
 31
0.0
  0
LINE
  5
D92
330
1F
100
AcDbEntity
  8
1
  6
Continuous
 62
     3
100
AcDbLine
 10
33818.74920816119
 20
28518.57837316625
 30
0.0
 11
33818.74920816119
 21
28508.19361948053
 31
0.0
  0
LINE
  5
D93
330
1F
100
AcDbEntity
  8
1
  6
Continuous
 62
     3
100
AcDbLine
 10
33818.74920816119
 20
28508.19361948053
 30
0.0
 11
33824.0825414945
 21
28508.19361948053
 31
0.0
  0
LINE
  5
D94
330
1F
100
AcDbEntity
  8
1
  6
Continuous
 62
     3
100
AcDbLine
 10
33824.0825414945
 20
28518.57837316625
 30
0.0
 11
33824.0825414945
 21
28508.19361948053
 31
0.0
  0
LINE
  5
D95
330
1F
100
AcDbEntity
  8
1
  6
Continuous
 62
     3
100
AcDbLine
 10
33613.57877386849
 20
28505.93279580223
 30
0.0
 11
33613.57877386849
 21
28520.93279580223
 31
0.0
  0
LINE
  5
D96
330
1F
100
AcDbEntity
  8
1
  6
Continuous
 62
     3
100
AcDbLine
 10
33613.57877386849
 20
28520.93279580223
 30
0.0
 11
33630.57877386849
 21
28520.93279580223
 31
0.0
  0
LINE
  5
D97
330
1F
100
AcDbEntity
  8
1
  6
Continuous
 62
     3
100
AcDbLine
 10
33630.57877386849
 20
28520.93279580223
 30
0.0
 11
33630.57877386849
 21
28505.93279580223
 31
0.0
  0
LINE
  5
D98
330
1F
100
AcDbEntity
  8
1
  6
Continuous
 62
     3
100
AcDbLine
 10
33630.57877386849
 20
28505.93279580223
 30
0.0
 11
33613.57877386849
 21
28505.93279580223
 31
0.0
  0
LINE
  5
D99
330
1F
100
AcDbEntity
  8
1
  6
Continuous
 62
     3
100
AcDbLine
 10
33615.25063484411
 20
28508.28721843821
 30
0.0
 11
33620.58396817745
 21
28508.28721843821
 31
0.0
  0
LINE
  5
D9A
330
1F
100
AcDbEntity
  8
1
  6
Continuous
 62
     3
100
AcDbLine
 10
33620.58396817745
 20
28508.28721843821
 30
0.0
 11
33620.58396817745
 21
28518.67197212393
 31
0.0
  0
LINE
  5
D9B
330
1F
100
AcDbEntity
  8
1
  6
Continuous
 62
     3
100
AcDbLine
 10
33620.58396817745
 20
28518.67197212393
 30
0.0
 11
33615.25063484411
 21
28518.67197212393
 31
0.0
  0
LINE
  5
D9C
330
1F
100
AcDbEntity
  8
1
  6
Continuous
 62
     3
100
AcDbLine
 10
33615.25063484411
 20
28508.28721843821
 30
0.0
 11
33615.25063484411
 21
28518.67197212393
 31
0.0
  0
XLINE
  5
1123
330
1F
100
AcDbEntity
  8
オフセット
100
AcDbXline
 10
32915.44093491146
 20
27677.44632341185
 30
0.0
 11
-1.0
 21
0.0
 31
0.0
  0
XLINE
  5
1126
330
1F
100
AcDbEntity
  8
オフセット
100
AcDbXline
 10
32915.44093491146
 20
27713.19632341184
 30
0.0
 11
-1.0
 21
0.0
 31
0.0
  0
XLINE
  5
1230
330
1F
100
AcDbEntity
  8
オフセット
100
AcDbXline
 10
32915.44093491146
 20
27877.44632341185
 30
0.0
 11
-1.0
 21
0.0
 31
0.0
  0
XLINE
  5
129A
330
1F
100
AcDbEntity
  8
オフセット
100
AcDbXline
 10
32915.44093491146
 20
27897.44632341184
 30
0.0
 11
-1.0
 21
0.0
 31
0.0
  0
XLINE
  5
129B
330
1F
100
AcDbEntity
  8
オフセット
100
AcDbXline
 10
32915.44093491146
 20
27657.44632341184
 30
0.0
 11
-1.0
 21
0.0
 31
0.0
  0
MTEXT
  5
13B3
330
1F
100
AcDbEntity
  8
寸法線
100
AcDbMText
 10
34053.8154419997
 20
29341.17287490402
 30
0.0
 40
9.600000000000001
 41
206.0602204717434
 46
0.0
 71
     1
 72
     5
  1
{\fMS PGothic|b0|i0|c128|p50;ランプソケット取付金具}
 73
     1
 44
1.0
1001
ACAD
1000
ACAD_MTEXT_COLUMN_INFO_BEGIN
1070
    75
1070
     2
1070
    79
1070
     0
1070
    76
1070
     1
1070
    78
1070
     0
1070
    48
1040
206.0602204717434
1070
    49
1040
12.5
1070
    50
1070
     1
1040
0.0
1000
ACAD_MTEXT_COLUMN_INFO_END
  0
MTEXT
  5
13B4
330
1F
100
AcDbEntity
  8
寸法線
100
AcDbMText
 10
34234.698096507
 20
29345.69618849504
 30
0.0
 40
8.0
 41
163.0743348696414
 46
0.0
 71
     1
 72
     5
  1
{\fMS PGothic|b0|i0|c128|p50;鋼鈑　}1{\fMS PGothic|b0|i0|c128|p50;ｔ}\P{\fMS PGothic|b0|i0|c128|p50;（亜鉛メッキ板）}
 73
     1
 44
1.0
1001
ACAD
1000
ACAD_MTEXT_COLUMN_INFO_BEGIN
1070
    75
1070
     2
1070
    79
1070
     0
1070
    76
1070
     1
1070
    78
1070
     0
1070
    48
1040
163.0743348696414
1070
    49
1040
12.5
1070
    50
1070
     1
1040
0.0
1000
ACAD_MTEXT_COLUMN_INFO_END
  0
XLINE
  5
1755
330
1F
100
AcDbEntity
  8
オフセット
100
AcDbXline
 10
32915.44093491146
 20
27195.21368348996
 30
0.0
 11
-1.0
 21
0.0
 31
0.0
  0
XLINE
  5
1757
330
1F
100
AcDbEntity
  8
オフセット
100
AcDbXline
 10
34666.38138211558
 20
27902.11527306976
 30
0.0
 11
0.0
 21
-1.0
 31
0.0
  0
XLINE
  5
1759
330
1F
100
AcDbEntity
  8
オフセット
100
AcDbXline
 10
32915.44093491146
 20
27324.06696949225
 30
0.0
 11
-1.0
 21
0.0
 31
0.0
  0
XLINE
  5
17D0
330
1F
100
AcDbEntity
  8
オフセット
100
AcDbXline
 10
32915.44093491146
 20
27445.21368348995
 30
0.0
 11
-1.0
 21
0.0
 31
0.0
  0
XLINE
  5
17D2
330
1F
100
AcDbEntity
  8
オフセット
100
AcDbXline
 10
34618.88138211558
 20
27902.11527306976
 30
0.0
 11
0.0
 21
-1.0
 31
0.0
  0
XLINE
  5
17D3
330
1F
100
AcDbEntity
  8
オフセット
100
AcDbXline
 10
32915.44093491146
 20
27475.21368348996
 30
0.0
 11
-1.0
 21
0.0
 31
0.0
  0
XLINE
  5
17D4
330
1F
100
AcDbEntity
  8
オフセット
100
AcDbXline
 10
32915.44093491146
 20
27165.21368348995
 30
0.0
 11
-1.0
 21
0.0
 31
0.0
  0
XLINE
  5
17D7
330
1F
100
AcDbEntity
  8
オフセット
100
AcDbXline
 10
33437.07906368178
 20
27902.11527306976
 30
0.0
 11
0.0
 21
-1.0
 31
0.0
  0
XLINE
  5
17DD
330
1F
100
AcDbEntity
  8
オフセット
100
AcDbXline
 10
32678.26842177908
 20
26638.05684584568
 30
0.0
 11
-1.0
 21
0.0
 31
0.0
  0
XLINE
  5
17DE
330
1F
100
AcDbEntity
  8
オフセット
100
AcDbXline
 10
34640.88138211558
 20
27902.11527306976
 30
0.0
 11
0.0
 21
-1.0
 31
0.0
  0
XLINE
  5
17DF
330
1F
100
AcDbEntity
  8
オフセット
100
AcDbXline
 10
34640.38138211558
 20
27902.11527306976
 30
0.0
 11
0.0
 21
-1.0
 31
0.0
  0
XLINE
  5
1813
330
1F
100
AcDbEntity
  8
オフセット
100
AcDbXline
 10
32915.44093491146
 20
27384.06696949224
 30
0.0
 11
-1.0
 21
0.0
 31
0.0
  0
XLINE
  5
1814
330
1F
100
AcDbEntity
  8
オフセット
100
AcDbXline
 10
34704.41139354637
 20
27902.11527306976
 30
0.0
 11
0.0
 21
-1.0
 31
0.0
  0
XLINE
  5
23A7
330
1F
100
AcDbEntity
  8
オフセット
100
AcDbXline
 10
32915.44093491146
 20
27795.29808358001
 30
0.0
 11
-1.0
 21
0.0
 31
0.0
  0
XLINE
  5
23A8
330
1F
100
AcDbEntity
  8
オフセット
100
AcDbXline
 10
32915.44093491146
 20
27796.09808358001
 30
0.0
 11
-1.0
 21
0.0
 31
0.0
  0
XLINE
  5
23AB
330
1F
100
AcDbEntity
  8
オフセット
100
AcDbXline
 10
33576.12178851967
 20
27902.11527306976
 30
0.0
 11
0.0
 21
-1.0
 31
0.0
  0
XLINE
  5
23AC
330
1F
100
AcDbEntity
  8
オフセット
100
AcDbXline
 10
34409.12178851966
 20
27902.11527306976
 30
0.0
 11
0.0
 21
-1.0
 31
0.0
  0
XLINE
  5
23AD
330
1F
100
AcDbEntity
  8
オフセット
100
AcDbXline
 10
34407.62178851966
 20
27902.11527306976
 30
0.0
 11
0.0
 21
-1.0
 31
0.0
  0
XLINE
  5
23AE
330
1F
100
AcDbEntity
  8
オフセット
100
AcDbXline
 10
32915.44093491146
 20
27864.04808358001
 30
0.0
 11
-1.0
 21
0.0
 31
0.0
  0
XLINE
  5
23B4
330
1F
100
AcDbEntity
  8
オフセット
100
AcDbXline
 10
32915.44093491146
 20
27997.44632341185
 30
0.0
 11
-1.0
 21
0.0
 31
0.0
  0
LINE
  5
2510
330
1F
100
AcDbEntity
  8
中心線
100
AcDbLine
 10
33652.07570832162
 20
28852.72977163282
 30
0.0
 11
34582.53191476677
 21
28852.72977163282
 31
0.0
  0
LINE
  5
2511
330
1F
100
AcDbEntity
  8
点線
100
AcDbLine
 10
33743.91059996178
 20
28837.62419882382
 30
0.0
 11
33744.69945434378
 21
28837.22977163282
 31
0.0
  0
ARC
  5
2512
330
1F
100
AcDbEntity
  8
点線
100
AcDbCircle
 10
33743.46338636629
 20
28836.72977163282
 30
0.0
 40
1.0
100
AcDbArc
 50
63.43494882293366
 51
90.0
  0
LINE
  5
2513
330
1F
100
AcDbEntity
  8
点線
100
AcDbLine
 10
33744.69945434378
 20
28837.22977163282
 30
0.0
 11
33744.69945434378
 21
28868.22977163282
 31
0.0
  0
LINE
  5
2514
330
1F
100
AcDbEntity
  8
点線
100
AcDbLine
 10
33744.69945434378
 20
28868.22977163282
 30
0.0
 11
33743.91059996178
 21
28867.83534444182
 31
0.0
  0
ARC
  5
2515
330
1F
100
AcDbEntity
  8
点線
100
AcDbCircle
 10
33743.46338636629
 20
28868.72977163282
 30
0.0
 40
1.0
100
AcDbArc
 50
270.0
 51
296.5650511770663
  0
LINE
  5
2516
330
1F
100
AcDbEntity
  8
点線
100
AcDbLine
 10
33743.46338636629
 20
28867.72977163282
 30
0.0
 11
33734.69945434378
 21
28867.72977163282
 31
0.0
  0
LINE
  5
2517
330
1F
100
AcDbEntity
  8
点線
100
AcDbLine
 10
33733.69945434379
 20
28866.72977163282
 30
0.0
 11
33733.69945434379
 21
28838.72977163282
 31
0.0
  0
ARC
  5
2518
330
1F
100
AcDbEntity
  8
点線
100
AcDbCircle
 10
33734.69945434378
 20
28866.72977163282
 30
0.0
 40
1.0
100
AcDbArc
 50
90.0
 51
180.0
  0
LINE
  5
2519
330
1F
100
AcDbEntity
  8
点線
100
AcDbLine
 10
33734.69945434378
 20
28837.72977163282
 30
0.0
 11
33743.46338636629
 21
28837.72977163282
 31
0.0
  0
ARC
  5
251A
330
1F
100
AcDbEntity
  8
点線
100
AcDbCircle
 10
33734.69945434378
 20
28838.72977163282
 30
0.0
 40
1.0
100
AcDbArc
 50
180.0
 51
270.0
  0
LINE
  5
251B
330
1F
100
AcDbEntity
  8
点線
100
AcDbLine
 10
34353.48830872579
 20
28837.62419882382
 30
0.0
 11
34352.69945434379
 21
28837.22977163282
 31
0.0
  0
ARC
  5
251C
330
1F
100
AcDbEntity
  8
点線
100
AcDbCircle
 10
34353.93552232128
 20
28836.72977163282
 30
0.0
 40
1.0
100
AcDbArc
 50
90.0
 51
116.5650511770969
  0
LINE
  5
251D
330
1F
100
AcDbEntity
  8
点線
100
AcDbLine
 10
34352.69945434379
 20
28837.22977163282
 30
0.0
 11
34352.69945434379
 21
28868.22977163282
 31
0.0
  0
LINE
  5
251E
330
1F
100
AcDbEntity
  8
点線
100
AcDbLine
 10
34352.69945434379
 20
28868.22977163282
 30
0.0
 11
34353.48830872579
 21
28867.83534444182
 31
0.0
  0
ARC
  5
251F
330
1F
100
AcDbEntity
  8
点線
100
AcDbCircle
 10
34353.93552232128
 20
28868.72977163282
 30
0.0
 40
1.0
100
AcDbArc
 50
243.4349488229031
 51
270.0
  0
LINE
  5
2520
330
1F
100
AcDbEntity
  8
点線
100
AcDbLine
 10
34353.93552232128
 20
28867.72977163282
 30
0.0
 11
34362.69945434379
 21
28867.72977163282
 31
0.0
  0
LINE
  5
2521
330
1F
100
AcDbEntity
  8
点線
100
AcDbLine
 10
34363.69945434378
 20
28866.72977163282
 30
0.0
 11
34363.69945434378
 21
28838.72977163282
 31
0.0
  0
ARC
  5
2522
330
1F
100
AcDbEntity
  8
点線
100
AcDbCircle
 10
34362.69945434379
 20
28866.72977163282
 30
0.0
 40
1.0
100
AcDbArc
 50
0.0
 51
90.0
  0
LINE
  5
2523
330
1F
100
AcDbEntity
  8
点線
100
AcDbLine
 10
34362.69945434379
 20
28837.72977163282
 30
0.0
 11
34353.93552232128
 21
28837.72977163282
 31
0.0
  0
ARC
  5
2524
330
1F
100
AcDbEntity
  8
点線
100
AcDbCircle
 10
34362.69945434379
 20
28838.72977163282
 30
0.0
 40
1.0
100
AcDbArc
 50
270.0
 51
0.0
  0
LINE
  5
2525
330
1F
100
AcDbEntity
  8
点線
100
AcDbLine
 10
33744.69945434378
 20
28867.22977163282
 30
0.0
 11
34148.69945434378
 21
28867.22977163282
 31
0.0
  0
LINE
  5
2526
330
1F
100
AcDbEntity
  8
点線
100
AcDbLine
 10
34148.69945434378
 20
28867.22977163282
 30
0.0
 11
34352.69945434379
 21
28867.22977163282
 31
0.0
  0
LINE
  5
2527
330
1F
100
AcDbEntity
  8
点線
100
AcDbLine
 10
34352.69945434379
 20
28838.22977163282
 30
0.0
 11
34148.69945434378
 21
28838.22977163282
 31
0.0
  0
LINE
  5
2528
330
1F
100
AcDbEntity
  8
点線
100
AcDbLine
 10
34148.69945434378
 20
28838.22977163282
 30
0.0
 11
33744.69945434378
 21
28838.22977163282
 31
0.0
  0
LINE
  5
252F
330
1F
100
AcDbEntity
  8
外形線
100
AcDbLine
 10
34110.29945434377
 20
28783.97977163283
 30
0.0
 11
33991.29945434377
 21
28783.97977163282
 31
0.0
  0
CIRCLE
  5
262A
330
1F
100
AcDbEntity
  8
孔
100
AcDbCircle
 10
33980.29945434377
 20
29060.3180490479
 30
0.0
 40
2.1
  0
LINE
  5
2659
330
1F
100
AcDbEntity
  8
外形線
100
AcDbLine
 10
34520.91956707687
 20
28783.97977198184
 30
0.0
 11
34522.96956707687
 21
28783.97977198184
 31
0.0
  0
LINE
  5
265A
330
1F
100
AcDbEntity
  8
外形線
100
AcDbLine
 10
34522.96956707687
 20
28783.97977198184
 30
0.0
 11
34522.96956707687
 21
28779.67977198184
 31
0.0
  0
LINE
  5
265B
330
1F
100
AcDbEntity
  8
外形線
100
AcDbLine
 10
34522.96956707687
 20
28779.67977198184
 30
0.0
 11
34522.36956707687
 21
28779.67977198184
 31
0.0
  0
LINE
  5
265C
330
1F
100
AcDbEntity
  8
外形線
100
AcDbLine
 10
34522.36956707687
 20
28779.67977198184
 30
0.0
 11
34522.36956707687
 21
28783.37977198184
 31
0.0
  0
LINE
  5
265D
330
1F
100
AcDbEntity
  8
外形線
100
AcDbLine
 10
34522.36956707687
 20
28783.37977198184
 30
0.0
 11
34521.51956707687
 21
28783.37977198184
 31
0.0
  0
LINE
  5
2662
330
1F
100
AcDbEntity
  8
外形線
100
AcDbLine
 10
34543.91956707687
 20
28783.37977198184
 30
0.0
 11
34543.06956707687
 21
28783.37977198184
 31
0.0
  0
LINE
  5
2663
330
1F
100
AcDbEntity
  8
外形線
100
AcDbLine
 10
34543.06956707687
 20
28783.37977198184
 30
0.0
 11
34543.06956707687
 21
28779.67977198184
 31
0.0
  0
LINE
  5
2664
330
1F
100
AcDbEntity
  8
外形線
100
AcDbLine
 10
34543.06956707687
 20
28779.67977198184
 30
0.0
 11
34542.46956707687
 21
28779.67977198184
 31
0.0
  0
LINE
  5
2665
330
1F
100
AcDbEntity
  8
外形線
100
AcDbLine
 10
34542.46956707687
 20
28779.67977198184
 30
0.0
 11
34542.46956707687
 21
28783.97977198184
 31
0.0
  0
LINE
  5
2666
330
1F
100
AcDbEntity
  8
外形線
100
AcDbLine
 10
34542.46956707687
 20
28783.97977198184
 30
0.0
 11
34544.51956707687
 21
28783.97977198184
 31
0.0
  0
LINE
  5
266C
330
1F
100
AcDbEntity
  8
外形線
100
AcDbLine
 10
34522.96956707687
 20
28779.97977198184
 30
0.0
 11
34542.46956707687
 21
28779.97977198184
 31
0.0
  0
LINE
  5
2698
330
1F
100
AcDbEntity
  8
外形線
100
AcDbLine
 10
34520.91956707687
 20
28783.97977198184
 30
0.0
 11
34522.96956707687
 21
28783.97977198184
 31
0.0
  0
LINE
  5
2699
330
1F
100
AcDbEntity
  8
外形線
100
AcDbLine
 10
34522.96956707687
 20
28783.97977198184
 30
0.0
 11
34522.96956707687
 21
28779.67977198184
 31
0.0
  0
LINE
  5
269A
330
1F
100
AcDbEntity
  8
外形線
100
AcDbLine
 10
34522.96956707687
 20
28779.67977198184
 30
0.0
 11
34522.36956707687
 21
28779.67977198184
 31
0.0
  0
LINE
  5
269B
330
1F
100
AcDbEntity
  8
外形線
100
AcDbLine
 10
34522.36956707687
 20
28779.67977198184
 30
0.0
 11
34522.36956707687
 21
28783.37977198184
 31
0.0
  0
LINE
  5
269C
330
1F
100
AcDbEntity
  8
外形線
100
AcDbLine
 10
34522.36956707687
 20
28783.37977198184
 30
0.0
 11
34521.51956707687
 21
28783.37977198184
 31
0.0
  0
LINE
  5
269D
330
1F
100
AcDbEntity
  8
外形線
100
AcDbLine
 10
34543.91956707687
 20
28783.37977198184
 30
0.0
 11
34543.06956707687
 21
28783.37977198184
 31
0.0
  0
LINE
  5
269E
330
1F
100
AcDbEntity
  8
外形線
100
AcDbLine
 10
34543.06956707687
 20
28783.37977198184
 30
0.0
 11
34543.06956707687
 21
28779.67977198184
 31
0.0
  0
LINE
  5
269F
330
1F
100
AcDbEntity
  8
外形線
100
AcDbLine
 10
34543.06956707687
 20
28779.67977198184
 30
0.0
 11
34542.46956707687
 21
28779.67977198184
 31
0.0
  0
LINE
  5
26A0
330
1F
100
AcDbEntity
  8
外形線
100
AcDbLine
 10
34542.46956707687
 20
28779.67977198184
 30
0.0
 11
34542.46956707687
 21
28783.97977198184
 31
0.0
  0
LINE
  5
26A1
330
1F
100
AcDbEntity
  8
外形線
100
AcDbLine
 10
34542.46956707687
 20
28783.97977198184
 30
0.0
 11
34544.51956707687
 21
28783.97977198184
 31
0.0
  0
LINE
  5
26B1
330
1F
100
AcDbEntity
  8
外形線
100
AcDbLine
 10
34522.96956707687
 20
28785.97977163283
 30
0.0
 11
34529.76956707688
 21
28785.97977163283
 31
0.0
  0
LINE
  5
26B2
330
1F
100
AcDbEntity
  8
外形線
100
AcDbLine
 10
34535.66956707688
 20
28785.97977163283
 30
0.0
 11
34542.46956707687
 21
28785.97977163283
 31
0.0
  0
CIRCLE
  5
26BB
330
1F
100
AcDbEntity
  8
孔
100
AcDbCircle
 10
34532.71956707688
 20
28785.97977163283
 30
0.0
 40
2.95
  0
LINE
  5
26D4
330
1F
100
AcDbEntity
  8
中心線
100
AcDbLine
 10
34341.69945434378
 20
29108.08326402911
 30
0.0
 11
34341.69945434378
 21
28749.07647857492
 31
0.0
  0
LINE
  5
26D6
330
1F
100
AcDbEntity
  8
外形線
100
AcDbLine
 10
34110.29945434377
 20
28783.97977163282
 30
0.0
 11
33991.29945434377
 21
28783.97977163282
 31
0.0
  0
LINE
  5
26D7
330
1F
100
AcDbEntity
  8
外形線
100
AcDbLine
 10
33819.09945434379
 20
28784.77977163282
 30
0.0
 11
33819.09945434379
 21
28777.07977163283
 31
0.0
  0
LINE
  5
26D8
330
1F
100
AcDbEntity
  8
外形線
100
AcDbLine
 10
33819.09945434379
 20
28777.07977163283
 30
0.0
 11
33914.0994543438
 21
28777.07977163283
 31
0.0
  0
LINE
  5
26D9
330
1F
100
AcDbEntity
  8
外形線
100
AcDbLine
 10
33914.0994543438
 20
28777.07977163283
 30
0.0
 11
33914.0994543438
 21
28784.77977163282
 31
0.0
  0
LINE
  5
26DA
330
1F
100
AcDbEntity
  8
外形線
100
AcDbLine
 10
33914.0994543438
 20
28784.77977163282
 30
0.0
 11
33819.09945434379
 21
28784.77977163282
 31
0.0
  0
LINE
  5
26DB
330
1F
100
AcDbEntity
  8
外形線
100
AcDbLine
 10
33823.09945434379
 20
28804.27977163282
 30
0.0
 11
33823.09945434379
 21
28785.27977163282
 31
0.0
  0
LINE
  5
26DC
330
1F
100
AcDbEntity
  8
外形線
100
AcDbLine
 10
33823.59945434379
 20
28784.77977163282
 30
0.0
 11
33845.09945434379
 21
28784.77977163282
 31
0.0
  0
ARC
  5
26DD
330
1F
100
AcDbEntity
  8
外形線
100
AcDbCircle
 10
33823.59945434379
 20
28785.27977163282
 30
0.0
 40
0.5
100
AcDbArc
 50
180.0
 51
270.0
  0
LINE
  5
26DE
330
1F
100
AcDbEntity
  8
外形線
100
AcDbLine
 10
33845.09945434379
 20
28793.77977163283
 30
0.0
 11
33845.09945434379
 21
28804.27977163282
 31
0.0
  0
ARC
  5
26DF
330
1F
100
AcDbEntity
  8
外形線
100
AcDbCircle
 10
33844.59945434379
 20
28804.27977163282
 30
0.0
 40
0.5
100
AcDbArc
 50
0.0
 51
90.0
  0
LINE
  5
26E0
330
1F
100
AcDbEntity
  8
外形線
100
AcDbLine
 10
33844.59945434379
 20
28804.77977163283
 30
0.0
 11
33823.59945434379
 21
28804.77977163283
 31
0.0
  0
ARC
  5
26E1
330
1F
100
AcDbEntity
  8
外形線
100
AcDbCircle
 10
33823.59945434379
 20
28804.27977163282
 30
0.0
 40
0.5
100
AcDbArc
 50
90.0
 51
180.0
  0
LINE
  5
26E2
330
1F
100
AcDbEntity
  8
外形線
100
AcDbLine
 10
33845.09945434379
 20
28784.77977163282
 30
0.0
 11
33856.59945434379
 21
28784.77977163282
 31
0.0
  0
LINE
  5
26E3
330
1F
100
AcDbEntity
  8
外形線
100
AcDbLine
 10
33857.09945434379
 20
28785.27977163282
 30
0.0
 11
33857.09945434379
 21
28793.27977163283
 31
0.0
  0
ARC
  5
26E4
330
1F
100
AcDbEntity
  8
外形線
100
AcDbCircle
 10
33856.59945434379
 20
28785.27977163282
 30
0.0
 40
0.5
100
AcDbArc
 50
270.0
 51
0.0
  0
ARC
  5
26E5
330
1F
100
AcDbEntity
  8
外形線
100
AcDbCircle
 10
33856.59945434379
 20
28793.27977163283
 30
0.0
 40
0.5
100
AcDbArc
 50
0.0
 51
90.0
  0
LINE
  5
26E6
330
1F
100
AcDbEntity
  8
外形線
100
AcDbLine
 10
33857.09945434379
 20
28793.77977163283
 30
0.0
 11
33845.09945434379
 21
28793.77977163283
 31
0.0
  0
LINE
  5
26E7
330
1F
100
AcDbEntity
  8
外形線
100
AcDbLine
 10
33845.59945434379
 20
28793.77977163283
 30
0.0
 11
33845.59945434379
 21
28795.27977163283
 31
0.0
  0
LINE
  5
26E8
330
1F
100
AcDbEntity
  8
外形線
100
AcDbLine
 10
33846.09945434379
 20
28795.77977163283
 30
0.0
 11
33856.59945434379
 21
28795.77977163283
 31
0.0
  0
ARC
  5
26E9
330
1F
100
AcDbEntity
  8
外形線
100
AcDbCircle
 10
33846.09945434379
 20
28795.27977163283
 30
0.0
 40
0.5
100
AcDbArc
 50
90.0
 51
180.0
  0
LINE
  5
26EA
330
1F
100
AcDbEntity
  8
外形線
100
AcDbLine
 10
33857.09945434379
 20
28795.27977163283
 30
0.0
 11
33857.09945434379
 21
28793.77977163283
 31
0.0
  0
ARC
  5
26EB
330
1F
100
AcDbEntity
  8
外形線
100
AcDbCircle
 10
33856.59945434379
 20
28795.27977163283
 30
0.0
 40
0.5
100
AcDbArc
 50
0.0
 51
90.0
  0
LINE
  5
26EC
330
1F
100
AcDbEntity
  8
中心線
 48
0.05
100
AcDbLine
 10
33834.0994543438
 20
28787.77977163283
 30
0.0
 11
33834.0994543438
 21
28781.77977163283
 31
0.0
  0
LINE
  5
26ED
330
1F
100
AcDbEntity
  8
外形線
100
AcDbLine
 10
33969.29945434377
 20
28785.57977163282
 30
0.0
 11
33969.29945434377
 21
28777.87977163283
 31
0.0
  0
LINE
  5
26EE
330
1F
100
AcDbEntity
  8
外形線
100
AcDbLine
 10
33969.29945434377
 20
28777.87977163283
 30
0.0
 11
33991.29945434377
 21
28777.87977163283
 31
0.0
  0
LINE
  5
26EF
330
1F
100
AcDbEntity
  8
外形線
100
AcDbLine
 10
33991.29945434377
 20
28777.87977163283
 30
0.0
 11
33991.29945434377
 21
28785.57977163282
 31
0.0
  0
LINE
  5
26F0
330
1F
100
AcDbEntity
  8
外形線
100
AcDbLine
 10
33991.29945434377
 20
28785.57977163282
 30
0.0
 11
33988.29945434377
 21
28785.57977163282
 31
0.0
  0
LINE
  5
26F1
330
1F
100
AcDbEntity
  8
外形線
100
AcDbLine
 10
33985.29945434377
 20
28785.57977163282
 30
0.0
 11
33975.29945434377
 21
28785.57977163282
 31
0.0
  0
LINE
  5
26F2
330
1F
100
AcDbEntity
  8
外形線
100
AcDbLine
 10
33972.29945434377
 20
28785.57977163282
 30
0.0
 11
33969.29945434377
 21
28785.57977163282
 31
0.0
  0
LINE
  5
26F3
330
1F
100
AcDbEntity
  8
外形線
100
AcDbLine
 10
33972.29945434377
 20
28785.57977163282
 30
0.0
 11
33973.29945434377
 21
28784.77977163282
 31
0.0
  0
LINE
  5
26F4
330
1F
100
AcDbEntity
  8
外形線
100
AcDbLine
 10
33973.29945434377
 20
28784.77977163282
 30
0.0
 11
33974.29945434377
 21
28784.77977163282
 31
0.0
  0
LINE
  5
26F5
330
1F
100
AcDbEntity
  8
外形線
100
AcDbLine
 10
33974.29945434377
 20
28784.77977163282
 30
0.0
 11
33975.29945434377
 21
28785.57977163282
 31
0.0
  0
LINE
  5
26F6
330
1F
100
AcDbEntity
  8
外形線
100
AcDbLine
 10
33985.29945434377
 20
28785.57977163282
 30
0.0
 11
33986.29945434377
 21
28784.77977163282
 31
0.0
  0
LINE
  5
26F7
330
1F
100
AcDbEntity
  8
外形線
100
AcDbLine
 10
33986.29945434377
 20
28784.77977163282
 30
0.0
 11
33987.29945434377
 21
28784.77977163282
 31
0.0
  0
LINE
  5
26F8
330
1F
100
AcDbEntity
  8
外形線
100
AcDbLine
 10
33987.29945434377
 20
28784.77977163282
 30
0.0
 11
33988.29945434377
 21
28785.57977163282
 31
0.0
  0
LINE
  5
26F9
330
1F
100
AcDbEntity
  8
外形線
100
AcDbLine
 10
34110.29945434377
 20
28785.57977163282
 30
0.0
 11
34110.29945434377
 21
28777.87977163283
 31
0.0
  0
LINE
  5
26FA
330
1F
100
AcDbEntity
  8
外形線
100
AcDbLine
 10
34110.29945434377
 20
28777.87977163283
 30
0.0
 11
34132.29945434377
 21
28777.87977163283
 31
0.0
  0
LINE
  5
26FB
330
1F
100
AcDbEntity
  8
外形線
100
AcDbLine
 10
34132.29945434377
 20
28777.87977163283
 30
0.0
 11
34132.29945434377
 21
28785.57977163282
 31
0.0
  0
LINE
  5
26FC
330
1F
100
AcDbEntity
  8
外形線
100
AcDbLine
 10
34132.29945434377
 20
28785.57977163282
 30
0.0
 11
34129.29945434377
 21
28785.57977163282
 31
0.0
  0
LINE
  5
26FD
330
1F
100
AcDbEntity
  8
外形線
100
AcDbLine
 10
34126.29945434377
 20
28785.57977163282
 30
0.0
 11
34116.29945434377
 21
28785.57977163282
 31
0.0
  0
LINE
  5
26FE
330
1F
100
AcDbEntity
  8
外形線
100
AcDbLine
 10
34113.29945434377
 20
28785.57977163282
 30
0.0
 11
34110.29945434377
 21
28785.57977163282
 31
0.0
  0
LINE
  5
26FF
330
1F
100
AcDbEntity
  8
外形線
100
AcDbLine
 10
34113.29945434377
 20
28785.57977163282
 30
0.0
 11
34114.29945434377
 21
28784.77977163282
 31
0.0
  0
LINE
  5
2700
330
1F
100
AcDbEntity
  8
外形線
100
AcDbLine
 10
34114.29945434377
 20
28784.77977163282
 30
0.0
 11
34115.29945434377
 21
28784.77977163282
 31
0.0
  0
LINE
  5
2701
330
1F
100
AcDbEntity
  8
外形線
100
AcDbLine
 10
34115.29945434377
 20
28784.77977163282
 30
0.0
 11
34116.29945434377
 21
28785.57977163282
 31
0.0
  0
LINE
  5
2702
330
1F
100
AcDbEntity
  8
外形線
100
AcDbLine
 10
34126.29945434377
 20
28785.57977163282
 30
0.0
 11
34127.29945434377
 21
28784.77977163282
 31
0.0
  0
LINE
  5
2703
330
1F
100
AcDbEntity
  8
外形線
100
AcDbLine
 10
34127.29945434377
 20
28784.77977163282
 30
0.0
 11
34128.29945434377
 21
28784.77977163282
 31
0.0
  0
LINE
  5
2704
330
1F
100
AcDbEntity
  8
外形線
100
AcDbLine
 10
34128.29945434377
 20
28784.77977163282
 30
0.0
 11
34129.29945434377
 21
28785.57977163282
 31
0.0
  0
LINE
  5
2705
330
1F
100
AcDbEntity
  8
外形線
100
AcDbLine
 10
33986.59945434377
 20
28809.57977163282
 30
0.0
 11
33986.59945434377
 21
28785.57977163282
 31
0.0
  0
LINE
  5
2706
330
1F
100
AcDbEntity
  8
外形線
100
AcDbLine
 10
33986.59945434377
 20
28785.57977163282
 30
0.0
 11
34113.59945434377
 21
28785.57977163282
 31
0.0
  0
LINE
  5
2707
330
1F
100
AcDbEntity
  8
外形線
100
AcDbLine
 10
34113.59945434377
 20
28785.57977163282
 30
0.0
 11
34113.59945434377
 21
28809.57977163282
 31
0.0
  0
ARC
  5
2708
330
1F
100
AcDbEntity
  8
外形線
100
AcDbCircle
 10
34112.59945434377
 20
28809.57977163282
 30
0.0
 40
1.0
100
AcDbArc
 50
0.0
 51
90.0
  0
LINE
  5
2709
330
1F
100
AcDbEntity
  8
外形線
100
AcDbLine
 10
34112.59945434377
 20
28810.57977163282
 30
0.0
 11
33987.59945434377
 21
28810.57977163282
 31
0.0
  0
ARC
  5
270A
330
1F
100
AcDbEntity
  8
外形線
100
AcDbCircle
 10
33987.59945434377
 20
28809.57977163282
 30
0.0
 40
1.0
100
AcDbArc
 50
90.0
 51
180.0
  0
LINE
  5
270B
330
1F
100
AcDbEntity
  8
外形線
100
AcDbLine
 10
33986.59945434377
 20
28793.57977163282
 30
0.0
 11
33982.99945434377
 21
28787.57977163282
 31
0.0
  0
LINE
  5
270C
330
1F
100
AcDbEntity
  8
外形線
100
AcDbLine
 10
33982.99945434377
 20
28787.57977163282
 30
0.0
 11
33975.09945434377
 21
28787.57977163282
 31
0.0
  0
LINE
  5
270D
330
1F
100
AcDbEntity
  8
外形線
100
AcDbLine
 10
33974.59945434377
 20
28787.07977163283
 30
0.0
 11
33974.59945434377
 21
28785.57977163282
 31
0.0
  0
ARC
  5
270E
330
1F
100
AcDbEntity
  8
外形線
100
AcDbCircle
 10
33975.09945434377
 20
28787.07977163283
 30
0.0
 40
0.5
100
AcDbArc
 50
90.0
 51
180.0
  0
LINE
  5
270F
330
1F
100
AcDbEntity
  8
外形線
100
AcDbLine
 10
33974.59945434377
 20
28785.57977163282
 30
0.0
 11
33986.59945434377
 21
28785.57977163282
 31
0.0
  0
LINE
  5
2710
330
1F
100
AcDbEntity
  8
外形線
100
AcDbLine
 10
34113.59945434377
 20
28793.57977163282
 30
0.0
 11
34117.19945434377
 21
28787.57977163282
 31
0.0
  0
LINE
  5
2711
330
1F
100
AcDbEntity
  8
外形線
100
AcDbLine
 10
34117.19945434377
 20
28787.57977163282
 30
0.0
 11
34125.09945434377
 21
28787.57977163282
 31
0.0
  0
LINE
  5
2712
330
1F
100
AcDbEntity
  8
外形線
100
AcDbLine
 10
34125.59945434377
 20
28787.07977163283
 30
0.0
 11
34125.59945434377
 21
28785.57977163282
 31
0.0
  0
ARC
  5
2713
330
1F
100
AcDbEntity
  8
外形線
100
AcDbCircle
 10
34125.09945434377
 20
28787.07977163283
 30
0.0
 40
0.5
100
AcDbArc
 50
0.0
 51
90.0
  0
LINE
  5
2714
330
1F
100
AcDbEntity
  8
外形線
100
AcDbLine
 10
34125.59945434377
 20
28785.57977163282
 30
0.0
 11
34113.59945434377
 21
28785.57977163282
 31
0.0
  0
LINE
  5
2715
102
{ACAD_REACTORS
330
2D8B
330
2DA5
102
}
330
1F
100
AcDbEntity
  8
中心線
100
AcDbLine
 10
34532.71956707687
 20
28871.97977163283
 30
0.0
 11
34532.71956707687
 21
28761.354941536
 31
0.0
  0
CIRCLE
  5
2716
330
1F
100
AcDbEntity
  8
孔
100
AcDbCircle
 10
33980.29945434377
 20
29060.3180490479
 30
0.0
 40
2.1
  0
CIRCLE
  5
2719
330
1F
100
AcDbEntity
  8
外形線
100
AcDbCircle
 10
33980.29945434377
 20
29060.3180490479
 30
0.0
 40
2.149999999999999
  0
LINE
  5
271A
330
1F
100
AcDbEntity
  8
外形線
100
AcDbLine
 10
33969.29945434377
 20
29073.81804904789
 30
0.0
 11
33969.29945434377
 21
29046.81804904789
 31
0.0
  0
LINE
  5
271B
330
1F
100
AcDbEntity
  8
外形線
100
AcDbLine
 10
33969.29945434377
 20
29046.81804904789
 30
0.0
 11
33986.59945434377
 21
29046.81804904789
 31
0.0
  0
LINE
  5
271C
330
1F
100
AcDbEntity
  8
外形線
100
AcDbLine
 10
33986.59945434377
 20
29073.81804904789
 30
0.0
 11
33969.29945434377
 21
29073.81804904789
 31
0.0
  0
LINE
  5
271D
330
1F
100
AcDbEntity
  8
外形線
100
AcDbLine
 10
33972.29945434377
 20
29073.81804904789
 30
0.0
 11
33972.29945434377
 21
29046.81804904789
 31
0.0
  0
LINE
  5
271E
330
1F
100
AcDbEntity
  8
外形線
100
AcDbLine
 10
33975.29945434377
 20
29046.81804904789
 30
0.0
 11
33975.29945434376
 21
29054.3180490479
 31
0.0
  0
LINE
  5
271F
330
1F
100
AcDbEntity
  8
外形線
100
AcDbLine
 10
33975.29945434376
 20
29058.01804904789
 30
0.0
 11
33975.29945434377
 21
29062.6180490479
 31
0.0
  0
LINE
  5
2720
330
1F
100
AcDbEntity
  8
外形線
100
AcDbLine
 10
33975.29945434377
 20
29066.31804904789
 30
0.0
 11
33975.29945434377
 21
29073.81804904789
 31
0.0
  0
LINE
  5
2721
330
1F
100
AcDbEntity
  8
外形線
100
AcDbLine
 10
33985.29945434377
 20
29073.81804904789
 30
0.0
 11
33985.29945434377
 21
29066.31804904789
 31
0.0
  0
LINE
  5
2722
330
1F
100
AcDbEntity
  8
外形線
100
AcDbLine
 10
33985.29945434377
 20
29054.3180490479
 30
0.0
 11
33985.29945434377
 21
29046.81804904789
 31
0.0
  0
CIRCLE
  5
2723
330
1F
100
AcDbEntity
  8
外形線
100
AcDbCircle
 10
34121.29945434377
 20
29060.3180490479
 30
0.0
 40
2.149999999999999
  0
LINE
  5
2724
330
1F
100
AcDbEntity
  8
外形線
100
AcDbLine
 10
34113.59945434377
 20
29046.81804904789
 30
0.0
 11
34132.29945434377
 21
29046.81804904789
 31
0.0
  0
LINE
  5
2725
330
1F
100
AcDbEntity
  8
外形線
100
AcDbLine
 10
34132.29945434377
 20
29046.81804904789
 30
0.0
 11
34132.29945434377
 21
29073.81804904789
 31
0.0
  0
LINE
  5
2726
330
1F
100
AcDbEntity
  8
外形線
100
AcDbLine
 10
34132.29945434377
 20
29073.81804904789
 30
0.0
 11
34113.59945434377
 21
29073.81804904789
 31
0.0
  0
LINE
  5
2727
330
1F
100
AcDbEntity
  8
外形線
100
AcDbLine
 10
34116.29945434377
 20
29046.81804904789
 30
0.0
 11
34116.29945434377
 21
29054.3180490479
 31
0.0
  0
LINE
  5
2728
330
1F
100
AcDbEntity
  8
外形線
100
AcDbLine
 10
34116.29945434377
 20
29066.3180490479
 30
0.0
 11
34116.29945434377
 21
29073.81804904789
 31
0.0
  0
LINE
  5
2729
330
1F
100
AcDbEntity
  8
外形線
100
AcDbLine
 10
34126.29945434377
 20
29073.81804904789
 30
0.0
 11
34126.29945434377
 21
29046.81804904789
 31
0.0
  0
LINE
  5
272A
330
1F
100
AcDbEntity
  8
外形線
100
AcDbLine
 10
34129.29945434377
 20
29046.81804904789
 30
0.0
 11
34129.29945434377
 21
29073.81804904789
 31
0.0
  0
LINE
  5
272B
330
1F
100
AcDbEntity
  8
外形線
100
AcDbLine
 10
33986.59945434377
 20
29076.3180490479
 30
0.0
 11
33986.59945434377
 21
29044.3180490479
 31
0.0
  0
ARC
  5
272C
330
1F
100
AcDbEntity
  8
外形線
100
AcDbCircle
 10
33987.59945434377
 20
29076.3180490479
 30
0.0
 40
1.0
100
AcDbArc
 50
90.0
 51
180.0
  0
LINE
  5
272D
330
1F
100
AcDbEntity
  8
外形線
100
AcDbLine
 10
33987.59945434377
 20
29043.31804904789
 30
0.0
 11
34112.59945434377
 21
29043.31804904789
 31
0.0
  0
ARC
  5
272E
330
1F
100
AcDbEntity
  8
外形線
100
AcDbCircle
 10
33987.59945434377
 20
29044.3180490479
 30
0.0
 40
1.0
100
AcDbArc
 50
180.0
 51
270.0
  0
LINE
  5
272F
330
1F
100
AcDbEntity
  8
外形線
100
AcDbLine
 10
34113.59945434377
 20
29044.3180490479
 30
0.0
 11
34113.59945434377
 21
29076.3180490479
 31
0.0
  0
ARC
  5
2730
330
1F
100
AcDbEntity
  8
外形線
100
AcDbCircle
 10
34112.59945434377
 20
29044.3180490479
 30
0.0
 40
1.0
100
AcDbArc
 50
270.0
 51
0.0
  0
LINE
  5
2731
330
1F
100
AcDbEntity
  8
外形線
100
AcDbLine
 10
34112.59945434377
 20
29077.31804904789
 30
0.0
 11
33987.59945434377
 21
29077.31804904789
 31
0.0
  0
ARC
  5
2732
330
1F
100
AcDbEntity
  8
外形線
100
AcDbCircle
 10
34112.59945434377
 20
29076.3180490479
 30
0.0
 40
1.0
100
AcDbArc
 50
0.0
 51
90.0
  0
LINE
  5
2733
330
1F
100
AcDbEntity
  8
外形線
100
AcDbLine
 10
33986.59945434377
 20
29066.31804904789
 30
0.0
 11
33974.89945434378
 21
29066.31804904789
 31
0.0
  0
LINE
  5
2734
330
1F
100
AcDbEntity
  8
外形線
100
AcDbLine
 10
33974.59945434377
 20
29066.01804904789
 30
0.0
 11
33974.59945434377
 21
29062.9180490479
 31
0.0
  0
ARC
  5
2735
330
1F
100
AcDbEntity
  8
外形線
100
AcDbCircle
 10
33974.89945434378
 20
29062.9180490479
 30
0.0
 40
0.3
100
AcDbArc
 50
180.0
 51
270.0
  0
ARC
  5
2736
330
1F
100
AcDbEntity
  8
外形線
100
AcDbCircle
 10
33974.89945434378
 20
29066.01804904789
 30
0.0
 40
0.3
100
AcDbArc
 50
90.0
 51
180.0
  0
LINE
  5
2737
330
1F
100
AcDbEntity
  8
外形線
100
AcDbLine
 10
33974.89945434378
 20
29062.6180490479
 30
0.0
 11
33980.29945434377
 21
29062.6180490479
 31
0.0
  0
LINE
  5
2738
330
1F
100
AcDbEntity
  8
外形線
100
AcDbLine
 10
33980.29945434377
 20
29058.01804904789
 30
0.0
 11
33974.89945434378
 21
29058.01804904789
 31
0.0
  0
ARC
  5
2739
330
1F
100
AcDbEntity
  8
外形線
100
AcDbCircle
 10
33974.89945434378
 20
29057.71804904789
 30
0.0
 40
0.3
100
AcDbArc
 50
90.0
 51
180.0
  0
LINE
  5
273A
330
1F
100
AcDbEntity
  8
外形線
100
AcDbLine
 10
33974.59945434377
 20
29057.71804904789
 30
0.0
 11
33974.59945434377
 21
29054.6180490479
 31
0.0
  0
LINE
  5
273B
330
1F
100
AcDbEntity
  8
外形線
100
AcDbLine
 10
33974.89945434378
 20
29054.3180490479
 30
0.0
 11
33986.59945434377
 21
29054.3180490479
 31
0.0
  0
ARC
  5
273C
330
1F
100
AcDbEntity
  8
外形線
100
AcDbCircle
 10
33974.89945434378
 20
29054.6180490479
 30
0.0
 40
0.3
100
AcDbArc
 50
180.0
 51
270.0
  0
ARC
  5
273D
330
1F
100
AcDbEntity
  8
外形線
100
AcDbCircle
 10
33980.29945434377
 20
29060.3180490479
 30
0.0
 40
2.30000000000291
100
AcDbArc
 50
270.0
 51
90.0
  0
ARC
  5
273E
330
1F
100
AcDbEntity
  8
外形線
100
AcDbCircle
 10
33983.26489341986
 20
29059.29362972181
 30
0.0
 40
6.030264183238933
100
AcDbArc
 50
56.42892761935578
 51
91.07027083668739
  0
ARC
  5
273F
330
1F
100
AcDbEntity
  8
外形線
100
AcDbCircle
 10
33983.14945434377
 20
29065.47281568593
 30
0.0
 40
0.15
100
AcDbArc
 50
180.0
 51
271.0702708366873
  0
LINE
  5
2740
330
1F
100
AcDbEntity
  8
外形線
100
AcDbLine
 10
33982.99945434377
 20
29066.31804904789
 30
0.0
 11
33982.99945434377
 21
29065.47281568593
 31
0.0
  0
ARC
  5
2741
330
1F
100
AcDbEntity
  8
外形線
100
AcDbCircle
 10
33983.26489341986
 20
29061.34246837398
 30
0.0
 40
6.030264183238933
100
AcDbArc
 50
268.9297291633126
 51
303.5710723806428
  0
ARC
  5
2742
330
1F
100
AcDbEntity
  8
外形線
100
AcDbCircle
 10
33983.14945434377
 20
29055.16328240986
 30
0.0
 40
0.15
100
AcDbArc
 50
88.9297291633126
 51
180.0
  0
LINE
  5
2743
330
1F
100
AcDbEntity
  8
外形線
100
AcDbLine
 10
33982.99945434377
 20
29054.3180490479
 30
0.0
 11
33982.99945434377
 21
29055.16328240986
 31
0.0
  0
LINE
  5
2744
330
1F
100
AcDbEntity
  8
外形線
100
AcDbLine
 10
34113.59945434377
 20
29066.31804904789
 30
0.0
 11
34125.29945434377
 21
29066.31804904789
 31
0.0
  0
LINE
  5
2745
330
1F
100
AcDbEntity
  8
外形線
100
AcDbLine
 10
34125.59945434377
 20
29066.01804904789
 30
0.0
 11
34125.59945434377
 21
29062.9180490479
 31
0.0
  0
ARC
  5
2746
330
1F
100
AcDbEntity
  8
外形線
100
AcDbCircle
 10
34125.29945434377
 20
29062.9180490479
 30
0.0
 40
0.3
100
AcDbArc
 50
270.0
 51
0.0
  0
ARC
  5
2747
330
1F
100
AcDbEntity
  8
外形線
100
AcDbCircle
 10
34125.29945434377
 20
29066.01804904789
 30
0.0
 40
0.3
100
AcDbArc
 50
0.0
 51
90.0
  0
LINE
  5
2748
330
1F
100
AcDbEntity
  8
外形線
100
AcDbLine
 10
34125.29945434377
 20
29062.6180490479
 30
0.0
 11
34119.89945434378
 21
29062.6180490479
 31
0.0
  0
LINE
  5
2749
330
1F
100
AcDbEntity
  8
外形線
100
AcDbLine
 10
34119.89945434378
 20
29058.01804904789
 30
0.0
 11
34125.29945434377
 21
29058.01804904789
 31
0.0
  0
LINE
  5
274A
330
1F
100
AcDbEntity
  8
外形線
100
AcDbLine
 10
34125.59945434377
 20
29057.71804904789
 30
0.0
 11
34125.59945434377
 21
29054.6180490479
 31
0.0
  0
ARC
  5
274B
330
1F
100
AcDbEntity
  8
外形線
100
AcDbCircle
 10
34125.29945434377
 20
29057.71804904789
 30
0.0
 40
0.3
100
AcDbArc
 50
0.0
 51
90.0
  0
ARC
  5
274C
330
1F
100
AcDbEntity
  8
外形線
100
AcDbCircle
 10
34125.29945434377
 20
29054.6180490479
 30
0.0
 40
0.3
100
AcDbArc
 50
270.0
 51
0.0
  0
LINE
  5
274D
330
1F
100
AcDbEntity
  8
外形線
100
AcDbLine
 10
34125.29945434377
 20
29054.3180490479
 30
0.0
 11
34113.59945434377
 21
29054.3180490479
 31
0.0
  0
ARC
  5
274E
330
1F
100
AcDbEntity
  8
外形線
100
AcDbCircle
 10
34119.89945434378
 20
29060.3180490479
 30
0.0
 40
2.30000000000291
100
AcDbArc
 50
90.0
 51
270.0
  0
ARC
  5
274F
330
1F
100
AcDbEntity
  8
外形線
100
AcDbCircle
 10
34116.93401526768
 20
29059.29362972181
 30
0.0
 40
6.030264183238933
100
AcDbArc
 50
88.9297291633126
 51
123.5710723801803
  0
ARC
  5
2750
330
1F
100
AcDbEntity
  8
外形線
100
AcDbCircle
 10
34117.04945434377
 20
29065.47281568593
 30
0.0
 40
0.15
100
AcDbArc
 50
268.9297291633126
 51
0.0
  0
LINE
  5
2751
330
1F
100
AcDbEntity
  8
外形線
100
AcDbLine
 10
34117.19945434377
 20
29066.31804904789
 30
0.0
 11
34117.19945434377
 21
29065.47281568593
 31
0.0
  0
ARC
  5
2752
330
1F
100
AcDbEntity
  8
外形線
100
AcDbCircle
 10
34116.93401526768
 20
29061.34246837398
 30
0.0
 40
6.030264183238933
100
AcDbArc
 50
236.4289276198169
 51
271.0702708366873
  0
ARC
  5
2753
330
1F
100
AcDbEntity
  8
外形線
100
AcDbCircle
 10
34117.04945434377
 20
29055.16328240986
 30
0.0
 40
0.15
100
AcDbArc
 50
0.0
 51
91.07027083668739
  0
LINE
  5
2754
330
1F
100
AcDbEntity
  8
外形線
100
AcDbLine
 10
34117.19945434377
 20
29054.3180490479
 30
0.0
 11
34117.19945434377
 21
29055.16328240986
 31
0.0
  0
LINE
  5
2755
330
1F
100
AcDbEntity
  8
外形線
100
AcDbLine
 10
34000.09945434377
 20
29071.81804904789
 30
0.0
 11
34000.09945434377
 21
29048.81804904789
 31
0.0
  0
LINE
  5
2756
330
1F
100
AcDbEntity
  8
外形線
100
AcDbLine
 10
34001.09945434377
 20
29047.8180490479
 30
0.0
 11
34099.09945434377
 21
29047.8180490479
 31
0.0
  0
ARC
  5
2757
330
1F
100
AcDbEntity
  8
外形線
100
AcDbCircle
 10
34001.09945434377
 20
29048.81804904789
 30
0.0
 40
1.0
100
AcDbArc
 50
180.0
 51
270.0
  0
LINE
  5
2758
330
1F
100
AcDbEntity
  8
外形線
100
AcDbLine
 10
34100.09945434377
 20
29048.81804904789
 30
0.0
 11
34100.09945434377
 21
29071.81804904789
 31
0.0
  0
ARC
  5
2759
330
1F
100
AcDbEntity
  8
外形線
100
AcDbCircle
 10
34099.09945434377
 20
29048.81804904789
 30
0.0
 40
1.0
100
AcDbArc
 50
270.0
 51
0.0
  0
ARC
  5
275A
330
1F
100
AcDbEntity
  8
外形線
100
AcDbCircle
 10
34099.09945434377
 20
29071.81804904789
 30
0.0
 40
1.0
100
AcDbArc
 50
0.0
 51
90.0
  0
LINE
  5
275B
330
1F
100
AcDbEntity
  8
外形線
100
AcDbLine
 10
34099.09945434377
 20
29072.8180490479
 30
0.0
 11
34001.09945434377
 21
29072.8180490479
 31
0.0
  0
ARC
  5
275C
330
1F
100
AcDbEntity
  8
外形線
100
AcDbCircle
 10
34001.09945434377
 20
29071.81804904789
 30
0.0
 40
1.0
100
AcDbArc
 50
90.0
 51
180.0
  0
LINE
  5
275E
330
1F
100
AcDbEntity
  8
外形線
100
AcDbLine
 10
33819.09945434379
 20
29073.81804904748
 30
0.0
 11
33819.09945434379
 21
29046.81804904748
 31
0.0
  0
LINE
  5
275F
330
1F
100
AcDbEntity
  8
外形線
100
AcDbLine
 10
33819.09945434379
 20
29046.81804904748
 30
0.0
 11
33823.09945434379
 21
29046.81804904747
 31
0.0
  0
LINE
  5
2760
330
1F
100
AcDbEntity
  8
外形線
100
AcDbLine
 10
33857.09945434379
 20
29046.81804904748
 30
0.0
 11
33914.0994543438
 21
29046.81804904748
 31
0.0
  0
LINE
  5
2761
330
1F
100
AcDbEntity
  8
外形線
100
AcDbLine
 10
33914.0994543438
 20
29046.81804904748
 30
0.0
 11
33914.0994543438
 21
29073.81804904748
 31
0.0
  0
LINE
  5
2762
330
1F
100
AcDbEntity
  8
外形線
100
AcDbLine
 10
33914.0994543438
 20
29073.81804904748
 30
0.0
 11
33845.09945434379
 21
29073.81804904747
 31
0.0
  0
LINE
  5
2763
330
1F
100
AcDbEntity
  8
外形線
100
AcDbLine
 10
33823.09945434379
 20
29073.81804904748
 30
0.0
 11
33819.09945434379
 21
29073.81804904748
 31
0.0
  0
CIRCLE
  5
2764
330
1F
100
AcDbEntity
  8
外形線
100
AcDbCircle
 10
33874.0994543438
 20
29060.31804904748
 30
0.0
 40
2.299999999999999
  0
CIRCLE
  5
2765
330
1F
100
AcDbEntity
  8
外形線
100
AcDbCircle
 10
33894.09945434379
 20
29060.31804904748
 30
0.0
 40
1.6
  0
LINE
  5
2766
330
1F
100
AcDbEntity
  8
外形線
100
AcDbLine
 10
33823.09945434379
 20
29084.81804904748
 30
0.0
 11
33823.09945434379
 21
29040.81804904748
 31
0.0
  0
ARC
  5
2767
330
1F
100
AcDbEntity
  8
外形線
100
AcDbCircle
 10
33823.59945434379
 20
29084.81804904748
 30
0.0
 40
0.5
100
AcDbArc
 50
90.0
 51
180.0
  0
ARC
  5
2768
330
1F
100
AcDbEntity
  8
外形線
100
AcDbCircle
 10
33823.59945434379
 20
29040.81804904748
 30
0.0
 40
0.5
100
AcDbArc
 50
180.0
 51
270.0
  0
LINE
  5
2769
330
1F
100
AcDbEntity
  8
外形線
100
AcDbLine
 10
33823.59945434379
 20
29040.31804904748
 30
0.0
 11
33844.59945434379
 21
29040.31804904748
 31
0.0
  0
LINE
  5
276A
330
1F
100
AcDbEntity
  8
外形線
100
AcDbLine
 10
33845.09945434379
 20
29040.81804904748
 30
0.0
 11
33845.09945434379
 21
29084.81804904748
 31
0.0
  0
ARC
  5
276B
330
1F
100
AcDbEntity
  8
外形線
100
AcDbCircle
 10
33844.59945434379
 20
29040.81804904748
 30
0.0
 40
0.5
100
AcDbArc
 50
270.0
 51
0.0
  0
ARC
  5
276C
330
1F
100
AcDbEntity
  8
外形線
100
AcDbCircle
 10
33844.59945434379
 20
29084.81804904748
 30
0.0
 40
0.5
100
AcDbArc
 50
0.0
 51
90.0
  0
LINE
  5
276D
330
1F
100
AcDbEntity
  8
外形線
100
AcDbLine
 10
33844.59945434379
 20
29085.31804904748
 30
0.0
 11
33823.59945434379
 21
29085.31804904748
 31
0.0
  0
LINE
  5
276E
330
1F
100
AcDbEntity
  8
外形線
100
AcDbLine
 10
33845.09945434379
 20
29068.31804904748
 30
0.0
 11
33856.59945434379
 21
29068.31804904748
 31
0.0
  0
ARC
  5
276F
330
1F
100
AcDbEntity
  8
外形線
100
AcDbCircle
 10
33856.59945434379
 20
29067.81804904748
 30
0.0
 40
0.5
100
AcDbArc
 50
0.0
 51
90.0
  0
LINE
  5
2770
330
1F
100
AcDbEntity
  8
外形線
100
AcDbLine
 10
33857.09945434379
 20
29067.81804904748
 30
0.0
 11
33857.09945434379
 21
29040.81804904748
 31
0.0
  0
ARC
  5
2771
330
1F
100
AcDbEntity
  8
外形線
100
AcDbCircle
 10
33856.59945434379
 20
29040.81804904748
 30
0.0
 40
0.5
100
AcDbArc
 50
270.0
 51
0.0
  0
LINE
  5
2772
330
1F
100
AcDbEntity
  8
外形線
100
AcDbLine
 10
33856.59945434379
 20
29040.31804904748
 30
0.0
 11
33844.59945434379
 21
29040.31804904748
 31
0.0
  0
CIRCLE
  5
2773
330
1F
100
AcDbEntity
  8
孔
100
AcDbCircle
 10
33827.09945434379
 20
29077.81804904748
 30
0.0
 40
2.149999999999999
  0
CIRCLE
  5
2774
330
1F
100
AcDbEntity
  8
孔
100
AcDbCircle
 10
33841.09945434379
 20
29077.81804904748
 30
0.0
 40
2.149999999999999
  0
CIRCLE
  5
2775
330
1F
100
AcDbEntity
  8
孔
100
AcDbCircle
 10
33827.09945434379
 20
29058.81804904748
 30
0.0
 40
2.149999999999999
  0
CIRCLE
  5
2776
330
1F
100
AcDbEntity
  8
孔
100
AcDbCircle
 10
33841.09945434379
 20
29058.81804904748
 30
0.0
 40
2.149999999999999
  0
CIRCLE
  5
2777
330
1F
100
AcDbEntity
  8
孔
100
AcDbCircle
 10
33827.09945434379
 20
29048.81804904748
 30
0.0
 40
2.149999999999999
  0
CIRCLE
  5
2778
330
1F
100
AcDbEntity
  8
孔
100
AcDbCircle
 10
33841.09945434379
 20
29048.81804904748
 30
0.0
 40
2.149999999999999
  0
LINE
  5
2779
330
1F
100
AcDbEntity
  8
外形線
100
AcDbLine
 10
33832.09945434379
 20
29081.31804904748
 30
0.0
 11
33832.09945434379
 21
29073.31804904748
 31
0.0
  0
LINE
  5
277A
330
1F
100
AcDbEntity
  8
外形線
100
AcDbLine
 10
33832.09945434379
 20
29073.31804904748
 30
0.0
 11
33836.09945434379
 21
29073.31804904748
 31
0.0
  0
LINE
  5
277B
330
1F
100
AcDbEntity
  8
外形線
100
AcDbLine
 10
33836.09945434379
 20
29073.31804904748
 30
0.0
 11
33836.09945434379
 21
29081.31804904748
 31
0.0
  0
LINE
  5
277C
330
1F
100
AcDbEntity
  8
外形線
100
AcDbLine
 10
33836.09945434379
 20
29081.31804904748
 30
0.0
 11
33832.09945434379
 21
29081.31804904748
 31
0.0
  0
LINE
  5
277D
330
1F
100
AcDbEntity
  8
外形線
100
AcDbLine
 10
33832.09945434379
 20
29058.31804904748
 30
0.0
 11
33832.09945434379
 21
29048.31804904748
 31
0.0
  0
LINE
  5
277E
330
1F
100
AcDbEntity
  8
外形線
100
AcDbLine
 10
33832.09945434379
 20
29048.31804904748
 30
0.0
 11
33836.09945434379
 21
29048.31804904748
 31
0.0
  0
LINE
  5
277F
330
1F
100
AcDbEntity
  8
外形線
100
AcDbLine
 10
33836.09945434379
 20
29048.31804904748
 30
0.0
 11
33836.09945434379
 21
29058.31804904748
 31
0.0
  0
LINE
  5
2780
330
1F
100
AcDbEntity
  8
外形線
100
AcDbLine
 10
33836.09945434379
 20
29058.31804904748
 30
0.0
 11
33832.09945434379
 21
29058.31804904748
 31
0.0
  0
LINE
  5
2781
330
1F
100
AcDbEntity
  8
中心線
 48
0.05
100
AcDbLine
 10
33834.0994543438
 20
29069.31804904748
 30
0.0
 11
33839.09945434379
 21
29069.31804904748
 31
0.0
  0
LINE
  5
2782
330
1F
100
AcDbEntity
  8
中心線
 48
0.05
100
AcDbLine
 10
33834.0994543438
 20
29069.31804904748
 30
0.0
 11
33834.0994543438
 21
29074.31804904748
 31
0.0
  0
LINE
  5
2783
330
1F
100
AcDbEntity
  8
中心線
 48
0.05
100
AcDbLine
 10
33834.0994543438
 20
29069.31804904748
 30
0.0
 11
33829.09945434379
 21
29069.31804904748
 31
0.0
  0
LINE
  5
2784
330
1F
100
AcDbEntity
  8
中心線
 48
0.05
100
AcDbLine
 10
33834.0994543438
 20
29069.31804904748
 30
0.0
 11
33834.0994543438
 21
29064.31804904748
 31
0.0
  0
LINE
  5
2785
330
1F
100
AcDbEntity
  8
外形線
100
AcDbLine
 10
33845.59945434379
 20
29068.31804904748
 30
0.0
 11
33845.59945434379
 21
29058.31804904748
 31
0.0
  0
LINE
  5
2786
330
1F
100
AcDbEntity
  8
外形線
100
AcDbLine
 10
33845.59945434379
 20
29058.31804904748
 30
0.0
 11
33847.09945434379
 21
29058.31804904748
 31
0.0
  0
LINE
  5
2787
330
1F
100
AcDbEntity
  8
外形線
100
AcDbLine
 10
33847.09945434379
 20
29058.31804904748
 30
0.0
 11
33847.09945434379
 21
29050.31804904748
 31
0.0
  0
LINE
  5
2788
330
1F
100
AcDbEntity
  8
外形線
100
AcDbLine
 10
33847.09945434379
 20
29050.31804904748
 30
0.0
 11
33845.59945434379
 21
29050.31804904748
 31
0.0
  0
LINE
  5
2789
330
1F
100
AcDbEntity
  8
外形線
100
AcDbLine
 10
33845.59945434379
 20
29050.31804904748
 30
0.0
 11
33845.59945434379
 21
29040.31804904748
 31
0.0
  0
LINE
  5
278A
330
1F
100
AcDbEntity
  8
外形線
100
AcDbLine
 10
33852.09945434379
 20
29056.81804904748
 30
0.0
 11
33852.09945434379
 21
29051.81804904748
 31
0.0
  0
LINE
  5
278B
330
1F
100
AcDbEntity
  8
外形線
100
AcDbLine
 10
33852.09945434379
 20
29051.81804904748
 30
0.0
 11
33854.59945434379
 21
29051.81804904748
 31
0.0
  0
LINE
  5
278C
330
1F
100
AcDbEntity
  8
外形線
100
AcDbLine
 10
33854.59945434379
 20
29051.81804904748
 30
0.0
 11
33854.59945434379
 21
29056.81804904748
 31
0.0
  0
LINE
  5
278D
330
1F
100
AcDbEntity
  8
外形線
100
AcDbLine
 10
33854.59945434379
 20
29056.81804904748
 30
0.0
 11
33852.09945434379
 21
29056.81804904748
 31
0.0
  0
MTEXT
  5
2793
330
1F
100
AcDbEntity
  8
寸法線
100
AcDbMText
 10
34135.65952518777
 20
28904.8280618713
 30
0.0
 40
15.0
 41
452.965687196711
 46
0.0
 71
     5
 72
     1
  1
{\fMS PGothic|b0|i0|c128|p50;灯具取付寸法　最内ピッチ　548\P　　　　　　　　　　最外ピッチ　616}
 73
     1
 44
1.0
  0
CIRCLE
  5
2794
330
1F
100
AcDbEntity
  8
○
100
AcDbCircle
 10
34469.76581718592
 20
29010.00227131638
 30
0.0
 40
15.0
  0
MTEXT
  5
2795
330
1F
100
AcDbEntity
  8
寸法線
100
AcDbMText
 10
34463.2729887242
 20
29019.74612180738
 30
0.0
 40
20.0
 41
35.534113038535
 46
0.0
 71
     1
 72
     5
  1
2
 73
     1
 44
1.0
1001
ACAD
1000
ACAD_MTEXT_COLUMN_INFO_BEGIN
1070
    75
1070
     2
1070
    79
1070
     0
1070
    76
1070
     1
1070
    78
1070
     0
1070
    48
1040
35.534113038535
1070
    49
1040
12.5
1070
    50
1070
     1
1040
0.0
1000
ACAD_MTEXT_COLUMN_INFO_END
  0
LINE
  5
2796
330
1F
100
AcDbEntity
  8
○
100
AcDbLine
 10
34459.53381885652
 20
29020.9706900806
 30
0.0
 11
34391.19945434378
 21
29060.31804904735
 31
0.0
  0
LINE
  5
2797
330
1F
100
AcDbEntity
  8
○
100
AcDbLine
 10
34466.6808219554
 20
28995.32293875567
 30
0.0
 11
34389.13068608534
 21
28812.30011385418
 31
0.0
  0
CIRCLE
  5
2798
330
1F
100
AcDbEntity
  8
○
100
AcDbCircle
 10
34409.75897433054
 20
29010.00227131638
 30
0.0
 40
15.0
  0
MTEXT
  5
2799
330
1F
100
AcDbEntity
  8
寸法線
100
AcDbMText
 10
34403.26614586882
 20
29019.74612180738
 30
0.0
 40
20.0
 41
35.534113038535
 46
0.0
 71
     1
 72
     5
  1
5
 73
     1
 44
1.0
1001
ACAD
1000
ACAD_MTEXT_COLUMN_INFO_BEGIN
1070
    75
1070
     2
1070
    79
1070
     0
1070
    76
1070
     1
1070
    78
1070
     0
1070
    48
1040
35.534113038535
1070
    49
1040
12.5
1070
    50
1070
     1
1040
0.0
1000
ACAD_MTEXT_COLUMN_INFO_END
  0
LINE
  5
279A
330
1F
100
AcDbEntity
  8
○
100
AcDbLine
 10
34401.8644410897
 20
29022.75673504125
 30
0.0
 11
34380.32496624232
 21
29057.66781436092
 31
0.0
  0
LINE
  5
279B
330
1F
100
AcDbEntity
  8
○
100
AcDbLine
 10
34408.29050855818
 20
28995.07432409395
 30
0.0
 11
34379.67412753117
 21
28852.72977163282
 31
0.0
  0
CIRCLE
  5
279C
330
1F
100
AcDbEntity
  8
○
100
AcDbCircle
 10
34029.60194418675
 20
29010.00227131638
 30
0.0
 40
15.0
  0
MTEXT
  5
279D
330
1F
100
AcDbEntity
  8
寸法線
100
AcDbMText
 10
34023.10911572503
 20
29019.74612180738
 30
0.0
 40
20.0
 41
35.534113038535
 46
0.0
 71
     1
 72
     5
  1
8
 73
     1
 44
1.0
1001
ACAD
1000
ACAD_MTEXT_COLUMN_INFO_BEGIN
1070
    75
1070
     2
1070
    79
1070
     0
1070
    76
1070
     1
1070
    78
1070
     0
1070
    48
1040
35.534113038535
1070
    49
1040
12.5
1070
    50
1070
     1
1040
0.0
1000
ACAD_MTEXT_COLUMN_INFO_END
  0
LINE
  5
279E
330
1F
100
AcDbEntity
  8
○
100
AcDbLine
 10
34040.78228407425
 20
29020.00227131638
 30
0.0
 11
34066.99394438687
 21
29058.50242066311
 31
0.0
  0
LINE
  5
279F
330
1F
100
AcDbEntity
  8
○
100
AcDbLine
 10
34040.13558006956
 20
28999.32320229852
 30
0.0
 11
34076.58911601701
 21
28796.70974357254
 31
0.0
  0
CIRCLE
  5
27A4
330
1F
100
AcDbEntity
  8
○
100
AcDbCircle
 10
33872.79412974742
 20
29010.00227131638
 30
0.0
 40
15.0
  0
MTEXT
  5
27A5
330
1F
100
AcDbEntity
  8
寸法線
100
AcDbMText
 10
33866.3013012857
 20
29019.74612180738
 30
0.0
 40
20.0
 41
35.534113038535
 46
0.0
 71
     1
 72
     5
  1
7
 73
     1
 44
1.0
1001
ACAD
1000
ACAD_MTEXT_COLUMN_INFO_BEGIN
1070
    75
1070
     2
1070
    79
1070
     0
1070
    76
1070
     1
1070
    78
1070
     0
1070
    48
1040
35.534113038535
1070
    49
1040
12.5
1070
    50
1070
     1
1040
0.0
1000
ACAD_MTEXT_COLUMN_INFO_END
  0
LINE
  5
27A6
330
1F
100
AcDbEntity
  8
○
100
AcDbLine
 10
33876.38818995515
 20
29024.56533181969
 30
0.0
 11
33886.85348209754
 21
29052.61590652273
 31
0.0
  0
LINE
  5
27A7
330
1F
100
AcDbEntity
  8
○
100
AcDbLine
 10
33872.50071488175
 20
28995.00514133372
 30
0.0
 11
33904.92662613466
 21
28780.5480197493
 31
0.0
  0
CIRCLE
  5
27A8
330
1F
100
AcDbEntity
  8
○
100
AcDbCircle
 10
33819.09945434379
 20
29010.00227131638
 30
0.0
 40
15.0
  0
MTEXT
  5
27A9
330
1F
100
AcDbEntity
  8
寸法線
100
AcDbMText
 10
33812.60662588208
 20
29019.74612180738
 30
0.0
 40
20.0
 41
35.534113038535
 46
0.0
 71
     1
 72
     5
  1
9
 73
     1
 44
1.0
1001
ACAD
1000
ACAD_MTEXT_COLUMN_INFO_BEGIN
1070
    75
1070
     2
1070
    79
1070
     0
1070
    76
1070
     1
1070
    78
1070
     0
1070
    48
1040
35.534113038535
1070
    49
1040
12.5
1070
    50
1070
     1
1040
0.0
1000
ACAD_MTEXT_COLUMN_INFO_END
  0
LINE
  5
27AA
330
1F
100
AcDbEntity
  8
○
100
AcDbLine
 10
33830.27979423129
 20
29020.00227131638
 30
0.0
 11
33841.79536422732
 21
29053.69234970602
 31
0.0
  0
LINE
  5
27AB
330
1F
100
AcDbEntity
  8
○
100
AcDbLine
 10
33822.93926409997
 20
28995.50206921308
 30
0.0
 11
33840.89094489091
 21
28793.0137572958
 31
0.0
  0
CIRCLE
  5
27AC
330
1F
100
AcDbEntity
  8
○
100
AcDbCircle
 10
34158.0688952419
 20
29010.00227131638
 30
0.0
 40
15.0
  0
MTEXT
  5
27AD
330
1F
100
AcDbEntity
  8
寸法線
100
AcDbMText
 10
34151.57606678018
 20
29019.74612180738
 30
0.0
 40
20.0
 41
35.534113038535
 46
0.0
 71
     1
 72
     5
  1
1
 73
     1
 44
1.0
1001
ACAD
1000
ACAD_MTEXT_COLUMN_INFO_BEGIN
1070
    75
1070
     2
1070
    79
1070
     0
1070
    76
1070
     1
1070
    78
1070
     0
1070
    48
1040
35.534113038535
1070
    49
1040
12.5
1070
    50
1070
     1
1040
0.0
1000
ACAD_MTEXT_COLUMN_INFO_END
  0
LINE
  5
27AE
330
1F
100
AcDbEntity
  8
○
100
AcDbLine
 10
34163.17790707001
 20
29024.10539147258
 30
0.0
 11
34181.44908102551
 21
29060.31804904735
 31
0.0
  0
LINE
  5
27AF
330
1F
100
AcDbEntity
  8
○
100
AcDbLine
 10
34161.10408049338
 20
28995.31255891316
 30
0.0
 11
34206.72816255809
 21
28778.25912196702
 31
0.0
  0
CIRCLE
  5
27B0
330
1F
100
AcDbEntity
  8
○
100
AcDbCircle
 10
33688.95938023621
 20
29010.00227131638
 30
0.0
 40
15.0
  0
MTEXT
  5
27B1
330
1F
100
AcDbEntity
  8
寸法線
100
AcDbMText
 10
33682.46655177449
 20
29019.74612180738
 30
0.0
 40
20.0
 41
35.534113038535
 46
0.0
 71
     1
 72
     5
  1
4
 73
     1
 44
1.0
1001
ACAD
1000
ACAD_MTEXT_COLUMN_INFO_BEGIN
1070
    75
1070
     2
1070
    79
1070
     0
1070
    76
1070
     1
1070
    78
1070
     0
1070
    48
1040
35.534113038535
1070
    49
1040
12.5
1070
    50
1070
     1
1040
0.0
1000
ACAD_MTEXT_COLUMN_INFO_END
  0
CIRCLE
  5
27B2
330
1F
100
AcDbEntity
  8
○
100
AcDbCircle
 10
33749.182504236
 20
29010.00227131638
 30
0.0
 40
15.0
  0
MTEXT
  5
27B3
330
1F
100
AcDbEntity
  8
寸法線
100
AcDbMText
 10
33742.68967577428
 20
29019.74612180738
 30
0.0
 40
20.0
 41
35.534113038535
 46
0.0
 71
     1
 72
     5
  1
3
 73
     1
 44
1.0
1001
ACAD
1000
ACAD_MTEXT_COLUMN_INFO_BEGIN
1070
    75
1070
     2
1070
    79
1070
     0
1070
    76
1070
     1
1070
    78
1070
     0
1070
    48
1040
35.534113038535
1070
    49
1040
12.5
1070
    50
1070
     1
1040
0.0
1000
ACAD_MTEXT_COLUMN_INFO_END
  0
LINE
  5
27B4
330
1F
100
AcDbEntity
  8
○
100
AcDbLine
 10
33752.98845538654
 20
29024.51139726661
 30
0.0
 11
33763.34664469469
 21
29056.39938644222
 31
0.0
  0
LINE
  5
27B5
330
1F
100
AcDbEntity
  8
○
100
AcDbLine
 10
33749.182504236
 20
28995.00227131638
 30
0.0
 11
33762.16438727276
 21
28772.04316517094
 31
0.0
  0
LINE
  5
27B6
330
1F
100
AcDbEntity
  8
○
100
AcDbLine
 10
33695.3454737318
 20
29023.57495748624
 30
0.0
 11
33725.07392778094
 21
29060.31804904735
 31
0.0
  0
LINE
  5
27B7
330
1F
100
AcDbEntity
  8
○
100
AcDbLine
 10
33692.96141086925
 20
28995.54600102241
 30
0.0
 11
33726.56284138386
 21
28857.48820040475
 31
0.0
  0
LINE
  5
27C7
330
1F
100
AcDbEntity
  8
外形線
100
AcDbLine
 10
34522.96956707687
 20
28785.97977163283
 30
0.0
 11
34529.76956707688
 21
28785.97977163283
 31
0.0
  0
LINE
  5
27C8
330
1F
100
AcDbEntity
  8
外形線
100
AcDbLine
 10
34535.66956707688
 20
28785.97977163283
 30
0.0
 11
34542.46956707687
 21
28785.97977163283
 31
0.0
  0
LINE
  5
27C9
330
1F
100
AcDbEntity
  8
外形線
100
AcDbLine
 10
34557.51956707687
 20
28805.77977198184
 30
0.0
 11
34549.71956707687
 21
28805.77977198184
 31
0.0
  0
LINE
  5
27CA
330
1F
100
AcDbEntity
  8
外形線
100
AcDbLine
 10
34515.71956707689
 20
28805.77977198183
 30
0.0
 11
34512.51956707687
 21
28805.77977198184
 31
0.0
  0
LINE
  5
27CB
102
{ACAD_REACTORS
330
2D71
330
2DA5
102
}
330
1F
100
AcDbEntity
  8
外形線
100
AcDbLine
 10
34512.51956707687
 20
28805.77977198184
 30
0.0
 11
34512.51956707687
 21
28785.77977198184
 31
0.0
  0
LINE
  5
27CC
330
1F
100
AcDbEntity
  8
外形線
100
AcDbLine
 10
34512.51956707687
 20
28785.77977198184
 30
0.0
 11
34557.51956707687
 21
28785.77977198184
 31
0.0
  0
LINE
  5
27CD
102
{ACAD_REACTORS
330
2D71
330
2D8B
102
}
330
1F
100
AcDbEntity
  8
外形線
100
AcDbLine
 10
34557.51956707687
 20
28785.77977198184
 30
0.0
 11
34557.51956707687
 21
28805.77977198184
 31
0.0
  0
LINE
  5
27CE
330
1F
100
AcDbEntity
  8
外形線
100
AcDbLine
 10
34515.71956707688
 20
28796.77977198184
 30
0.0
 11
34512.51956707687
 21
28796.77977198184
 31
0.0
  0
LINE
  5
27CF
330
1F
100
AcDbEntity
  8
外形線
100
AcDbLine
 10
34512.51956707687
 20
28796.77977198184
 30
0.0
 11
34512.51956707687
 21
28794.77977198184
 31
0.0
  0
LINE
  5
27D0
330
1F
100
AcDbEntity
  8
外形線
100
AcDbLine
 10
34512.51956707687
 20
28794.77977198184
 30
0.0
 11
34515.71956707688
 21
28794.77977198183
 31
0.0
  0
LINE
  5
27D1
330
1F
100
AcDbEntity
  8
外形線
100
AcDbLine
 10
34546.21956707687
 20
28778.07977198184
 30
0.0
 11
34546.21956707687
 21
28785.77977198184
 31
0.0
  0
LINE
  5
27D2
330
1F
100
AcDbEntity
  8
外形線
100
AcDbLine
 10
34535.66277963115
 20
28785.77977198184
 30
0.0
 11
34529.77635452261
 21
28785.77977198184
 31
0.0
  0
LINE
  5
27D3
330
1F
100
AcDbEntity
  8
外形線
100
AcDbLine
 10
34519.21956707687
 20
28785.77977198184
 30
0.0
 11
34519.21956707687
 21
28778.07977198184
 31
0.0
  0
LINE
  5
27D4
330
1F
100
AcDbEntity
  8
外形線
100
AcDbLine
 10
34519.21956707687
 20
28778.07977198184
 30
0.0
 11
34520.01956707687
 21
28778.07977198184
 31
0.0
  0
LINE
  5
27D5
330
1F
100
AcDbEntity
  8
外形線
100
AcDbLine
 10
34520.01956707687
 20
28778.07977198184
 30
0.0
 11
34520.01956707687
 21
28784.97977198184
 31
0.0
  0
LINE
  5
27D6
330
1F
100
AcDbEntity
  8
外形線
100
AcDbLine
 10
34520.01956707687
 20
28784.97977198184
 30
0.0
 11
34522.96956707687
 21
28784.97977198184
 31
0.0
  0
LINE
  5
27D7
330
1F
100
AcDbEntity
  8
外形線
100
AcDbLine
 10
34529.94422913385
 20
28784.97977198184
 30
0.0
 11
34535.49490501991
 21
28784.97977198184
 31
0.0
  0
LINE
  5
27D8
330
1F
100
AcDbEntity
  8
外形線
100
AcDbLine
 10
34542.46956707686
 20
28784.97977198184
 30
0.0
 11
34545.41956707687
 21
28784.97977198184
 31
0.0
  0
LINE
  5
27D9
330
1F
100
AcDbEntity
  8
外形線
100
AcDbLine
 10
34545.41956707687
 20
28784.97977198184
 30
0.0
 11
34545.41956707687
 21
28778.07977198184
 31
0.0
  0
LINE
  5
27DA
330
1F
100
AcDbEntity
  8
外形線
100
AcDbLine
 10
34545.41956707687
 20
28778.07977198184
 30
0.0
 11
34546.21956707687
 21
28778.07977198184
 31
0.0
  0
LINE
  5
27DB
330
1F
100
AcDbEntity
  8
外形線
100
AcDbLine
 10
34545.41956707687
 20
28783.97977198184
 30
0.0
 11
34542.46956707687
 21
28783.97977198184
 31
0.0
  0
LINE
  5
27DC
330
1F
100
AcDbEntity
  8
外形線
100
AcDbLine
 10
34522.96956707687
 20
28783.97977198184
 30
0.0
 11
34520.01956707687
 21
28783.97977198184
 31
0.0
  0
LINE
  5
27DD
330
1F
100
AcDbEntity
  8
外形線
100
AcDbLine
 10
34515.71956707688
 20
28785.77977198184
 30
0.0
 11
34515.71956707688
 21
28809.77977198184
 31
0.0
  0
LINE
  5
27DE
330
1F
100
AcDbEntity
  8
外形線
100
AcDbLine
 10
34516.71956707688
 20
28810.77977198184
 30
0.0
 11
34522.96956707688
 21
28810.77977198184
 31
0.0
  0
LINE
  5
27DF
330
1F
100
AcDbEntity
  8
外形線
100
AcDbLine
 10
34542.46956707688
 20
28810.77977198184
 30
0.0
 11
34548.71956707688
 21
28810.77977198184
 31
0.0
  0
ARC
  5
27E0
330
1F
100
AcDbEntity
  8
外形線
100
AcDbCircle
 10
34548.71956707688
 20
28809.77977198184
 30
0.0
 40
1.0
100
AcDbArc
 50
0.0
 51
90.0
  0
ARC
  5
27E1
330
1F
100
AcDbEntity
  8
外形線
100
AcDbCircle
 10
34516.71956707688
 20
28809.77977198184
 30
0.0
 40
1.0
100
AcDbArc
 50
90.0
 51
180.0
  0
LINE
  5
27E2
330
1F
100
AcDbEntity
  8
外形線
100
AcDbLine
 10
34549.71956707688
 20
28809.77977198184
 30
0.0
 11
34549.71956707688
 21
28785.77977198184
 31
0.0
  0
ARC
  5
27E3
330
1F
100
AcDbEntity
  8
外形線
100
AcDbCircle
 10
34535.51956707688
 20
28787.27977198184
 30
0.0
 40
0.5
100
AcDbArc
 50
135.3331853032484
 51
180.0
  0
LINE
  5
27E4
330
1F
100
AcDbEntity
  8
外形線
100
AcDbLine
 10
34530.41956707687
 20
28785.77977198184
 30
0.0
 11
34530.41956707687
 21
28787.27977198184
 31
0.0
  0
LINE
  5
27E5
330
1F
100
AcDbEntity
  8
外形線
100
AcDbLine
 10
34535.01956707688
 20
28785.77977198184
 30
0.0
 11
34535.01956707688
 21
28787.27977198184
 31
0.0
  0
ARC
  5
27E6
330
1F
100
AcDbEntity
  8
外形線
100
AcDbCircle
 10
34529.91956707688
 20
28787.27977198184
 30
0.0
 40
0.5
100
AcDbArc
 50
0.0
 51
44.66681469675158
  0
LINE
  5
27E7
330
1F
100
AcDbEntity
  8
外形線
100
AcDbLine
 10
34530.38236816717
 20
28787.77977198184
 30
0.0
 11
34535.05676598659
 21
28787.77977198184
 31
0.0
  0
LINE
  5
2A8E
330
1F
100
AcDbEntity
  8
外形線
100
AcDbLine
 10
33718.19945434378
 20
28783.97977163283
 30
0.0
 11
33718.19945434378
 21
28773.97977163282
 31
0.0
  0
LINE
  5
2A8F
330
1F
100
AcDbEntity
  8
外形線
100
AcDbLine
 10
33718.19945434378
 20
28773.97977163282
 30
0.0
 11
34390.19945434378
 21
28773.97977163282
 31
0.0
  0
LINE
  5
2A90
102
{ACAD_REACTORS
330
2D25
330
2D41
102
}
330
1F
100
AcDbEntity
  8
外形線
100
AcDbLine
 10
34390.19945434378
 20
28773.97977163282
 30
0.0
 11
34390.19945434378
 21
28783.97977163283
 31
0.0
  0
LINE
  5
2A91
330
1F
100
AcDbEntity
  8
外形線
100
AcDbLine
 10
34390.19945434378
 20
28783.97977163283
 30
0.0
 11
34132.29945434377
 21
28783.97977163283
 31
0.0
  0
LINE
  5
2A92
330
1F
100
AcDbEntity
  8
外形線
100
AcDbLine
 10
33756.69945434378
 20
28773.97977163282
 30
0.0
 11
33756.69945434378
 21
28770.47977163282
 31
0.0
  0
LINE
  5
2A93
330
1F
100
AcDbEntity
  8
外形線
100
AcDbLine
 10
33757.19945434378
 20
28769.97977163282
 30
0.0
 11
33776.19945434378
 21
28769.97977163282
 31
0.0
  0
ARC
  5
2A94
330
1F
100
AcDbEntity
  8
外形線
100
AcDbCircle
 10
33757.19945434378
 20
28770.47977163282
 30
0.0
 40
0.5
100
AcDbArc
 50
180.0
 51
270.0
  0
LINE
  5
2A95
330
1F
100
AcDbEntity
  8
外形線
100
AcDbLine
 10
33776.69945434378
 20
28770.47977163282
 30
0.0
 11
33776.69945434378
 21
28773.97977163282
 31
0.0
  0
ARC
  5
2A96
330
1F
100
AcDbEntity
  8
外形線
100
AcDbCircle
 10
33776.19945434378
 20
28770.47977163282
 30
0.0
 40
0.5
100
AcDbArc
 50
270.0
 51
0.0
  0
LINE
  5
2A97
330
1F
100
AcDbEntity
  8
外形線
100
AcDbLine
 10
33776.69945434378
 20
28771.97977163282
 30
0.0
 11
33777.19945434378
 21
28771.97977163282
 31
0.0
  0
ARC
  5
2A98
330
1F
100
AcDbEntity
  8
外形線
100
AcDbCircle
 10
33777.66867793737
 20
28773.95574214083
 30
0.0
 40
2.030918567864959
100
AcDbArc
 50
256.6416865202825
 51
0.6779299878933172
  0
ARC
  5
2A99
330
1F
100
AcDbEntity
  8
外形線
100
AcDbCircle
 10
33777.70907057979
 20
28773.9366217687
 30
0.0
 40
1.617898346868975
100
AcDbArc
 50
251.6399975157831
 51
1.371947721248656
  0
LINE
  5
2A9A
330
1F
100
AcDbEntity
  8
外形線
100
AcDbLine
 10
33777.19945434378
 20
28773.97977163282
 30
0.0
 11
33777.19945434378
 21
28772.4010807068
 31
0.0
  0
LINE
  5
2A9B
330
1F
100
AcDbEntity
  8
外形線
100
AcDbLine
 10
34351.69945434378
 20
28773.97977163282
 30
0.0
 11
34351.69945434378
 21
28770.47977163282
 31
0.0
  0
LINE
  5
2A9C
330
1F
100
AcDbEntity
  8
外形線
100
AcDbLine
 10
34351.19945434378
 20
28769.97977163282
 30
0.0
 11
34332.19945434378
 21
28769.97977163282
 31
0.0
  0
ARC
  5
2A9D
102
{ACAD_REACTORS
330
2D41
102
}
330
1F
100
AcDbEntity
  8
外形線
100
AcDbCircle
 10
34351.19945434378
 20
28770.47977163282
 30
0.0
 40
0.5
100
AcDbArc
 50
270.0
 51
0.0
  0
LINE
  5
2A9E
330
1F
100
AcDbEntity
  8
外形線
100
AcDbLine
 10
34331.69945434378
 20
28770.47977163282
 30
0.0
 11
34331.69945434378
 21
28773.97977163282
 31
0.0
  0
ARC
  5
2A9F
330
1F
100
AcDbEntity
  8
外形線
100
AcDbCircle
 10
34332.19945434378
 20
28770.47977163282
 30
0.0
 40
0.5
100
AcDbArc
 50
180.0
 51
270.0
  0
LINE
  5
2AA0
330
1F
100
AcDbEntity
  8
外形線
100
AcDbLine
 10
34331.69945434378
 20
28771.97977163282
 30
0.0
 11
34331.19945434378
 21
28771.97977163282
 31
0.0
  0
ARC
  5
2AA1
330
1F
100
AcDbEntity
  8
外形線
100
AcDbCircle
 10
34330.73023075018
 20
28773.95574214083
 30
0.0
 40
2.030918567864959
100
AcDbArc
 50
179.3220700121067
 51
283.3583134801251
  0
ARC
  5
2AA2
330
1F
100
AcDbEntity
  8
外形線
100
AcDbCircle
 10
34330.68983810776
 20
28773.9366217687
 30
0.0
 40
1.617898346868975
100
AcDbArc
 50
178.6280522787514
 51
288.3600024838205
  0
LINE
  5
2AA3
330
1F
100
AcDbEntity
  8
外形線
100
AcDbLine
 10
34331.19945434378
 20
28773.97977163282
 30
0.0
 11
34331.19945434378
 21
28772.4010807068
 31
0.0
  0
LINE
  5
2AA4
330
1F
100
AcDbEntity
  8
外形線
100
AcDbLine
 10
34390.19945434378
 20
29048.31804904735
 30
0.0
 11
34390.19945434378
 21
29072.31804904735
 31
0.0
  0
LINE
  5
2AA5
330
1F
100
AcDbEntity
  8
外形線
100
AcDbLine
 10
34373.69945434378
 20
29072.31804904735
 30
0.0
 11
34365.19945434377
 21
29072.31804904735
 31
0.0
  0
ARC
  5
2AA6
330
1F
100
AcDbEntity
  8
外形線
100
AcDbCircle
 10
34365.19945434377
 20
29071.81804904735
 30
0.0
 40
0.5
100
AcDbArc
 50
90.0
 51
180.0
  0
LINE
  5
2AA7
330
1F
100
AcDbEntity
  8
外形線
100
AcDbLine
 10
33718.19945434378
 20
29072.31804904735
 30
0.0
 11
33718.19945434378
 21
29048.31804904735
 31
0.0
  0
LINE
  5
2AA8
330
1F
100
AcDbEntity
  8
外形線
100
AcDbLine
 10
34365.19945434377
 20
29048.31804904735
 30
0.0
 11
34373.69945434378
 21
29048.31804904735
 31
0.0
  0
LINE
  5
2AA9
330
1F
100
AcDbEntity
  8
外形線
100
AcDbLine
 10
34364.69945434378
 20
29071.31804904735
 30
0.0
 11
34132.29945434377
 21
29071.31804904734
 31
0.0
  0
LINE
  5
2AAA
330
1F
100
AcDbEntity
  8
外形線
100
AcDbLine
 10
33732.69945434378
 20
29049.31804904735
 30
0.0
 11
33819.09945434379
 21
29049.31804904735
 31
0.0
  0
LINE
  5
2AAB
330
1F
100
AcDbEntity
  8
外形線
100
AcDbLine
 10
33718.19945434378
 20
29069.31804904735
 30
0.0
 11
33717.20239567506
 21
29063.50186961043
 31
0.0
  0
ARC
  5
2AAC
330
1F
100
AcDbEntity
  8
外形線
100
AcDbCircle
 10
33717.44899415602
 20
29063.4607698636
 30
0.0
 40
0.25
100
AcDbArc
 50
170.537677792045
 51
176.5230231830233
  0
ARC
  5
2AAD
330
1F
100
AcDbEntity
  8
外形線
100
AcDbCircle
 10
33717.44899415602
 20
29063.4607698636
 30
0.0
 40
0.25
100
AcDbArc
 50
183.4769768169767
 51
243.4349488229235
  0
LINE
  5
2AAE
102
{ACAD_REACTORS
330
2D0D
102
}
330
1F
100
AcDbEntity
  8
外形線
100
AcDbLine
 10
33717.19945434378
 20
29063.47593172704
 30
0.0
 11
33717.19945434378
 21
29057.16016636766
 31
0.0
  0
LINE
  5
2AAF
330
1F
100
AcDbEntity
  8
外形線
100
AcDbLine
 10
33717.33719075715
 20
29063.23716306585
 30
0.0
 11
33718.19945434378
 21
29062.81804904735
 31
0.0
  0
LINE
  5
2AB0
330
1F
100
AcDbEntity
  8
外形線
100
AcDbLine
 10
33718.19945434378
 20
29051.31804904735
 30
0.0
 11
33717.20239567506
 21
29057.13422848427
 31
0.0
  0
ARC
  5
2AB1
330
1F
100
AcDbEntity
  8
外形線
100
AcDbCircle
 10
33717.44899415602
 20
29057.1753282311
 30
0.0
 40
0.25
100
AcDbArc
 50
183.4769768169767
 51
189.4623222084304
  0
ARC
  5
2AB2
330
1F
100
AcDbEntity
  8
外形線
100
AcDbCircle
 10
33717.44899415602
 20
29057.1753282311
 30
0.0
 40
0.25
100
AcDbArc
 50
116.5650511770765
 51
176.5230231830233
  0
LINE
  5
2AB3
330
1F
100
AcDbEntity
  8
外形線
100
AcDbLine
 10
33717.33719075715
 20
29057.39893502885
 30
0.0
 11
33718.19945434378
 21
29057.81804904735
 31
0.0
  0
LINE
  5
2AB4
330
1F
100
AcDbEntity
  8
外形線
100
AcDbLine
 10
33718.19945434378
 20
29072.31804904735
 30
0.0
 11
33718.19945434378
 21
29076.31804904735
 31
0.0
  0
LINE
  5
2AB5
330
1F
100
AcDbEntity
  8
外形線
100
AcDbLine
 10
33718.19945434378
 20
29076.31804904735
 30
0.0
 11
33719.19945434378
 21
29076.31804904735
 31
0.0
  0
LINE
  5
2AB6
330
1F
100
AcDbEntity
  8
外形線
100
AcDbLine
 10
33719.19945434378
 20
29076.31804904735
 30
0.0
 11
33719.19945434378
 21
29044.31804904735
 31
0.0
  0
LINE
  5
2AB7
330
1F
100
AcDbEntity
  8
外形線
100
AcDbLine
 10
33719.19945434378
 20
29044.31804904735
 30
0.0
 11
33718.19945434378
 21
29044.31804904735
 31
0.0
  0
LINE
  5
2AB8
330
1F
100
AcDbEntity
  8
外形線
100
AcDbLine
 10
33718.19945434378
 20
29044.31804904735
 30
0.0
 11
33718.19945434378
 21
29051.31804904735
 31
0.0
  0
LINE
  5
2AB9
330
1F
100
AcDbEntity
  8
外形線
100
AcDbLine
 10
33719.19945434378
 20
29044.31804904735
 30
0.0
 11
33719.69945434378
 21
29044.31804904735
 31
0.0
  0
LINE
  5
2ABA
330
1F
100
AcDbEntity
  8
外形線
100
AcDbLine
 10
33719.69945434378
 20
29044.31804904735
 30
0.0
 11
33719.69945434378
 21
29076.31804904735
 31
0.0
  0
LINE
  5
2ABB
330
1F
100
AcDbEntity
  8
外形線
100
AcDbLine
 10
33719.69945434378
 20
29076.31804904735
 30
0.0
 11
33719.19945434378
 21
29076.31804904735
 31
0.0
  0
LINE
  5
2ABC
330
1F
100
AcDbEntity
  8
外形線
100
AcDbLine
 10
33719.69945434378
 20
29044.31804904735
 30
0.0
 11
33731.69945434378
 21
29044.31804904735
 31
0.0
  0
LINE
  5
2ABD
330
1F
100
AcDbEntity
  8
外形線
100
AcDbLine
 10
33732.69945434378
 20
29045.31804904735
 30
0.0
 11
33732.69945434378
 21
29075.31804904735
 31
0.0
  0
ARC
  5
2ABE
330
1F
100
AcDbEntity
  8
外形線
100
AcDbCircle
 10
33731.69945434378
 20
29045.31804904735
 30
0.0
 40
1.0
100
AcDbArc
 50
270.0
 51
0.0
  0
LINE
  5
2ABF
330
1F
100
AcDbEntity
  8
外形線
100
AcDbLine
 10
33731.69945434378
 20
29076.31804904735
 30
0.0
 11
33719.69945434378
 21
29076.31804904735
 31
0.0
  0
ARC
  5
2AC0
330
1F
100
AcDbEntity
  8
外形線
100
AcDbCircle
 10
33731.69945434378
 20
29075.31804904735
 30
0.0
 40
1.0
100
AcDbArc
 50
0.0
 51
90.0
  0
LINE
  5
2AC1
330
1F
100
AcDbEntity
  8
外形線
100
AcDbLine
 10
34390.19945434378
 20
29072.31804904735
 30
0.0
 11
34390.19945434378
 21
29048.31804904735
 31
0.0
  0
LINE
  5
2AC2
330
1F
100
AcDbEntity
  8
外形線
100
AcDbLine
 10
34390.19945434378
 20
29069.31804904735
 30
0.0
 11
34391.19651301249
 21
29063.50186961043
 31
0.0
  0
ARC
  5
2AC3
330
1F
100
AcDbEntity
  8
外形線
100
AcDbCircle
 10
34390.94991453153
 20
29063.4607698636
 30
0.0
 40
0.25
100
AcDbArc
 50
3.476976816976713
 51
9.46232220795494
  0
ARC
  5
2AC4
330
1F
100
AcDbEntity
  8
外形線
100
AcDbCircle
 10
34390.94991453153
 20
29063.4607698636
 30
0.0
 40
0.25
100
AcDbArc
 50
296.5650511770765
 51
356.5230231830233
  0
LINE
  5
2AC5
102
{ACAD_REACTORS
330
2D0D
102
}
330
1F
100
AcDbEntity
  8
外形線
100
AcDbLine
 10
34391.19945434378
 20
29063.47593172704
 30
0.0
 11
34391.19945434378
 21
29057.16016636766
 31
0.0
  0
LINE
  5
2AC6
330
1F
100
AcDbEntity
  8
外形線
100
AcDbLine
 10
34391.0617179304
 20
29063.23716306585
 30
0.0
 11
34390.19945434378
 21
29062.81804904735
 31
0.0
  0
LINE
  5
2AC7
330
1F
100
AcDbEntity
  8
外形線
100
AcDbLine
 10
34390.19945434378
 20
29051.31804904735
 30
0.0
 11
34391.19651301249
 21
29057.13422848427
 31
0.0
  0
ARC
  5
2AC8
330
1F
100
AcDbEntity
  8
外形線
100
AcDbCircle
 10
34390.94991453153
 20
29057.1753282311
 30
0.0
 40
0.25
100
AcDbArc
 50
350.5376777915696
 51
356.5230231830233
  0
ARC
  5
2AC9
330
1F
100
AcDbEntity
  8
外形線
100
AcDbCircle
 10
34390.94991453153
 20
29057.1753282311
 30
0.0
 40
0.25
100
AcDbArc
 50
3.476976816976713
 51
63.43494882292347
  0
LINE
  5
2ACA
330
1F
100
AcDbEntity
  8
外形線
100
AcDbLine
 10
34391.0617179304
 20
29057.39893502885
 30
0.0
 11
34390.19945434378
 21
29057.81804904735
 31
0.0
  0
LINE
  5
2ACB
330
1F
100
AcDbEntity
  8
外形線
100
AcDbLine
 10
34390.19945434378
 20
29072.31804904735
 30
0.0
 11
34390.19945434378
 21
29076.31804904735
 31
0.0
  0
LINE
  5
2ACC
330
1F
100
AcDbEntity
  8
外形線
100
AcDbLine
 10
34390.19945434378
 20
29076.31804904735
 30
0.0
 11
34389.19945434378
 21
29076.31804904735
 31
0.0
  0
LINE
  5
2ACD
330
1F
100
AcDbEntity
  8
外形線
100
AcDbLine
 10
34389.19945434378
 20
29076.31804904735
 30
0.0
 11
34389.19945434378
 21
29044.31804904735
 31
0.0
  0
LINE
  5
2ACE
330
1F
100
AcDbEntity
  8
外形線
100
AcDbLine
 10
34389.19945434378
 20
29044.31804904735
 30
0.0
 11
34390.19945434378
 21
29044.31804904735
 31
0.0
  0
LINE
  5
2ACF
330
1F
100
AcDbEntity
  8
外形線
100
AcDbLine
 10
34390.19945434378
 20
29044.31804904735
 30
0.0
 11
34390.19945434378
 21
29051.31804904735
 31
0.0
  0
LINE
  5
2AD0
330
1F
100
AcDbEntity
  8
外形線
100
AcDbLine
 10
34389.19945434378
 20
29044.31804904735
 30
0.0
 11
34388.69945434378
 21
29044.31804904735
 31
0.0
  0
LINE
  5
2AD1
330
1F
100
AcDbEntity
  8
外形線
100
AcDbLine
 10
34388.69945434378
 20
29044.31804904735
 30
0.0
 11
34388.69945434378
 21
29076.31804904735
 31
0.0
  0
LINE
  5
2AD2
330
1F
100
AcDbEntity
  8
外形線
100
AcDbLine
 10
34388.69945434378
 20
29076.31804904735
 30
0.0
 11
34389.19945434378
 21
29076.31804904735
 31
0.0
  0
LINE
  5
2AD3
330
1F
100
AcDbEntity
  8
外形線
100
AcDbLine
 10
34388.69945434378
 20
29076.31804904735
 30
0.0
 11
34374.69945434378
 21
29076.31804904735
 31
0.0
  0
LINE
  5
2AD4
330
1F
100
AcDbEntity
  8
外形線
100
AcDbLine
 10
34373.69945434378
 20
29075.31804904735
 30
0.0
 11
34373.69945434378
 21
29045.31804904735
 31
0.0
  0
ARC
  5
2AD5
330
1F
100
AcDbEntity
  8
外形線
100
AcDbCircle
 10
34374.69945434378
 20
29075.31804904735
 30
0.0
 40
1.0
100
AcDbArc
 50
90.0
 51
180.0
  0
ARC
  5
2AD6
330
1F
100
AcDbEntity
  8
外形線
100
AcDbCircle
 10
34374.69945434378
 20
29045.31804904735
 30
0.0
 40
1.0
100
AcDbArc
 50
180.0
 51
270.0
  0
LINE
  5
2AD7
330
1F
100
AcDbEntity
  8
外形線
100
AcDbLine
 10
34374.69945434378
 20
29044.31804904735
 30
0.0
 11
34388.69945434378
 21
29044.31804904735
 31
0.0
  0
LINE
  5
2AD8
330
1F
100
AcDbEntity
  8
外形線
100
AcDbLine
 10
34364.69945434378
 20
29071.81804904735
 30
0.0
 11
34364.69945434378
 21
29063.56804904735
 31
0.0
  0
ARC
  5
2AD9
330
1F
100
AcDbEntity
  8
外形線
100
AcDbCircle
 10
34365.19945434377
 20
29063.56804904735
 30
0.0
 40
0.5
100
AcDbArc
 50
180.0
 51
270.0
  0
ARC
  5
2ADA
330
1F
100
AcDbEntity
  8
外形線
100
AcDbCircle
 10
34365.19945434377
 20
29048.81804904735
 30
0.0
 40
0.5
100
AcDbArc
 50
180.0
 51
270.0
  0
LINE
  5
2ADB
330
1F
100
AcDbEntity
  8
外形線
100
AcDbLine
 10
34367.19945434377
 20
29072.31804904735
 30
0.0
 11
34132.29945434377
 21
29072.31804904735
 31
0.0
  0
LINE
  5
2ADC
330
1F
100
AcDbEntity
  8
外形線
100
AcDbLine
 10
33732.69945434378
 20
29048.31804904735
 30
0.0
 11
33819.09945434379
 21
29048.31804904735
 31
0.0
  0
LINE
  5
2ADD
330
1F
100
AcDbEntity
  8
外形線
100
AcDbLine
 10
34373.69945434378
 20
29063.06804904735
 30
0.0
 11
34365.19945434377
 21
29063.06804904735
 31
0.0
  0
LINE
  5
2ADE
330
1F
100
AcDbEntity
  8
外形線
100
AcDbLine
 10
34373.69945434378
 20
29057.56804904735
 30
0.0
 11
34365.19945434377
 21
29057.56804904735
 31
0.0
  0
LINE
  5
2ADF
330
1F
100
AcDbEntity
  8
外形線
100
AcDbLine
 10
34366.19945434378
 20
29063.06804904735
 30
0.0
 11
34366.19945434378
 21
29057.56804904735
 31
0.0
  0
LINE
  5
2AE0
330
1F
100
AcDbEntity
  8
外形線
100
AcDbLine
 10
34364.69945434378
 20
29057.06804904735
 30
0.0
 11
34364.69945434378
 21
29048.81804904735
 31
0.0
  0
ARC
  5
2AE1
330
1F
100
AcDbEntity
  8
外形線
100
AcDbCircle
 10
34365.19945434377
 20
29057.06804904735
 30
0.0
 40
0.5
100
AcDbArc
 50
90.0
 51
180.0
  0
ARC
  5
2AE2
330
1F
100
AcDbEntity
  8
孔
100
AcDbCircle
 10
33786.19945434378
 20
29060.31804904735
 30
0.0
 40
5.0
100
AcDbArc
 50
270.0
 51
90.0
  0
ARC
  5
2AE3
330
1F
100
AcDbEntity
  8
孔
100
AcDbCircle
 10
33742.19945434377
 20
29060.31804904735
 30
0.0
 40
5.0
100
AcDbArc
 50
90.0
 51
143.1301023543243
  0
ARC
  5
2AE4
330
1F
100
AcDbEntity
  8
孔
100
AcDbCircle
 10
33742.19945434377
 20
29060.31804904735
 30
0.0
 40
5.0
100
AcDbArc
 50
216.8698976456756
 51
270.0
  0
LINE
  5
2AE5
330
1F
100
AcDbEntity
  8
孔
100
AcDbLine
 10
33732.69945434378
 20
29063.31804904735
 30
0.0
 11
33738.19945434378
 21
29063.31804904735
 31
0.0
  0
LINE
  5
2AE6
330
1F
100
AcDbEntity
  8
孔
100
AcDbLine
 10
33732.69945434378
 20
29057.31804904735
 30
0.0
 11
33738.19945434378
 21
29057.31804904735
 31
0.0
  0
LINE
  5
2AE7
330
1F
100
AcDbEntity
  8
孔
100
AcDbLine
 10
33742.19945434377
 20
29065.31804904735
 30
0.0
 11
33756.69945434378
 21
29065.31804904735
 31
0.0
  0
LINE
  5
2AE8
330
1F
100
AcDbEntity
  8
孔
100
AcDbLine
 10
33776.69945434378
 20
29065.31804904735
 30
0.0
 11
33786.19945434378
 21
29065.31804904735
 31
0.0
  0
LINE
  5
2AE9
330
1F
100
AcDbEntity
  8
孔
100
AcDbLine
 10
33742.19945434377
 20
29055.31804904735
 30
0.0
 11
33756.69945434378
 21
29055.31804904735
 31
0.0
  0
LINE
  5
2AEA
330
1F
100
AcDbEntity
  8
孔
100
AcDbLine
 10
33776.69945434378
 20
29055.31804904735
 30
0.0
 11
33786.19945434378
 21
29055.31804904735
 31
0.0
  0
LINE
  5
2AEB
330
1F
100
AcDbEntity
  8
外形線
100
AcDbLine
 10
33756.69945434378
 20
29064.31804904735
 30
0.0
 11
33756.69945434378
 21
29056.31804904735
 31
0.0
  0
LINE
  5
2AEC
330
1F
100
AcDbEntity
  8
外形線
100
AcDbLine
 10
33760.19945434378
 20
29052.81804904735
 30
0.0
 11
33769.19945434378
 21
29052.81804904735
 31
0.0
  0
ARC
  5
2AED
330
1F
100
AcDbEntity
  8
外形線
100
AcDbCircle
 10
33773.19945434378
 20
29056.31804904735
 30
0.0
 40
3.5
100
AcDbArc
 50
270.0
 51
0.0
  0
ARC
  5
2AEE
330
1F
100
AcDbEntity
  8
外形線
100
AcDbCircle
 10
33760.19945434378
 20
29056.31804904735
 30
0.0
 40
3.5
100
AcDbArc
 50
180.0
 51
270.0
  0
LINE
  5
2AEF
330
1F
100
AcDbEntity
  8
外形線
100
AcDbLine
 10
33776.69945434378
 20
29056.31804904735
 30
0.0
 11
33776.69945434378
 21
29064.31804904735
 31
0.0
  0
ARC
  5
2AF0
330
1F
100
AcDbEntity
  8
外形線
100
AcDbCircle
 10
33773.19945434378
 20
29064.31804904735
 30
0.0
 40
3.5
100
AcDbArc
 50
0.0
 51
90.0
  0
LINE
  5
2AF1
330
1F
100
AcDbEntity
  8
外形線
100
AcDbLine
 10
33769.19945434378
 20
29067.81804904735
 30
0.0
 11
33760.19945434378
 21
29067.81804904735
 31
0.0
  0
ARC
  5
2AF2
330
1F
100
AcDbEntity
  8
外形線
100
AcDbCircle
 10
33760.19945434378
 20
29064.31804904735
 30
0.0
 40
3.5
100
AcDbArc
 50
90.0
 51
180.0
  0
LINE
  5
2AF3
330
1F
100
AcDbEntity
  8
外形線
100
AcDbLine
 10
33756.69945434378
 20
29064.31804904735
 30
0.0
 11
33758.69945434378
 21
29064.31804904735
 31
0.0
  0
LINE
  5
2AF4
330
1F
100
AcDbEntity
  8
外形線
100
AcDbLine
 10
33758.69945434378
 20
29064.31804904735
 30
0.0
 11
33758.69945434378
 21
29056.31804904735
 31
0.0
  0
LINE
  5
2AF5
330
1F
100
AcDbEntity
  8
外形線
100
AcDbLine
 10
33758.69945434378
 20
29056.31804904735
 30
0.0
 11
33756.69945434378
 21
29056.31804904735
 31
0.0
  0
LINE
  5
2AF6
330
1F
100
AcDbEntity
  8
外形線
100
AcDbLine
 10
33769.19945434378
 20
29053.81804904735
 30
0.0
 11
33769.19945434378
 21
29051.31804904735
 31
0.0
  0
LINE
  5
2AF7
330
1F
100
AcDbEntity
  8
外形線
100
AcDbLine
 10
33769.19945434378
 20
29051.31804904735
 30
0.0
 11
33773.19945434378
 21
29051.31804904735
 31
0.0
  0
LINE
  5
2AF8
330
1F
100
AcDbEntity
  8
外形線
100
AcDbLine
 10
33773.19945434378
 20
29051.31804904735
 30
0.0
 11
33773.19945434378
 21
29053.81804904735
 31
0.0
  0
LINE
  5
2AF9
330
1F
100
AcDbEntity
  8
外形線
100
AcDbLine
 10
33773.19945434378
 20
29053.81804904735
 30
0.0
 11
33769.19945434378
 21
29053.81804904735
 31
0.0
  0
LINE
  5
2AFA
330
1F
100
AcDbEntity
  8
外形線
100
AcDbLine
 10
33769.19945434378
 20
29066.81804904735
 30
0.0
 11
33769.19945434378
 21
29069.31804904735
 31
0.0
  0
LINE
  5
2AFB
330
1F
100
AcDbEntity
  8
外形線
100
AcDbLine
 10
33769.19945434378
 20
29069.31804904735
 30
0.0
 11
33773.19945434378
 21
29069.31804904735
 31
0.0
  0
LINE
  5
2AFC
330
1F
100
AcDbEntity
  8
外形線
100
AcDbLine
 10
33773.19945434378
 20
29069.31804904735
 30
0.0
 11
33773.19945434378
 21
29066.81804904735
 31
0.0
  0
LINE
  5
2AFD
330
1F
100
AcDbEntity
  8
外形線
100
AcDbLine
 10
33773.19945434378
 20
29066.81804904735
 30
0.0
 11
33769.19945434378
 21
29066.81804904735
 31
0.0
  0
LINE
  5
2AFE
330
1F
100
AcDbEntity
  8
外形線
100
AcDbLine
 10
33776.69945434378
 20
29063.31804904735
 30
0.0
 11
33779.69945434378
 21
29063.31804904735
 31
0.0
  0
LINE
  5
2AFF
330
1F
100
AcDbEntity
  8
外形線
100
AcDbLine
 10
33779.69945434378
 20
29063.31804904735
 30
0.0
 11
33779.69945434378
 21
29057.31804904735
 31
0.0
  0
LINE
  5
2B00
330
1F
100
AcDbEntity
  8
外形線
100
AcDbLine
 10
33779.69945434378
 20
29057.31804904735
 30
0.0
 11
33776.69945434378
 21
29057.31804904735
 31
0.0
  0
LINE
  5
2B01
330
1F
100
AcDbEntity
  8
外形線
100
AcDbLine
 10
33772.69945434377
 20
29062.31804904735
 30
0.0
 11
33761.69945434378
 21
29062.31804904735
 31
0.0
  0
LINE
  5
2B02
330
1F
100
AcDbEntity
  8
外形線
100
AcDbLine
 10
33761.69945434378
 20
29062.31804904735
 30
0.0
 11
33761.69945434378
 21
29058.31804904735
 31
0.0
  0
LINE
  5
2B03
330
1F
100
AcDbEntity
  8
外形線
100
AcDbLine
 10
33761.69945434378
 20
29058.31804904735
 30
0.0
 11
33772.69945434377
 21
29058.31804904735
 31
0.0
  0
ARC
  5
2B04
330
1F
100
AcDbEntity
  8
外形線
100
AcDbCircle
 10
33772.69945434377
 20
29060.31804904735
 30
0.0
 40
2.0
100
AcDbArc
 50
270.0
 51
90.0
  0
LINE
  5
2B05
330
1F
100
AcDbEntity
  8
外形線
100
AcDbLine
 10
33756.69945434378
 20
29057.06804904735
 30
0.0
 11
33757.69945434378
 21
29057.06804904735
 31
0.0
  0
LINE
  5
2B06
330
1F
100
AcDbEntity
  8
外形線
100
AcDbLine
 10
33757.69945434378
 20
29057.06804904735
 30
0.0
 11
33757.69945434378
 21
29063.56804904735
 31
0.0
  0
LINE
  5
2B07
330
1F
100
AcDbEntity
  8
外形線
100
AcDbLine
 10
33757.69945434378
 20
29063.56804904735
 30
0.0
 11
33756.69945434378
 21
29063.56804904735
 31
0.0
  0
LINE
  5
2B08
330
1F
100
AcDbEntity
  8
外形線
100
AcDbLine
 10
33732.69945434378
 20
29069.81804904735
 30
0.0
 11
33802.19945434378
 21
29069.81804904735
 31
0.0
  0
LINE
  5
2B09
330
1F
100
AcDbEntity
  8
外形線
100
AcDbLine
 10
33802.19945434378
 20
29069.81804904735
 30
0.0
 11
33802.19945434378
 21
29062.6206426706
 31
0.0
  0
LINE
  5
2B0A
330
1F
100
AcDbEntity
  8
外形線
100
AcDbLine
 10
33802.19945434378
 20
29058.01545542411
 30
0.0
 11
33802.19945434378
 21
29050.81804904735
 31
0.0
  0
LINE
  5
2B0B
330
1F
100
AcDbEntity
  8
外形線
100
AcDbLine
 10
33802.19945434378
 20
29050.81804904735
 30
0.0
 11
33732.69945434378
 21
29050.81804904735
 31
0.0
  0
LINE
  5
2B0C
330
1F
100
AcDbEntity
  8
外形線
100
AcDbLine
 10
33732.69945434378
 20
29051.81804904735
 30
0.0
 11
33769.19945434378
 21
29051.81804904735
 31
0.0
  0
LINE
  5
2B0D
330
1F
100
AcDbEntity
  8
外形線
100
AcDbLine
 10
33773.19945434378
 20
29051.81804904735
 30
0.0
 11
33802.19945434378
 21
29051.81804904735
 31
0.0
  0
LINE
  5
2B0E
330
1F
100
AcDbEntity
  8
外形線
100
AcDbLine
 10
33802.19945434378
 20
29068.81804904735
 30
0.0
 11
33773.19945434378
 21
29068.81804904735
 31
0.0
  0
LINE
  5
2B0F
330
1F
100
AcDbEntity
  8
外形線
100
AcDbLine
 10
33732.69945434378
 20
29068.81804904735
 30
0.0
 11
33769.19945434378
 21
29068.81804904735
 31
0.0
  0
LINE
  5
2B10
330
1F
100
AcDbEntity
  8
外形線
100
AcDbLine
 10
33798.19945434378
 20
29063.81804904735
 30
0.0
 11
33794.19945434378
 21
29063.81804904735
 31
0.0
  0
LINE
  5
2B11
330
1F
100
AcDbEntity
  8
外形線
100
AcDbLine
 10
33794.19945434378
 20
29063.81804904735
 30
0.0
 11
33794.19945434378
 21
29056.81804904735
 31
0.0
  0
LINE
  5
2B12
330
1F
100
AcDbEntity
  8
外形線
100
AcDbLine
 10
33794.19945434378
 20
29056.81804904735
 30
0.0
 11
33798.19945434378
 21
29056.81804904735
 31
0.0
  0
LINE
  5
2B13
330
1F
100
AcDbEntity
  8
外形線
100
AcDbLine
 10
33797.69945434378
 20
29056.81804904735
 30
0.0
 11
33797.69945434378
 21
29063.81804904735
 31
0.0
  0
LINE
  5
2B14
330
1F
100
AcDbEntity
  8
外形線
100
AcDbLine
 10
33797.69945434378
 20
29063.81804904735
 30
0.0
 11
33805.3006825948
 21
29061.6922850497
 31
0.0
  0
LINE
  5
2B15
330
1F
100
AcDbEntity
  8
外形線
100
AcDbLine
 10
33805.3006825948
 20
29058.943813045
 30
0.0
 11
33797.69945434378
 21
29056.81804904735
 31
0.0
  0
ARC
  5
2B16
330
1F
100
AcDbEntity
  8
外形線
100
AcDbCircle
 10
33804.69945434378
 20
29060.31804904735
 30
0.0
 40
1.5
100
AcDbArc
 50
293.6293777308575
 51
66.37062226914252
  0
LINE
  5
2B17
330
1F
100
AcDbEntity
  8
外形線
100
AcDbLine
 10
33798.19945434378
 20
29063.81804904735
 30
0.0
 11
33798.19945434378
 21
29063.67821875102
 31
0.0
  0
LINE
  5
2B18
330
1F
100
AcDbEntity
  8
外形線
100
AcDbLine
 10
33798.19945434378
 20
29056.81804904735
 30
0.0
 11
33798.19945434378
 21
29056.95787934368
 31
0.0
  0
LINE
  5
2B19
330
1F
100
AcDbEntity
  8
孔
100
AcDbLine
 10
34290.19945434376
 20
29064.81804904911
 30
0.0
 11
34289.17525920894
 21
29056.68497580743
 31
0.0
  0
LINE
  5
2B1A
330
1F
100
AcDbEntity
  8
孔
100
AcDbLine
 10
34286.22364947864
 20
29056.68497580742
 30
0.0
 11
34285.19945434376
 21
29064.81804904909
 31
0.0
  0
ARC
  5
2B1B
330
1F
100
AcDbEntity
  8
孔
100
AcDbCircle
 10
34287.69945434379
 20
29056.95330396472
 30
0.0
 40
1.5
100
AcDbArc
 50
190.3048464693649
 51
349.6951535310586
  0
LINE
  5
2B1C
330
1F
100
AcDbEntity
  8
孔
100
AcDbLine
 10
34290.19945434376
 20
29064.81804904911
 30
0.0
 11
34285.19945434376
 21
29064.81804904909
 31
0.0
  0
LINE
  5
2B1D
330
1F
100
AcDbEntity
  8
孔
100
AcDbLine
 10
34290.19945434376
 20
29064.81804904911
 30
0.0
 11
34290.19945434376
 21
29065.31804904911
 31
0.0
  0
LINE
  5
2B1E
330
1F
100
AcDbEntity
  8
孔
100
AcDbLine
 10
34290.19945434376
 20
29065.31804904911
 30
0.0
 11
34285.19945434376
 21
29065.31804904909
 31
0.0
  0
LINE
  5
2B1F
330
1F
100
AcDbEntity
  8
孔
100
AcDbLine
 10
34285.19945434376
 20
29065.31804904909
 30
0.0
 11
34285.19945434376
 21
29064.81804904909
 31
0.0
  0
CIRCLE
  5
2B20
330
1F
100
AcDbEntity
  8
孔
100
AcDbCircle
 10
34277.19945434378
 20
29060.31804904906
 30
0.0
 40
2.1
  0
CIRCLE
  5
2B21
330
1F
100
AcDbEntity
  8
孔
100
AcDbCircle
 10
34249.19945434378
 20
29060.31804904895
 30
0.0
 40
2.1
  0
CIRCLE
  5
2B22
330
1F
100
AcDbEntity
  8
孔
100
AcDbCircle
 10
34157.19945434378
 20
29060.31804904859
 30
0.0
 40
2.1
  0
CIRCLE
  5
2B23
330
1F
100
AcDbEntity
  8
孔
100
AcDbCircle
 10
34137.19945434378
 20
29060.31804904851
 30
0.0
 40
2.1
  0
ARC
  5
2B29
330
1F
100
AcDbEntity
  8
孔
100
AcDbCircle
 10
33968.19945434378
 20
29060.31804904785
 30
0.0
 40
2.1
100
AcDbArc
 50
58.41186449506663
 51
301.5881355049334
  0
CIRCLE
  5
2B2A
330
1F
100
AcDbEntity
  8
孔
100
AcDbCircle
 10
33958.19945434378
 20
29060.31804904781
 30
0.0
 40
2.1
  0
LINE
  5
2B2B
330
1F
100
AcDbEntity
  8
孔
100
AcDbLine
 10
34270.19945434379
 20
29056.81804904903
 30
0.0
 11
34270.19945434376
 21
29063.81804904903
 31
0.0
  0
LINE
  5
2B2C
330
1F
100
AcDbEntity
  8
孔
100
AcDbLine
 10
34270.19945434376
 20
29063.81804904903
 30
0.0
 11
34256.19945434376
 21
29063.81804904897
 31
0.0
  0
LINE
  5
2B2D
330
1F
100
AcDbEntity
  8
孔
100
AcDbLine
 10
34256.19945434376
 20
29063.81804904897
 30
0.0
 11
34256.19945434379
 21
29056.81804904898
 31
0.0
  0
LINE
  5
2B2E
330
1F
100
AcDbEntity
  8
孔
100
AcDbLine
 10
34256.19945434379
 20
29056.81804904898
 30
0.0
 11
34270.19945434379
 21
29056.81804904903
 31
0.0
  0
LINE
  5
2B2F
330
1F
100
AcDbEntity
  8
孔
100
AcDbLine
 10
34240.19945434376
 20
29064.81804904892
 30
0.0
 11
34239.17525920894
 21
29056.68497580723
 31
0.0
  0
LINE
  5
2B30
330
1F
100
AcDbEntity
  8
孔
100
AcDbLine
 10
34236.22364947864
 20
29056.68497580722
 30
0.0
 11
34235.19945434376
 21
29064.81804904889
 31
0.0
  0
ARC
  5
2B31
330
1F
100
AcDbEntity
  8
孔
100
AcDbCircle
 10
34237.69945434379
 20
29056.95330396453
 30
0.0
 40
1.5
100
AcDbArc
 50
190.3048464693649
 51
349.6951535310586
  0
LINE
  5
2B32
330
1F
100
AcDbEntity
  8
孔
100
AcDbLine
 10
34240.19945434376
 20
29064.81804904892
 30
0.0
 11
34235.19945434376
 21
29064.81804904889
 31
0.0
  0
LINE
  5
2B33
330
1F
100
AcDbEntity
  8
孔
100
AcDbLine
 10
34240.19945434376
 20
29064.81804904892
 30
0.0
 11
34240.19945434376
 21
29065.31804904891
 31
0.0
  0
LINE
  5
2B34
330
1F
100
AcDbEntity
  8
孔
100
AcDbLine
 10
34240.19945434376
 20
29065.31804904891
 30
0.0
 11
34235.19945434376
 21
29065.31804904889
 31
0.0
  0
LINE
  5
2B35
330
1F
100
AcDbEntity
  8
孔
100
AcDbLine
 10
34235.19945434376
 20
29065.31804904889
 30
0.0
 11
34235.19945434376
 21
29064.81804904889
 31
0.0
  0
LINE
  5
2B36
330
1F
100
AcDbEntity
  8
孔
100
AcDbLine
 10
34188.19945434376
 20
29064.81804904871
 30
0.0
 11
34187.17525920894
 21
29056.68497580703
 31
0.0
  0
LINE
  5
2B37
330
1F
100
AcDbEntity
  8
孔
100
AcDbLine
 10
34184.22364947864
 20
29056.68497580702
 30
0.0
 11
34183.19945434376
 21
29064.81804904869
 31
0.0
  0
ARC
  5
2B38
330
1F
100
AcDbEntity
  8
孔
100
AcDbCircle
 10
34185.69945434379
 20
29056.95330396432
 30
0.0
 40
1.5
100
AcDbArc
 50
190.3048464693649
 51
349.6951535310586
  0
LINE
  5
2B39
330
1F
100
AcDbEntity
  8
孔
100
AcDbLine
 10
34188.19945434376
 20
29064.81804904871
 30
0.0
 11
34183.19945434376
 21
29064.81804904869
 31
0.0
  0
LINE
  5
2B3A
330
1F
100
AcDbEntity
  8
孔
100
AcDbLine
 10
34188.19945434376
 20
29064.81804904871
 30
0.0
 11
34188.19945434376
 21
29065.31804904871
 31
0.0
  0
LINE
  5
2B3B
330
1F
100
AcDbEntity
  8
孔
100
AcDbLine
 10
34188.19945434376
 20
29065.31804904871
 30
0.0
 11
34183.19945434376
 21
29065.31804904869
 31
0.0
  0
LINE
  5
2B3C
330
1F
100
AcDbEntity
  8
孔
100
AcDbLine
 10
34183.19945434376
 20
29065.31804904869
 30
0.0
 11
34183.19945434376
 21
29064.81804904869
 31
0.0
  0
CIRCLE
  5
2B52
330
1F
100
AcDbEntity
  8
孔
100
AcDbCircle
 10
34222.19945434378
 20
29060.31804904884
 30
0.0
 40
4.0
  0
CIRCLE
  5
2B53
330
1F
100
AcDbEntity
  8
孔
100
AcDbCircle
 10
34222.19945434378
 20
29060.31804904884
 30
0.0
 40
5.0
  0
LINE
  5
2B54
330
1F
100
AcDbEntity
  8
孔
100
AcDbLine
 10
34206.09945434379
 20
29058.21804904878
 30
0.0
 11
34196.29945434378
 21
29058.21804904874
 31
0.0
  0
LINE
  5
2B55
330
1F
100
AcDbEntity
  8
孔
100
AcDbLine
 10
34206.09945434377
 20
29062.41804904878
 30
0.0
 11
34196.29945434377
 21
29062.41804904874
 31
0.0
  0
ARC
  5
2B56
330
1F
100
AcDbEntity
  8
孔
100
AcDbCircle
 10
34206.0994543438
 20
29060.3180490488
 30
0.0
 40
2.100000000013096
100
AcDbArc
 50
269.999999999391
 51
90.00000000022472
  0
ARC
  5
2B57
330
1F
100
AcDbEntity
  8
孔
100
AcDbCircle
 10
34196.29945434377
 20
29060.31804904874
 30
0.0
 40
2.099999999998544
100
AcDbArc
 50
90.00000000022472
 51
270.0000000002247
  0
LINE
  5
2B58
330
1F
100
AcDbEntity
  8
孔
100
AcDbLine
 10
34148.09945434379
 20
29058.21804904855
 30
0.0
 11
34146.32945434378
 21
29058.21804904855
 31
0.0
  0
LINE
  5
2B59
330
1F
100
AcDbEntity
  8
孔
100
AcDbLine
 10
34148.09945434377
 20
29062.41804904855
 30
0.0
 11
34146.32945434377
 21
29062.41804904854
 31
0.0
  0
ARC
  5
2B5A
330
1F
100
AcDbEntity
  8
孔
100
AcDbCircle
 10
34148.09945434379
 20
29060.31804904855
 30
0.0
 40
2.099999999998544
100
AcDbArc
 50
269.999999999391
 51
90.00000000022472
  0
ARC
  5
2B5B
330
1F
100
AcDbEntity
  8
孔
100
AcDbCircle
 10
34146.29966561138
 20
29060.31804904853
 30
0.0
 40
2.100211267589676
100
AcDbArc
 50
89.18730753392996
 51
270.812692466518
  0
ARC
  5
2B69
330
1F
100
AcDbEntity
  8
孔
100
AcDbCircle
 10
33980.29945434377
 20
29060.3180490479
 30
0.0
 40
2.100000000013096
100
AcDbArc
 50
90.00000000022472
 51
270.0000000002247
  0
LINE
  5
2B6C
330
1F
100
AcDbEntity
  8
孔
100
AcDbLine
 10
33874.09945434379
 20
29058.21804904748
 30
0.0
 11
33873.16137119183
 21
29058.21804904748
 31
0.0
  0
LINE
  5
2B6D
330
1F
100
AcDbEntity
  8
孔
100
AcDbLine
 10
33874.09945434377
 20
29062.41804904748
 30
0.0
 11
33873.16137119183
 21
29062.41804904748
 31
0.0
  0
ARC
  5
2B6E
330
1F
100
AcDbEntity
  8
孔
100
AcDbCircle
 10
33874.0994543438
 20
29060.31804904748
 30
0.0
 40
2.099999999998544
100
AcDbArc
 50
269.999999999391
 51
90.00000000022472
  0
ARC
  5
2B74
330
1F
100
AcDbEntity
  8
孔
100
AcDbCircle
 10
33817.19945434378
 20
29060.31804904726
 30
0.0
 40
2.75
100
AcDbArc
 50
46.29788556219023
 51
313.7021144378098
  0
ARC
  5
2B75
330
1F
100
AcDbEntity
  8
孔
100
AcDbCircle
 10
34322.19945434378
 20
29060.31804904735
 30
0.0
 40
5.0
100
AcDbArc
 50
90.0
 51
270.0
  0
LINE
  5
2B76
330
1F
100
AcDbEntity
  8
孔
100
AcDbLine
 10
34364.69945434378
 20
29065.31804904735
 30
0.0
 11
34351.69945434378
 21
29065.31804904735
 31
0.0
  0
LINE
  5
2B77
330
1F
100
AcDbEntity
  8
孔
100
AcDbLine
 10
34331.69945434378
 20
29065.31804904735
 30
0.0
 11
34322.19945434378
 21
29065.31804904735
 31
0.0
  0
LINE
  5
2B78
330
1F
100
AcDbEntity
  8
孔
100
AcDbLine
 10
34364.69945434378
 20
29055.31804904735
 30
0.0
 11
34351.69945434378
 21
29055.31804904735
 31
0.0
  0
LINE
  5
2B79
330
1F
100
AcDbEntity
  8
孔
100
AcDbLine
 10
34331.69945434378
 20
29055.31804904735
 30
0.0
 11
34322.19945434378
 21
29055.31804904735
 31
0.0
  0
LINE
  5
2B7A
330
1F
100
AcDbEntity
  8
外形線
100
AcDbLine
 10
34351.69945434378
 20
29064.31804904735
 30
0.0
 11
34351.69945434378
 21
29056.31804904735
 31
0.0
  0
LINE
  5
2B7B
330
1F
100
AcDbEntity
  8
外形線
100
AcDbLine
 10
34348.19945434378
 20
29052.81804904735
 30
0.0
 11
34339.19945434378
 21
29052.81804904735
 31
0.0
  0
ARC
  5
2B7C
330
1F
100
AcDbEntity
  8
外形線
100
AcDbCircle
 10
34335.19945434378
 20
29056.31804904735
 30
0.0
 40
3.5
100
AcDbArc
 50
180.0
 51
270.0
  0
ARC
  5
2B7D
330
1F
100
AcDbEntity
  8
外形線
100
AcDbCircle
 10
34348.19945434378
 20
29056.31804904735
 30
0.0
 40
3.5
100
AcDbArc
 50
270.0
 51
0.0
  0
LINE
  5
2B7E
330
1F
100
AcDbEntity
  8
外形線
100
AcDbLine
 10
34331.69945434378
 20
29056.31804904735
 30
0.0
 11
34331.69945434378
 21
29064.31804904735
 31
0.0
  0
ARC
  5
2B7F
330
1F
100
AcDbEntity
  8
外形線
100
AcDbCircle
 10
34335.19945434378
 20
29064.31804904735
 30
0.0
 40
3.5
100
AcDbArc
 50
90.0
 51
180.0
  0
LINE
  5
2B80
330
1F
100
AcDbEntity
  8
外形線
100
AcDbLine
 10
34339.19945434378
 20
29067.81804904735
 30
0.0
 11
34348.19945434378
 21
29067.81804904735
 31
0.0
  0
ARC
  5
2B81
330
1F
100
AcDbEntity
  8
外形線
100
AcDbCircle
 10
34348.19945434378
 20
29064.31804904735
 30
0.0
 40
3.5
100
AcDbArc
 50
0.0
 51
90.0
  0
LINE
  5
2B82
330
1F
100
AcDbEntity
  8
外形線
100
AcDbLine
 10
34351.69945434378
 20
29064.31804904735
 30
0.0
 11
34349.69945434378
 21
29064.31804904735
 31
0.0
  0
LINE
  5
2B83
330
1F
100
AcDbEntity
  8
外形線
100
AcDbLine
 10
34349.69945434378
 20
29064.31804904735
 30
0.0
 11
34349.69945434378
 21
29056.31804904735
 31
0.0
  0
LINE
  5
2B84
330
1F
100
AcDbEntity
  8
外形線
100
AcDbLine
 10
34349.69945434378
 20
29056.31804904735
 30
0.0
 11
34351.69945434378
 21
29056.31804904735
 31
0.0
  0
LINE
  5
2B85
330
1F
100
AcDbEntity
  8
外形線
100
AcDbLine
 10
34339.19945434378
 20
29053.81804904735
 30
0.0
 11
34339.19945434378
 21
29051.31804904735
 31
0.0
  0
LINE
  5
2B86
330
1F
100
AcDbEntity
  8
外形線
100
AcDbLine
 10
34339.19945434378
 20
29051.31804904735
 30
0.0
 11
34335.19945434378
 21
29051.31804904735
 31
0.0
  0
LINE
  5
2B87
330
1F
100
AcDbEntity
  8
外形線
100
AcDbLine
 10
34335.19945434378
 20
29051.31804904735
 30
0.0
 11
34335.19945434378
 21
29053.81804904735
 31
0.0
  0
LINE
  5
2B88
330
1F
100
AcDbEntity
  8
外形線
100
AcDbLine
 10
34335.19945434378
 20
29053.81804904735
 30
0.0
 11
34339.19945434378
 21
29053.81804904735
 31
0.0
  0
LINE
  5
2B89
330
1F
100
AcDbEntity
  8
外形線
100
AcDbLine
 10
34339.19945434378
 20
29066.81804904735
 30
0.0
 11
34339.19945434378
 21
29069.31804904735
 31
0.0
  0
LINE
  5
2B8A
330
1F
100
AcDbEntity
  8
外形線
100
AcDbLine
 10
34339.19945434378
 20
29069.31804904735
 30
0.0
 11
34335.19945434378
 21
29069.31804904735
 31
0.0
  0
LINE
  5
2B8B
330
1F
100
AcDbEntity
  8
外形線
100
AcDbLine
 10
34335.19945434378
 20
29069.31804904735
 30
0.0
 11
34335.19945434378
 21
29066.81804904735
 31
0.0
  0
LINE
  5
2B8C
330
1F
100
AcDbEntity
  8
外形線
100
AcDbLine
 10
34335.19945434378
 20
29066.81804904735
 30
0.0
 11
34339.19945434378
 21
29066.81804904735
 31
0.0
  0
LINE
  5
2B8D
330
1F
100
AcDbEntity
  8
外形線
100
AcDbLine
 10
34331.69945434378
 20
29063.31804904735
 30
0.0
 11
34328.69945434378
 21
29063.31804904735
 31
0.0
  0
LINE
  5
2B8E
330
1F
100
AcDbEntity
  8
外形線
100
AcDbLine
 10
34328.69945434378
 20
29063.31804904735
 30
0.0
 11
34328.69945434378
 21
29057.31804904735
 31
0.0
  0
LINE
  5
2B8F
330
1F
100
AcDbEntity
  8
外形線
100
AcDbLine
 10
34328.69945434378
 20
29057.31804904735
 30
0.0
 11
34331.69945434378
 21
29057.31804904735
 31
0.0
  0
LINE
  5
2B90
330
1F
100
AcDbEntity
  8
外形線
100
AcDbLine
 10
34335.69945434378
 20
29062.31804904735
 30
0.0
 11
34346.69945434378
 21
29062.31804904735
 31
0.0
  0
LINE
  5
2B91
330
1F
100
AcDbEntity
  8
外形線
100
AcDbLine
 10
34346.69945434378
 20
29062.31804904735
 30
0.0
 11
34346.69945434378
 21
29058.31804904735
 31
0.0
  0
LINE
  5
2B92
330
1F
100
AcDbEntity
  8
外形線
100
AcDbLine
 10
34346.69945434378
 20
29058.31804904735
 30
0.0
 11
34335.69945434378
 21
29058.31804904735
 31
0.0
  0
ARC
  5
2B93
330
1F
100
AcDbEntity
  8
外形線
100
AcDbCircle
 10
34335.69945434378
 20
29060.31804904735
 30
0.0
 40
2.0
100
AcDbArc
 50
90.0
 51
270.0
  0
LINE
  5
2B94
330
1F
100
AcDbEntity
  8
外形線
100
AcDbLine
 10
34351.69945434378
 20
29057.06804904735
 30
0.0
 11
34350.69945434378
 21
29057.06804904735
 31
0.0
  0
LINE
  5
2B95
330
1F
100
AcDbEntity
  8
外形線
100
AcDbLine
 10
34350.69945434378
 20
29057.06804904735
 30
0.0
 11
34350.69945434378
 21
29063.56804904735
 31
0.0
  0
LINE
  5
2B96
330
1F
100
AcDbEntity
  8
外形線
100
AcDbLine
 10
34350.69945434378
 20
29063.56804904735
 30
0.0
 11
34351.69945434378
 21
29063.56804904735
 31
0.0
  0
LINE
  5
2B97
330
1F
100
AcDbEntity
  8
外形線
100
AcDbLine
 10
34364.69945434378
 20
29069.81804904735
 30
0.0
 11
34306.19945434377
 21
29069.81804904735
 31
0.0
  0
LINE
  5
2B98
330
1F
100
AcDbEntity
  8
外形線
100
AcDbLine
 10
34306.19945434377
 20
29069.81804904735
 30
0.0
 11
34306.19945434377
 21
29062.6206426706
 31
0.0
  0
LINE
  5
2B99
330
1F
100
AcDbEntity
  8
外形線
100
AcDbLine
 10
34306.19945434377
 20
29058.01545542411
 30
0.0
 11
34306.19945434377
 21
29050.81804904735
 31
0.0
  0
LINE
  5
2B9A
330
1F
100
AcDbEntity
  8
外形線
100
AcDbLine
 10
34306.19945434377
 20
29050.81804904735
 30
0.0
 11
34364.69945434378
 21
29050.81804904735
 31
0.0
  0
LINE
  5
2B9B
330
1F
100
AcDbEntity
  8
外形線
100
AcDbLine
 10
34364.69945434378
 20
29051.81804904735
 30
0.0
 11
34339.19945434378
 21
29051.81804904735
 31
0.0
  0
LINE
  5
2B9C
330
1F
100
AcDbEntity
  8
外形線
100
AcDbLine
 10
34335.19945434378
 20
29051.81804904735
 30
0.0
 11
34306.19945434377
 21
29051.81804904735
 31
0.0
  0
LINE
  5
2B9D
330
1F
100
AcDbEntity
  8
外形線
100
AcDbLine
 10
34306.19945434377
 20
29068.81804904735
 30
0.0
 11
34335.19945434378
 21
29068.81804904735
 31
0.0
  0
LINE
  5
2B9E
330
1F
100
AcDbEntity
  8
外形線
100
AcDbLine
 10
34364.69945434378
 20
29068.81804904735
 30
0.0
 11
34339.19945434378
 21
29068.81804904735
 31
0.0
  0
LINE
  5
2B9F
330
1F
100
AcDbEntity
  8
外形線
100
AcDbLine
 10
34310.19945434378
 20
29063.81804904735
 30
0.0
 11
34314.19945434378
 21
29063.81804904735
 31
0.0
  0
LINE
  5
2BA0
330
1F
100
AcDbEntity
  8
外形線
100
AcDbLine
 10
34314.19945434378
 20
29063.81804904735
 30
0.0
 11
34314.19945434378
 21
29056.81804904735
 31
0.0
  0
LINE
  5
2BA1
330
1F
100
AcDbEntity
  8
外形線
100
AcDbLine
 10
34314.19945434378
 20
29056.81804904735
 30
0.0
 11
34310.19945434378
 21
29056.81804904735
 31
0.0
  0
LINE
  5
2BA2
330
1F
100
AcDbEntity
  8
外形線
100
AcDbLine
 10
34310.69945434378
 20
29056.81804904735
 30
0.0
 11
34310.69945434378
 21
29063.81804904735
 31
0.0
  0
LINE
  5
2BA3
330
1F
100
AcDbEntity
  8
外形線
100
AcDbLine
 10
34310.69945434378
 20
29063.81804904735
 30
0.0
 11
34303.09822609275
 21
29061.6922850497
 31
0.0
  0
LINE
  5
2BA4
330
1F
100
AcDbEntity
  8
外形線
100
AcDbLine
 10
34303.09822609275
 20
29058.943813045
 30
0.0
 11
34310.69945434378
 21
29056.81804904735
 31
0.0
  0
ARC
  5
2BA5
330
1F
100
AcDbEntity
  8
外形線
100
AcDbCircle
 10
34303.69945434378
 20
29060.31804904735
 30
0.0
 40
1.5
100
AcDbArc
 50
113.6293777308575
 51
246.3706222691425
  0
LINE
  5
2BA6
330
1F
100
AcDbEntity
  8
外形線
100
AcDbLine
 10
34310.19945434378
 20
29063.81804904735
 30
0.0
 11
34310.19945434378
 21
29063.67821875102
 31
0.0
  0
LINE
  5
2BA7
330
1F
100
AcDbEntity
  8
外形線
100
AcDbLine
 10
34310.19945434378
 20
29056.81804904735
 30
0.0
 11
34310.19945434378
 21
29056.95787934368
 31
0.0
  0
LINE
  5
2BA8
330
1F
100
AcDbEntity
  8
外形線
100
AcDbLine
 10
34522.96956707687
 20
28775.97977198184
 30
0.0
 11
34529.71956707687
 21
28775.97977198184
 31
0.0
  0
LINE
  5
2BA9
330
1F
100
AcDbEntity
  8
外形線
100
AcDbLine
 10
34535.71956707687
 20
28775.97977198184
 30
0.0
 11
34542.46956707687
 21
28775.97977198184
 31
0.0
  0
LINE
  5
2BAA
330
1F
100
AcDbEntity
  8
外形線
100
AcDbLine
 10
34520.91956707687
 20
28783.97977198184
 30
0.0
 11
34520.91956707687
 21
28773.97977198184
 31
0.0
  0
LINE
  5
2BAB
330
1F
100
AcDbEntity
  8
外形線
100
AcDbLine
 10
34520.91956707687
 20
28773.97977198184
 30
0.0
 11
34544.51956707687
 21
28773.97977198184
 31
0.0
  0
LINE
  5
2BAC
330
1F
100
AcDbEntity
  8
外形線
100
AcDbLine
 10
34544.51956707687
 20
28773.97977198184
 30
0.0
 11
34544.51956707687
 21
28783.97977198184
 31
0.0
  0
LINE
  5
2BAD
330
1F
100
AcDbEntity
  8
外形線
100
AcDbLine
 10
34520.91956707687
 20
28783.97977198184
 30
0.0
 11
34522.96956707687
 21
28783.97977198184
 31
0.0
  0
LINE
  5
2BAE
330
1F
100
AcDbEntity
  8
外形線
100
AcDbLine
 10
34522.96956707687
 20
28783.97977198184
 30
0.0
 11
34522.96956707687
 21
28779.67977198184
 31
0.0
  0
LINE
  5
2BAF
330
1F
100
AcDbEntity
  8
外形線
100
AcDbLine
 10
34522.96956707687
 20
28779.67977198184
 30
0.0
 11
34522.36956707687
 21
28779.67977198184
 31
0.0
  0
LINE
  5
2BB0
330
1F
100
AcDbEntity
  8
外形線
100
AcDbLine
 10
34522.36956707687
 20
28779.67977198184
 30
0.0
 11
34522.36956707687
 21
28783.37977198184
 31
0.0
  0
LINE
  5
2BB1
330
1F
100
AcDbEntity
  8
外形線
100
AcDbLine
 10
34522.36956707687
 20
28783.37977198184
 30
0.0
 11
34521.51956707687
 21
28783.37977198184
 31
0.0
  0
LINE
  5
2BB2
330
1F
100
AcDbEntity
  8
外形線
100
AcDbLine
 10
34521.51956707687
 20
28783.37977198184
 30
0.0
 11
34521.51956707687
 21
28774.57977198184
 31
0.0
  0
LINE
  5
2BB3
330
1F
100
AcDbEntity
  8
外形線
100
AcDbLine
 10
34521.51956707687
 20
28774.57977198184
 30
0.0
 11
34529.71956707687
 21
28774.57977198184
 31
0.0
  0
LINE
  5
2BB4
330
1F
100
AcDbEntity
  8
外形線
100
AcDbLine
 10
34535.71956707687
 20
28774.57977198184
 30
0.0
 11
34543.91956707687
 21
28774.57977198184
 31
0.0
  0
LINE
  5
2BB5
330
1F
100
AcDbEntity
  8
外形線
100
AcDbLine
 10
34543.91956707687
 20
28774.57977198184
 30
0.0
 11
34543.91956707687
 21
28783.37977198184
 31
0.0
  0
LINE
  5
2BB6
330
1F
100
AcDbEntity
  8
外形線
100
AcDbLine
 10
34543.91956707687
 20
28783.37977198184
 30
0.0
 11
34543.06956707687
 21
28783.37977198184
 31
0.0
  0
LINE
  5
2BB7
330
1F
100
AcDbEntity
  8
外形線
100
AcDbLine
 10
34543.06956707687
 20
28783.37977198184
 30
0.0
 11
34543.06956707687
 21
28779.67977198184
 31
0.0
  0
LINE
  5
2BB8
330
1F
100
AcDbEntity
  8
外形線
100
AcDbLine
 10
34543.06956707687
 20
28779.67977198184
 30
0.0
 11
34542.46956707687
 21
28779.67977198184
 31
0.0
  0
LINE
  5
2BB9
330
1F
100
AcDbEntity
  8
外形線
100
AcDbLine
 10
34542.46956707687
 20
28779.67977198184
 30
0.0
 11
34542.46956707687
 21
28783.97977198184
 31
0.0
  0
LINE
  5
2BBA
330
1F
100
AcDbEntity
  8
外形線
100
AcDbLine
 10
34542.46956707687
 20
28783.97977198184
 30
0.0
 11
34544.51956707687
 21
28783.97977198184
 31
0.0
  0
LINE
  5
2BBB
330
1F
100
AcDbEntity
  8
外形線
100
AcDbLine
 10
34529.71956707687
 20
28775.97977198184
 30
0.0
 11
34529.71956707687
 21
28773.97977198184
 31
0.0
  0
LINE
  5
2BBC
330
1F
100
AcDbEntity
  8
外形線
100
AcDbLine
 10
34535.71956707687
 20
28775.97977198184
 30
0.0
 11
34535.71956707687
 21
28773.97977198184
 31
0.0
  0
LINE
  5
2BBD
330
1F
100
AcDbEntity
  8
外形線
100
AcDbLine
 10
34524.46956707687
 20
28773.97977198184
 30
0.0
 11
34524.46956707687
 21
28769.97977198184
 31
0.0
  0
LINE
  5
2BBE
102
{ACAD_REACTORS
330
2D59
102
}
330
1F
100
AcDbEntity
  8
外形線
100
AcDbLine
 10
34524.46956707687
 20
28769.97977198184
 30
0.0
 11
34540.96956707687
 21
28769.97977198184
 31
0.0
  0
LINE
  5
2BBF
330
1F
100
AcDbEntity
  8
外形線
100
AcDbLine
 10
34540.96956707687
 20
28769.97977198184
 30
0.0
 11
34540.96956707687
 21
28773.97977198184
 31
0.0
  0
LINE
  5
2BC0
330
1F
100
AcDbEntity
  8
外形線
100
AcDbLine
 10
34522.96956707687
 20
28779.97977198184
 30
0.0
 11
34542.46956707687
 21
28779.97977198184
 31
0.0
  0
LINE
  5
2BC1
330
1F
100
AcDbEntity
  8
外形線
100
AcDbLine
 10
33719.69945434378
 20
28868.47977163284
 30
0.0
 11
33731.69945434379
 21
28868.47977163284
 31
0.0
  0
LINE
  5
2BC2
330
1F
100
AcDbEntity
  8
外形線
100
AcDbLine
 10
33732.69945434378
 20
28867.47977163283
 30
0.0
 11
33732.69945434378
 21
28837.97977163284
 31
0.0
  0
ARC
  5
2BC3
330
1F
100
AcDbEntity
  8
外形線
100
AcDbCircle
 10
33731.69945434379
 20
28867.47977163283
 30
0.0
 40
1.0
100
AcDbArc
 50
0.0
 51
90.0
  0
ARC
  5
2BC4
330
1F
100
AcDbEntity
  8
外形線
100
AcDbCircle
 10
33731.69945434379
 20
28837.97977163284
 30
0.0
 40
1.0
100
AcDbArc
 50
270.0
 51
0.0
  0
LINE
  5
2BC5
330
1F
100
AcDbEntity
  8
外形線
100
AcDbLine
 10
33731.69945434379
 20
28836.97977163283
 30
0.0
 11
33724.09888183336
 21
28836.97977163283
 31
0.0
  0
LINE
  5
2BC6
330
1F
100
AcDbEntity
  8
外形線
100
AcDbLine
 10
34390.19945434377
 20
28785.97977163282
 30
0.0
 11
34390.88273591677
 21
28787.34633477882
 31
0.0
  0
ARC
  5
2BC7
330
1F
100
AcDbEntity
  8
外形線
100
AcDbCircle
 10
34388.19945434377
 20
28788.68797556532
 30
0.0
 40
3.0
100
AcDbArc
 50
333.4349488229205
 51
0.0
  0
LINE
  5
2BC8
330
1F
100
AcDbEntity
  8
外形線
100
AcDbLine
 10
34391.19945434377
 20
28788.68797556532
 30
0.0
 11
34391.19945434377
 21
28831.56555841945
 31
0.0
  0
ARC
  5
2BC9
330
1F
100
AcDbEntity
  8
外形線
100
AcDbCircle
 10
34390.69945434377
 20
28831.56555841945
 30
0.0
 40
0.5
100
AcDbArc
 50
0.0
 51
44.99999999955322
  0
LINE
  5
2BCA
330
1F
100
AcDbEntity
  8
外形線
100
AcDbLine
 10
34391.05300773436
 20
28831.91911181004
 30
0.0
 11
34390.34590095317
 21
28832.62621859124
 31
0.0
  0
ARC
  5
2BCB
330
1F
100
AcDbEntity
  8
外形線
100
AcDbCircle
 10
34390.69945434377
 20
28832.97977198183
 30
0.0
 40
0.5
100
AcDbArc
 50
180.0
 51
224.9999999995532
  0
LINE
  5
2BCC
330
1F
100
AcDbEntity
  8
外形線
100
AcDbLine
 10
34390.19945434377
 20
28832.97977198183
 30
0.0
 11
34390.19945434377
 21
28868.97977163282
 31
0.0
  0
LINE
  5
2BCD
330
1F
100
AcDbEntity
  8
外形線
100
AcDbLine
 10
34389.19945434377
 20
28848.97977163282
 30
0.0
 11
34386.92355242322
 21
28848.52459124871
 31
0.0
  0
LINE
  5
2BCE
330
1F
100
AcDbEntity
  8
外形線
100
AcDbLine
 10
34389.19945434377
 20
28848.97977163282
 30
0.0
 11
34389.19945434377
 21
28868.97977163282
 31
0.0
  0
LINE
  5
2BCF
102
{ACAD_REACTORS
330
2D25
102
}
330
1F
100
AcDbEntity
  8
外形線
100
AcDbLine
 10
34389.19945434377
 20
28868.97977163282
 30
0.0
 11
34390.19945434377
 21
28868.97977163282
 31
0.0
  0
ELLIPSE
  5
2BD0
330
1F
100
AcDbEntity
  8
外形線
100
AcDbEllipse
 10
34386.84231148663
 20
28846.47977163282
 30
0.0
 11
2.35714285713766
 21
1.5
 31
0.0
210
0.0
220
0.0
230
-1.0
 40
0.6753514169109462
 41
3.682438273673346
 42
4.822127997503216
  0
ARC
  5
2BD1
330
1F
100
AcDbEntity
  8
外形線
100
AcDbCircle
 10
34387.51190082872
 20
28845.58284922153
 30
0.0
 40
3.0
100
AcDbArc
 50
101.3099324747151
 51
118.2155792741877
  0
LINE
  5
2BD2
330
1F
100
AcDbEntity
  8
外形線
100
AcDbLine
 10
34389.19945434377
 20
28868.47977163282
 30
0.0
 11
34388.69945434377
 21
28868.47977163282
 31
0.0
  0
LINE
  5
2BD3
330
1F
100
AcDbEntity
  8
外形線
100
AcDbLine
 10
34388.69945434377
 20
28868.47977163282
 30
0.0
 11
34388.69945434377
 21
28848.87977163282
 31
0.0
  0
LINE
  5
2BD4
330
1F
100
AcDbEntity
  8
外形線
100
AcDbLine
 10
34388.69945434377
 20
28868.47977163282
 30
0.0
 11
34374.69945434377
 21
28868.47977163282
 31
0.0
  0
LINE
  5
2BD5
330
1F
100
AcDbEntity
  8
外形線
100
AcDbLine
 10
34373.69945434377
 20
28867.47977163282
 30
0.0
 11
34373.69945434377
 21
28837.97977163282
 31
0.0
  0
ARC
  5
2BD6
330
1F
100
AcDbEntity
  8
外形線
100
AcDbCircle
 10
34374.69945434377
 20
28867.47977163282
 30
0.0
 40
1.0
100
AcDbArc
 50
90.0
 51
180.0
  0
ARC
  5
2BD7
330
1F
100
AcDbEntity
  8
外形線
100
AcDbCircle
 10
34374.69945434377
 20
28837.97977163282
 30
0.0
 40
1.0
100
AcDbArc
 50
180.0
 51
270.0
  0
LINE
  5
2BD8
330
1F
100
AcDbEntity
  8
外形線
100
AcDbLine
 10
34374.69945434377
 20
28836.97977163282
 30
0.0
 11
34384.30002685419
 21
28836.97977163282
 31
0.0
  0
LINE
  5
2BD9
330
1F
100
AcDbEntity
  8
外形線
100
AcDbLine
 10
34384.3000268542
 20
28846.0134684876
 30
0.0
 11
34384.3000268542
 21
28836.97977163282
 31
0.0
  0
LINE
  5
2BDA
330
1F
100
AcDbEntity
  8
外形線
100
AcDbLine
 10
34384.3000268542
 20
28836.97977163282
 30
0.0
 11
34384.3000268542
 21
28832.01864352091
 31
0.0
  0
ARC
  5
2BDB
330
1F
100
AcDbEntity
  8
外形線
100
AcDbCircle
 10
34393.74743820551
 20
28833.43772210536
 30
0.0
 40
9.559246875214904
100
AcDbArc
 50
189.0121675995525
 51
216.8643310199848
  0
ARC
  5
2BDC
330
1F
100
AcDbEntity
  8
外形線
100
AcDbCircle
 10
34385.69945434378
 20
28827.40295585358
 30
0.0
 40
0.5
100
AcDbArc
 50
359.9999999991662
 51
36.86433102115536
  0
ARC
  5
2BDD
330
1F
100
AcDbEntity
  8
外形線
100
AcDbCircle
 10
34384.8000268542
 20
28832.01864352091
 30
0.0
 40
0.5
100
AcDbArc
 50
180.0
 51
189.0121675991434
  0
LINE
  5
2BDE
330
1F
100
AcDbEntity
  8
外形線
100
AcDbLine
 10
34386.12711802001
 20
28783.97977163282
 30
0.0
 11
34386.19945434377
 21
28827.40295585358
 31
0.0
  0
LINE
  5
2BDF
330
1F
100
AcDbEntity
  8
外形線
100
AcDbLine
 10
34373.69945434377
 20
28864.02977163282
 30
0.0
 11
34365.19945434377
 21
28864.02977163282
 31
0.0
  0
ARC
  5
2BE0
330
1F
100
AcDbEntity
  8
外形線
100
AcDbCircle
 10
34365.19945434377
 20
28863.52977163282
 30
0.0
 40
0.5
100
AcDbArc
 50
90.0
 51
180.0
  0
LINE
  5
2BE1
330
1F
100
AcDbEntity
  8
外形線
100
AcDbLine
 10
34364.69945434377
 20
28863.52977163282
 30
0.0
 11
34364.69945434377
 21
28841.92977163282
 31
0.0
  0
LINE
  5
2BE2
330
1F
100
AcDbEntity
  8
外形線
100
AcDbLine
 10
34365.19945434377
 20
28841.42977163282
 30
0.0
 11
34373.69945434377
 21
28841.42977163282
 31
0.0
  0
ARC
  5
2BE3
330
1F
100
AcDbEntity
  8
外形線
100
AcDbCircle
 10
34365.19945434377
 20
28841.92977163282
 30
0.0
 40
0.5
100
AcDbArc
 50
180.0
 51
270.0
  0
LINE
  5
2BE4
330
1F
100
AcDbEntity
  8
外形線
100
AcDbLine
 10
34516.71956707689
 20
28852.72977163283
 30
0.0
 11
34516.71956707689
 21
28850.71420719575
 31
0.0
  0
LINE
  5
2BE5
330
1F
100
AcDbEntity
  8
外形線
100
AcDbLine
 10
34548.71956707689
 20
28849.89031745993
 30
0.0
 11
34548.71956707689
 21
28852.72977163392
 31
0.0
  0
ARC
  5
2BE6
102
{ACAD_REACTORS
330
2D59
102
}
330
1F
100
AcDbEntity
  8
外形線
100
AcDbCircle
 10
34532.71956707688
 20
28852.97784855591
 30
0.0
 40
16.00192307691588
100
AcDbArc
 50
359.1117111338804
 51
180.8882888661196
  0
ARC
  5
2BE7
330
1F
100
AcDbEntity
  8
外形線
100
AcDbCircle
 10
34532.71956707689
 20
28852.72977163283
 30
0.0
 40
16.24999999999987
100
AcDbArc
 50
194.141110233819
 51
217.6271906288117
  0
ARC
  5
2BE8
330
1F
100
AcDbEntity
  8
外形線
100
AcDbCircle
 10
34507.96956707689
 20
28833.65098760449
 30
0.0
 40
15.0
100
AcDbArc
 50
0.0
 51
37.6271906288117
  0
ARC
  5
2BE9
330
1F
100
AcDbEntity
  8
外形線
100
AcDbCircle
 10
34524.71956707689
 20
28850.71420719575
 30
0.0
 40
8.0
100
AcDbArc
 50
180.0
 51
194.141110233819
  0
ARC
  5
2BEA
330
1F
100
AcDbEntity
  8
外形線
100
AcDbCircle
 10
34532.71956707689
 20
28852.72977163283
 30
0.0
 40
16.24999999999987
100
AcDbArc
 50
322.3728093711883
 51
349.9367255563702
  0
ARC
  5
2BEB
330
1F
100
AcDbEntity
  8
外形線
100
AcDbCircle
 10
34557.46956707689
 20
28833.65098760449
 30
0.0
 40
15.0
100
AcDbArc
 50
142.3728093711883
 51
180.0
  0
LINE
  5
2BEC
330
1F
100
AcDbEntity
  8
外形線
100
AcDbLine
 10
34520.91956707687
 20
28783.97977198184
 30
0.0
 11
34522.96956707687
 21
28783.97977198184
 31
0.0
  0
LINE
  5
2BED
330
1F
100
AcDbEntity
  8
外形線
100
AcDbLine
 10
34522.96956707687
 20
28783.97977198184
 30
0.0
 11
34522.96956707687
 21
28775.97977198184
 31
0.0
  0
LINE
  5
2BEE
330
1F
100
AcDbEntity
  8
外形線
100
AcDbLine
 10
34522.96956707687
 20
28779.67977198184
 30
0.0
 11
34522.36956707687
 21
28779.67977198184
 31
0.0
  0
LINE
  5
2BEF
330
1F
100
AcDbEntity
  8
外形線
100
AcDbLine
 10
34522.36956707687
 20
28779.67977198184
 30
0.0
 11
34522.36956707687
 21
28783.37977198184
 31
0.0
  0
LINE
  5
2BF0
330
1F
100
AcDbEntity
  8
外形線
100
AcDbLine
 10
34522.36956707687
 20
28783.37977198184
 30
0.0
 11
34521.51956707687
 21
28783.37977198184
 31
0.0
  0
LINE
  5
2BF1
330
1F
100
AcDbEntity
  8
外形線
100
AcDbLine
 10
34543.91956707687
 20
28783.37977198184
 30
0.0
 11
34543.06956707687
 21
28783.37977198184
 31
0.0
  0
LINE
  5
2BF2
330
1F
100
AcDbEntity
  8
外形線
100
AcDbLine
 10
34543.06956707687
 20
28783.37977198184
 30
0.0
 11
34543.06956707687
 21
28779.67977198184
 31
0.0
  0
LINE
  5
2BF3
330
1F
100
AcDbEntity
  8
外形線
100
AcDbLine
 10
34543.06956707687
 20
28779.67977198184
 30
0.0
 11
34542.46956707687
 21
28779.67977198184
 31
0.0
  0
LINE
  5
2BF4
330
1F
100
AcDbEntity
  8
外形線
100
AcDbLine
 10
34542.46956707687
 20
28775.97977198184
 30
0.0
 11
34542.46956707687
 21
28783.97977198184
 31
0.0
  0
LINE
  5
2BF5
330
1F
100
AcDbEntity
  8
外形線
100
AcDbLine
 10
34542.46956707687
 20
28783.97977198184
 30
0.0
 11
34544.51956707687
 21
28783.97977198184
 31
0.0
  0
LINE
  5
2BF6
330
1F
100
AcDbEntity
  8
孔
100
AcDbLine
 10
34531.06956707689
 20
28865.32977163282
 30
0.0
 11
34531.06956707689
 21
28863.62977163283
 31
0.0
  0
LINE
  5
2BF7
330
1F
100
AcDbEntity
  8
孔
100
AcDbLine
 10
34534.36956707689
 20
28865.32977163282
 30
0.0
 11
34534.36956707689
 21
28863.62977163283
 31
0.0
  0
ARC
  5
2BF8
330
1F
100
AcDbEntity
  8
孔
100
AcDbCircle
 10
34532.71956707689
 20
28865.32977163283
 30
0.0
 40
1.650000000001455
100
AcDbArc
 50
359.9999999995831
 51
180.0000000004169
  0
ARC
  5
2BF9
330
1F
100
AcDbEntity
  8
孔
100
AcDbCircle
 10
34532.71956707689
 20
28863.62977163283
 30
0.0
 40
1.650000000001455
100
AcDbArc
 50
180.0
 51
0.0
  0
CIRCLE
  5
2BFA
330
1F
100
AcDbEntity
  8
孔
100
AcDbCircle
 10
34532.71956707689
 20
28853.97977163282
 30
0.0
 40
1.6
  0
LINE
  5
2BFB
330
1F
100
AcDbEntity
  8
孔
100
AcDbLine
 10
34531.06956707689
 20
28845.32977163282
 30
0.0
 11
34531.06956707689
 21
28841.62977163283
 31
0.0
  0
LINE
  5
2BFC
330
1F
100
AcDbEntity
  8
孔
100
AcDbLine
 10
34534.36956707689
 20
28845.32977163282
 30
0.0
 11
34534.36956707689
 21
28841.62977163283
 31
0.0
  0
ARC
  5
2BFD
330
1F
100
AcDbEntity
  8
孔
100
AcDbCircle
 10
34532.71956707689
 20
28845.32977163283
 30
0.0
 40
1.650000000008731
100
AcDbArc
 50
359.9999999995831
 51
180.0000000004169
  0
ARC
  5
2BFE
330
1F
100
AcDbEntity
  8
孔
100
AcDbCircle
 10
34532.71956707689
 20
28841.62977163282
 30
0.0
 40
1.650000000001455
100
AcDbArc
 50
179.9999999995831
 51
0.0000000004168817
  0
LINE
  5
2BFF
330
1F
100
AcDbEntity
  8
孔
100
AcDbLine
 10
34530.21956707689
 20
28833.47977163283
 30
0.0
 11
34530.21956707689
 21
28826.47977163283
 31
0.0
  0
LINE
  5
2C00
330
1F
100
AcDbEntity
  8
孔
100
AcDbLine
 10
34535.21956707688
 20
28833.47977163283
 30
0.0
 11
34535.21956707688
 21
28826.47977163283
 31
0.0
  0
ARC
  5
2C01
330
1F
100
AcDbEntity
  8
孔
100
AcDbCircle
 10
34532.71956707689
 20
28833.47977163283
 30
0.0
 40
2.500000000007275
100
AcDbArc
 50
0.0
 51
180.0
  0
ARC
  5
2C02
330
1F
100
AcDbEntity
  8
孔
100
AcDbCircle
 10
34532.71956707689
 20
28826.47977163283
 30
0.0
 40
2.499999999992724
100
AcDbArc
 50
180.0
 51
0.0
  0
LINE
  5
2C03
330
1F
100
AcDbEntity
  8
外形線
100
AcDbLine
 10
34522.96956707689
 20
28832.97977163282
 30
0.0
 11
34530.21956707689
 21
28832.97977163282
 31
0.0
  0
LINE
  5
2C04
330
1F
100
AcDbEntity
  8
外形線
100
AcDbLine
 10
34535.21956707688
 20
28832.97977163282
 30
0.0
 11
34542.46956707688
 21
28832.97977163282
 31
0.0
  0
LINE
  5
2C05
330
1F
100
AcDbEntity
  8
外形線
100
AcDbLine
 10
34522.96956707687
 20
28785.97977163283
 30
0.0
 11
34529.76956707688
 21
28785.97977163283
 31
0.0
  0
LINE
  5
2C06
330
1F
100
AcDbEntity
  8
外形線
100
AcDbLine
 10
34535.66956707688
 20
28785.97977163283
 30
0.0
 11
34542.46956707687
 21
28785.97977163283
 31
0.0
  0
LINE
  5
2C07
330
1F
100
AcDbEntity
  8
外形線
100
AcDbLine
 10
34523.71956707688
 20
28858.72977163283
 30
0.0
 11
34523.71956707688
 21
28848.22977163283
 31
0.0
  0
LINE
  5
2C08
330
1F
100
AcDbEntity
  8
外形線
100
AcDbLine
 10
34528.21956707689
 20
28858.72977163283
 30
0.0
 11
34528.21956707689
 21
28848.22977163283
 31
0.0
  0
ARC
  5
2C09
330
1F
100
AcDbEntity
  8
外形線
100
AcDbCircle
 10
34525.96956707689
 20
28858.72977163283
 30
0.0
 40
2.250000000007275
100
AcDbArc
 50
0.0
 51
180.0
  0
ARC
  5
2C0A
330
1F
100
AcDbEntity
  8
外形線
100
AcDbCircle
 10
34525.96956707689
 20
28848.22977163283
 30
0.0
 40
2.250000000007275
100
AcDbArc
 50
180.0
 51
0.0
  0
LINE
  5
2C0B
330
1F
100
AcDbEntity
  8
外形線
100
AcDbLine
 10
34537.21956707688
 20
28858.72977163283
 30
0.0
 11
34537.21956707688
 21
28848.22977163283
 31
0.0
  0
LINE
  5
2C0C
330
1F
100
AcDbEntity
  8
外形線
100
AcDbLine
 10
34541.71956707688
 20
28858.72977163283
 30
0.0
 11
34541.71956707688
 21
28848.22977163283
 31
0.0
  0
ARC
  5
2C0D
330
1F
100
AcDbEntity
  8
外形線
100
AcDbCircle
 10
34539.46956707689
 20
28858.72977163283
 30
0.0
 40
2.250000000007275
100
AcDbArc
 50
0.0
 51
180.0
  0
ARC
  5
2C0E
330
1F
100
AcDbEntity
  8
外形線
100
AcDbCircle
 10
34539.46956707689
 20
28848.22977163283
 30
0.0
 40
2.250000000007275
100
AcDbArc
 50
180.0
 51
0.0
  0
CIRCLE
  5
2C0F
330
1F
100
AcDbEntity
  8
孔
100
AcDbCircle
 10
34532.71956707688
 20
28785.97977163283
 30
0.0
 40
2.95
  0
LINE
  5
2C10
330
1F
100
AcDbEntity
  8
外形線
100
AcDbLine
 10
33718.19945434379
 20
28785.97977163283
 30
0.0
 11
33717.51617277078
 21
28787.34633477884
 31
0.0
  0
ARC
  5
2C11
330
1F
100
AcDbEntity
  8
外形線
100
AcDbCircle
 10
33720.19945434379
 20
28788.68797556533
 30
0.0
 40
3.0
100
AcDbArc
 50
180.0
 51
206.5650511770794
  0
LINE
  5
2C12
330
1F
100
AcDbEntity
  8
外形線
100
AcDbLine
 10
33717.19945434378
 20
28788.68797556533
 30
0.0
 11
33717.19945434378
 21
28831.56555841946
 31
0.0
  0
ARC
  5
2C13
330
1F
100
AcDbEntity
  8
外形線
100
AcDbCircle
 10
33717.69945434378
 20
28831.56555841946
 30
0.0
 40
0.5
100
AcDbArc
 50
135.0000000004468
 51
180.0
  0
LINE
  5
2C14
330
1F
100
AcDbEntity
  8
外形線
100
AcDbLine
 10
33717.34590095319
 20
28831.91911181006
 30
0.0
 11
33718.05300773438
 21
28832.62621859125
 31
0.0
  0
ARC
  5
2C15
330
1F
100
AcDbEntity
  8
外形線
100
AcDbCircle
 10
33717.69945434378
 20
28832.97977198185
 30
0.0
 40
0.5
100
AcDbArc
 50
315.0000000004467
 51
0.0
  0
LINE
  5
2C16
330
1F
100
AcDbEntity
  8
外形線
100
AcDbLine
 10
33718.19945434379
 20
28832.97977198185
 30
0.0
 11
33718.19945434379
 21
28868.97977163283
 31
0.0
  0
LINE
  5
2C17
330
1F
100
AcDbEntity
  8
外形線
100
AcDbLine
 10
33719.19945434378
 20
28848.97977163283
 30
0.0
 11
33721.47535626433
 21
28848.52459124872
 31
0.0
  0
LINE
  5
2C18
330
1F
100
AcDbEntity
  8
外形線
100
AcDbLine
 10
33719.19945434378
 20
28848.97977163283
 30
0.0
 11
33719.19945434378
 21
28868.97977163283
 31
0.0
  0
LINE
  5
2C19
330
1F
100
AcDbEntity
  8
外形線
100
AcDbLine
 10
33719.19945434378
 20
28868.97977163283
 30
0.0
 11
33718.19945434379
 21
28868.97977163283
 31
0.0
  0
ELLIPSE
  5
2C1A
330
1F
100
AcDbEntity
  8
外形線
100
AcDbEllipse
 10
33721.55659720092
 20
28846.47977163283
 30
0.0
 11
-2.35714285713766
 21
1.5
 31
0.0
210
0.0
220
0.0
230
1.0
 40
0.6753514169109462
 41
3.682438273673346
 42
4.822127997503216
  0
ARC
  5
2C1B
330
1F
100
AcDbEntity
  8
外形線
100
AcDbCircle
 10
33720.88700785884
 20
28845.58284922155
 30
0.0
 40
3.0
100
AcDbArc
 50
61.78442072581224
 51
78.69006752528486
  0
LINE
  5
2C1C
330
1F
100
AcDbEntity
  8
外形線
100
AcDbLine
 10
33719.19945434378
 20
28868.47977163284
 30
0.0
 11
33719.69945434378
 21
28868.47977163284
 31
0.0
  0
LINE
  5
2C1D
330
1F
100
AcDbEntity
  8
外形線
100
AcDbLine
 10
33719.69945434378
 20
28868.47977163284
 30
0.0
 11
33719.69945434378
 21
28848.87977163284
 31
0.0
  0
LINE
  5
2C1E
330
1F
100
AcDbEntity
  8
外形線
100
AcDbLine
 10
33724.09888183336
 20
28846.01346848761
 30
0.0
 11
33724.09888183336
 21
28836.97977163283
 31
0.0
  0
LINE
  5
2C1F
330
1F
100
AcDbEntity
  8
外形線
100
AcDbLine
 10
33724.09888183336
 20
28836.97977163283
 30
0.0
 11
33724.09888183335
 21
28832.01864352093
 31
0.0
  0
ARC
  5
2C20
330
1F
100
AcDbEntity
  8
外形線
100
AcDbCircle
 10
33714.65147048204
 20
28833.43772210537
 30
0.0
 40
9.559246875214904
100
AcDbArc
 50
323.1356689800152
 51
350.9878324004474
  0
ARC
  5
2C21
330
1F
100
AcDbEntity
  8
外形線
100
AcDbCircle
 10
33722.69945434378
 20
28827.4029558536
 30
0.0
 40
0.5
100
AcDbArc
 50
143.1356689786798
 51
180.0000000008337
  0
ARC
  5
2C22
330
1F
100
AcDbEntity
  8
外形線
100
AcDbCircle
 10
33723.59888183336
 20
28832.01864352093
 30
0.0
 40
0.5
100
AcDbArc
 50
350.9878324004474
 51
0.0
  0
LINE
  5
2C23
330
1F
100
AcDbEntity
  8
外形線
100
AcDbLine
 10
33722.27179066754
 20
28783.97977163283
 30
0.0
 11
33722.19945434379
 21
28827.40295585359
 31
0.0
  0
LINE
  5
2C24
330
1F
100
AcDbEntity
  8
外形線
100
AcDbLine
 10
33718.19945434379
 20
28785.97977163283
 30
0.0
 11
33718.19945434378
 21
28783.97977163283
 31
0.0
  0
LINE
  5
2C25
330
1F
100
AcDbEntity
  8
外形線
100
AcDbLine
 10
34522.96956707689
 20
28833.65098760449
 30
0.0
 11
34522.96956707687
 21
28783.97977198184
 31
0.0
  0
LINE
  5
2C26
330
1F
100
AcDbEntity
  8
外形線
100
AcDbLine
 10
34542.46956707688
 20
28833.65098760449
 30
0.0
 11
34542.46956707687
 21
28783.97977198184
 31
0.0
  0
LINE
  5
2C27
330
1F
100
AcDbEntity
  8
外形線
100
AcDbLine
 10
34390.19945434377
 20
28785.97977163282
 30
0.0
 11
34390.19945434377
 21
28783.97977163283
 31
0.0
  0
LINE
  5
2C28
330
1F
100
AcDbEntity
  8
外形線
100
AcDbLine
 10
34386.12711802001
 20
28783.97977163282
 30
0.0
 11
34390.19945434378
 21
28783.97977163283
 31
0.0
  0
XLINE
  5
2C7B
330
1F
100
AcDbEntity
  8
オフセット
100
AcDbXline
 10
33658.71000130668
 20
27902.11527306976
 30
0.0
 11
0.0
 21
-1.0
 31
0.0
  0
XLINE
  5
2C7C
330
1F
100
AcDbEntity
  8
オフセット
100
AcDbXline
 10
34162.71000130668
 20
27902.11527306976
 30
0.0
 11
0.0
 21
-1.0
 31
0.0
  0
XLINE
  5
2C7D
330
1F
100
AcDbEntity
  8
オフセット
100
AcDbXline
 10
33910.71000130668
 20
27902.11527306976
 30
0.0
 11
0.0
 21
-1.0
 31
0.0
  0
RAY
  5
2C7E
330
1F
100
AcDbEntity
  8
オフセット
100
AcDbRay
 10
33679.6100013067
 20
27483.52946122093
 30
0.0
 11
1.0
 21
0.0
 31
0.0
  0
XLINE
  5
2C7F
330
1F
100
AcDbEntity
  8
オフセット
100
AcDbXline
 10
32915.44093491146
 20
27495.52946122093
 30
0.0
 11
-1.0
 21
0.0
 31
0.0
  0
LINE
  5
2C80
330
1F
100
AcDbEntity
  8
外形線
100
AcDbLine
 10
33819.09945434379
 20
29071.31804904734
 30
0.0
 11
33732.69945434378
 21
29071.31804904735
 31
0.0
  0
LINE
  5
2C81
330
1F
100
AcDbEntity
  8
外形線
100
AcDbLine
 10
33819.09945434379
 20
29072.31804904735
 30
0.0
 11
33732.69945434378
 21
29072.31804904735
 31
0.0
  0
LINE
  5
2C82
330
1F
100
AcDbEntity
  8
外形線
100
AcDbLine
 10
33832.09945434379
 20
29048.31804904734
 30
0.0
 11
33836.09945434379
 21
29048.31804904734
 31
0.0
  0
RAY
  5
2C83
330
1F
100
AcDbEntity
  8
オフセット
100
AcDbRay
 10
33675.6100013067
 20
27483.52946122093
 30
0.0
 11
-1.0
 21
0.0
 31
0.0
  0
LINE
  5
2C84
330
1F
100
AcDbEntity
  8
外形線
100
AcDbLine
 10
33914.0994543438
 20
29049.31804904736
 30
0.0
 11
33969.29945434377
 21
29049.31804904737
 31
0.0
  0
LINE
  5
2C85
330
1F
100
AcDbEntity
  8
外形線
100
AcDbLine
 10
33914.0994543438
 20
29048.31804904734
 30
0.0
 11
33969.29945434377
 21
29048.31804904732
 31
0.0
  0
LINE
  5
2C86
330
1F
100
AcDbEntity
  8
孔
100
AcDbLine
 10
33980.76043156671
 20
29062.41804904788
 30
0.0
 11
33980.29945434375
 21
29062.41804904788
 31
0.0
  0
LINE
  5
2C87
330
1F
100
AcDbEntity
  8
孔
100
AcDbLine
 10
33980.76043156658
 20
29058.21804904789
 30
0.0
 11
33980.29945434377
 21
29058.21804904788
 31
0.0
  0
LINE
  5
2C8B
330
1F
100
AcDbEntity
  8
外形線
100
AcDbLine
 10
33969.29945434377
 20
29071.31804904734
 30
0.0
 11
33914.0994543438
 21
29071.31804904734
 31
0.0
  0
LINE
  5
2C8C
330
1F
100
AcDbEntity
  8
外形線
100
AcDbLine
 10
33969.29945434377
 20
29072.31804904733
 30
0.0
 11
33914.0994543438
 21
29072.31804904734
 31
0.0
  0
LINE
  5
2C8D
330
1F
100
AcDbEntity
  8
外形線
100
AcDbLine
 10
34132.29945434377
 20
29048.31804904734
 30
0.0
 11
34367.19945434377
 21
29048.31804904735
 31
0.0
  0
LINE
  5
2C8E
330
1F
100
AcDbEntity
  8
外形線
100
AcDbLine
 10
34132.29945434377
 20
29049.31804904736
 30
0.0
 11
34364.69945434378
 21
29049.31804904735
 31
0.0
  0
XLINE
  5
2C8F
330
1F
100
AcDbEntity
  8
オフセット
100
AcDbXline
 10
33675.6100013067
 20
27902.11527306976
 30
0.0
 11
0.0
 21
-1.0
 31
0.0
  0
XLINE
  5
2C92
330
1F
100
AcDbEntity
  8
オフセット
100
AcDbXline
 10
33670.43583856097
 20
27902.11527306976
 30
0.0
 11
0.0
 21
-1.0
 31
0.0
  0
XLINE
  5
2C93
330
1F
100
AcDbEntity
  8
オフセット
100
AcDbXline
 10
33833.43583856098
 20
27902.11527306976
 30
0.0
 11
0.0
 21
-1.0
 31
0.0
  0
XLINE
  5
2C94
330
1F
100
AcDbEntity
  8
オフセット
100
AcDbXline
 10
33825.81000130667
 20
27902.11527306976
 30
0.0
 11
0.0
 21
-1.0
 31
0.0
  0
LINE
  5
2C95
330
1F
100
AcDbEntity
  8
外形線
100
AcDbLine
 10
33819.09945434379
 20
28783.97977163283
 30
0.0
 11
33718.19945434378
 21
28783.97977163283
 31
0.0
  0
LINE
  5
2C96
330
1F
100
AcDbEntity
  8
外形線
100
AcDbLine
 10
33969.29945434377
 20
28783.97977163282
 30
0.0
 11
33914.0994543438
 21
28783.97977163282
 31
0.0
  0
LINE
  5
2C97
330
1F
100
AcDbEntity
  8
外形線
100
AcDbLine
 10
34110.29945434377
 20
28783.97977163283
 30
0.0
 11
33991.29945434378
 21
28783.97977163282
 31
0.0
  0
XLINE
  5
2CC5
330
1F
100
AcDbEntity
  8
オフセット
100
AcDbXline
 10
34736.23021337552
 20
27902.11527306976
 30
0.0
 11
0.0
 21
-1.0
 31
0.0
  0
XLINE
  5
2CC8
330
1F
100
AcDbEntity
  8
オフセット
100
AcDbXline
 10
35366.23021337552
 20
27902.11527306976
 30
0.0
 11
0.0
 21
-1.0
 31
0.0
  0
XLINE
  5
2CC9
330
1F
100
AcDbEntity
  8
オフセット
100
AcDbXline
 10
32678.26842177908
 20
26950.51034624462
 30
0.0
 11
-1.0
 21
0.0
 31
0.0
  0
XLINE
  5
2CCB
330
1F
100
AcDbEntity
  8
オフセット
100
AcDbXline
 10
33589.21000130669
 20
27902.11527306976
 30
0.0
 11
0.0
 21
-1.0
 31
0.0
  0
XLINE
  5
2CCC
330
1F
100
AcDbEntity
  8
オフセット
100
AcDbXline
 10
33590.21000130669
 20
27902.11527306976
 30
0.0
 11
0.0
 21
-1.0
 31
0.0
  0
XLINE
  5
2CCD
330
1F
100
AcDbEntity
  8
オフセット
100
AcDbXline
 10
32678.26842177908
 20
26965.51034624462
 30
0.0
 11
-1.0
 21
0.0
 31
0.0
  0
LINE
  5
2CCE
330
1F
100
AcDbEntity
  8
中心線
100
AcDbLine
 10
33766.69945434378
 20
29108.08326402911
 30
0.0
 11
33766.69945434378
 21
28749.07647857492
 31
0.0
  0
XLINE
  5
2CCF
330
1F
100
AcDbEntity
  8
オフセット
100
AcDbXline
 10
32915.44093491146
 20
27543.29467620269
 30
0.0
 11
-1.0
 21
0.0
 31
0.0
  0
LINE
  5
2CE8
330
1F
100
AcDbEntity
  8
寸法線
100
AcDbLine
 10
34341.69945434378
 20
28889.48055731867
 30
0.0
 11
34341.69945434378
 21
28902.90550121927
 31
0.0
  0
LINE
  5
2CE9
330
1F
100
AcDbEntity
  8
寸法線
100
AcDbLine
 10
33766.69945434378
 20
28889.48055731867
 30
0.0
 11
33766.69945434378
 21
28902.90550121927
 31
0.0
  0
LINE
  5
2CEA
330
1F
100
AcDbEntity
  8
寸法線
100
AcDbLine
 10
34339.19945434378
 20
28901.65550121927
 30
0.0
 11
33769.19945434378
 21
28901.65550121927
 31
0.0
  0
SOLID
  5
2CEB
330
1F
100
AcDbEntity
  8
寸法線
100
AcDbTrace
 10
34339.19945434378
 20
28902.07216788594
 30
0.0
 11
34339.19945434378
 21
28901.2388345526
 31
0.0
 12
34341.69945434378
 22
28901.65550121927
 32
0.0
 13
34341.69945434378
 23
28901.65550121927
 33
0.0
  0
SOLID
  5
2CEC
330
1F
100
AcDbEntity
  8
寸法線
100
AcDbTrace
 10
33769.19945434378
 20
28902.07216788594
 30
0.0
 11
33769.19945434378
 21
28901.2388345526
 31
0.0
 12
33766.69945434378
 22
28901.65550121927
 32
0.0
 13
33766.69945434378
 23
28901.65550121927
 33
0.0
  0
CIRCLE
  5
2CF2
330
1F
100
AcDbEntity
  8
○
100
AcDbCircle
 10
33953.49881053499
 20
29010.00227131638
 30
0.0
 40
15.0
  0
MTEXT
  5
2CF3
330
1F
100
AcDbEntity
  8
寸法線
100
AcDbMText
 10
33947.00598207327
 20
29019.74612180738
 30
0.0
 40
20.0
 41
35.534113038535
 46
0.0
 71
     1
 72
     5
  1
6
 73
     1
 44
1.0
1001
ACAD
1000
ACAD_MTEXT_COLUMN_INFO_BEGIN
1070
    75
1070
     2
1070
    79
1070
     0
1070
    76
1070
     1
1070
    78
1070
     0
1070
    48
1040
35.534113038535
1070
    49
1040
12.5
1070
    50
1070
     1
1040
0.0
1000
ACAD_MTEXT_COLUMN_INFO_END
  0
LINE
  5
2CF4
330
1F
100
AcDbEntity
  8
○
100
AcDbLine
 10
33964.67915042249
 20
29020.00227131638
 30
0.0
 11
33980.44713282082
 21
29050.78585753453
 31
0.0
  0
LINE
  5
2CF5
330
1F
100
AcDbEntity
  8
○
100
AcDbLine
 10
33960.50213920126
 20
28996.7375290425
 30
0.0
 11
33982.61984503172
 21
28780.69121220304
 31
0.0
  0
DIMENSION
  5
2CF6
102
{ACAD_XDICTIONARY
360
2D03
102
}
102
{ACAD_REACTORS
330
2D0D
102
}
330
1F
100
AcDbEntity
  8
寸法線
100
AcDbDimension
280
     0
  2
*D1
 10
34391.19945434378
 20
29125.8437584751
 30
0.0
 11
34054.19945434378
 21
29136.68021822953
 31
0.0
 70
    32
 71
     5
 42
674.0
 73
     0
 74
     0
 75
     0
  3
ISO-25
100
AcDbAlignedDimension
 13
33717.19945434378
 23
29060.31804904735
 33
0.0
 14
34391.19945434378
 24
29060.31804904735
 34
0.0
100
AcDbRotatedDimension
  0
DIMENSION
  5
2D0E
102
{ACAD_XDICTIONARY
360
2D1B
102
}
102
{ACAD_REACTORS
330
2D25
102
}
330
1F
100
AcDbEntity
  8
寸法線
100
AcDbDimension
280
     0
  2
*D2
 10
34444.75147763585
 20
28773.97977163282
 30
0.0
 11
34433.91501788141
 21
28821.47977163283
 31
0.0
 70
    33
 71
     5
 42
94.99999999999273
 73
     0
 74
     0
 75
     0
  3
ISO-25
100
AcDbAlignedDimension
 13
34390.19945434377
 23
28868.97977163282
 33
0.0
 14
34390.19945434378
 24
28773.97977163282
 34
0.0
  0
DIMENSION
  5
2D26
102
{ACAD_XDICTIONARY
360
2D35
102
}
102
{ACAD_REACTORS
330
2D41
102
}
330
1F
100
AcDbEntity
  8
寸法線
100
AcDbDimension
280
     0
  2
*D3
 10
34444.75147763585
 20
28769.97977163282
 30
0.0
 11
34434.12647763584
 21
28757.43799127812
 31
0.0
 70
    32
 71
     5
 42
4.0
 73
     0
 74
     0
 75
     0
  3
ISO-25
100
AcDbAlignedDimension
 13
34390.19945434378
 23
28773.97977163282
 33
0.0
 14
34351.19945434378
 24
28769.97977163282
 34
0.0
 50
90.0
100
AcDbRotatedDimension
  0
DIMENSION
  5
2D42
102
{ACAD_XDICTIONARY
360
2D4F
102
}
102
{ACAD_REACTORS
330
2D59
102
}
330
1F
100
AcDbEntity
  8
寸法線
100
AcDbDimension
280
     0
  2
*D4
 10
34482.13847730785
 20
28769.97977198184
 30
0.0
 11
34471.3020175534
 21
28819.47977180733
 31
0.0
 70
    32
 71
     5
 42
98.99999965098686
 73
     0
 74
     0
 75
     0
  3
ISO-25
100
AcDbAlignedDimension
 13
34532.71956707688
 23
28868.97977163283
 33
0.0
 14
34532.71956707687
 24
28769.97977198184
 34
0.0
 50
90.0
100
AcDbRotatedDimension
  0
DIMENSION
  5
2D5A
102
{ACAD_XDICTIONARY
360
2D67
102
}
102
{ACAD_REACTORS
330
2D71
102
}
330
1F
100
AcDbEntity
  8
寸法線
100
AcDbDimension
280
     0
  2
*D5
 10
34557.51956707687
 20
28948.85555731867
 30
0.0
 11
34535.01956707687
 21
28959.65108937869
 31
0.0
 70
    32
 71
     5
 42
45.0
 73
     0
 74
     0
 75
     0
  3
ISO-25
100
AcDbAlignedDimension
 13
34512.51956707687
 23
28805.77977198184
 33
0.0
 14
34557.51956707687
 24
28805.77977198184
 34
0.0
100
AcDbRotatedDimension
  0
DIMENSION
  5
2D72
102
{ACAD_XDICTIONARY
360
2D80
102
}
102
{ACAD_REACTORS
330
2D8B
102
}
330
1F
100
AcDbEntity
  8
寸法線
100
AcDbDimension
280
     0
  2
*D6
 10
34557.51956707687
 20
28888.85555731866
 30
0.0
 11
34586.81100636746
 21
28901.49965690939
 31
0.0
 70
    32
 71
     5
 42
24.80000000000291
 73
     0
 74
     0
 75
     0
  3
ISO-25
100
AcDbAlignedDimension
 13
34532.71956707687
 23
28871.97977163283
 33
0.0
 14
34557.51956707687
 24
28805.77977198184
 34
0.0
100
AcDbRotatedDimension
  0
DIMENSION
  5
2D8C
102
{ACAD_XDICTIONARY
360
2D9A
102
}
102
{ACAD_REACTORS
330
2DA5
102
}
330
1F
100
AcDbEntity
  8
寸法線
100
AcDbDimension
280
     0
  2
*D7
 10
34512.51956707687
 20
28888.85555731866
 30
0.0
 11
34483.35091086951
 21
28901.49965690939
 31
0.0
 70
    32
 71
     5
 42
20.19999999999709
 73
     0
 74
     0
 75
     0
  3
ISO-25
100
AcDbAlignedDimension
 13
34532.71956707687
 23
28871.97977163283
 33
0.0
 14
34512.51956707687
 24
28805.77977198184
 34
0.0
100
AcDbRotatedDimension
  0
MTEXT
  5
2E0A
330
1F
100
AcDbEntity
  8
寸法線
100
AcDbMText
 10
34537.58578934517
 20
29376.3763288273
 30
0.0
 40
9.599999999999999
 41
181.3710989523388
 46
0.0
 71
     1
 72
     5
  1
{\fMS PGothic|b0|i0|c128|p50;電源装置用取付金具}
 73
     1
 44
1.0
1001
ACAD
1000
ACAD_MTEXT_COLUMN_INFO_BEGIN
1070
    75
1070
     2
1070
    79
1070
     0
1070
    76
1070
     1
1070
    78
1070
     0
1070
    48
1040
181.3710989523388
1070
    49
1040
12.5
1070
    50
1070
     1
1040
0.0
1000
ACAD_MTEXT_COLUMN_INFO_END
  0
MTEXT
  5
2E0B
330
1F
100
AcDbEntity
  8
寸法線
100
AcDbMText
 10
34537.94472493486
 20
29338.17365494427
 30
0.0
 40
9.599999999999999
 41
199.244644231323
 46
0.0
 71
     1
 72
     5
  1
{\fMS PGothic|b0|i0|c128|p50;端子台用取付金具}
 73
     1
 44
1.0
1001
ACAD
1000
ACAD_MTEXT_COLUMN_INFO_BEGIN
1070
    75
1070
     2
1070
    79
1070
     0
1070
    76
1070
     1
1070
    78
1070
     0
1070
    48
1040
199.244644231323
1070
    49
1040
12.5
1070
    50
1070
     1
1040
0.0
1000
ACAD_MTEXT_COLUMN_INFO_END
  0
MTEXT
  5
2E0C
330
1F
100
AcDbEntity
  8
寸法線
100
AcDbMText
 10
34537.58578934517
 20
29300.39986356966
 30
0.0
 40
9.599999999999999
 41
181.3710989523388
 46
0.0
 71
     1
 72
     5
  1
{\fMS PGothic|b0|i0|c128|p50;専用電源装置}
 73
     1
 44
1.0
1001
ACAD
1000
ACAD_MTEXT_COLUMN_INFO_BEGIN
1070
    75
1070
     2
1070
    79
1070
     0
1070
    76
1070
     1
1070
    78
1070
     0
1070
    48
1040
181.3710989523388
1070
    49
1040
12.5
1070
    50
1070
     1
1040
0.0
1000
ACAD_MTEXT_COLUMN_INFO_END
  0
MTEXT
  5
2E0D
330
1F
100
AcDbEntity
  8
寸法線
100
AcDbMText
 10
34835.8069066532
 20
29304.19452651039
 30
0.0
 40
6.4
 41
162.8281777420561
 46
0.0
 71
     1
 72
     5
  1
{\fMS PGothic|b0|i0|c128|p50;レシップ製定電流電源装置}\PK68-023C059-302
 73
     1
 44
1.0
1001
ACAD
1000
ACAD_MTEXT_COLUMN_INFO_BEGIN
1070
    75
1070
     2
1070
    79
1070
     0
1070
    76
1070
     1
1070
    78
1070
     0
1070
    48
1040
162.8281777420561
1070
    49
1040
12.5
1070
    50
1070
     1
1040
0.0
1000
ACAD_MTEXT_COLUMN_INFO_END
  0
MTEXT
  5
2E0E
330
1F
100
AcDbEntity
  8
寸法線
100
AcDbMText
 10
34537.63979924059
 20
29265.24579253881
 30
0.0
 40
9.599999999999999
 41
199.244644231323
 46
0.0
 71
     1
 72
     5
  1
{\fMS PGothic|b0|i0|c128|p50;電源用　アース付端子台}
 73
     1
 44
1.0
1001
ACAD
1000
ACAD_MTEXT_COLUMN_INFO_BEGIN
1070
    75
1070
     2
1070
    79
1070
     0
1070
    76
1070
     1
1070
    78
1070
     0
1070
    48
1040
199.244644231323
1070
    49
1040
12.5
1070
    50
1070
     1
1040
0.0
1000
ACAD_MTEXT_COLUMN_INFO_END
  0
VIEWPORT
  5
318
102
{ACAD_XDICTIONARY
360
319
102
}
330
D2
100
AcDbEntity
 67
     1
  8
0
100
AcDbViewport
 10
207.2045571128177
 20
200.6699499750751
 30
0.0
 40
515.7795854525999
 41
428.5360172749792
 68
     1
 69
     1
 12
207.2045571128177
 22
200.6699499750751
 13
0.0
 23
0.0
 14
10.0
 24
10.0
 15
10.0
 25
10.0
 16
0.0
 26
0.0
 36
1.0
 17
0.0
 27
0.0
 37
0.0
 42
50.0
 43
0.0
 44
0.0
 45
428.5360172749792
 50
0.0
 51
0.0
 72
  1000
 90
   557088
  1

281
     0
 71
     1
 74
     0
110
0.0
120
0.0
130
0.0
111
1.0
121
0.0
131
0.0
112
0.0
122
1.0
132
0.0
 79
     0
146
0.0
170
     0
 61
     5
348
EC
292
     1
282
     1
141
0.0
142
0.0
 63
   250
421
  3355443
  0
VIEWPORT
  5
31C
102
{ACAD_XDICTIONARY
360
31D
102
}
330
D2
100
AcDbEntity
 67
     1
  8
外形線②
100
AcDbViewport
 10
128.5
 20
97.5
 30
0.0
 40
205.6
 41
156.0
 68
     2
 69
     2
 12
210.0
 22
148.5
 13
0.0
 23
0.0
 14
10.0
 24
10.0
 15
10.0
 25
10.0
 16
0.0
 26
0.0
 36
1.0
 17
0.0
 27
0.0
 37
0.0
 42
50.0
 43
0.0
 44
0.0
 45
321.3253284758076
 50
0.0
 51
0.0
 72
  1000
 90
   819808
  1

281
     0
 71
     1
 74
     0
110
0.0
120
0.0
130
0.0
111
1.0
121
0.0
131
0.0
112
0.0
122
1.0
132
0.0
 79
     0
146
0.0
170
     0
 61
     5
348
EC
292
     1
282
     1
141
0.0
142
0.0
 63
   250
421
  3355443
  0
ENDSEC
  0
SECTION
  2
OBJECTS
  0
DICTIONARY
  5
C
330
0
100
AcDbDictionary
281
     1
  3
ACAD_CIP_PREVIOUS_PRODUCT_INFO
350
20D
  3
ACAD_COLOR
350
79
  3
ACAD_DETAILVIEWSTYLE
350
212
  3
ACAD_GROUP
350
D
  3
ACAD_LAYOUT
350
1A
  3
ACAD_MATERIAL
350
78
  3
ACAD_MLEADERSTYLE
350
124
  3
ACAD_MLINESTYLE
350
17
  3
ACAD_PLOTSETTINGS
350
19
  3
ACAD_PLOTSTYLENAME
350
E
  3
ACAD_SCALELIST
350
103
  3
ACAD_SECTIONVIEWSTYLE
350
210
  3
ACAD_TABLESTYLE
350
97
  3
ACAD_VISUALSTYLE
350
E6
  3
ACDB_RECOMPOSE_DATA
350
2E44
  3
AcDbVariableDictionary
350
67
  0
DICTIONARY
  5
1F6
330
2
100
AcDbDictionary
280
     1
281
     1
  3
ACAD_LAYERSTATES
360
1F7
  0
DICTIONARY
  5
133
330
10
100
AcDbDictionary
280
     1
281
     1
  0
DICTIONARY
  5
CEB
330
CEA
100
AcDbDictionary
280
     1
281
     1
  0
DICTIONARY
  5
1C5
330
1F
100
AcDbDictionary
280
     1
281
     1
  3
ACAD_SORTENTS
360
35E
  0
DICTIONARY
  5
2D03
330
2CF6
100
AcDbDictionary
280
     1
281
     1
  3
ACAD_DIMASSOC
360
2D0D
  0
DICTIONARY
  5
2D1B
330
2D0E
100
AcDbDictionary
280
     1
281
     1
  3
ACAD_DIMASSOC
360
2D25
  0
DICTIONARY
  5
2D35
330
2D26
100
AcDbDictionary
280
     1
281
     1
  3
ACAD_DIMASSOC
360
2D41
  0
DICTIONARY
  5
2D4F
330
2D42
100
AcDbDictionary
280
     1
281
     1
  3
ACAD_DIMASSOC
360
2D59
  0
DICTIONARY
  5
2D67
330
2D5A
100
AcDbDictionary
280
     1
281
     1
  3
ACAD_DIMASSOC
360
2D71
  0
DICTIONARY
  5
2D80
330
2D72
100
AcDbDictionary
280
     1
281
     1
  3
ACAD_DIMASSOC
360
2D8B
  0
DICTIONARY
  5
2D9A
330
2D8C
100
AcDbDictionary
280
     1
281
     1
  3
ACAD_DIMASSOC
360
2DA5
  0
DICTIONARY
  5
319
330
318
100
AcDbDictionary
280
     1
281
     1
  3
ASDK_XREC_ANNOTATION_SCALE_INFO
360
31A
  0
DICTIONARY
  5
31D
330
31C
100
AcDbDictionary
280
     1
281
     1
  3
ASDK_XREC_ANNOTATION_SCALE_INFO
360
31E
  0
XRECORD
  5
20D
102
{ACAD_REACTORS
330
C
102
}
330
C
100
AcDbXrecord
280
     1
300
ACDLT
300
2016
300
ACDLT_F_S
  0
DICTIONARY
  5
79
102
{ACAD_REACTORS
330
C
102
}
330
C
100
AcDbDictionary
281
     1
  0
DICTIONARY
  5
212
102
{ACAD_REACTORS
330
C
102
}
330
C
100
AcDbDictionary
281
     1
  3
Metric50
350
213
  0
DICTIONARY
  5
D
102
{ACAD_REACTORS
330
C
102
}
330
C
100
AcDbDictionary
281
     1
  0
DICTIONARY
  5
1A
102
{ACAD_REACTORS
330
C
102
}
330
C
100
AcDbDictionary
281
     1
  3
Model
350
22
  3
レイアウト1
350
D3
  3
レイアウト2
350
D7
  0
DICTIONARY
  5
78
102
{ACAD_REACTORS
330
C
102
}
330
C
100
AcDbDictionary
281
     1
  3
ByBlock
350
E4
  3
ByLayer
350
E3
  3
Global
350
E5
  0
DICTIONARY
  5
124
102
{ACAD_REACTORS
330
C
102
}
330
C
100
AcDbDictionary
281
     1
  3
Annotative
350
132
  3
Standard
350
125
  0
DICTIONARY
  5
17
102
{ACAD_REACTORS
330
C
102
}
330
C
100
AcDbDictionary
281
     1
  3
Standard
350
18
  0
DICTIONARY
  5
19
102
{ACAD_REACTORS
330
C
102
}
330
C
100
AcDbDictionary
281
     1
  0
ACDBDICTIONARYWDFLT
  5
E
102
{ACAD_REACTORS
330
C
102
}
330
C
100
AcDbDictionary
281
     1
  3
Normal
350
F
100
AcDbDictionaryWithDefault
340
F
  0
DICTIONARY
  5
103
102
{ACAD_REACTORS
330
C
102
}
330
C
100
AcDbDictionary
281
     1
  3
A0
350
104
  3
A1
350
1B5
  3
A2
350
1B6
  3
A3
350
1B7
  3
A4
350
1B8
  3
A5
350
1B9
  3
A6
350
1BA
  3
A7
350
1BB
  3
A8
350
1BC
  3
A9
350
1BD
  3
B0
350
1BE
  3
B1
350
1BF
  3
B2
350
1C0
  3
B3
350
1C1
  3
B4
350
1C2
  3
B5
350
1C3
  3
B6
350
1C4
  0
DICTIONARY
  5
210
102
{ACAD_REACTORS
330
C
102
}
330
C
100
AcDbDictionary
281
     1
  3
Metric50
350
211
  0
DICTIONARY
  5
97
102
{ACAD_REACTORS
330
C
102
}
330
C
100
AcDbDictionary
281
     1
  3
Standard
350
98
  0
DICTIONARY
  5
E6
102
{ACAD_REACTORS
330
C
102
}
330
C
100
AcDbDictionary
281
     1
  3
2dWireframe
350
EC
  3
Basic
350
EB
  3
Brighten
350
F2
  3
ColorChange
350
F6
  3
Conceptual
350
EF
  3
Dim
350
F1
  3
EdgeColorOff
350
1DD
  3
Facepattern
350
F5
  3
Flat
350
E7
  3
FlatWithEdges
350
E8
  3
Gouraud
350
E9
  3
GouraudWithEdges
350
EA
  3
Hidden
350
EE
  3
JitterOff
350
1DB
  3
Linepattern
350
F4
  3
OverhangOff
350
1DC
  3
Realistic
350
F0
  3
Shaded
350
1EA
  3
Shaded with edges
350
1E9
  3
Shades of Gray
350
1E6
  3
Sketchy
350
1E7
  3
Thicken
350
F3
  3
Wireframe
350
ED
  3
X-Ray
350
1E8
  0
XRECORD
  5
2E44
102
{ACAD_REACTORS
330
C
102
}
330
C
100
AcDbXrecord
280
     1
 90
        1
330
98
330
211
330
213
330
B52
330
B53
330
B54
330
B55
330
B56
330
B57
330
B58
330
B59
330
B5A
330
B5B
330
B5C
330
B5D
330
B5E
330
B5F
330
B60
330
B61
330
B62
330
B63
330
B66
330
B67
330
B68
330
B69
330
B6A
330
B6B
330
B6C
330
B6D
330
B6E
330
B6F
330
B70
330
B7B
330
B7C
330
B7D
330
B7E
330
B7F
330
B80
330
B81
330
B82
330
B83
330
B84
330
13B3
330
13B4
330
2795
330
2799
330
279D
330
27A5
330
27A9
330
27AD
330
27B1
330
27B3
330
2CF3
330
2E0A
330
2E0B
330
2E0C
330
2E0D
330
2E0E
  0
DICTIONARY
  5
67
102
{ACAD_REACTORS
330
C
102
}
330
C
100
AcDbDictionary
281
     1
  3
CANNOSCALE
350
13D
  3
CMLEADERSTYLE
350
13C
  3
CTABLESTYLE
350
C5
  3
CVIEWDETAILSTYLE
350
21E
  3
CVIEWSECTIONSTYLE
350
21F
  3
DIMASSOC
350
68
  3
EXPORTMODELSPACE
350
DA8
  3
HIDETEXT
350
6C
  3
LAYEREVAL
350
1A5
  3
LAYERNOTIFY
350
1A6
  0
DICTIONARY
  5
1F7
102
{ACAD_REACTORS
330
1F6
102
}
330
1F6
100
AcDbDictionary
281
     1
  0
SORTENTSTABLE
  5
35E
102
{ACAD_REACTORS
330
1C5
102
}
330
1C5
100
AcDbSortentsTable
330
1F
331
2C96
  5
2AA9
331
17DE
  5
9B0
331
B78
  5
D8B
331
B43
  5
C43
331
2ACA
  5
2AE7
331
2B09
  5
2B2B
331
2BD4
  5
2BF8
331
2C13
  5
2C8C
331
26FD
  5
2713
331
B80
  5
D93
331
D4F
  5
F86
331
2AD2
  5
2AEF
331
2B11
  5
2B38
331
2BDC
  5
2C00
331
2C1B
  5
2C94
331
2705
  5
271B
331
2CCE
  5
2CCF
331
2ADA
  5
2AF7
331
2B19
  5
2B40
331
270D
  5
2725
331
2AE2
  5
2B04
331
2BE4
  5
2C08
331
2C23
  5
2CC9
331
26D6
  5
26EC
331
2BEC
  5
2C10
331
27AE
  5
27CE
331
2A95
  5
2AAE
331
D70
  5
FA7
331
2A9D
  5
2AB6
331
27B6
  5
27D7
331
2B54
  5
2B8A
331
2B9B
  5
2BBF
331
D78
  5
FAF
331
2AA5
  5
2ABE
331
2730
  5
2746
331
2BA3
  5
2BC7
331
D80
  5
11F7
331
27CE
  5
27E4
331
2738
  5
274E
331
2777
  5
278D
331
2B6C
  5
2B95
331
2BAB
  5
2BCF
331
D88
  5
15DD
331
2740
  5
2756
331
277F
  5
2795
331
2B74
  5
2B98
331
2748
  5
275E
331
2787
  5
279D
331
B49
  5
C49
331
B88
  5
D9B
331
23AE
  5
B22
331
B51
  5
C6E
331
B59
  5
D4C
331
C18
  5
B85
331
B24
  5
C1B
331
2AAB
  5
2AC8
331
2AEA
  5
2B0C
331
26DE
  5
26F4
331
2C7F
  5
9BC
331
1757
  5
9B2
331
2516
  5
252C
331
B61
  5
D54
331
B2C
  5
C23
331
2AB3
  5
2AD0
331
2AF2
  5
2B14
331
2BB5
  5
2BD9
331
2BF4
  5
2C18
331
26E6
  5
26FC
331
2C87
  5
2B92
331
251E
  5
2534
331
2ABB
  5
2AD8
331
2AFA
  5
2B1C
331
2BBD
  5
2BE1
331
2BFC
  5
2C20
331
26EE
  5
2704
331
2C8F
  5
961
331
2AC3
  5
2AE0
331
2B02
  5
2B24
331
2BC5
  5
2BE9
331
2C04
  5
2C28
331
269F
  5
26B5
331
26F6
  5
270C
331
2BCD
  5
2BF1
331
2C0C
  5
2C82
331
27D6
  5
2A8F
331
D51
  5
F88
331
D90
  5
2517
331
2797
  5
27AD
331
27DE
  5
2A9A
331
2B7C
  5
2BA0
331
D59
  5
F90
331
D98
  5
251F
331
279F
  5
27B5
331
27E6
  5
2AA2
331
2711
  5
2729
331
2750
  5
2767
331
2B2D
  5
2B64
331
2B84
  5
2BA8
331
D61
  5
F98
331
2A8E
  5
2AA4
331
27A7
  5
27C7
331
2719
  5
272F
331
2758
  5
276F
331
2B35
  5
2B80
331
2B8C
  5
2BB0
331
D69
  5
FA0
331
2721
  5
2737
331
2760
  5
2776
331
2B94
  5
2BB8
331
2729
  5
273F
331
2768
  5
277E
331
B69
  5
D5D
331
B34
  5
C2B
331
17D7
  5
906
331
2526
  5
253C
331
B71
  5
D66
331
B3C
  5
C39
331
2C97
  5
2AA8
331
17DF
  5
9B1
331
B79
  5
D8C
331
9C5
  5
833
331
B44
  5
C44
331
2ACB
  5
2AE8
331
2B0A
  5
2B2C
331
26FE
  5
2714
331
2B12
  5
2B39
331
B81
  5
D94
331
2AD3
  5
2AF0
331
2BD5
  5
2BF9
331
2C14
  5
2C8D
331
2706
  5
271C
331
2CCF
  5
9BD
331
23A7
  5
B77
331
2ADB
  5
2AF8
331
2B1A
  5
2B41
331
2BDD
  5
2C01
331
2C1C
  5
2C95
331
270E
  5
2726
331
2AE3
  5
2B05
331
2BE5
  5
2C09
331
2C24
  5
2CCA
331
26D7
  5
26ED
331
2BED
  5
2C11
331
2A96
  5
2AAF
331
27AF
  5
27CF
331
D71
  5
FA8
331
2A9E
  5
2AB7
331
27B7
  5
27D8
331
2B55
  5
2B8B
331
2B9C
  5
2BC0
331
D79
  5
FB0
331
2AA6
  5
2ABF
331
27C7
  5
27DD
331
2731
  5
2747
331
2770
  5
2786
331
2BA4
  5
2BC8
331
1230
  5
B21
331
D81
  5
11F8
331
27CF
  5
27E5
331
2739
  5
274F
331
2778
  5
278E
331
2B6D
  5
2B96
331
2BAC
  5
2BD0
331
D89
  5
2510
331
2741
  5
2757
331
2780
  5
2796
331
2B75
  5
2B99
331
2749
  5
275F
331
B4A
  5
C4A
331
B89
  5
D9C
331
2C28
  5
2CCE
331
B52
  5
C86
331
B5A
  5
D4D
331
B25
  5
C1C
331
2AAC
  5
2AC9
331
2AEB
  5
2B0D
331
26DF
  5
26F5
331
2AF3
  5
2B15
331
2C80
  5
2AC4
331
2517
  5
252D
331
B62
  5
D56
331
B2D
  5
C24
331
2AB4
  5
2AD1
331
2BB6
  5
2BDA
331
2BF5
  5
2C19
331
26E7
  5
26FD
331
251F
  5
2535
331
2ABC
  5
2AD9
331
2AFB
  5
2B1D
331
2BBE
  5
2BE2
331
2BFD
  5
2C21
331
26EF
  5
2705
331
2698
  5
26AE
331
2AC4
  5
2AE1
331
2B03
  5
2B25
331
2BC6
  5
2BEA
331
2C05
  5
2C7B
331
26F7
  5
270D
331
2BCE
  5
2BF2
331
2C0D
  5
2C83
331
2788
  5
279E
331
27D7
  5
2A90
331
D52
  5
F89
331
D91
  5
2518
331
2798
  5
27AE
331
27DF
  5
2A9B
331
2B7D
  5
2BA1
331
D5A
  5
F91
331
D99
  5
2520
331
27E7
  5
2AA3
331
2712
  5
272A
331
2751
  5
2768
331
2B2E
  5
2B65
331
2B85
  5
2BA9
331
D62
  5
F99
331
2A8F
  5
2AA5
331
271A
  5
2730
331
2759
  5
2770
331
2B36
  5
2B81
331
2B8D
  5
2BB1
331
D6A
  5
FA1
331
2722
  5
2738
331
2761
  5
2777
331
2B95
  5
2BB9
331
272A
  5
2740
331
2769
  5
277F
331
17D0
  5
9B8
331
B6A
  5
D5E
331
B35
  5
C2F
331
2527
  5
253D
331
B72
  5
D67
331
9A6
  5
B7B
331
B3D
  5
C3A
331
26A0
  5
26B6
331
252F
  5
2545
331
D49
  5
F80
331
B7A
  5
D8D
331
B45
  5
C45
331
2ACC
  5
2AE9
331
2B0B
  5
2B2D
331
26FF
  5
2715
331
2AD4
  5
2AF1
331
2B13
  5
2B3A
331
2BD6
  5
2BFA
331
2C15
  5
2C8E
331
B82
  5
D95
331
2CC8
  5
9AA
331
2707
  5
271F
331
2ADC
  5
2AFB
331
2B1B
  5
2B42
331
2BDE
  5
2C02
331
2C1D
  5
2C96
331
2CE8
  5
2CE8
331
270F
  5
2727
331
2AE4
  5
2B06
331
2BE6
  5
2C0A
331
2C25
  5
2CCB
331
2BEE
  5
2C12
331
27A8
  5
27C8
331
2A97
  5
2AB0
331
27B0
  5
27D1
331
D72
  5
FA9
331
2A9F
  5
2AB8
331
2B56
  5
2B8C
331
2B9D
  5
2BC1
331
D7A
  5
FB1
331
2AA7
  5
2AC0
331
27C8
  5
27DE
331
2732
  5
2748
331
2771
  5
2787
331
2BA5
  5
2BC9
331
D82
  5
11F9
331
273A
  5
2750
331
2779
  5
278F
331
2B6E
  5
2B97
331
2BAD
  5
2BD1
331
D8A
  5
2511
331
2742
  5
2758
331
2781
  5
2797
331
2B76
  5
2B9A
331
274A
  5
2760
331
B4B
  5
C4B
331
B8A
  5
F7E
331
23A8
  5
B78
331
B53
  5
CA0
331
2659
  5
266F
331
26D8
  5
26EE
331
2AAD
  5
2ACA
331
2AEC
  5
2B0E
331
B5B
  5
D4E
331
B26
  5
C1D
331
2510
  5
2526
331
26E0
  5
26F6
331
2AB5
  5
2AD2
331
2AF4
  5
2B16
331
2BB7
  5
2BDB
331
2BF6
  5
2C1A
331
2C81
  5
2AFA
331
B63
  5
D57
331
C22
  5
B7F
331
B2E
  5
C25
331
1759
  5
9BE
331
2518
  5
252E
331
26E8
  5
26FE
331
2ABD
  5
2ADA
331
2AFC
  5
2B1E
331
2BBF
  5
2BE3
331
2BFE
  5
2C22
331
2699
  5
26AF
331
26F0
  5
2706
331
2AC5
  5
2AE2
331
2B04
  5
2B26
331
2BC7
  5
2BEB
331
2C06
  5
2C7C
331
2BCF
  5
2BF3
331
2C0E
  5
2C84
331
2789
  5
279F
331
27D0
  5
27E6
331
27D8
  5
2A91
331
D53
  5
F8A
331
D92
  5
2519
331
2799
  5
27AF
331
27E0
  5
2A9C
331
2B7E
  5
2BA2
331
D5B
  5
F92
331
D9A
  5
2521
331
2713
  5
272B
331
2752
  5
2769
331
2B2F
  5
2B66
331
2B86
  5
2BAA
331
D63
  5
F9A
331
271B
  5
2731
331
275A
  5
2771
331
2B37
  5
2B82
331
2B8E
  5
2BB2
331
D6B
  5
FA2
331
2723
  5
2739
331
2762
  5
2778
331
2B96
  5
2BBA
331
272B
  5
2741
331
276A
  5
2780
331
B6B
  5
D60
331
C42
  5
B84
331
B36
  5
C33
331
2520
  5
2536
331
B73
  5
D68
331
9A7
  5
B7A
331
B3E
  5
C3B
331
2528
  5
253E
331
26A1
  5
26B7
331
26F8
  5
270E
331
D4A
  5
F81
331
B7B
  5
D8E
331
B46
  5
C46
331
2ACD
  5
2AEA
331
2B0C
  5
2B2E
331
26B1
  5
26C7
331
2700
  5
2716
331
2AD5
  5
2AF2
331
2B14
  5
2B3B
331
2BD7
  5
2BFB
331
2C16
  5
2C8F
331
B83
  5
D96
331
2CC9
  5
B24
331
2708
  5
2720
331
2ADD
  5
2AFF
331
2B1C
  5
2B43
331
2BDF
  5
2C03
331
2C1E
  5
2C97
331
2CE9
  5
2CE9
331
2AE5
  5
2B07
331
2BE7
  5
2C0B
331
2C26
  5
2CCC
331
2BEF
  5
2C13
331
2A90
  5
2AA6
331
27A9
  5
27C9
331
2A98
  5
2AB1
331
27B1
  5
27D2
331
D73
  5
FAA
331
2AA0
  5
2AB9
331
2B57
  5
2B8D
331
2B9E
  5
2BC2
331
D7B
  5
FB2
331
27C9
  5
27DF
331
2733
  5
2749
331
2772
  5
2788
331
2BA6
  5
2BCA
331
D83
  5
11FA
331
273B
  5
2751
331
277A
  5
2790
331
2BAE
  5
2BD2
331
D8B
  5
2512
331
2743
  5
2759
331
2782
  5
2798
331
2B77
  5
2B9B
331
274B
  5
2761
331
B4C
  5
C4C
331
129A
  5
B74
331
B54
  5
CBA
331
B1F
  5
B8A
331
265A
  5
2670
331
26D9
  5
26EF
331
2AAE
  5
2ACB
331
2AED
  5
2B0F
331
2BB0
  5
2BD4
331
B5C
  5
D4F
331
B27
  5
C1E
331
2511
  5
2527
331
2662
  5
2678
331
26E1
  5
26F7
331
2AB6
  5
2AD3
331
2AF5
  5
2B17
331
2BB8
  5
2BDC
331
2BF7
  5
2C1B
331
2C82
  5
2AFC
331
B64
  5
D58
331
C23
  5
B80
331
B2F
  5
C26
331
2519
  5
252F
331
26E9
  5
26FF
331
2ABE
  5
2ADB
331
2AFD
  5
2B1F
331
2BC0
  5
2BE4
331
2BFF
  5
2C23
331
2C07
  5
2C7D
331
26F1
  5
2707
331
269A
  5
26B0
331
2AC6
  5
2AE3
331
2B05
  5
2B27
331
2BC8
  5
2BEC
331
2C0F
  5
2C85
331
278A
  5
27A0
331
27D1
  5
27E7
331
27D9
  5
2A92
331
2B20
  5
2B47
331
D54
  5
F8B
331
D93
  5
251A
331
279A
  5
27B0
331
27E1
  5
2A9D
331
2B7F
  5
2BA3
331
D5C
  5
F93
331
D9B
  5
2522
331
2714
  5
272C
331
2753
  5
276A
331
2B87
  5
2BAB
331
2B30
  5
2B72
331
D64
  5
F9B
331
271C
  5
2732
331
275B
  5
2772
331
2B8F
  5
2BB3
331
2B38
  5
2B83
331
D6C
  5
FA3
331
2724
  5
273A
331
2763
  5
2779
331
2B97
  5
2BBB
331
272C
  5
2742
331
276B
  5
2781
331
17D2
  5
9AD
331
2521
  5
2537
331
9A0
  5
B89
331
B37
  5
C34
331
B6C
  5
D61
331
C43
  5
B83
331
2C92
  5
99F
331
B3F
  5
C3C
331
B74
  5
D69
331
26F9
  5
270F
331
2ACE
  5
2AEB
331
2B0D
  5
2B34
331
2BD0
  5
2BF4
331
D4B
  5
F82
331
B47
  5
C47
331
B7C
  5
D8F
331
26B2
  5
26C8
331
2701
  5
2717
331
2AD6
  5
2AF3
331
2B15
  5
2B3C
331
2BD8
  5
2BFC
331
2C17
  5
2C90
331
B84
  5
D97
331
2709
  5
2721
331
2ADE
  5
2B00
331
2B1D
  5
2B44
331
2BE0
  5
2C04
331
2C1F
  5
2CC5
331
2CEA
  5
2CEA
331
2C27
  5
2CCD
331
2AE6
  5
2B08
331
2BE8
  5
2C0C
331
2A91
  5
2AA7
331
27AA
  5
27CA
331
2A99
  5
2AB2
331
27B2
  5
27D3
331
D74
  5
FAB
331
2AA1
  5
2ABA
331
2B58
  5
2B8E
331
2B9F
  5
2BC3
331
D7C
  5
11F3
331
1123
  5
9B4
331
27CA
  5
27E0
331
2734
  5
274A
331
2773
  5
2789
331
2BA7
  5
2BCB
331
D84
  5
11FB
331
273C
  5
2752
331
277B
  5
2791
331
2BAF
  5
2BD3
331
D8C
  5
2513
331
2744
  5
275A
331
2783
  5
2799
331
274C
  5
2762
331
129B
  5
9B5
331
B4D
  5
C4D
331
13B3
  5
2524
331
B20
  5
C17
331
B55
  5
CD2
331
2BB1
  5
2BD5
331
2BF0
  5
2C14
331
2AAF
  5
2ACC
331
2AEE
  5
2B10
331
2C7B
  5
95F
331
2512
  5
2528
331
B28
  5
C1F
331
B5D
  5
D50
331
265B
  5
2671
331
26DA
  5
26F0
331
2BB9
  5
2BDD
331
2BF8
  5
2C1C
331
2AB7
  5
2AD4
331
2AF6
  5
2B18
331
2C83
  5
9BB
331
251A
  5
2530
331
B65
  5
D59
331
C24
  5
B7D
331
2663
  5
2679
331
26E2
  5
26F8
331
2BC1
  5
2BE5
331
2C00
  5
2C24
331
2ABF
  5
2ADC
331
2AFE
  5
2B20
331
2C8B
  5
2AC3
331
26EA
  5
2700
331
2BC9
  5
2BED
331
2C08
  5
2C7E
331
2AC7
  5
2AE4
331
2B06
  5
2B28
331
269B
  5
26B1
331
26F2
  5
2708
331
27D2
  5
27E8
331
278B
  5
27A1
331
2793
  5
27A9
331
27DA
  5
2A93
331
2B21
  5
2B5D
331
2B78
  5
2B9C
331
D55
  5
F8C
331
D94
  5
251B
331
279B
  5
27B1
331
27E2
  5
2A9E
331
2B29
  5
2B60
331
2B80
  5
2BA4
331
D5D
  5
F94
331
D9C
  5
2523
331
2B31
  5
2B79
331
2B88
  5
2BAC
331
D65
  5
F9C
331
2715
  5
272D
331
2754
  5
276B
331
2B39
  5
2B84
331
2B90
  5
2BB4
331
D6D
  5
FA4
331
271D
  5
2733
331
275C
  5
2773
331
2725
  5
273B
331
2764
  5
277A
331
272D
  5
2743
331
276C
  5
2782
331
B30
  5
C27
331
17D3
  5
9B9
331
2522
  5
2538
331
9A1
  5
B88
331
B38
  5
C35
331
B6D
  5
D62
331
C44
  5
B82
331
2C93
  5
963
331
B40
  5
C3D
331
B75
  5
D78
331
2BD1
  5
2BF5
331
2C10
  5
2C86
331
2ACF
  5
2AEC
331
2B0E
  5
2B35
331
1813
  5
B20
331
262A
  5
2641
331
D4C
  5
F83
331
B7D
  5
D90
331
26FA
  5
2710
331
2BD9
  5
2BFD
331
2C18
  5
2C91
331
2AD7
  5
2AF4
331
2B16
  5
2B3D
331
2CCB
  5
955
331
2702
  5
2718
331
2BE1
  5
2C05
331
2C20
  5
2CC6
331
2ADF
  5
2B01
331
2B1E
  5
2B45
331
2CEB
  5
2CEB
331
26BB
  5
26D1
331
270A
  5
2722
331
2AE7
  5
2B09
331
2BE9
  5
2C0D
331
27AB
  5
27CB
331
2A92
  5
2AAB
331
2A9A
  5
2AB3
331
27B3
  5
27D4
331
2B98
  5
2BBC
331
D75
  5
FAC
331
2AA2
  5
2ABB
331
2B59
  5
2B8F
331
2BA0
  5
2BC4
331
D7D
  5
11F4
331
27CB
  5
27E1
331
2B69
  5
2B94
331
2BA8
  5
2BCC
331
D85
  5
11FC
331
2735
  5
274B
331
2774
  5
278A
331
D8D
  5
2514
331
273D
  5
2753
331
277C
  5
2792
331
2745
  5
275B
331
2784
  5
279A
331
274D
  5
2764
331
23AB
  5
90F
331
B4E
  5
C4E
331
2AA8
  5
2AC1
331
13B4
  5
2525
331
B21
  5
C18
331
B56
  5
D49
331
2BB2
  5
2BD6
331
2BF1
  5
2C15
331
2AB0
  5
2ACD
331
2AEF
  5
2B11
331
2C7C
  5
9A0
331
2513
  5
2529
331
B29
  5
C20
331
B5E
  5
D51
331
265C
  5
2672
331
26DB
  5
26F1
331
2BBA
  5
2BDE
331
2BF9
  5
2C1D
331
2AB8
  5
2AD5
331
2AF7
  5
2B19
331
2C84
  5
2AC6
331
251B
  5
2531
331
B66
  5
D5A
331
C25
  5
B7E
331
2664
  5
267A
331
26E3
  5
26F9
331
2BC2
  5
2BE6
331
2C01
  5
2C25
331
2AFF
  5
2B21
331
2AC0
  5
2ADD
331
2C8C
  5
2AF9
331
266C
  5
2682
331
26EB
  5
2701
331
2BCA
  5
2BEE
331
2C09
  5
2C7F
331
2B07
  5
2B29
331
269C
  5
26B2
331
26F3
  5
2709
331
278C
  5
27A2
331
27D3
  5
27EB
331
2794
  5
27AA
331
27DB
  5
2A94
331
2B22
  5
2B5E
331
2B79
  5
2B9D
331
D56
  5
F8D
331
D95
  5
251C
331
279C
  5
27B2
331
27E3
  5
2A9F
331
2B2A
  5
2B61
331
2B81
  5
2BA5
331
D5E
  5
F95
331
27A4
  5
27BE
331
2B32
  5
2B7D
331
2B89
  5
2BAD
331
D66
  5
F9D
331
2716
  5
272E
331
2755
  5
276C
331
2B3A
  5
2B85
331
2B91
  5
2BB5
331
D6E
  5
FA5
331
271E
  5
2734
331
2726
  5
273C
331
2765
  5
277B
331
276D
  5
2783
331
272E
  5
2744
331
B31
  5
C28
331
17D4
  5
9B7
331
2523
  5
2539
331
B6E
  5
D63
331
9A2
  5
B87
331
B39
  5
C36
331
2AC8
  5
2AE5
331
2C94
  5
99B
331
B76
  5
D89
331
B41
  5
C3E
331
2BD2
  5
2BF6
331
2C11
  5
2C87
331
2AD0
  5
2AED
331
2B0F
  5
2B36
331
1814
  5
9A6
331
B7E
  5
D91
331
D4D
  5
F84
331
26FB
  5
2711
331
2BDA
  5
2BFE
331
2C19
  5
2C92
331
2703
  5
2719
331
2CCC
  5
95A
331
2AD8
  5
2AF5
331
2B17
  5
2B3E
331
2BE2
  5
2C06
331
2C21
  5
2CC7
331
270B
  5
2723
331
2B1F
  5
2B46
331
2CEC
  5
2CEC
331
2AE0
  5
2B02
331
2BEA
  5
2C0E
331
26D4
  5
26EA
331
27AC
  5
27CC
331
2A93
  5
2AAC
331
2A9B
  5
2AB4
331
27B4
  5
27D5
331
2B52
  5
2B88
331
2B99
  5
2BBD
331
D76
  5
FAD
331
2AA3
  5
2ABC
331
2B5A
  5
2B90
331
2BA1
  5
2BC5
331
D7E
  5
11F5
331
27CC
  5
27E2
331
2736
  5
274C
331
2775
  5
278B
331
D86
  5
11FD
331
2BA9
  5
2BCD
331
273E
  5
2754
331
277D
  5
2793
331
D8E
  5
2515
331
2746
  5
275C
331
2785
  5
279B
331
274E
  5
2765
331
23AC
  5
9A2
331
B4F
  5
C4F
331
23B4
  5
B75
331
B57
  5
D4A
331
B22
  5
C19
331
2AA9
  5
2AC2
331
2AE8
  5
2B0A
331
2BB3
  5
2BD7
331
2BF2
  5
2C16
331
265D
  5
2673
331
26DC
  5
26F2
331
2C7D
  5
9A1
331
1755
  5
9B6
331
2514
  5
252A
331
B5F
  5
D52
331
B2A
  5
C21
331
2AB1
  5
2ACE
331
2AF0
  5
2B12
331
2BBB
  5
2BDF
331
2BFA
  5
2C1E
331
2665
  5
267B
331
26E4
  5
26FA
331
2C85
  5
2AFD
331
251C
  5
2532
331
B67
  5
D5B
331
2AB9
  5
2AD6
331
2AF8
  5
2B1A
331
2BC3
  5
2BE7
331
2C02
  5
2C26
331
26EC
  5
2702
331
2C8D
  5
2AFE
331
2AC1
  5
2ADE
331
2B00
  5
2B22
331
2BCB
  5
2BEF
331
2C0A
  5
2C80
331
269D
  5
26B3
331
26F4
  5
270A
331
278D
  5
27A3
331
27D4
  5
27EE
331
2795
  5
27AB
331
27DC
  5
2A95
331
2B23
  5
2B5F
331
2B7A
  5
2B9E
331
279D
  5
27B3
331
27E4
  5
2AA0
331
D57
  5
F8E
331
D96
  5
251D
331
2B2B
  5
2B62
331
2B82
  5
2BA6
331
27A5
  5
27C1
331
D5F
  5
F96
331
2756
  5
276D
331
2B33
  5
2B7E
331
2B8A
  5
2BAE
331
D67
  5
F9E
331
271F
  5
2735
331
275E
  5
2774
331
2B3B
  5
2B86
331
2B92
  5
2BB6
331
D6F
  5
FA6
331
2727
  5
273D
331
2766
  5
277C
331
272F
  5
2745
331
276E
  5
2784
331
873
  5
B79
331
B32
  5
C29
331
2524
  5
253A
331
B6F
  5
D64
331
9A3
  5
B86
331
B3A
  5
C37
331
2C95
  5
2AAA
331
17DD
  5
B23
331
B77
  5
D8A
331
B42
  5
C42
331
2AC9
  5
2AE6
331
2B08
  5
2B2A
331
2BD3
  5
2BF7
331
2C12
  5
2C8B
331
26FC
  5
2712
331
2CC5
  5
9A9
331
B7F
  5
D92
331
D4E
  5
F85
331
2AD1
  5
2AEE
331
2B10
  5
2B37
331
2BDB
  5
2BFF
331
2C1A
  5
2C93
331
2704
  5
271A
331
2CCD
  5
B25
331
B87
  5
D9A
331
2AD9
  5
2AF6
331
2B18
  5
2B3F
331
2C22
  5
2CC8
331
2BE3
  5
2C07
331
270C
  5
2724
331
2AE1
  5
2B03
331
2BEB
  5
2C0F
331
27AD
  5
27CD
331
2A94
  5
2AAD
331
2A9C
  5
2AB5
331
27B5
  5
27D6
331
2B53
  5
2B89
331
2B9A
  5
2BBE
331
2AA4
  5
2ABD
331
D77
  5
FAE
331
2B5B
  5
2B91
331
2BA2
  5
2BC6
331
27CD
  5
27E3
331
D7F
  5
11F6
331
1126
  5
B76
331
2737
  5
274D
331
2776
  5
278C
331
2BAA
  5
2BCE
331
D87
  5
15DC
331
273F
  5
2755
331
277E
  5
2794
331
D8F
  5
2516
331
2747
  5
275D
331
2786
  5
279C
331
274F
  5
2766
331
B48
  5
C48
331
23AD
  5
9A3
331
B50
  5
C54
331
B58
  5
D4B
331
C17
  5
B7C
331
B23
  5
C1A
331
2AAA
  5
2AC5
331
2AE9
  5
2B0B
331
2BB4
  5
2BD8
331
2BF3
  5
2C17
331
26DD
  5
26F3
331
2C7E
  5
9BA
331
2515
  5
252B
331
B60
  5
D53
331
7E4
  5
9B3
331
B2B
  5
C22
331
2AB2
  5
2ACF
331
2AF1
  5
2B13
331
2BBC
  5
2BE0
331
2BFB
  5
2C1F
331
2666
  5
267C
331
26E5
  5
26FB
331
2C86
  5
2B93
331
251D
  5
2533
331
C27
  5
B81
331
2ABA
  5
2AD7
331
2AF9
  5
2B1B
331
2C03
  5
2C27
331
2BC4
  5
2BE8
331
26ED
  5
2703
331
2C8E
  5
2AC7
331
2AC2
  5
2ADF
331
2B01
  5
2B23
331
2BCC
  5
2BF0
331
2C0B
  5
2C81
331
269E
  5
26B4
331
26F5
  5
270B
331
27D5
  5
2A8E
331
2796
  5
27AC
331
27DD
  5
2A96
331
D50
  5
F87
331
2B7B
  5
2B9F
331
279E
  5
27B4
331
27E5
  5
2AA1
331
D58
  5
F8F
331
D97
  5
251E
331
2710
  5
2728
331
2B2C
  5
2B63
331
2B83
  5
2BA7
331
27A6
  5
27C4
331
D60
  5
F97
331
2757
  5
276E
331
2B34
  5
2B7F
331
2B8B
  5
2BAF
331
D68
  5
F9F
331
2720
  5
2736
331
275F
  5
2775
331
2B3C
  5
2B87
331
2B93
  5
2BB7
331
2767
  5
277D
331
2728
  5
273E
331
276F
  5
2785
331
B68
  5
D5C
331
B33
  5
C2A
331
2525
  5
253B
331
B70
  5
D65
331
B3B
  5
C38
  0
DIMASSOC
  5
2D0D
102
{ACAD_REACTORS
330
2D03
102
}
330
2D03
100
AcDbDimAssoc
330
2CF6
 90
        3
 70
     0
 71
     0
  1
AcDbOsnapPointRef
 72
     2
331
2AAE
 73
     2
 91
        0
 40
0.5000000000000001
 10
33573.71000130668
 20
27495.52946122093
 30
0.0
 75
     0
  1
AcDbOsnapPointRef
 72
     2
331
2AC5
 73
     2
 91
        0
 40
0.5000000000000001
 10
34247.71000130668
 20
27495.52946122093
 30
0.0
 75
     0
  0
DIMASSOC
  5
2D25
102
{ACAD_REACTORS
330
2D1B
102
}
330
2D1B
100
AcDbDimAssoc
330
2D0E
 90
        3
 70
     0
 71
     0
  1
AcDbOsnapPointRef
 72
     1
331
2BCF
 73
     2
 91
        0
 40
1.0
 10
34246.71000130667
 20
27304.1911838064
 30
0.0
 75
     0
  1
AcDbOsnapPointRef
 72
    13
331
2A90
 73
     2
 91
        0
 40
0.0
 10
34246.71000130668
 20
27209.19118380641
 30
0.0
 75
     0
  0
DIMASSOC
  5
2D41
102
{ACAD_REACTORS
330
2D35
102
}
330
2D35
100
AcDbDimAssoc
330
2D26
 90
        3
 70
     0
 71
     0
  1
AcDbOsnapPointRef
 72
    13
331
2A90
 73
     2
 91
        0
 40
0.0
 10
34246.71000130668
 20
27209.19118380641
 30
0.0
 75
     0
  1
AcDbOsnapPointRef
 72
    13
331
2A9D
 73
     2
 91
        0
 40
4.712388980384689
 10
34207.71000130668
 20
27205.19118380641
 30
0.0
 75
     0
  0
DIMASSOC
  5
2D59
102
{ACAD_REACTORS
330
2D4F
102
}
330
2D4F
100
AcDbDimAssoc
330
2D42
 90
        3
 70
     0
 71
     0
  1
AcDbOsnapPointRef
 72
     2
331
2BE6
 73
     2
 91
        0
 40
7.853981633974482
 10
34389.23011403979
 20
27304.19118380641
 30
0.0
 75
     0
  1
AcDbOsnapPointRef
 72
     2
331
2BBE
 73
     2
 91
        0
 40
0.5
 10
34389.23011403978
 20
27205.19118415542
 30
0.0
 75
     0
  0
DIMASSOC
  5
2D71
102
{ACAD_REACTORS
330
2D67
102
}
330
2D67
100
AcDbDimAssoc
330
2D5A
 90
        3
 70
     0
 71
     0
  1
AcDbOsnapPointRef
 72
    13
331
27CB
 73
     2
 91
        0
 40
0.0
 10
34369.03011403978
 20
27240.99118415542
 30
0.0
 75
     0
  1
AcDbOsnapPointRef
 72
     1
331
27CD
 73
     2
 91
        0
 40
1.0
 10
34414.03011403978
 20
27240.99118415542
 30
0.0
 75
     0
  0
DIMASSOC
  5
2D8B
102
{ACAD_REACTORS
330
2D80
102
}
330
2D80
100
AcDbDimAssoc
330
2D72
 90
        3
 70
     0
 71
     0
  1
AcDbOsnapPointRef
 72
    13
331
2715
 73
     2
 91
        0
 40
0.0
 10
34389.23011403978
 20
27307.1911838064
 30
0.0
 75
     0
  1
AcDbOsnapPointRef
 72
     1
331
27CD
 73
     2
 91
        0
 40
1.0
 10
34414.03011403978
 20
27240.99118415542
 30
0.0
 75
     0
  0
DIMASSOC
  5
2DA5
102
{ACAD_REACTORS
330
2D9A
102
}
330
2D9A
100
AcDbDimAssoc
330
2D8C
 90
        3
 70
     0
 71
     0
  1
AcDbOsnapPointRef
 72
    13
331
2715
 73
     2
 91
        0
 40
0.0
 10
34389.23011403978
 20
27307.1911838064
 30
0.0
 75
     0
  1
AcDbOsnapPointRef
 72
    13
331
27CB
 73
     2
 91
        0
 40
0.0
 10
34369.03011403978
 20
27240.99118415542
 30
0.0
 75
     0
  0
XRECORD
  5
31A
102
{ACAD_REACTORS
330
319
102
}
330
319
100
AcDbXrecord
280
     1
 90
        1
340
104
  0
XRECORD
  5
31E
102
{ACAD_REACTORS
330
31D
102
}
330
31D
100
AcDbXrecord
280
     1
 90
        1
340
104
  0
ACDBDETAILVIEWSTYLE
  5
213
102
{ACAD_XDICTIONARY
360
22D
102
}
102
{ACAD_REACTORS
330
212
102
}
330
212
100
AcDbModelDocViewStyle
 70
     0
  3
Metric50
290
     0
100
AcDbDetailViewStyle
 70
     0
 71
     0
 90
        3
 71
     1
340
11
 62
   256
 40
5.0
340
0
 62
   256
 40
5.0
300

 40
0.0
280
     1
 71
     2
340
16
 90
       25
 62
   256
 71
     3
340
11
 62
   256
 40
5.0
 90
        0
 40
15.0
 90
        1
300
%<\AcVar ViewDetailId>% (%<\AcVar ViewScale \f "%sn">%)
 71
     4
340
16
 90
       25
 62
   256
340
16
 90
       25
 62
   256
280
     0
  0
LAYOUT
  5
22
102
{ACAD_XDICTIONARY
360
1FC
102
}
102
{ACAD_REACTORS
330
1A
102
}
330
1A
100
AcDbPlotSettings
  1

  2
Kyocera TASKalfa 3252ci(J) KX
  4
A3
  6

 40
4.984749794006347
 41
5.111724853515625
 42
5.154083251953125
 43
4.9847412109375
 44
297.0106506347656
 45
419.9889831542968
 46
0.0
 47
0.0
 48
0.0
 49
0.0
140
0.0
141
0.0
142
1.0
143
9.806410578662045
 70
 11952
 72
     1
 73
     1
 74
     0
  7
monochrome.stb
 75
     0
147
0.1019741109122964
 76
     0
 77
     2
 78
   300
148
-32876.12478992212
149
-27320.92452532269
100
AcDbLayout
  1
Model
 70
     1
 71
     0
 10
0.0
 20
0.0
 11
12.0
 21
9.0
 12
0.0
 22
0.0
 32
0.0
 14
0.0
 24
0.0
 34
0.0
 15
0.0
 25
0.0
 35
0.0
146
0.0
 13
0.0
 23
0.0
 33
0.0
 16
1.0
 26
0.0
 36
0.0
 17
0.0
 27
1.0
 37
0.0
 76
     0
330
1F
331
E1
1001
ACAD_PSEXT
1000
Kyocera TASKalfa 3252ci(J) KX
1000
Kyocera TASKalfa 3252ci(J) KX
1000
192.168.11.123
1000

1070
     0
  0
LAYOUT
  5
D3
102
{ACAD_REACTORS
330
1A
102
}
330
1A
100
AcDbPlotSettings
  1

  2
Kyocera TASKalfa 3050ci(J) KX
  4
A3
  6

 40
4.984749794006347
 41
5.111724853515625
 42
5.154083251953125
 43
4.9847412109375
 44
297.0106506347656
 45
419.9889831542968
 46
0.0
 47
0.0
 48
0.0
 49
0.0
140
0.0
141
0.0
142
1.0
143
1.0
 70
   688
 72
     1
 73
     1
 74
     5
  7
monochrome.stb
 75
    16
147
1.0
 76
     0
 77
     2
 78
   300
148
0.0
149
0.0
100
AcDbLayout
  1
レイアウト1
 70
     1
 71
     1
 10
-4.9847412109375
 20
-4.984749794006347
 11
415.0042419433593
 21
292.0259008407593
 12
0.0
 22
0.0
 32
0.0
 14
25.69999999999999
 24
19.5
 34
0.0
 15
231.3
 25
175.5
 35
0.0
146
0.0
 13
0.0
 23
0.0
 33
0.0
 16
1.0
 26
0.0
 36
0.0
 17
0.0
 27
1.0
 37
0.0
 76
     0
330
D2
331
318
1001
ACAD_PSEXT
1000
Kyocera TASKalfa 3050ci(J) KX
1000
Kyocera TASKalfa 3050ci(J) KX
1000
192.168.11.123
1000

1070
     0
  0
LAYOUT
  5
D7
102
{ACAD_REACTORS
330
1A
102
}
330
1A
100
AcDbPlotSettings
  1

  2
C:\Documents and Settings\basas\Application Data\Autodesk\AutoCAD 2005\R16.1\enu\plotters\Default Windows System Printer.pc3
  4

  6

 40
0.0
 41
0.0
 42
0.0
 43
0.0
 44
0.0
 45
0.0
 46
0.0
 47
0.0
 48
0.0
 49
0.0
140
0.0
141
0.0
142
1.0
143
1.0
 70
   688
 72
     0
 73
     0
 74
     5
  7
monochrome.stb
 75
    16
147
1.0
 76
     0
 77
     2
 78
   300
148
0.0
149
0.0
100
AcDbLayout
  1
レイアウト2
 70
     1
 71
     2
 10
0.0
 20
0.0
 11
12.0
 21
9.0
 12
0.0
 22
0.0
 32
0.0
 14
0.0
 24
0.0
 34
0.0
 15
0.0
 25
0.0
 35
0.0
146
0.0
 13
0.0
 23
0.0
 33
0.0
 16
1.0
 26
0.0
 36
0.0
 17
0.0
 27
1.0
 37
0.0
 76
     0
330
D6
  0
MATERIAL
  5
E4
102
{ACAD_XDICTIONARY
360
1F0
102
}
102
{ACAD_REACTORS
330
78
102
}
330
78
100
AcDbMaterial
  1
ByBlock
 94
       63
  0
MATERIAL
  5
E3
102
{ACAD_XDICTIONARY
360
1EE
102
}
102
{ACAD_REACTORS
330
78
102
}
330
78
100
AcDbMaterial
  1
ByLayer
 94
       63
  0
MATERIAL
  5
E5
102
{ACAD_XDICTIONARY
360
16A
102
}
102
{ACAD_REACTORS
330
78
102
}
330
78
100
AcDbMaterial
  1
Global
 43
0.0007999999797903
 43
0.0
 43
0.0
 43
0.0
 43
0.0
 43
0.0007999999797903
 43
0.0
 43
0.0
 43
0.0
 43
0.0
 43
1.0
 43
0.0
 43
0.0
 43
0.0
 43
0.0
 43
1.0
 49
0.0007999999797903
 49
0.0
 49
0.0
 49
0.0
 49
0.0
 49
0.0007999999797903
 49
0.0
 49
0.0
 49
0.0
 49
0.0
 49
1.0
 49
0.0
 49
0.0
 49
0.0
 49
0.0
 49
1.0
142
0.0007999999797903
142
0.0
142
0.0
142
0.0
142
0.0
142
0.0007999999797903
142
0.0
142
0.0
142
0.0
142
0.0
142
1.0
142
0.0
142
0.0
142
0.0
142
0.0
142
1.0
144
0.0007999999797903
144
0.0
144
0.0
144
0.0
144
0.0
144
0.0007999999797903
144
0.0
144
0.0
144
0.0
144
0.0
144
1.0
144
0.0
144
0.0
144
0.0
144
0.0
144
1.0
 94
       63
1001
ACAD
1070
    -1
1070
     3
1070
     0
1000

1071
        0
1070
     0
  0
MLEADERSTYLE
  5
132
102
{ACAD_REACTORS
330
124
102
}
330
124
100
AcDbMLeaderStyle
179
     2
170
     2
171
     1
172
     0
 90
        2
 40
0.0
 41
0.0
173
     1
 91
-1056964608
340
14
 92
       -2
290
     1
 42
2.0
291
     1
 43
8.0
  3
Standard
 44
4.0
300

342
11
174
     1
178
     1
175
     1
176
     0
 93
-1056964608
 45
4.0
292
     0
297
     0
 46
4.0
 94
-1056964608
 47
1.0
 49
1.0
140
1.0
293
     1
141
0.0
294
     1
177
     0
142
1.0
295
     0
296
     1
143
3.75
271
     0
272
     9
273
     9
298
     0
  0
MLEADERSTYLE
  5
125
102
{ACAD_REACTORS
330
124
102
}
330
124
100
AcDbMLeaderStyle
179
     2
170
     2
171
     1
172
     0
 90
        2
 40
0.0
 41
0.0
173
     1
 91
-1056964608
340
14
 92
       -2
290
     1
 42
2.0
291
     1
 43
8.0
  3
Standard
 44
4.0
300

342
11
174
     1
178
     1
175
     1
176
     0
 93
-1056964608
 45
4.0
292
     0
297
     0
 46
4.0
 94
-1056964608
 47
1.0
 49
1.0
140
1.0
293
     1
141
0.0
294
     1
177
     0
142
1.0
295
     0
296
     0
143
3.75
271
     0
272
     9
273
     9
298
     0
  0
MLINESTYLE
  5
18
102
{ACAD_REACTORS
330
17
102
}
330
17
100
AcDbMlineStyle
  2
STANDARD
 70
     0
  3

 62
   256
 51
90.0
 52
90.0
 71
     2
 49
0.5
 62
   256
  6
BYLAYER
 49
-0.5
 62
   256
  6
BYLAYER
  0
ACDBPLACEHOLDER
  5
F
102
{ACAD_REACTORS
330
E
102
}
330
E
  0
SCALE
  5
104
102
{ACAD_REACTORS
330
103
102
}
330
103
100
AcDbScale
 70
     0
300
1:1
140
1.0
141
1.0
290
     1
  0
SCALE
  5
1B5
102
{ACAD_REACTORS
330
103
102
}
330
103
100
AcDbScale
 70
     0
300
1:2
140
1.0
141
2.0
290
     0
  0
SCALE
  5
1B6
102
{ACAD_REACTORS
330
103
102
}
330
103
100
AcDbScale
 70
     0
300
1:4
140
1.0
141
4.0
290
     0
  0
SCALE
  5
1B7
102
{ACAD_REACTORS
330
103
102
}
330
103
100
AcDbScale
 70
     0
300
1:5
140
1.0
141
5.0
290
     0
  0
SCALE
  5
1B8
102
{ACAD_REACTORS
330
103
102
}
330
103
100
AcDbScale
 70
     0
300
1:8
140
1.0
141
8.0
290
     0
  0
SCALE
  5
1B9
102
{ACAD_REACTORS
330
103
102
}
330
103
100
AcDbScale
 70
     0
300
1:10
140
1.0
141
10.0
290
     0
  0
SCALE
  5
1BA
102
{ACAD_REACTORS
330
103
102
}
330
103
100
AcDbScale
 70
     0
300
1:16
140
1.0
141
16.0
290
     0
  0
SCALE
  5
1BB
102
{ACAD_REACTORS
330
103
102
}
330
103
100
AcDbScale
 70
     0
300
1:20
140
1.0
141
20.0
290
     0
  0
SCALE
  5
1BC
102
{ACAD_REACTORS
330
103
102
}
330
103
100
AcDbScale
 70
     0
300
1:30
140
1.0
141
30.0
290
     0
  0
SCALE
  5
1BD
102
{ACAD_REACTORS
330
103
102
}
330
103
100
AcDbScale
 70
     0
300
1:40
140
1.0
141
40.0
290
     0
  0
SCALE
  5
1BE
102
{ACAD_REACTORS
330
103
102
}
330
103
100
AcDbScale
 70
     0
300
1:50
140
1.0
141
50.0
290
     0
  0
SCALE
  5
1BF
102
{ACAD_REACTORS
330
103
102
}
330
103
100
AcDbScale
 70
     0
300
1:100
140
1.0
141
100.0
290
     0
  0
SCALE
  5
1C0
102
{ACAD_REACTORS
330
103
102
}
330
103
100
AcDbScale
 70
     0
300
2:1
140
2.0
141
1.0
290
     0
  0
SCALE
  5
1C1
102
{ACAD_REACTORS
330
103
102
}
330
103
100
AcDbScale
 70
     0
300
4:1
140
4.0
141
1.0
290
     0
  0
SCALE
  5
1C2
102
{ACAD_REACTORS
330
103
102
}
330
103
100
AcDbScale
 70
     0
300
8:1
140
8.0
141
1.0
290
     0
  0
SCALE
  5
1C3
102
{ACAD_REACTORS
330
103
102
}
330
103
100
AcDbScale
 70
     0
300
10:1
140
10.0
141
1.0
290
     0
  0
SCALE
  5
1C4
102
{ACAD_REACTORS
330
103
102
}
330
103
100
AcDbScale
 70
     0
300
100:1
140
100.0
141
1.0
290
     0
  0
ACDBSECTIONVIEWSTYLE
  5
211
102
{ACAD_XDICTIONARY
360
22B
102
}
102
{ACAD_REACTORS
330
210
102
}
330
210
100
AcDbModelDocViewStyle
 70
     0
  3
Metric50
290
     0
100
AcDbSectionViewStyle
 70
     0
 71
     0
 90
      102
 71
     1
340
11
 62
   256
 40
5.0
340
0
340
0
 62
   256
 40
5.0
300
I, O, Q, S, X, Z
 40
10.0
 90
        0
 40
2.5
 90
        0
 71
     2
340
16
 90
       25
 62
   256
340
16
 90
       50
 62
   256
 40
5.0
 40
2.5
 40
5.0
 71
     3
340
11
 62
   256
 40
5.0
 90
        0
 40
15.0
 90
        1
300
%<\AcVar ViewSectionStartId>%-%<\AcVar ViewSectionEndId>% (%<\AcVar ViewScale \f "%sn">%)
 71
     4
 62
   256
 62
   257
300
ANSI31
 40
1.0
 90
        0
290
     0
290
     0
 90
        6
 40
0.0
 40
1.570796326794896
 40
0.2617993877991494
 40
1.308996938995747
 40
-0.2617993877991494
 40
1.832595714594046
  0
TABLESTYLE
  5
98
102
{ACAD_XDICTIONARY
360
159
102
}
102
{ACAD_REACTORS
330
97
102
}
330
97
100
AcDbTableStyle
280
     0
  3
Standard
 70
     0
 71
     0
 40
1.5
 41
1.5
280
     0
281
     0
  7
Standard
140
4.5
170
     2
 62
     0
 63
     7
283
     0
 90
      512
 91
        0
  1

274
    -2
284
     1
 64
     0
275
    -2
285
     1
 65
     0
276
    -2
286
     1
 66
     0
277
    -2
287
     1
 67
     0
278
    -2
288
     1
 68
     0
279
    -2
289
     1
 69
     0
  7
Standard
140
6.0
170
     5
 62
     0
 63
     7
283
     0
 90
      512
 91
        0
  1

274
    -2
284
     1
 64
     0
275
    -2
285
     1
 65
     0
276
    -2
286
     1
 66
     0
277
    -2
287
     1
 67
     0
278
    -2
288
     1
 68
     0
279
    -2
289
     1
 69
     0
  7
Standard
140
4.5
170
     5
 62
     0
 63
     7
283
     0
 90
      512
 91
        0
  1

274
    -2
284
     1
 64
     0
275
    -2
285
     1
 65
     0
276
    -2
286
     1
 66
     0
277
    -2
287
     1
 67
     0
278
    -2
288
     1
 68
     0
279
    -2
289
     1
 69
     0
  0
VISUALSTYLE
  5
EC
102
{ACAD_REACTORS
330
E6
102
}
330
E6
100
AcDbVisualStyle
  2
2dWireframe
 70
     4
177
     3
291
     0
 70
    58
 90
        0
176
     1
 90
        2
176
     1
 90
        1
176
     1
 90
        0
176
     1
 40
0.6
176
     1
 40
30.0
176
     1
 62
     7
420
 16777215
176
     1
 90
        1
176
     1
 90
        4
176
     1
 62
     7
176
     1
 62
   257
176
     1
 90
        1
176
     1
 90
        1
176
     1
 40
1.0
176
     1
 90
        0
176
     1
 62
   257
176
     1
 40
1.0
176
     1
 90
        1
176
     1
 90
        6
176
     1
 90
        2
176
     1
 62
     7
176
     1
 90
        5
176
     1
 90
        0
176
     1
 90
        0
176
     1
290
     0
176
     1
 90
        1
176
     1
 40
0.0
176
     1
 90
        0
176
     1
290
     1
176
     1
290
     1
176
     1
290
     0
176
     1
290
     0
176
     1
290
     0
176
     1
290
     0
176
     1
290
     0
176
     1
290
     0
176
     1
290
     0
176
     1
 90
       50
176
     1
 40
0.0
176
     1
 40
1.0
176
     1
 90
        0
176
     1
 62
    18
420
        0
176
     1
 90
       50
176
     1
 90
        3
176
     1
 62
     5
420
      255
176
     1
290
     0
176
     1
 90
       50
176
     1
 90
       50
176
     1
 90
       50
176
     1
290
     0
176
     1
 90
       50
176
     1
 62
   256
176
     0
 40
1.0
176
     0
 90
        2
176
     1
  1
strokes_ogs.tif
176
     1
290
     0
176
     1
 40
1.0
176
     1
 40
1.0
176
     1
  0
VISUALSTYLE
  5
EB
102
{ACAD_REACTORS
330
E6
102
}
330
E6
100
AcDbVisualStyle
  2
Basic
 70
     7
177
     3
291
     1
 70
    58
 90
        1
176
     1
 90
        0
176
     1
 90
        1
176
     1
 90
        0
176
     1
 40
0.6
176
     1
 40
30.0
176
     1
 62
     7
420
 16777215
176
     1
 90
        0
176
     1
 90
        4
176
     1
 62
     7
176
     1
 62
   257
176
     1
 90
        1
176
     1
 90
        1
176
     1
 40
1.0
176
     1
 90
        8
176
     1
 62
     7
176
     1
 40
1.0
176
     1
 90
        1
176
     1
 90
        6
176
     1
 90
        2
176
     1
 62
     7
176
     1
 90
        5
176
     1
 90
        0
176
     1
 90
        0
176
     1
290
     0
176
     1
 90
        1
176
     1
 40
0.0
176
     1
 90
        0
176
     1
290
     0
176
     1
290
     1
176
     1
290
     1
176
     1
290
     0
176
     1
290
     0
176
     1
290
     0
176
     1
290
     0
176
     1
290
     0
176
     1
290
     0
176
     1
 90
       50
176
     1
 40
0.0
176
     1
 40
1.0
176
     1
 90
        0
176
     1
 62
    18
420
        0
176
     1
 90
       50
176
     1
 90
        3
176
     1
 62
     5
420
      255
176
     1
290
     0
176
     1
 90
       50
176
     1
 90
       50
176
     1
 90
       50
176
     1
290
     0
176
     1
 90
       50
176
     1
 62
   256
176
     0
 40
1.0
176
     0
 90
        2
176
     1
  1
strokes_ogs.tif
176
     1
290
     0
176
     1
 40
1.0
176
     1
 40
1.0
176
     1
  0
VISUALSTYLE
  5
F2
102
{ACAD_REACTORS
330
E6
102
}
330
E6
100
AcDbVisualStyle
  2
Brighten
 70
    12
177
     3
291
     1
 70
    58
 90
        2
176
     1
 90
        2
176
     1
 90
        1
176
     1
 90
        0
176
     1
 40
0.6
176
     1
 40
30.0
176
     1
 62
     7
420
 16777215
176
     1
 90
        1
176
     1
 90
        4
176
     1
 62
     7
176
     1
 62
   257
176
     1
 90
        1
176
     1
 90
        1
176
     1
 40
1.0
176
     1
 90
        8
176
     1
 62
     7
176
     1
 40
1.0
176
     1
 90
        1
176
     1
 90
        6
176
     1
 90
        2
176
     1
 62
     7
176
     1
 90
        5
176
     1
 90
        0
176
     1
 90
        0
176
     1
290
     0
176
     1
 90
        1
176
     1
 40
50.0
176
     1
 90
        0
176
     1
290
     0
176
     1
290
     1
176
     1
290
     1
176
     1
290
     0
176
     1
290
     0
176
     1
290
     0
176
     1
290
     0
176
     1
290
     0
176
     1
290
     0
176
     1
 90
       50
176
     1
 40
0.0
176
     1
 40
1.0
176
     1
 90
        0
176
     1
 62
    18
420
        0
176
     1
 90
       50
176
     1
 90
        3
176
     1
 62
     5
420
      255
176
     1
290
     0
176
     1
 90
       50
176
     1
 90
       50
176
     1
 90
       50
176
     1
290
     0
176
     1
 90
       50
176
     1
 62
   256
176
     0
 40
1.0
176
     0
 90
        2
176
     1
  1
strokes_ogs.tif
176
     1
290
     0
176
     1
 40
1.0
176
     1
 40
1.0
176
     1
  0
VISUALSTYLE
  5
F6
102
{ACAD_REACTORS
330
E6
102
}
330
E6
100
AcDbVisualStyle
  2
ColorChange
 70
    16
177
     3
291
     1
 70
    58
 90
        2
176
     1
 90
        2
176
     1
 90
        3
176
     1
 90
        0
176
     1
 40
0.6
176
     1
 40
30.0
176
     1
 62
     8
420
  8421504
176
     1
 90
        1
176
     1
 90
        4
176
     1
 62
     7
176
     1
 62
   257
176
     1
 90
        1
176
     1
 90
        1
176
     1
 40
1.0
176
     1
 90
        8
176
     1
 62
     8
420
  8421504
176
     1
 40
1.0
176
     1
 90
        1
176
     1
 90
        6
176
     1
 90
        2
176
     1
 62
     7
176
     1
 90
        5
176
     1
 90
        0
176
     1
 90
        0
176
     1
290
     0
176
     1
 90
        1
176
     1
 40
0.0
176
     1
 90
        0
176
     1
290
     0
176
     1
290
     1
176
     1
290
     1
176
     1
290
     0
176
     1
290
     0
176
     1
290
     0
176
     1
290
     0
176
     1
290
     0
176
     1
290
     0
176
     1
 90
       50
176
     1
 40
0.0
176
     1
 40
1.0
176
     1
 90
        0
176
     1
 62
    18
420
        0
176
     1
 90
       50
176
     1
 90
        3
176
     1
 62
     5
420
      255
176
     1
290
     0
176
     1
 90
       50
176
     1
 90
       50
176
     1
 90
       50
176
     1
290
     0
176
     1
 90
       50
176
     1
 62
   256
176
     0
 40
1.0
176
     0
 90
        2
176
     1
  1
strokes_ogs.tif
176
     1
290
     0
176
     1
 40
1.0
176
     1
 40
1.0
176
     1
  0
VISUALSTYLE
  5
EF
102
{ACAD_REACTORS
330
E6
102
}
330
E6
100
AcDbVisualStyle
  2
Conceptual
 70
     9
177
     3
291
     0
 70
    58
 90
        3
176
     1
 90
        2
176
     1
 90
        1
176
     1
 90
        0
176
     1
 40
0.6
176
     1
 40
30.0
176
     1
 62
     7
420
 16777215
176
     1
 90
        2
176
     1
 90
        2
176
     1
 62
     7
176
     1
 62
   257
176
     1
 90
        1
176
     1
 90
        1
176
     1
 40
40.0
176
     1
 90
        8
176
     1
 62
     7
176
     1
 40
1.0
176
     1
 90
        1
176
     1
 90
        6
176
     1
 90
        2
176
     1
 62
     7
176
     1
 90
        3
176
     1
 90
        0
176
     1
 90
        0
176
     1
290
     0
176
     1
 90
        1
176
     1
 40
0.0
176
     1
 90
        0
176
     1
290
     0
176
     1
290
     1
176
     1
290
     1
176
     1
290
     0
176
     1
290
     0
176
     1
290
     0
176
     1
290
     0
176
     1
290
     0
176
     1
290
     0
176
     1
 90
       50
176
     1
 40
0.0
176
     1
 40
1.0
176
     1
 90
        0
176
     1
 62
    18
420
        0
176
     1
 90
       50
176
     1
 90
        3
176
     1
 62
     5
420
      255
176
     1
290
     0
176
     1
 90
       50
176
     1
 90
       50
176
     1
 90
       50
176
     1
290
     0
176
     1
 90
       50
176
     1
 62
   256
176
     0
 40
1.0
176
     0
 90
        2
176
     1
  1
strokes_ogs.tif
176
     1
290
     0
176
     1
 40
1.0
176
     1
 40
1.0
176
     1
  0
VISUALSTYLE
  5
F1
102
{ACAD_REACTORS
330
E6
102
}
330
E6
100
AcDbVisualStyle
  2
Dim
 70
    11
177
     3
291
     1
 70
    58
 90
        2
176
     1
 90
        2
176
     1
 90
        1
176
     1
 90
        0
176
     1
 40
0.6
176
     1
 40
30.0
176
     1
 62
     7
420
 16777215
176
     1
 90
        1
176
     1
 90
        4
176
     1
 62
     7
176
     1
 62
   257
176
     1
 90
        1
176
     1
 90
        1
176
     1
 40
1.0
176
     1
 90
        8
176
     1
 62
     7
176
     1
 40
1.0
176
     1
 90
        1
176
     1
 90
        6
176
     1
 90
        2
176
     1
 62
     7
176
     1
 90
        5
176
     1
 90
        0
176
     1
 90
        0
176
     1
290
     0
176
     1
 90
        1
176
     1
 40
-50.0
176
     1
 90
        0
176
     1
290
     0
176
     1
290
     1
176
     1
290
     1
176
     1
290
     0
176
     1
290
     0
176
     1
290
     0
176
     1
290
     0
176
     1
290
     0
176
     1
290
     0
176
     1
 90
       50
176
     1
 40
0.0
176
     1
 40
1.0
176
     1
 90
        0
176
     1
 62
    18
420
        0
176
     1
 90
       50
176
     1
 90
        3
176
     1
 62
     5
420
      255
176
     1
290
     0
176
     1
 90
       50
176
     1
 90
       50
176
     1
 90
       50
176
     1
290
     0
176
     1
 90
       50
176
     1
 62
   256
176
     0
 40
1.0
176
     0
 90
        2
176
     1
  1
strokes_ogs.tif
176
     1
290
     0
176
     1
 40
1.0
176
     1
 40
1.0
176
     1
  0
VISUALSTYLE
  5
1DD
102
{ACAD_REACTORS
330
E6
102
}
330
E6
100
AcDbVisualStyle
  2
EdgeColorOff
 70
    22
177
     3
291
     1
 70
    58
 90
        2
176
     0
 90
        2
176
     0
 90
        0
176
     0
 90
        0
176
     0
 40
0.6
176
     0
 40
30.0
176
     0
 62
     7
420
 16777215
176
     0
 90
        1
176
     0
 90
        4
176
     0
 62
     7
176
     0
 62
   257
176
     0
 90
        1
176
     0
 90
        1
176
     0
 40
1.0
176
     0
 90
        8
176
     2
 62
     7
176
     0
 40
1.0
176
     0
 90
        1
176
     0
 90
        6
176
     0
 90
        2
176
     0
 62
     7
176
     0
 90
        5
176
     0
 90
        0
176
     0
 90
        0
176
     0
290
     0
176
     0
 90
        1
176
     0
 40
0.0
176
     0
 90
        0
176
     0
290
     0
176
     1
290
     1
176
     1
290
     1
176
     1
290
     0
176
     1
290
     0
176
     1
290
     0
176
     1
290
     0
176
     1
290
     0
176
     1
290
     0
176
     1
 90
       50
176
     1
 40
0.0
176
     1
 40
1.0
176
     1
 90
        0
176
     1
 62
    18
420
        0
176
     1
 90
       50
176
     1
 90
        3
176
     1
 62
     5
420
      255
176
     1
290
     0
176
     1
 90
       50
176
     1
 90
       50
176
     1
 90
       50
176
     1
290
     0
176
     1
 90
       50
176
     1
 62
   256
176
     0
 40
1.0
176
     0
 90
        2
176
     1
  1
strokes_ogs.tif
176
     1
290
     0
176
     1
 40
1.0
176
     1
 40
1.0
176
     1
  0
VISUALSTYLE
  5
F5
102
{ACAD_REACTORS
330
E6
102
}
330
E6
100
AcDbVisualStyle
  2
Facepattern
 70
    15
177
     3
291
     1
 70
    58
 90
        2
176
     1
 90
        2
176
     1
 90
        1
176
     1
 90
        0
176
     1
 40
0.6
176
     1
 40
30.0
176
     1
 62
     7
420
 16777215
176
     1
 90
        1
176
     1
 90
        4
176
     1
 62
     7
176
     1
 62
   257
176
     1
 90
        1
176
     1
 90
        1
176
     1
 40
1.0
176
     1
 90
        8
176
     1
 62
     7
176
     1
 40
1.0
176
     1
 90
        1
176
     1
 90
        6
176
     1
 90
        2
176
     1
 62
     7
176
     1
 90
        5
176
     1
 90
        0
176
     1
 90
        0
176
     1
290
     0
176
     1
 90
        1
176
     1
 40
0.0
176
     1
 90
        0
176
     1
290
     0
176
     1
290
     1
176
     1
290
     1
176
     1
290
     0
176
     1
290
     0
176
     1
290
     0
176
     1
290
     0
176
     1
290
     0
176
     1
290
     0
176
     1
 90
       50
176
     1
 40
0.0
176
     1
 40
1.0
176
     1
 90
        0
176
     1
 62
    18
420
        0
176
     1
 90
       50
176
     1
 90
        3
176
     1
 62
     5
420
      255
176
     1
290
     0
176
     1
 90
       50
176
     1
 90
       50
176
     1
 90
       50
176
     1
290
     0
176
     1
 90
       50
176
     1
 62
   256
176
     0
 40
1.0
176
     0
 90
        2
176
     1
  1
strokes_ogs.tif
176
     1
290
     0
176
     1
 40
1.0
176
     1
 40
1.0
176
     1
  0
VISUALSTYLE
  5
E7
102
{ACAD_REACTORS
330
E6
102
}
330
E6
100
AcDbVisualStyle
  2
Flat
 70
     0
177
     3
291
     1
 70
    58
 90
        2
176
     1
 90
        1
176
     1
 90
        1
176
     1
 90
        2
176
     1
 40
0.6
176
     1
 40
30.0
176
     1
 62
     7
420
 16777215
176
     1
 90
        0
176
     1
 90
        0
176
     1
 62
     7
176
     1
 62
   257
176
     1
 90
        1
176
     1
 90
        1
176
     1
 40
1.0
176
     1
 90
        8
176
     1
 62
     7
176
     1
 40
1.0
176
     1
 90
        1
176
     1
 90
        6
176
     1
 90
        2
176
     1
 62
     7
176
     1
 90
        5
176
     1
 90
        0
176
     1
 90
        0
176
     1
290
     0
176
     1
 90
       13
176
     1
 40
0.0
176
     1
 90
        0
176
     1
290
     0
176
     1
290
     1
176
     1
290
     1
176
     1
290
     0
176
     1
290
     0
176
     1
290
     0
176
     1
290
     0
176
     1
290
     0
176
     1
290
     0
176
     1
 90
       50
176
     1
 40
0.0
176
     1
 40
1.0
176
     1
 90
        0
176
     1
 62
    18
420
        0
176
     1
 90
       50
176
     1
 90
        3
176
     1
 62
     5
420
      255
176
     1
290
     0
176
     1
 90
       50
176
     1
 90
       50
176
     1
 90
       50
176
     1
290
     0
176
     1
 90
       50
176
     1
 62
   256
176
     0
 40
1.0
176
     0
 90
        2
176
     1
  1
strokes_ogs.tif
176
     1
290
     0
176
     1
 40
1.0
176
     1
 40
1.0
176
     1
  0
VISUALSTYLE
  5
E8
102
{ACAD_REACTORS
330
E6
102
}
330
E6
100
AcDbVisualStyle
  2
FlatWithEdges
 70
     1
177
     3
291
     1
 70
    58
 90
        2
176
     1
 90
        1
176
     1
 90
        1
176
     1
 90
        2
176
     1
 40
0.6
176
     1
 40
30.0
176
     1
 62
     7
420
 16777215
176
     1
 90
        1
176
     1
 90
        0
176
     1
 62
     7
176
     1
 62
   257
176
     1
 90
        1
176
     1
 90
        1
176
     1
 40
1.0
176
     1
 90
        0
176
     1
 62
   257
176
     1
 40
1.0
176
     1
 90
        1
176
     1
 90
        6
176
     1
 90
        2
176
     1
 62
     7
176
     1
 90
        5
176
     1
 90
        0
176
     1
 90
        0
176
     1
290
     0
176
     1
 90
       13
176
     1
 40
0.0
176
     1
 90
        0
176
     1
290
     0
176
     1
290
     1
176
     1
290
     1
176
     1
290
     0
176
     1
290
     0
176
     1
290
     0
176
     1
290
     0
176
     1
290
     0
176
     1
290
     0
176
     1
 90
       50
176
     1
 40
0.0
176
     1
 40
1.0
176
     1
 90
        0
176
     1
 62
    18
420
        0
176
     1
 90
       50
176
     1
 90
        3
176
     1
 62
     5
420
      255
176
     1
290
     0
176
     1
 90
       50
176
     1
 90
       50
176
     1
 90
       50
176
     1
290
     0
176
     1
 90
       50
176
     1
 62
   256
176
     0
 40
1.0
176
     0
 90
        2
176
     1
  1
strokes_ogs.tif
176
     1
290
     0
176
     1
 40
1.0
176
     1
 40
1.0
176
     1
  0
VISUALSTYLE
  5
E9
102
{ACAD_REACTORS
330
E6
102
}
330
E6
100
AcDbVisualStyle
  2
Gouraud
 70
     2
177
     3
291
     1
 70
    58
 90
        2
176
     1
 90
        2
176
     1
 90
        1
176
     1
 90
        2
176
     1
 40
0.6
176
     1
 40
30.0
176
     1
 62
     7
420
 16777215
176
     1
 90
        0
176
     1
 90
        0
176
     1
 62
     7
176
     1
 62
   257
176
     1
 90
        1
176
     1
 90
        1
176
     1
 40
1.0
176
     1
 90
        0
176
     1
 62
     7
176
     1
 40
1.0
176
     1
 90
        1
176
     1
 90
        6
176
     1
 90
        2
176
     1
 62
     7
176
     1
 90
        5
176
     1
 90
        0
176
     1
 90
        0
176
     1
290
     0
176
     1
 90
       13
176
     1
 40
0.0
176
     1
 90
        0
176
     1
290
     0
176
     1
290
     1
176
     1
290
     1
176
     1
290
     0
176
     1
290
     0
176
     1
290
     0
176
     1
290
     0
176
     1
290
     0
176
     1
290
     0
176
     1
 90
       50
176
     1
 40
0.0
176
     1
 40
1.0
176
     1
 90
        0
176
     1
 62
    18
420
        0
176
     1
 90
       50
176
     1
 90
        3
176
     1
 62
     5
420
      255
176
     1
290
     0
176
     1
 90
       50
176
     1
 90
       50
176
     1
 90
       50
176
     1
290
     0
176
     1
 90
       50
176
     1
 62
   256
176
     0
 40
1.0
176
     0
 90
        2
176
     1
  1
strokes_ogs.tif
176
     1
290
     0
176
     1
 40
1.0
176
     1
 40
1.0
176
     1
  0
VISUALSTYLE
  5
EA
102
{ACAD_REACTORS
330
E6
102
}
330
E6
100
AcDbVisualStyle
  2
GouraudWithEdges
 70
     3
177
     3
291
     1
 70
    58
 90
        2
176
     1
 90
        2
176
     1
 90
        1
176
     1
 90
        2
176
     1
 40
0.6
176
     1
 40
30.0
176
     1
 62
     7
420
 16777215
176
     1
 90
        1
176
     1
 90
        0
176
     1
 62
     7
176
     1
 62
   257
176
     1
 90
        1
176
     1
 90
        1
176
     1
 40
1.0
176
     1
 90
        0
176
     1
 62
   257
176
     1
 40
1.0
176
     1
 90
        1
176
     1
 90
        6
176
     1
 90
        2
176
     1
 62
     7
176
     1
 90
        5
176
     1
 90
        0
176
     1
 90
        0
176
     1
290
     0
176
     1
 90
       13
176
     1
 40
0.0
176
     1
 90
        0
176
     1
290
     0
176
     1
290
     1
176
     1
290
     1
176
     1
290
     0
176
     1
290
     0
176
     1
290
     0
176
     1
290
     0
176
     1
290
     0
176
     1
290
     0
176
     1
 90
       50
176
     1
 40
0.0
176
     1
 40
1.0
176
     1
 90
        0
176
     1
 62
    18
420
        0
176
     1
 90
       50
176
     1
 90
        3
176
     1
 62
     5
420
      255
176
     1
290
     0
176
     1
 90
       50
176
     1
 90
       50
176
     1
 90
       50
176
     1
290
     0
176
     1
 90
       50
176
     1
 62
   256
176
     0
 40
1.0
176
     0
 90
        2
176
     1
  1
strokes_ogs.tif
176
     1
290
     0
176
     1
 40
1.0
176
     1
 40
1.0
176
     1
  0
VISUALSTYLE
  5
EE
102
{ACAD_REACTORS
330
E6
102
}
330
E6
100
AcDbVisualStyle
  2
Hidden
 70
     6
177
     3
291
     0
 70
    58
 90
        1
176
     1
 90
        2
176
     1
 90
        2
176
     1
 90
        0
176
     1
 40
0.6
176
     1
 40
30.0
176
     1
 62
     7
420
 16777215
176
     1
 90
        2
176
     1
 90
        2
176
     1
 62
     7
176
     1
 62
   257
176
     1
 90
        2
176
     1
 90
        1
176
     1
 40
40.0
176
     1
 90
        0
176
     1
 62
   257
176
     1
 40
1.0
176
     1
 90
        1
176
     1
 90
        6
176
     1
 90
        2
176
     1
 62
     7
176
     1
 90
        3
176
     1
 90
        0
176
     1
 90
        0
176
     1
290
     0
176
     1
 90
        1
176
     1
 40
0.0
176
     1
 90
        0
176
     1
290
     0
176
     1
290
     1
176
     1
290
     1
176
     1
290
     0
176
     1
290
     0
176
     1
290
     0
176
     1
290
     0
176
     1
290
     0
176
     1
290
     0
176
     1
 90
       50
176
     1
 40
0.0
176
     1
 40
1.0
176
     1
 90
        0
176
     1
 62
    18
420
        0
176
     1
 90
       50
176
     1
 90
        3
176
     1
 62
     5
420
      255
176
     1
290
     0
176
     1
 90
       50
176
     1
 90
       50
176
     1
 90
       50
176
     1
290
     0
176
     1
 90
       50
176
     1
 62
   256
176
     0
 40
1.0
176
     0
 90
        2
176
     1
  1
strokes_ogs.tif
176
     1
290
     0
176
     1
 40
1.0
176
     1
 40
1.0
176
     1
  0
VISUALSTYLE
  5
1DB
102
{ACAD_REACTORS
330
E6
102
}
330
E6
100
AcDbVisualStyle
  2
JitterOff
 70
    20
177
     3
291
     1
 70
    58
 90
        2
176
     0
 90
        2
176
     0
 90
        0
176
     0
 90
        0
176
     0
 40
0.6
176
     0
 40
30.0
176
     0
 62
     7
420
 16777215
176
     0
 90
        1
176
     0
 90
        4
176
     0
 62
     7
176
     0
 62
   257
176
     0
 90
        1
176
     0
 90
        1
176
     0
 40
1.0
176
     0
 90
       10
176
     2
 62
     7
176
     0
 40
1.0
176
     0
 90
        1
176
     0
 90
        6
176
     0
 90
        2
176
     0
 62
     7
176
     0
 90
        5
176
     0
 90
        0
176
     0
 90
        0
176
     0
290
     0
176
     0
 90
        1
176
     0
 40
0.0
176
     0
 90
        0
176
     0
290
     0
176
     1
290
     1
176
     1
290
     1
176
     1
290
     0
176
     1
290
     0
176
     1
290
     0
176
     1
290
     0
176
     1
290
     0
176
     1
290
     0
176
     1
 90
       50
176
     1
 40
0.0
176
     1
 40
1.0
176
     1
 90
        0
176
     1
 62
    18
420
        0
176
     1
 90
       50
176
     1
 90
        3
176
     1
 62
     5
420
      255
176
     1
290
     0
176
     1
 90
       50
176
     1
 90
       50
176
     1
 90
       50
176
     1
290
     0
176
     1
 90
       50
176
     1
 62
   256
176
     0
 40
1.0
176
     0
 90
        2
176
     1
  1
strokes_ogs.tif
176
     1
290
     0
176
     1
 40
1.0
176
     1
 40
1.0
176
     1
  0
VISUALSTYLE
  5
F4
102
{ACAD_REACTORS
330
E6
102
}
330
E6
100
AcDbVisualStyle
  2
Linepattern
 70
    14
177
     3
291
     1
 70
    58
 90
        2
176
     1
 90
        2
176
     1
 90
        1
176
     1
 90
        0
176
     1
 40
0.6
176
     1
 40
30.0
176
     1
 62
     7
420
 16777215
176
     1
 90
        1
176
     1
 90
        4
176
     1
 62
     7
176
     1
 62
   257
176
     1
 90
        7
176
     1
 90
        7
176
     1
 40
1.0
176
     1
 90
        8
176
     1
 62
     7
176
     1
 40
1.0
176
     1
 90
        1
176
     1
 90
        6
176
     1
 90
        2
176
     1
 62
     7
176
     1
 90
        5
176
     1
 90
        0
176
     1
 90
        0
176
     1
290
     0
176
     1
 90
        1
176
     1
 40
0.0
176
     1
 90
        0
176
     1
290
     0
176
     1
290
     1
176
     1
290
     1
176
     1
290
     0
176
     1
290
     0
176
     1
290
     0
176
     1
290
     0
176
     1
290
     0
176
     1
290
     0
176
     1
 90
       50
176
     1
 40
0.0
176
     1
 40
1.0
176
     1
 90
        0
176
     1
 62
    18
420
        0
176
     1
 90
       50
176
     1
 90
        3
176
     1
 62
     5
420
      255
176
     1
290
     0
176
     1
 90
       50
176
     1
 90
       50
176
     1
 90
       50
176
     1
290
     0
176
     1
 90
       50
176
     1
 62
   256
176
     0
 40
1.0
176
     0
 90
        2
176
     1
  1
strokes_ogs.tif
176
     1
290
     0
176
     1
 40
1.0
176
     1
 40
1.0
176
     1
  0
VISUALSTYLE
  5
1DC
102
{ACAD_REACTORS
330
E6
102
}
330
E6
100
AcDbVisualStyle
  2
OverhangOff
 70
    21
177
     3
291
     1
 70
    58
 90
        2
176
     0
 90
        2
176
     0
 90
        0
176
     0
 90
        0
176
     0
 40
0.6
176
     0
 40
30.0
176
     0
 62
     7
420
 16777215
176
     0
 90
        1
176
     0
 90
        4
176
     0
 62
     7
176
     0
 62
   257
176
     0
 90
        1
176
     0
 90
        1
176
     0
 40
1.0
176
     0
 90
        9
176
     2
 62
     7
176
     0
 40
1.0
176
     0
 90
        1
176
     0
 90
        6
176
     0
 90
        2
176
     0
 62
     7
176
     0
 90
        5
176
     0
 90
        0
176
     0
 90
        0
176
     0
290
     0
176
     0
 90
        1
176
     0
 40
0.0
176
     0
 90
        0
176
     0
290
     0
176
     1
290
     1
176
     1
290
     1
176
     1
290
     0
176
     1
290
     0
176
     1
290
     0
176
     1
290
     0
176
     1
290
     0
176
     1
290
     0
176
     1
 90
       50
176
     1
 40
0.0
176
     1
 40
1.0
176
     1
 90
        0
176
     1
 62
    18
420
        0
176
     1
 90
       50
176
     1
 90
        3
176
     1
 62
     5
420
      255
176
     1
290
     0
176
     1
 90
       50
176
     1
 90
       50
176
     1
 90
       50
176
     1
290
     0
176
     1
 90
       50
176
     1
 62
   256
176
     0
 40
1.0
176
     0
 90
        2
176
     1
  1
strokes_ogs.tif
176
     1
290
     0
176
     1
 40
1.0
176
     1
 40
1.0
176
     1
  0
VISUALSTYLE
  5
F0
102
{ACAD_REACTORS
330
E6
102
}
330
E6
100
AcDbVisualStyle
  2
Realistic
 70
     8
177
     3
291
     0
 70
    58
 90
        2
176
     1
 90
        3
176
     1
 90
        0
176
     1
 90
        2
176
     1
 40
0.6
176
     1
 40
30.0
176
     1
 62
     7
420
 16777215
176
     1
 90
        0
176
     1
 90
        0
176
     1
 62
     7
176
     1
 62
   257
176
     1
 90
        1
176
     1
 90
        1
176
     1
 40
1.0
176
     1
 90
        8
176
     1
 62
   257
176
     1
 40
1.0
176
     1
 90
        1
176
     1
 90
        6
176
     1
 90
        2
176
     1
 62
     7
176
     1
 90
        3
176
     1
 90
        0
176
     1
 90
        0
176
     1
290
     0
176
     1
 90
       13
176
     1
 40
0.0
176
     1
 90
        0
176
     1
290
     0
176
     1
290
     1
176
     1
290
     1
176
     1
290
     0
176
     1
290
     0
176
     1
290
     0
176
     1
290
     0
176
     1
290
     0
176
     1
290
     0
176
     1
 90
       50
176
     1
 40
0.0
176
     1
 40
1.0
176
     1
 90
        0
176
     1
 62
    18
420
        0
176
     1
 90
       50
176
     1
 90
        3
176
     1
 62
     5
420
      255
176
     1
290
     0
176
     1
 90
       50
176
     1
 90
       50
176
     1
 90
       50
176
     1
290
     0
176
     1
 90
       50
176
     1
 62
   256
176
     0
 40
1.0
176
     0
 90
        2
176
     1
  1
strokes_ogs.tif
176
     1
290
     0
176
     1
 40
1.0
176
     1
 40
1.0
176
     1
  0
VISUALSTYLE
  5
1EA
102
{ACAD_REACTORS
330
E6
102
}
330
E6
100
AcDbVisualStyle
  2
Shaded
 70
    27
177
     3
291
     0
 70
    58
 90
        2
176
     1
 90
        2
176
     1
 90
        1
176
     1
 90
        2
176
     1
 40
0.6
176
     1
 40
30.0
176
     1
 62
     7
420
 16777215
176
     1
 90
        0
176
     1
 90
        4
176
     1
 62
     7
176
     1
 62
   257
176
     1
 90
        1
176
     1
 90
        1
176
     1
 40
1.0
176
     1
 90
        8
176
     1
 62
   257
176
     1
 40
1.0
176
     1
 90
        1
176
     1
 90
        6
176
     1
 90
        2
176
     1
 62
     8
420
  7895160
176
     1
 90
        3
176
     1
 90
        0
176
     1
 90
        0
176
     1
290
     0
176
     1
 90
        5
176
     1
 40
0.0
176
     1
 90
        0
176
     1
290
     0
176
     1
290
     1
176
     1
290
     1
176
     1
290
     0
176
     1
290
     0
176
     1
290
     0
176
     1
290
     0
176
     1
290
     0
176
     1
290
     0
176
     1
 90
       50
176
     1
 40
0.0
176
     1
 40
1.0
176
     1
 90
        0
176
     1
 62
    18
420
        0
176
     1
 90
       50
176
     1
 90
        3
176
     1
 62
     5
420
      255
176
     1
290
     0
176
     1
 90
       50
176
     1
 90
       50
176
     1
 90
       50
176
     1
290
     0
176
     1
 90
       50
176
     1
 62
   256
176
     0
 40
1.0
176
     0
 90
        2
176
     1
  1
strokes_ogs.tif
176
     1
290
     0
176
     1
 40
1.0
176
     1
 40
1.0
176
     1
  0
VISUALSTYLE
  5
1E9
102
{ACAD_REACTORS
330
E6
102
}
330
E6
100
AcDbVisualStyle
  2
Shaded with edges
 70
    26
177
     3
291
     0
 70
    58
 90
        2
176
     1
 90
        2
176
     1
 90
        1
176
     1
 90
        2
176
     1
 40
0.6
176
     1
 40
30.0
176
     1
 62
     7
420
 16777215
176
     1
 90
        1
176
     1
 90
       10
176
     1
 62
     7
176
     1
 62
   257
176
     1
 90
        2
176
     1
 90
        1
176
     1
 40
1.0
176
     1
 90
        8
176
     1
 62
   257
176
     1
 40
1.0
176
     1
 90
        1
176
     1
 90
        6
176
     1
 90
        2
176
     1
 62
     7
176
     1
 90
        3
176
     1
 90
        0
176
     1
 90
        0
176
     1
290
     0
176
     1
 90
        5
176
     1
 40
0.0
176
     1
 90
        0
176
     1
290
     0
176
     1
290
     1
176
     1
290
     1
176
     1
290
     0
176
     1
290
     0
176
     1
290
     0
176
     1
290
     0
176
     1
290
     0
176
     1
290
     0
176
     1
 90
       50
176
     1
 40
0.0
176
     1
 40
1.0
176
     1
 90
        0
176
     1
 62
    18
420
        0
176
     1
 90
       50
176
     1
 90
        3
176
     1
 62
     5
420
      255
176
     1
290
     0
176
     1
 90
       50
176
     1
 90
       50
176
     1
 90
       50
176
     1
290
     0
176
     1
 90
       50
176
     1
 62
   256
176
     0
 40
1.0
176
     0
 90
        2
176
     1
  1
strokes_ogs.tif
176
     1
290
     0
176
     1
 40
1.0
176
     1
 40
1.0
176
     1
  0
VISUALSTYLE
  5
1E6
102
{ACAD_REACTORS
330
E6
102
}
330
E6
100
AcDbVisualStyle
  2
Shades of Gray
 70
    23
177
     3
291
     0
 70
    58
 90
        2
176
     1
 90
        2
176
     1
 90
        3
176
     1
 90
        0
176
     1
 40
0.6
176
     1
 40
30.0
176
     1
 62
     7
420
 16777215
176
     1
 90
        2
176
     1
 90
        2
176
     1
 62
     7
176
     1
 62
     7
176
     1
 90
        1
176
     1
 90
        1
176
     1
 40
40.0
176
     1
 90
        8
176
     1
 62
     7
176
     1
 40
1.0
176
     1
 90
        1
176
     1
 90
        6
176
     1
 90
        2
176
     1
 62
     7
176
     1
 90
        3
176
     1
 90
        0
176
     1
 90
        0
176
     1
290
     0
176
     1
 90
        1
176
     1
 40
0.0
176
     1
 90
        0
176
     1
290
     0
176
     1
290
     1
176
     1
290
     1
176
     1
290
     0
176
     1
290
     0
176
     1
290
     0
176
     1
290
     0
176
     1
290
     0
176
     1
290
     0
176
     1
 90
       50
176
     1
 40
0.0
176
     1
 40
1.0
176
     1
 90
        0
176
     1
 62
    18
420
        0
176
     1
 90
       50
176
     1
 90
        3
176
     1
 62
     5
420
      255
176
     1
290
     0
176
     1
 90
       50
176
     1
 90
       50
176
     1
 90
       50
176
     1
290
     0
176
     1
 90
       50
176
     1
 62
   256
176
     0
 40
1.0
176
     0
 90
        2
176
     1
  1
strokes_ogs.tif
176
     1
290
     0
176
     1
 40
1.0
176
     1
 40
1.0
176
     1
  0
VISUALSTYLE
  5
1E7
102
{ACAD_REACTORS
330
E6
102
}
330
E6
100
AcDbVisualStyle
  2
Sketchy
 70
    24
177
     3
291
     0
 70
    58
 90
        1
176
     1
 90
        2
176
     1
 90
        2
176
     1
 90
        0
176
     1
 40
0.6
176
     1
 40
30.0
176
     1
 62
     7
420
 16777215
176
     1
 90
        2
176
     1
 90
        2
176
     1
 62
     7
176
     1
 62
     7
176
     1
 90
        1
176
     1
 90
        1
176
     1
 40
40.0
176
     1
 90
       11
176
     1
 62
     7
176
     1
 40
1.0
176
     1
 90
        1
176
     1
 90
        6
176
     1
 90
        2
176
     1
 62
     7
176
     1
 90
        6
176
     1
 90
        0
176
     1
 90
        0
176
     1
290
     0
176
     1
 90
        1
176
     1
 40
0.0
176
     1
 90
        0
176
     1
290
     0
176
     1
290
     1
176
     1
290
     1
176
     1
290
     0
176
     1
290
     0
176
     1
290
     0
176
     1
290
     0
176
     1
290
     0
176
     1
290
     0
176
     1
 90
       50
176
     1
 40
0.0
176
     1
 40
1.0
176
     1
 90
        0
176
     1
 62
    18
420
        0
176
     1
 90
       50
176
     1
 90
        3
176
     1
 62
     5
420
      255
176
     1
290
     0
176
     1
 90
       50
176
     1
 90
       50
176
     1
 90
       50
176
     1
290
     0
176
     1
 90
       50
176
     1
 62
   256
176
     0
 40
1.0
176
     0
 90
        2
176
     1
  1
strokes_ogs.tif
176
     1
290
     0
176
     1
 40
1.0
176
     1
 40
1.0
176
     1
  0
VISUALSTYLE
  5
F3
102
{ACAD_REACTORS
330
E6
102
}
330
E6
100
AcDbVisualStyle
  2
Thicken
 70
    13
177
     3
291
     1
 70
    58
 90
        2
176
     1
 90
        2
176
     1
 90
        1
176
     1
 90
        0
176
     1
 40
0.6
176
     1
 40
30.0
176
     1
 62
     7
420
 16777215
176
     1
 90
        1
176
     1
 90
        4
176
     1
 62
     7
176
     1
 62
   257
176
     1
 90
        1
176
     1
 90
        1
176
     1
 40
1.0
176
     1
 90
       12
176
     1
 62
     7
176
     1
 40
1.0
176
     1
 90
        1
176
     1
 90
        6
176
     1
 90
        2
176
     1
 62
     7
176
     1
 90
        5
176
     1
 90
        0
176
     1
 90
        0
176
     1
290
     0
176
     1
 90
        1
176
     1
 40
0.0
176
     1
 90
        0
176
     1
290
     0
176
     1
290
     1
176
     1
290
     1
176
     1
290
     0
176
     1
290
     0
176
     1
290
     0
176
     1
290
     0
176
     1
290
     0
176
     1
290
     0
176
     1
 90
       50
176
     1
 40
0.0
176
     1
 40
1.0
176
     1
 90
        0
176
     1
 62
    18
420
        0
176
     1
 90
       50
176
     1
 90
        3
176
     1
 62
     5
420
      255
176
     1
290
     0
176
     1
 90
       50
176
     1
 90
       50
176
     1
 90
       50
176
     1
290
     0
176
     1
 90
       50
176
     1
 62
   256
176
     0
 40
1.0
176
     0
 90
        2
176
     1
  1
strokes_ogs.tif
176
     1
290
     0
176
     1
 40
1.0
176
     1
 40
1.0
176
     1
  0
VISUALSTYLE
  5
ED
102
{ACAD_REACTORS
330
E6
102
}
330
E6
100
AcDbVisualStyle
  2
Wireframe
 70
     5
177
     3
291
     0
 70
    58
 90
        0
176
     1
 90
        2
176
     1
 90
        0
176
     1
 90
        0
176
     1
 40
0.6
176
     1
 40
30.0
176
     1
 62
     7
420
 16777215
176
     1
 90
        1
176
     1
 90
        4
176
     1
 62
     7
176
     1
 62
   257
176
     1
 90
        1
176
     1
 90
        1
176
     1
 40
1.0
176
     1
 90
        0
176
     1
 62
   257
176
     1
 40
1.0
176
     1
 90
        1
176
     1
 90
        6
176
     1
 90
        2
176
     1
 62
     7
176
     1
 90
        3
176
     1
 90
        0
176
     1
 90
        0
176
     1
290
     0
176
     1
 90
        1
176
     1
 40
0.0
176
     1
 90
        0
176
     1
290
     0
176
     1
290
     1
176
     1
290
     1
176
     1
290
     0
176
     1
290
     0
176
     1
290
     0
176
     1
290
     0
176
     1
290
     0
176
     1
290
     0
176
     1
 90
       50
176
     1
 40
0.0
176
     1
 40
1.0
176
     1
 90
        0
176
     1
 62
    18
420
        0
176
     1
 90
       50
176
     1
 90
        3
176
     1
 62
     5
420
      255
176
     1
290
     0
176
     1
 90
       50
176
     1
 90
       50
176
     1
 90
       50
176
     1
290
     0
176
     1
 90
       50
176
     1
 62
   256
176
     0
 40
1.0
176
     0
 90
        2
176
     1
  1
strokes_ogs.tif
176
     1
290
     0
176
     1
 40
1.0
176
     1
 40
1.0
176
     1
  0
VISUALSTYLE
  5
1E8
102
{ACAD_REACTORS
330
E6
102
}
330
E6
100
AcDbVisualStyle
  2
X-Ray
 70
    25
177
     3
291
     0
 70
    58
 90
        2
176
     1
 90
        2
176
     1
 90
        1
176
     1
 90
        1
176
     1
 40
0.5
176
     1
 40
30.0
176
     1
 62
     7
420
 16777215
176
     1
 90
        1
176
     1
 90
        0
176
     1
 62
     7
176
     1
 62
   257
176
     1
 90
        1
176
     1
 90
        1
176
     1
 40
1.0
176
     1
 90
        8
176
     1
 62
     7
176
     1
 40
1.0
176
     1
 90
        1
176
     1
 90
        6
176
     1
 90
        2
176
     1
 62
     7
176
     1
 90
        3
176
     1
 90
        0
176
     1
 90
        0
176
     1
290
     0
176
     1
 90
       13
176
     1
 40
0.0
176
     1
 90
        0
176
     1
290
     0
176
     1
290
     1
176
     1
290
     1
176
     1
290
     0
176
     1
290
     0
176
     1
290
     0
176
     1
290
     0
176
     1
290
     0
176
     1
290
     0
176
     1
 90
       50
176
     1
 40
0.0
176
     1
 40
1.0
176
     1
 90
        0
176
     1
 62
    18
420
        0
176
     1
 90
       50
176
     1
 90
        3
176
     1
 62
     5
420
      255
176
     1
290
     0
176
     1
 90
       50
176
     1
 90
       50
176
     1
 90
       50
176
     1
290
     0
176
     1
 90
       50
176
     1
 62
   256
176
     0
 40
1.0
176
     0
 90
        2
176
     1
  1
strokes_ogs.tif
176
     1
290
     0
176
     1
 40
1.0
176
     1
 40
1.0
176
     1
  0
DICTIONARYVAR
  5
13D
102
{ACAD_REACTORS
330
67
102
}
330
67
100
DictionaryVariables
280
     0
  1
1:1
  0
DICTIONARYVAR
  5
13C
102
{ACAD_REACTORS
330
67
102
}
330
67
100
DictionaryVariables
280
     0
  1
STANDARD
  0
DICTIONARYVAR
  5
C5
102
{ACAD_REACTORS
330
67
102
}
330
67
100
DictionaryVariables
280
     0
  1
STANDARD
  0
DICTIONARYVAR
  5
21E
102
{ACAD_REACTORS
330
67
102
}
330
67
100
DictionaryVariables
280
     0
  1
Metric50
  0
DICTIONARYVAR
  5
21F
102
{ACAD_REACTORS
330
67
102
}
330
67
100
DictionaryVariables
280
     0
  1
Metric50
  0
DICTIONARYVAR
  5
68
102
{ACAD_REACTORS
330
67
102
}
330
67
100
DictionaryVariables
280
     0
  1
2
  0
DICTIONARYVAR
  5
DA8
102
{ACAD_REACTORS
330
67
102
}
330
67
100
DictionaryVariables
280
     0
  1
2
  0
DICTIONARYVAR
  5
6C
102
{ACAD_REACTORS
330
67
102
}
330
67
100
DictionaryVariables
280
     0
  1
1
  0
DICTIONARYVAR
  5
1A5
102
{ACAD_REACTORS
330
67
102
}
330
67
100
DictionaryVariables
280
     0
  1
0
  0
DICTIONARYVAR
  5
1A6
102
{ACAD_REACTORS
330
67
102
}
330
67
100
DictionaryVariables
280
     0
  1
0
  0
DICTIONARY
  5
22D
330
213
100
AcDbDictionary
280
     1
281
     1
  3
ACAD_XREC_ROUNDTRIP
360
2E43
  0
DICTIONARY
  5
1FC
330
22
100
AcDbDictionary
280
     1
281
     1
  3
AcPublish_PlotSettingsOverride
360
DA7
  0
DICTIONARY
  5
1F0
330
E4
100
AcDbDictionary
280
     1
281
     1
  3
FBXASSET
360
1F1
  0
DICTIONARY
  5
1EE
330
E3
100
AcDbDictionary
280
     1
281
     1
  3
FBXASSET
360
1EF
  0
DICTIONARY
  5
16A
330
E5
100
AcDbDictionary
280
     1
281
     1
  3
BUMPTILE
360
16C
  3
DIFFUSETILE
360
16B
  3
FBXASSET
360
1F2
  3
OPACITYTILE
360
16D
  3
REFLECTIONTILE
360
16E
  0
DICTIONARY
  5
22B
330
211
100
AcDbDictionary
280
     1
281
     1
  3
ACAD_XREC_ROUNDTRIP
360
2E42
  0
DICTIONARY
  5
159
330
98
100
AcDbDictionary
280
     1
281
     1
  3
ACAD_ROUNDTRIP_2008_TABLESTYLE_CELLSTYLEMAP
360
2E41
  0
XRECORD
  5
2E43
102
{ACAD_REACTORS
330
22D
102
}
330
22D
100
AcDbXrecord
280
     1
102
DISPLAYNAME
  1
Metric50
102
FLAGS
 90
        0
  0
PLOTSETTINGS
  5
DA7
102
{ACAD_REACTORS
330
1FC
102
}
330
1FC
100
AcDbPlotSettings
  1

  2
Kyocera TASKalfa 3050ci(J) KX
  4
ANSI_A_(8.50_x_11.00_Inches)
  6

 40
4.984749794006347
 41
5.111724853515625
 42
5.154083251953125
 43
4.9847412109375
 44
297.0106506347656
 45
419.9889831542968
 46
0.0
 47
0.0
 48
33316.24093491148
 49
28289.23237812787
140
34996.24093491148
141
29477.23237812787
142
1.0
143
1.0
 70
 11952
 72
     1
 73
     1
 74
     4
  7

 75
    16
147
1.0
 76
     0
 77
     2
 78
   300
148
-33316.24093491148
149
-28289.23237812787
1001
ACAD_PSEXT
1000
Kyocera TASKalfa 3050ci(J) KX
1000
Kyocera TASKalfa 3050ci(J) KX
1000
192.168.11.123
1000

1070
     0
  0
XRECORD
  5
1F1
102
{ACAD_REACTORS
330
1F0
102
}
330
1F0
100
AcDbXrecord
280
     1
 70
     1
 90
429727718
  1
F226E010-5D7B-4EF0-9E0F-00A2E58668EA
310
504B03040A0000080000C270623B3DEE336E79000000790000001B0000006175746F6465736B2D64657369676E2D7061636B6167652E786D6C3C3F786D6C2076657273696F6E3D22312E302220656E636F64696E673D227574662D3822203F3E3C666F726D6174733E3C666F726D61743E687474703A2F2F736368656D612E
310
6175746F6465736B2E636F6D2F64657369676E2D7061636B6167652F323030393C2F666F726D61743E3C2F666F726D6174733E504B0304140006080800C270623BD486FD9CA0000000F4000000130000005B436F6E74656E745F54797065735D2E786D6C7D8EC10E82300C865F65E91D8A1E8C310C0EEA1BF002731658846E
310
D98AC1B77784ABF1D8FE5FBFBF75BBCE937A534CCEB38643598122B6FEE978D0B0485F9C41B54DDD7D022595594E1A469170414C76A4D9A4D207E29CF43ECE46F218070CC6BECC4078ACAA135ACF422C856C0E68EA1BF5669944DDD7BCDE7B1F8E415D77AECB980613C2E4AC91FC167A2B244592486606FC29C8FD7F045B9A
310
EF7053A7E60B504B0304140006080800C270623B132FA9F8EA0000007C01000008000000636F72652E786D6C8D90DD6EC3200C855F05F976223169D2D18850ADDDF6047B010434436D200A30EDF147FA236D77BBB2757C3EDB3A62FF3D5DC8975DA20B7E00562110EB7530CE8F03E474A21CC85E8A2584F4CB06C4ABC90EB0
310
CA20C5B8843CDF251D7CB23E15D50763EFA28AD12620FA529A01A2FEB493AA544EC511CFD5ACF4598DB6628FAEC0393B436E479C29FBDCC9D905E486BFBF1D5ED8336D78D7D2961F90F2233FD2572C8316D9B6EB1A51AFB014C94D8FFB7AB12A5903B241DC51C628361FACED71DB63FB84BC4714F56AFF03E5D9FC13CACEA7
310
4D737FF7864590AC3C721D4851AF5994720DAAD43537F903504B0304140006080800C270623B55019EA25F0000007C00000007000000636E782E786D6C4DCB3B0E80201045D1AD90E915ED2CF8AC45050C11660C8261F98AB1B07AC9C97D42D718D865D3E909258CFD00CCE24AC6E326A164D74DC0B4128928FF326038472B
310
A13128B1252AC747C6BAB984FC68F0B87FE8960A5C09FE86CFB69FBA01504B0304140006080800C270623B0B97CEAB6F010000D40300000C0000006662782F636F72652E786D6CC553ED6E8320147D15C2DF05416B3BD720CDDA6D4FB017A04A1DA98241307DFC5D3F9AAE4BB774BFE60F25E7DCCB3DE7207C736A6AD42BD7
310
696B721C470C23650A5B6A53E538F803C930DA08EEACF55FCA3032B251391E602C78E56C6867A8B0C62BE30135B6543328BB4E798C8A1A1639EE8A0FD5C848060F15DD316A657194958AE20868A813BCF30E04A069C8F0C6E2B03F713AE18287A0CB99D5254CD307AD1C168BECED75FB1C3F92245BA624CDB68C64BB6C475E
310
1810298B57CB65C2E9D02CB8D7CD595DE194F4AAC42261EC89C43161C97B9CAED96ACDD20796AD19E37428BF6A0A6D796753D0C62F9259EED4D66111839091F8E61622F2A8933DE8A182D32144F88C095F070D8140C85EEEEBB38F2340BD2ABC752930A50D17AA9775503095456C7CD0CF0B4EA74E983A6E0EAE6FCE48EE9E
310
F1FB8E70D4D25460427A58EE831F74F249C31C5AAB1CE9FD0919EB1A59DF67E317877FA22EE26F4A2A6C6DDD7F29A2F301D1F9F7A0C37D149F504B0304140006080800C270623BD9317DDA7D0000009D0000000B0000006662782F636E782E786D6C4DCCD10AC2201886E15B91FFDC966B53037588D27D8CE686E4344CA3CB
310
6F8B1D74F4C1C3C72B86CF1AD0DBE5974F5102399D01B9784F938F8B845A66CC010D4AE494CADF0D501C572761675062C9A93E0F9ADC3CD650360D3E3E0E34BDE1DA901EDFAE96E18ED00E6BC65A6C29B78651DEB28B864689E657DA760FAB2F504B0304140006080800C270623B609261632A010000120200003100000066
310
62782F43354338414331352D463944372D343136342D413737322D4436384443373638323733412F636F72652E786D6C8D515B6EC32010BC0AE22B55850D0E7E24C24491A39EA0172086A42831583CAA1CBF503B52FB971F16CDCECC0E2C3B3CA63BF856CE6B6B7A480A0C8132A395DA5C7B18C30575101C3873D6863F3408
310
8C98540F330C39BB3A1BE7151AAD09CA84841A2BD50A0AEF558060BCA74B0FFDF8A52651881812C3DF8A598C3771550529523BF138F3C1A5006019924FC8877AE88E03A9D1C7EED4224A1A8A8E6D5BA153D39D86B6E9AA767B64E522E42C462D57B996298EBE68E55E35C962CE829E9EF147A7445012F20AE31D2204E1EA93
310
D03D6EF698BEE36E8F312B33FD9F28CEF24551D4266CAB35EE22F39013562E0DCEA48DE7FB338C7ACCD60590E76DBC1ADF20C705C635D951562EC4F4FCE4D8D0D5D107EBD2F76E6EE7C425F562DB50CECABCA1547ED7976ADE26FF01504B0304140006080800C270623BAB1CAE584E01000033030000300000006662782F43
310
354338414331352D463944372D343136342D413737322D4436384443373638323733412F636E782E786D6CD593CD6EC32010845F0571AD6CE3D48AD20813A9873E410FBD12D82434182C7EAAE6EDBB2424CD25871E7B41D6EC30B3FA84F9E67BB2E40B4234DE8DB46F1925E094D7C6ED479AD3AE5951B2113C789FEE6C9438
310
39C1488B4C05DF079FE72A69D8C96C13AAD6B8631503449F83828872B949AC57D26200B826A308D316B4064D6E46FCDA41C05550DC9E483A00797BFD207EFB092A45DE9514C1BBD22178396BD39D891265658C238DEA00936C654E5E433CB65A26D9F6EDB5EBC14EBF49A45CB856E66048291F6939A9A81BB5C8917738143C
310
A680F4AA299D66A042CEB3354A2684DC9D8D178FE0D9B8B41CAAD720F880EE7EF93C0C18769E099ECC04D5A102C8049A8A05632F4DDF376CF1DE0F6BB65CB3E189ADD68CF1AED805DF7A6FEB258C81E067A2BC4BE012153DEFCAF811BEEA23DA0464EDC3E90F2011406DBDD0B965FC673EDDF97D23AE807F81F801504B0304
310
140006080800C270623BCB23EE24670500003C100000340000006662782F43354338414331352D463944372D343136342D413737322D4436384443373638323733412F6F626A656374732E786D6CAD575B8F9B3818FD2B887DE69664A6332B866A72ABA26ADAAA51AB7D182932E030EC0046B69966F6D7EF31180224D3662F
310
7908D8D8DFF57CC79FFDF7873C335E2817292BEE4CCF764D8316118BD322B9332BB9B76E4CE37DE073C6646F99691424A777A69A36033FE1AC2AF5544CF7A4CAE468763DFFC310112DA869441911E2CE14D113CD894D2AC9622A9EED98486227FB83EDD9CDC2A1D88493F26924B4249C16129662BE8014A331CA1B0E5DD309
310
7C477D0F7CF5AF574DDF5EE5D4FE0CF5A78590A4884E948DC44CBDD97235B9BAB5AE66B3A935BB9E78D67C3D5F5ADEBBA9BBB85E2C6EEF57B7502C2487246D09A77B33F880D8F034F29DE65367B136FC9C49112B0A1AD5FEC3C3DA662D31A6252D62E431A502DA7A5EBBC3A1A762D3FB3C5563ADB23F7D9957FD1D3D41ADED
310
EDB36F290BFF840BE21254704115AA9AF868471BFCB9C7A8858C65FA5B2A8C9C48CA539219591A72C25FCD004BD592C01F8851E8E40AE1CA0333F08EF2FAB6A2347E8DDD7356EEAB2C53D034831AD93BE09F4A515B96FE45F9796DB009B9AAD242DE6887E46B49CDE0D677EAC9C0578FE9447F6C0269EC339220E570B3F93A
310
7274A16A6FB334838FEBF0B055F5785E79C95949B954F001B4DAC4B54F1525ADD6BB28736A039C19C4FC1894AF88FC2794EFD114E48DA787D961A6B5484E0AB1673C476E6CB7FE196EFB62756FA72FE0B3D1EAD335DDCCBF5AEC3B9DB143C2782B7F00974ACDCD7FCFDF30667DA4F6D217F82F2830C6A73A94DB8864A09E87
310
B4404214288D8C610A5CBE0F0F66B0015382D9B18B644117909317DF79C177FC37B2C156B5FADEB34042477C7B01F323967559C0B637C072C293B562EDDC5B31BFFA5F6AE67EB9FDB8ADF89E44F44113CB92EED32295383B8FE0ED1B3448C4C0A367FAFA83F1188E9E2661DB4F42AE5509445BC55C053E690F0B35386A1E28
310
88B02F618AF3FC5F6878484544B38C149455AD96EE185258ED4846F709A8C226A0D3C908C59CBEA4AA9318AC189885B33EE269A942D61D7A1D4FDB6FF8F26DF309A03483F9EB1C687D3EAE0A8F741FB18CF15DF8BA6B98D004F8B06788EEEF4378EB883A4A0A105F63B9A51C1DE25D9CEEF79500EF9E89E2F7CDA29FA98E48
310
4E5FDA026A35363539033BA3F608D7F06D75A221E004073B2B76298E7194E559E57DDD6305A296FB86FCB0CACB1DC95955C84BC2E4B6FEB4D677C2FB5D8CF84164F46406DBFA69CD41D9318D8FA91AA0401D41677C1AA4673D995CAF5CCFB5AE96EFE6D66CB576ADDB95BBB65CF77EB2BABAB9BEBE59DD7716D596047E7B42
310
F56B10D1C489E8573CD561FEB63996AD193C10299C0F4D413949F3FCB6B1D116FB0EF600E0DDC64D5E6634A785240ABE0FEA25FB4AD0550C6434F39B9C24F402299F3F6C473660E6827D5F54A9D11FA3BD7A76A16AE1AC10F954E56141D26CB4513B6E9745A2DD6E43D93D1B466F876AA4E3893E54B02C8D4138B191509653
310
09DAB980ED794E0510D3EFCA637D7BB860F74BD30F4A1266B4B5E489A025CE04500DB855911CCE1BBFA185535DD49D89C3CE7EC69F2E44D340AAEF4CF09B4C232AEC10C7A36A7C6AE18000BAB08E0401355224193AEB665337EE76A9D8807E70026AFDDD924BBA25EDD7807873529638B507B45ADBA61544FFC8F1D61C8348
310
BC8695EC7C394E74CED46A50598D53FA6E8016E259AB3EA0BE7EEE9667D76B0611B9E89EF4531034522D497852DF0B947DDAA4FBE51707AD80B1F96C9459952097974BB23805982B55E0401150A165964402AA8BDF1FBF7086BB686EAC5340E071C1F29C157A70AFEFB2C6F60937D3F811B440D5F5434C5CCF7BACBB7E7D11
310
D98544509BC4E219136DC1290F465803204F8E539D0247E560B47CB334F4813183D01AB4274D69730D37503CEAE6A84AA54F96E54F1B7FA75E0A3070B4ECC1DF504B0304140006080000C270623B000000000000000000000000350000006662782F43354338414331352D463944372D343136342D413737322D4436384443
310
373638323733412F76657274696365732E62696E504B0304140006080800C270623BF270F1330600000004000000360000006662782F43354338414331352D463944372D343136342D413737322D4436384443373638323733412F747269616E676C65732E62696E636660600000504B0304140006080000C270623B000000
310
000000000000000000370000006662782F43354338414331352D463944372D343136342D413737322D4436384443373638323733412F617474726962757465732E62696E504B0304140006080800C270623B08DA0BD19000000041010000360000006662782F43354338414331352D463944372D343136342D413737322D44
310
36384443373638323733412F6469726563746F72792E786D6C858F410AC3201045AF22B36F53E9A60B35CBEEBAE80D244E44489C6234F4F835464A48035D0DF398FF9F8AF63D0E6CC63039F212F8F9020C7D47C6792B21C5FE7403D62A1188E2E60C98D7234A5830286103A55745067B9D86B8A3CF9C7F90C11DE607FB1443
310
96D7B6A82D282E9A152AD114D5EF2CB866EEE831B8EEA07A7BB5A8D7D61A2BAAEB7FD5F70921FF497D00504B0304140006080800C270623B00848760FC000000A00100003B0000006662782F43354338414331352D463944372D343136342D413737322D4436384443373638323733412F7265736F75726365732F636F7265
310
2E786D6C8D504B6E833010BD0A9A6D65B009201719474DDA9EA017B0CC84580936F2A7EAF16B0295DA5D3733A3F7D13C3D71FC9AEFC527FA609C1D8095140AB4DA8DC64E03A478211C8AA314DEB9F84B068555330EB0C220C5E45D5A76483B1BD1C68C5A37E20EAA103042A1EFF91820E82BCEAA54296645B8958BD2373561
310
C9CA4C679D1421FA1CA0D89EAC13A4C7E092D71844B5B152A464C65D63C6FCD35C0C7A9007FEFE767A611DA979DB90869F28E1677E26AF34130D655DDBD6A25ACD524433FF64D41E55C411644DE933618CD0FA83353DED7ADA3C51DE532AAA55FEC79496F19FA6646C3CD47BDCCD1640B21CE4414851AD7DE5F52833EFB55B
310
F90D504B010214000A0000080000C270623B3DEE336E79000000790000001B00000000000000000000000000000000006175746F6465736B2D64657369676E2D7061636B6167652E786D6C504B01021400140006080800C270623BD486FD9CA0000000F40000001300000000000000000000000000B20000005B436F6E7465
310
6E745F54797065735D2E786D6C504B01021400140006080800C270623B132FA9F8EA0000007C010000080000000000000000000000000083010000636F72652E786D6C504B01021400140006080800C270623B55019EA25F0000007C000000070000000000000000000000000093020000636E782E786D6C504B0102140014
310
0006080800C270623B0B97CEAB6F010000D40300000C00000000000000000000000000170300006662782F636F72652E786D6C504B01021400140006080800C270623BD9317DDA7D0000009D0000000B00000000000000000000000000B00400006662782F636E782E786D6C504B01021400140006080800C270623B609261
310
632A010000120200003100000000000000000000000000560500006662782F43354338414331352D463944372D343136342D413737322D4436384443373638323733412F636F72652E786D6C504B01021400140006080800C270623BAB1CAE584E010000330300003000000000000000000000000000CF0600006662782F43
310
354338414331352D463944372D343136342D413737322D4436384443373638323733412F636E782E786D6C504B01021400140006080800C270623BCB23EE24670500003C10000034000000000000000000000000006B0800006662782F43354338414331352D463944372D343136342D413737322D44363844433736383237
310
33412F6F626A656374732E786D6C504B01021400140006080000C270623B0000000000000000000000003500000000000000000000000000240E00006662782F43354338414331352D463944372D343136342D413737322D4436384443373638323733412F76657274696365732E62696E504B01021400140006080800C270
310
623BF270F13306000000040000003600000000000000000000000000770E00006662782F43354338414331352D463944372D343136342D413737322D4436384443373638323733412F747269616E676C65732E62696E504B01021400140006080000C270623B00000000000000000000000037000000000000000000000000
310
00D10E00006662782F43354338414331352D463944372D343136342D413737322D4436384443373638323733412F617474726962757465732E62696E504B01021400140006080800C270623B08DA0BD190000000410100003600000000000000000000000000260F00006662782F43354338414331352D463944372D343136
310
342D413737322D4436384443373638323733412F6469726563746F72792E786D6C504B01021400140006080800C270623B00848760FC000000A00100003B000000000000000000000000000A1000006662782F43354338414331352D463944372D343136342D413737322D4436384443373638323733412F7265736F757263
310
65732F636F72652E786D6C504B0506000000000E000E00800400005F1100000000
  0
XRECORD
  5
1EF
102
{ACAD_REACTORS
330
1EE
102
}
330
1EE
100
AcDbXrecord
280
     1
 70
     1
 90
429727718
  1
E2304D28-6187-4406-84E4-1B0A0969D8AC
310
504B03040A0000080000C270623B3DEE336E79000000790000001B0000006175746F6465736B2D64657369676E2D7061636B6167652E786D6C3C3F786D6C2076657273696F6E3D22312E302220656E636F64696E673D227574662D3822203F3E3C666F726D6174733E3C666F726D61743E687474703A2F2F736368656D612E
310
6175746F6465736B2E636F6D2F64657369676E2D7061636B6167652F323030393C2F666F726D61743E3C2F666F726D6174733E504B0304140006080800C270623BD486FD9CA0000000F4000000130000005B436F6E74656E745F54797065735D2E786D6C7D8EC10E82300C865F65E91D8A1E8C310C0EEA1BF002731658846E
310
D98AC1B77784ABF1D8FE5FBFBF75BBCE937A534CCEB38643598122B6FEE978D0B0485F9C41B54DDD7D022595594E1A469170414C76A4D9A4D207E29CF43ECE46F218070CC6BECC4078ACAA135ACF422C856C0E68EA1BF5669944DDD7BCDE7B1F8E415D77AECB980613C2E4AC91FC167A2B244592486606FC29C8FD7F045B9A
310
EF7053A7E60B504B0304140006080800C270623B6C505844EA0000007C01000008000000636F72652E786D6C8D90416EC3201045AF82665B61834B1DC7C244B5EB1BF402088883128365A0EAF18B13476A775DCDE8CF7F33A3CF4FDFF30D7D993558EF3AA00501649CF2DABAA98314CFB80174127CF53EFEB2017272361D6C
310
32083EAD3E2DBBA4BC8BC6C5AC3AAFCD2ECA104C04A46EB9E920A88B99652153CC8E702D16A9AE7232057D76194EC96AF4386275DE67CFD6AC20081DC7633D50FCC1688F197BA3F8FD30F6781846D2B3C3D83475C5CB0D163CDAF9795FAD4646A34154841C31A598549F94B5A46E097B214D4B082F37FB1F282DFA9F50B22E
310
BE56FBBB0F2C80A0F991FB40F072CB22977B50B96EB9891F504B0304140006080800C270623B55019EA25F0000007C00000007000000636E782E786D6C4DCB3B0E80201045D1AD90E915ED2CF8AC45050C11660C8261F98AB1B07AC9C97D42D718D865D3E909258CFD00CCE24AC6E326A164D74DC0B4128928FF326038472B
310
A13128B1252AC747C6BAB984FC68F0B87FE8960A5C09FE86CFB69FBA01504B0304140006080800C270623B85AE40E170010000D40300000C0000006662782F636F72652E786D6CC553ED6E8320147D15C2DF4501E7FA15A4593BDF602F40913A53058360FAF8BB7E345D976EE97ECD1F4ACEB9977BCE41F8F6DCD4A8D7AEAB
310
ACC9308B2946DA285B54A6CC70F0C76885D1567067ADFF528691918DCEF00063C14B67433B43CA1AAF8D07D4D842CFA0EC3AED3152352C32DCA90FDDC858060F15DD296EA53AC952C72C061AEA04EFBC0301681A32BCB1381ECE9C4CB8E02154C5CC56054CAB8E9576585096E7EBC59E456F29DB4569FAC2A2D765BE8BF6FB
310
9CEED265BE5A2D124E8666C17DD55CD429A7A5D7051609A5EB88B18826EF2CDDD0C586A64F74B5A19493A1FCA629B4C5834DA132FE3999E54E6D1D160C848CC437B71091479DEC410F119C0C21C2674CF83668080442F6F2505F7C9C00EAB5F2D6A5C014365CA95ED641C3541AD3F1413F2F38993A61EAB839B8BE3B237978
310
C6EF3BC2514B538209E96179087ED0C9270D7368AD7651EFCFC858D7C8FA311BBF38FC1375157F5792B2B575FFA588CC0744E6DF830CF7517C02504B0304140006080800C270623BD959F09C7C0000009D0000000B0000006662782F636E782E786D6C4DCCD10A83201886E15B91FFDC4A2BF0400D0BBD8F581632D3E13476
310
F9ABD1C18E3E78F878F9F0D93D3A6C7ABB180490AA0164C3232E2E6C024A5E310334489E62CC7F374061DEAD808B41F22DC5F2BA69B1EB5C7C3ED5BBF0BCB11F29514A1BACD44471C74C8BC7C968CC28D13D316DC71A06B5E4F5AF74EE15965F504B0304140006080800C270623BD97BE6F829010000120200003100000066
310
62782F35423231414145462D414143322D343846332D424346452D3832314535314633343830382F636F72652E786D6C8D515B6EC32010BC0AE22B55850D0E8EDC081339517C825E8018E2A2C460F1A872FC42ED48ED5F7E58343B333BB0ECF098EEE05B39AFAD6921293004CA0C566A33B630862B6A203870E6AC0D7F6810
310
1831A916661872363A1BE7151AAC09CA84841A2BD50A0AEF558060B8A74B0BFDF0A52651881812C3DF8A590C3731AA8214A99D789CF9E05200B00CC927E4F5B1225D77EE51D79D2A449B7E8B8EA7FE8C9A8A9C6BD26F69831B562E42CE62D472956B99E2E8AB56EE55932CE62CE8E9197F704A042521AF30FE4084205C7D12
310
BAC7BB3DA6EFB8D963CCCA4CFF278AB37C5114B509DB6A8DBBC83CE484954B833369E3E5FE0CA31EB37501E4791BAF8637C87181714D680AB110D3F393E38EAE8E3E5897BE7773BB242EA917DB1DE5ACCC1B4AE5777DA9E66DF21F504B0304140006080800C270623BAB1CAE584E01000033030000300000006662782F3542
310
3231414145462D414143322D343846332D424346452D3832314535314633343830382F636E782E786D6CD593CD6EC32010845F0571AD6CE3D48AD20813A9873E410FBD12D82434182C7EAAE6EDBB2424CD25871E7B41D6EC30B3FA84F9E67BB2E40B4234DE8DB46F1925E094D7C6ED479AD3AE5951B2113C789FEE6C943839
310
C1488B4C05DF079FE72A69D8C96C13AAD6B8631503449F83828872B949AC57D26200B826A308D316B4064D6E46FCDA41C05550DC9E483A00797BFD207EFB092A45DE9514C1BBD22178396BD39D891265658C238DEA00936C654E5E433CB65A26D9F6EDB5EBC14EBF49A45CB856E66048291F6939A9A81BB5C8917738143CA6
310
80F4AA299D66A042CEB3354A2684DC9D8D178FE0D9B8B41CAAD720F880EE7EF93C0C18769E099ECC04D5A102C8049A8A05632F4DDF376CF1DE0F6BB65CB3E189ADD68CF1AED805DF7A6FEB258C81E067A2BC4BE012153DEFCAF811BEEA23DA0464EDC3E90F2011406DBDD0B965FC673EDDF97D23AE807F81F801504B030414
310
0006080800C270623B086A6785630500003C100000340000006662782F35423231414145462D414143322D343846332D424346452D3832314535314633343830382F6F626A656374732E786D6CAD575D739B3814FD2B0CFB0C189BA4CE0EA193D849C6D34DDBA9A79D7DC88C47804CD8006224913AFDF57B040203B65BEF87
310
1F0C12D2FD3CF7E8CA7FBFCB33E3957291B2E2DA74ED8969D02262715A24D76625B7D6DC34DE073E674CF696994641727A6DAA6933F013CEAA524FC5744BAA4C8E66EF6FFF3444440B6A1A514684B83645F44C7362934AB2988A173B2692D8C97667BB76B3702836E1A47C1E092D09A78584A5982F20C5688C7287C389E904
310
BEA3BE07BEFAD7AB66A75739B53F43FD69212429A20365233133D75BDE4D2FAEAC0BCF9B59DEE5D4B56EEF6F9796FB6E36595C2E1657377757502C2487246D09A75B3378406C781AF94EF3A9B3581B7ECCA48815058D6AFFE1616DB39618D3921631F29852016D3DAF27C3A1AB62D3FB3C5363ADB23F7D9E57FD1D3D41ADED
310
EDB36F290BFF820BE21C54704115AA9AF868471BFC4DF6510B19CBF4B75418399194A72433B234E484BF990196AA25813F10A3D0C915C2950766E0EEE5F56D4569FC1ABBC7ACDC5659A6A0690635B237C03F95A2B62CFD41F9716DB009B9AAD242CEB543F2ADA46670E53BF564E0ABC76CAA3F368134B619499072B8D97C1D
310
39BA50B5B75A9AC187FB70B756F5785C79C95949B954F001B4DAC4B54F1525ADD63D2B736A039C19C47C1F942F88FC4794EFDE14E48DA73B6FE7692D9293426C19CF911B7B52FF8C49FB62756F872FE0B3D1EAC335DDCCBF5AEC3B9DB143C238953F804BA566FEDFF3378C591FA9BDF405FE2B0A8CF1990EE53A2219A8E731
310
2D9010054A23639802976FC39D19ACC0946076EC2259D005E4E0C5775EF11DFF8D6CB055ADBEF72C90D011DF9EC1FC88655D16B0ED04580E78B256AC9D3B15F38BFFA5666E96EB0FEB8A6F49441F35B12CE9362D5289B3730FDEBE4183440C3C7AA16FDF198FE1E86112D6FD24E45A9540B455CC55E093F6B05083BDE68182
310
08FB12A638CFFF8586C7544434CB484159D56AE98E2185D58E64749F802A6C023A9B8E50CCE96BAA3A89C18A815938EB239E962A64DDA1D7F1B47DC297AFAB8F00A519DCBEFD41DEFA8419EEE93E6219E39BF06DD330A109F061CF10DDDF86F0D61175941420BEC6724B393AC49B38DD6E2B01DE3D12C56FAB453F531D911C
310
BEB405D46A6C6AD2033BA3F608D7F06D75A221E004073B2B36298E7194E551E57DDD6305A2967B427E58E5E586E4AC2AE439619AB4FEB4D677C2FB5D8CF84E64F46C06EBFA69DD82B2631A9F48A83A828EF83448CFDD7436F196D3B975E9CEDF599E37B9B4E6DE9D67B9B7939BC9D5E5D5727E83F00F2BA03DA1FA358868E2
310
44F42B9EEA307F5DEDCBD60C1E8914CE4353504ED23CBFAE6CB4C5BE833D0078B771959719CD69218982EFA37AC9BE1074150319CDFC2A27093D43CAA787F5C806CC9CB1EFB32A35FA7DB457CF2E542D1C15229FAB3C2C489A8D366AC7EDB248B4DB6D28BB67C3E8ED508D743CD1870A96A53108273612CA722A413B67B03D
310
CFA90062FA5D79AC6F0F67EC7E6DFA4149C28CB6963C13B4C49900AA413A552487F3C66F68E15417756DE2B0B35FF0A70BD13490EA6B13FC26D3880A3BC4F1A81A9F5A3820802EAC2341809E144986CEBAD9D48DBB5D2A36A01F9C805A7FB7E49C6E49FB3520DE9C94254EED01ADD6B66905D13F72BC35C72012AF61253B5F
310
F6139D33B59A005C0377BA075A8817AD7A87FAFAB95BAE5DAF1944E4AC7BD24F41D048B524E1497D2F5041D726DD2C3F3B68058CD527A3CCAA04B93C5F92C529C05CA902078A800A2DB32412505DFCFEF49933DC4573E33E05049E162CCF59A10737FA2E6BAC9F71338D9F400B545D3FC474E2BA4F75D7AF2F229B90086A93
310
58BC60A22D38E5C1086B00E4C171AAAF678ECAC168F96A69E803C383D01AB4074D69730D37503CEAE6A84AA54F96E54F1B7FA75E0A1470B4ECC1DF504B0304140006080000C270623B000000000000000000000000350000006662782F35423231414145462D414143322D343846332D424346452D38323145353146333438
310
30382F76657274696365732E62696E504B0304140006080800C270623BF270F1330600000004000000360000006662782F35423231414145462D414143322D343846332D424346452D3832314535314633343830382F747269616E676C65732E62696E636660600000504B0304140006080000C270623B0000000000000000
310
00000000370000006662782F35423231414145462D414143322D343846332D424346452D3832314535314633343830382F617474726962757465732E62696E504B0304140006080800C270623B08DA0BD19000000041010000360000006662782F35423231414145462D414143322D343846332D424346452D383231453531
310
4633343830382F6469726563746F72792E786D6C858F410AC3201045AF22B36F53E9A60B35CBEEBAE80D244E44489C6234F4F835464A48035D0DF398FF9F8AF63D0E6CC63039F212F8F9020C7D47C6792B21C5FE7403D62A1188E2E60C98D7234A5830286103A55745067B9D86B8A3CF9C7F90C11DE607FB144396D7B6A82D
310
282E9A152AD114D5EF2CB866EEE831B8EEA07A7BB5A8D7D61A2BAAEB7FD5F70921FF497D00504B0304140006080800C270623B7FFB76DCFC000000A00100003B0000006662782F35423231414145462D414143322D343846332D424346452D3832314535314633343830382F7265736F75726365732F636F72652E786D6C8D
310
504B6E833010BD0A9A6D65B029250419478572835EC032136A25D8C89FAAC7AF09546A77DDCC8CDE47F3F4F8E56BB9679FE8BCB6A6039653C8D0283B69337710C39534905D0477D6865F32C88C5CB0830D06C16767E37A40CA9A802624D4D8090F507A8F0132754F47075E7DE02273194352F85BBE4A759333E62C4F74D209
310
EE834B01B2FDC9364138F4363A859E173B2B788C7A3A347A4A3FF555A30341D9389EEB8192B78AF5A4AA5E18793D8D3D198691F6D5696C9ABAE4C566163CE8E527A37228034E204A4ACF843142CB7756B5B46E69F5449B96525E6CF23FA6B84EFF34456DC27379C4DD6D1E044B411E84E0C5D6575A8F32D3DEBA15DF504B01
310
0214000A0000080000C270623B3DEE336E79000000790000001B00000000000000000000000000000000006175746F6465736B2D64657369676E2D7061636B6167652E786D6C504B01021400140006080800C270623BD486FD9CA0000000F40000001300000000000000000000000000B20000005B436F6E74656E745F5479
310
7065735D2E786D6C504B01021400140006080800C270623B6C505844EA0000007C010000080000000000000000000000000083010000636F72652E786D6C504B01021400140006080800C270623B55019EA25F0000007C000000070000000000000000000000000093020000636E782E786D6C504B01021400140006080800
310
C270623B85AE40E170010000D40300000C00000000000000000000000000170300006662782F636F72652E786D6C504B01021400140006080800C270623BD959F09C7C0000009D0000000B00000000000000000000000000B10400006662782F636E782E786D6C504B01021400140006080800C270623BD97BE6F829010000
310
120200003100000000000000000000000000560500006662782F35423231414145462D414143322D343846332D424346452D3832314535314633343830382F636F72652E786D6C504B01021400140006080800C270623BAB1CAE584E010000330300003000000000000000000000000000CE0600006662782F354232314141
310
45462D414143322D343846332D424346452D3832314535314633343830382F636E782E786D6C504B01021400140006080800C270623B086A6785630500003C10000034000000000000000000000000006A0800006662782F35423231414145462D414143322D343846332D424346452D3832314535314633343830382F6F62
310
6A656374732E786D6C504B01021400140006080000C270623B00000000000000000000000035000000000000000000000000001F0E00006662782F35423231414145462D414143322D343846332D424346452D3832314535314633343830382F76657274696365732E62696E504B01021400140006080800C270623BF270F1
310
3306000000040000003600000000000000000000000000720E00006662782F35423231414145462D414143322D343846332D424346452D3832314535314633343830382F747269616E676C65732E62696E504B01021400140006080000C270623B0000000000000000000000003700000000000000000000000000CC0E0000
310
6662782F35423231414145462D414143322D343846332D424346452D3832314535314633343830382F617474726962757465732E62696E504B01021400140006080800C270623B08DA0BD190000000410100003600000000000000000000000000210F00006662782F35423231414145462D414143322D343846332D424346
310
452D3832314535314633343830382F6469726563746F72792E786D6C504B01021400140006080800C270623B7FFB76DCFC000000A00100003B00000000000000000000000000051000006662782F35423231414145462D414143322D343846332D424346452D3832314535314633343830382F7265736F75726365732F636F
310
72652E786D6C504B0506000000000E000E00800400005A1100000000
  0
XRECORD
  5
16C
102
{ACAD_REACTORS
330
16A
102
}
330
16A
100
AcDbXrecord
280
     1
270
     1
271
     1
  0
XRECORD
  5
16B
102
{ACAD_REACTORS
330
16A
102
}
330
16A
100
AcDbXrecord
280
     1
270
     1
271
     1
  0
XRECORD
  5
1F2
102
{ACAD_REACTORS
330
16A
102
}
330
16A
100
AcDbXrecord
280
     1
 70
     0
 90
1673772943
  1
AEB1D1DA-B7DF-4CBA-830A-738AA2653737
310
504B03040A0000080000C270623B3DEE336E79000000790000001B0000006175746F6465736B2D64657369676E2D7061636B6167652E786D6C3C3F786D6C2076657273696F6E3D22312E302220656E636F64696E673D227574662D3822203F3E3C666F726D6174733E3C666F726D61743E687474703A2F2F736368656D612E
310
6175746F6465736B2E636F6D2F64657369676E2D7061636B6167652F323030393C2F666F726D61743E3C2F666F726D6174733E504B0304140006080800C270623BD486FD9CA0000000F4000000130000005B436F6E74656E745F54797065735D2E786D6C7D8EC10E82300C865F65E91D8A1E8C310C0EEA1BF002731658846E
310
D98AC1B77784ABF1D8FE5FBFBF75BBCE937A534CCEB38643598122B6FEE978D0B0485F9C41B54DDD7D022595594E1A469170414C76A4D9A4D207E29CF43ECE46F218070CC6BECC4078ACAA135ACF422C856C0E68EA1BF5669944DDD7BCDE7B1F8E415D77AECB980613C2E4AC91FC167A2B244592486606FC29C8FD7F045B9A
310
EF7053A7E60B504B0304140006080800C270623BC5983BD0EB0000007C01000008000000636F72652E786D6C8D904D6EC3201085AF82665B6103F1BF3091AB2427E80510262E4A0C9681AAC72F4E1CA9DD7535A337EF9B193D7EFC9EEFE84BAFDE38DB03CD08206D951B8D9D7A88E18A1B4047C157E7C22F1B202B67DDC326
310
83E0D3EAE2B24BCAD9A06D48AA75A3DE45E9BD0E80D43D353D78F5A96799C91892C3DFB245AA9B9C74465F5D826334237A1E3163DA67AE46AF20CABAA887E1FD82D9401A5C9CCA136ED8E58CEBF650B2BAA8CE557BE6F9060B1ECCFCBAAF562D831E4130425A4C2926EC83161DA93A52BC91A62384E79BFD0F1497F19F5034
310
361CD8FEEE13F320687AE431103CDFB248E51154AA5B6EE207504B0304140006080800C270623B55019EA25F0000007C00000007000000636E782E786D6C4DCB3B0E80201045D1AD90E915ED2CF8AC45050C11660C8261F98AB1B07AC9C97D42D718D865D3E909258CFD00CCE24AC6E326A164D74DC0B4128928FF32603847
310
2BA13128B1252AC747C6BAB984FC68F0B87FE8960A5C09FE86CFB69FBA01504B0304140006080800C270623BEE35DAD072010000D40300000C0000006662782F636F72652E786D6CC553ED6E8230147D95A67F1768411435A5C6457D82BD4085CA1AA125A5253EFE2E1FC6B938E37E8D1FD09C736FEF39A7946D2E75853A69
310
5B657486A3906224756E0AA5CB0C7B770A96186D38B3C6B86F65186951CB0CF730E6ACB4C63713941BEDA476806A53C809146D2B1D4679058B0CB7F9A7AC4528BC838AF61C36223F8B5286510834D471D63A0B02D038A47F637E3A5E181971CEBC57C5C4AA02A6A9939216F3799AA4DBEDFB2188B7741924BBF92E58C6877D
310
90AE66F3384D16FBC56ACF48DFCC9953F5555D6EA570B2C03CA67415445140E38F2859D3C59A266F74B9A69491BEFCAEC937C58B4D5E69378B27B9635B8B79044206E2875B88C8A15674A0877046FA10E133247C1F340402213B71ACAE3ECE00753277C626C014C6DFA84E545EC2541AD2E141BF2F18193B61EAB039B87E38
310
237E79C6F31DE1A8852EC18470B03C7AD7EB64A38629B446DAA07317A48DAD45F59A8D270EFF44DDC43F94949BCAD8FF5244A60322D3EF41FAFBC8BF00504B0304140006080800C270623BD65DADFA7E0000009D0000000B0000006662782F636E782E786D6C4DCCD10A83201886E15B91FFDC651665A0C64C771FB12C62A6
310
C3E9D8E5AF46073BFAE0E1E3E5FD6773E86DE36B0D5E40792180ACBF8769F58B809C66CC00F592C710D2DF0D901F372BE060907C89213F4F9AEC3C66977675AB7F9C488DBA1A4309AE06D6E25ADD4ADCB5BAC2A4D1BAA135EBD440A190BCF895F63DC2F20B504B0304140006080800C270623B16D345222A01000012020000
310
310000006662782F32454241454532302D334338372D344246312D393744332D3036444436323438394243322F636F72652E786D6C8D515B6EC32010BC0AE2AB55850DC4719C0813358F9EA01720405294182C1E558E5FA81DA9FDCB0F8B66676607966DEFC30D7C6B1F8CB33D241586405BE994B1971EA678461D045BCEBC
310
73F10F0D022B06DDC30243CE2EDEA57186A4B351DB9851EB949E4111828E10C85BBEF430C82F3D884AA49819E15A8D425EC54557A4CAEDCCE32C449F038069483921A7C7DDFBF148315AECBB156A761F04AD578705C2EDE1D0D2A65BEFF694D59390B3948C9AE546E538E66CB47FD6A488398B6678C4975E8BA855D663BC46
310
84204C3F49B3C1ED06376FB8DB60CCEA42FF274AA37A52948C8D0B3AC79D640172C2EAA9C19972E9747B84D1F7D1F908CABC97A0E52BE4B8C2784968CBEA89989F9F1DDB66760CD1F9FCBD2FD753E692E564DB369CD56543B9FCAE2FD7B24DFE03504B0304140006080800C270623BAB1CAE584E0100003303000030000000
310
6662782F32454241454532302D334338372D344246312D393744332D3036444436323438394243322F636E782E786D6CD593CD6EC32010845F0571AD6CE3D48AD20813A9873E410FBD12D82434182C7EAAE6EDBB2424CD25871E7B41D6EC30B3FA84F9E67BB2E40B4234DE8DB46F1925E094D7C6ED479AD3AE5951B2113C78
310
9FEE6C943839C1488B4C05DF079FE72A69D8C96C13AAD6B8631503449F83828872B949AC57D26200B826A308D316B4064D6E46FCDA41C05550DC9E483A00797BFD207EFB092A45DE9514C1BBD22178396BD39D891265658C238DEA00936C654E5E433CB65A26D9F6EDB5EBC14EBF49A45CB856E66048291F6939A9A81BB5C8
310
917738143CA680F4AA299D66A042CEB3354A2684DC9D8D178FE0D9B8B41CAAD720F880EE7EF93C0C18769E099ECC04D5A102C8049A8A05632F4DDF376CF1DE0F6BB65CB3E189ADD68CF1AED805DF7A6FEB258C81E067A2BC4BE012153DEFCAF811BEEA23DA0464EDC3E90F2011406DBDD0B965FC673EDDF97D23AE807F81F8
310
01504B0304140006080800C270623B849BF81A650500003B100000340000006662782F32454241454532302D334338372D344246312D393744332D3036444436323438394243322F6F626A656374732E786D6CAD575B739B3814FE2B0CFB0C98D869921D42C797A6E3E9A4CDD4D3CE3E64C62340266C406224913AFBEBF713
310
080CD869BD173F18248ECEF53B1705EFF7456EBD502133CE6E6DDF9DD81665314F3296DEDA95DA39D7B6F53E0C04E7AA47665B8C14F4D6D6DB7618A48257A5D94AE88E54B91AEDDE2DFEB0644C19B5AD382752DEDA327EA2057149A57842E5B39B1045DC74B7777DB7211CB24D05299F464C4B222853D014FB0C5CAC46297F
310
B89CD85E1878FA7B18E87F43357D9BCAABED19CACF985484C547C2466CA6FE6CF5E1E2F2C6B99CCDA6CEECDD85EF2CEE162BC7BF9A4E96EF96CB9BF9871B08964A8093D144D09D1D7E846F4416075EF3A9D3D8287E4AA5983346E3DA7E5858EB6C3826B4A42C411C332A21AD67F564B8F4B56F7A9FA77A6D44F6B7CFB3AA7F
310
A2C7A8D5BD7DF635E5D19F30419E830A21A94655E31F636883BFC9C16B11E7B9F99649AB208A8A8CE4569E458288573B04A9260983011B8D4EA111AE2DB043FFC0AFAF2B52E3D7D83DA5E5AECA730D4D3BAC91BD05FEA992B566D95F549C96069D10AB2A63EADA18A45E4B6A873781576F86817E4C2FCCC7C691D62E272942
310
0E339BAF2343973AF7D62B3BFC7417ED373A1F4F0B2F052FA9501A3E80561BB8F6A9BD64C4FA67454E1F8031039F1F9CF2159EFF8CF43DA882B8896C3FDBCF8C142508933B2E0AC4C69DD43F6BD2BE38DDDBF10BEAD988FA98A6DBF957C481D7293B2C186FC50FE0D2A1B9FEEFF11BFAAC8FD45EF8C2E00509C6C5D4B87213
310
931CA5E73E63088806A595736CA196EFA2BD1DAE512951D9718AE461E790A397C07BC177FC37BC51AD6AF1BD27434047F5F68CCA0F5FD66901DDDE00CB519DAC051BE3DEF2F9E5FF9233F3D5E6D3A6123B12D37B5358567497B14CA1771EC0DB576810888145CFF4F50717090C3D0EC2A61F84C28892F0B6F6B9767CDA360B
310
BD38481E0888712EE5BAE605BF90709FC998E639619457AD94AE0D69AC7645C6CC09C8C2C6A1D38B118A057DC9F42431A018A8855E1F8BACD42EEB9A5E57A7DD376CF9B6FE0C50823EE711C90F44D1A1DAC73CE7621BBD6E9B4268037B383204F7F721BA8D433DCD0580AFA1DC561CE3E16D92ED769544D93DE1C4EFEB653F
310
505D1D397E69F3A795D8A4E40CC519A94784416F2B13F38020E8EB9C6D33747164E549E17DD96301B2E6FB06FFA82ACA2D2978C5D4396E9AB4F6B4DA77CCFB438CFC4154FC64879BFAE92C50B1139A1C42350081EE40276C1A8467FE61E1AFFCD5DC595CADEE9CD9723177AEA793B97335BD9ECF2FDE5D4EAFA6579D46B526
310
61D036A87E0AC29B6888412532E3E66FEB43D6DAE13D51D2FBD8E4939736CF6F6B175371E0E10CF0DD1D5C17654E0BCA14D1E8BDD72FF95782A162C0A3D95F1724A56770F9F27133D2013B679C7BD099467F8CCE9ADDA5CE85934CD45355448C64F9E8A031DC2D596ACC6E5DD93D9B82DE2EF5CAF81363A8E47996A0DE2456
310
4A794115AACE19C55E14540231FDA13C319787334EBF34E3A022514E5B4D9E0826E25C02D5805B15ABE1BEF51B26383D44DDDAE875EE33FE4C22DA16427D6BA3BCA92CA6D28DD01DF5DC53330704308475351050232CCD31583787BA75774AFB06E5070DD0C8EF48CE19968C5D83BA5B90B244D31E54D55A372320FE4786B7
310
EA5844E135AA5467CB61A333A61683CC6A8C3257034C10CF46F41EF9F573B37CB7A61978E4AC6BD24F41D070751411697D2DD0FA1995E6AB070F9380B5FE629579952296E773720405982B9DE04011506178964401AACBDF1F1F04C755B4B0EE3240E071C98B8233B3989BABACB579C2C534794459A0FAF6212F26BEFF580F
310
FDE61EB28D88A42E49E43336DA84D3168CB006401E755313024FC76044BE5E59A661CCC0B406EDD14CDADCC22D248FBE38EA54E917CBF2A773BF5793020C02137BF837504B0304140006080000C270623B000000000000000000000000350000006662782F32454241454532302D334338372D344246312D393744332D3036
310
444436323438394243322F76657274696365732E62696E504B0304140006080800C270623BF270F1330600000004000000360000006662782F32454241454532302D334338372D344246312D393744332D3036444436323438394243322F747269616E676C65732E62696E636660600000504B0304140006080000C270623B
310
000000000000000000000000370000006662782F32454241454532302D334338372D344246312D393744332D3036444436323438394243322F617474726962757465732E62696E504B0304140006080800C270623B08DA0BD19000000041010000360000006662782F32454241454532302D334338372D344246312D393744
310
332D3036444436323438394243322F6469726563746F72792E786D6C858F410AC3201045AF22B36F53E9A60B35CBEEBAE80D244E44489C6234F4F835464A48035D0DF398FF9F8AF63D0E6CC63039F212F8F9020C7D47C6792B21C5FE7403D62A1188E2E60C98D7234A5830286103A55745067B9D86B8A3CF9C7F90C11DE607
310
FB144396D7B6A82D282E9A152AD114D5EF2CB866EEE831B8EEA07A7BB5A8D7D61A2BAAEB7FD5F70921FF497D00504B0304140006080800C270623BAD7266E1FD000000A00100003B0000006662782F32454241454532302D334338372D344246312D393744332D3036444436323438394243322F7265736F75726365732F63
310
6F72652E786D6C8D50596E833010BD0A9ADFCA6008BB8C23AAD013F4029699502BC1465EAA1EBF26A152FBD79F99D15B344F8F9DBFD67BF289D629A307C8530A096A6966A5970182BF9216923367D618FF4B0689162B0EB0C3C0D9624DD80E481AED51FB886A33E3010AE7D04322EFF118C0C90F5C452A828F0A774B37216F
310
62C1344F231D759C396F6380E4F9649FC02D3A13AC44C7B227CB59086A3E346A8E3FD555A1055E3565338EAF132946DA92F2525D485BBC4DA4E94E55D194F5547713CB7633675EAD3F19A545E171065E50DA913C27B478CFCB9ED63D2D5F68DB53CAB25DFEC714B6F99FA6A0B43F1547DCA7CD01CF639007C159B6F715D7A3
310
CCB8F76EF937504B010214000A0000080000C270623B3DEE336E79000000790000001B00000000000000000000000000000000006175746F6465736B2D64657369676E2D7061636B6167652E786D6C504B01021400140006080800C270623BD486FD9CA0000000F40000001300000000000000000000000000B20000005B43
310
6F6E74656E745F54797065735D2E786D6C504B01021400140006080800C270623BC5983BD0EB0000007C010000080000000000000000000000000083010000636F72652E786D6C504B01021400140006080800C270623B55019EA25F0000007C000000070000000000000000000000000094020000636E782E786D6C504B01
310
021400140006080800C270623BEE35DAD072010000D40300000C00000000000000000000000000180300006662782F636F72652E786D6C504B01021400140006080800C270623BD65DADFA7E0000009D0000000B00000000000000000000000000B40400006662782F636E782E786D6C504B01021400140006080800C27062
310
3B16D345222A0100001202000031000000000000000000000000005B0500006662782F32454241454532302D334338372D344246312D393744332D3036444436323438394243322F636F72652E786D6C504B01021400140006080800C270623BAB1CAE584E010000330300003000000000000000000000000000D406000066
310
62782F32454241454532302D334338372D344246312D393744332D3036444436323438394243322F636E782E786D6C504B01021400140006080800C270623B849BF81A650500003B1000003400000000000000000000000000700800006662782F32454241454532302D334338372D344246312D393744332D303644443632
310
3438394243322F6F626A656374732E786D6C504B01021400140006080000C270623B0000000000000000000000003500000000000000000000000000270E00006662782F32454241454532302D334338372D344246312D393744332D3036444436323438394243322F76657274696365732E62696E504B0102140014000608
310
0800C270623BF270F133060000000400000036000000000000000000000000007A0E00006662782F32454241454532302D334338372D344246312D393744332D3036444436323438394243322F747269616E676C65732E62696E504B01021400140006080000C270623B000000000000000000000000370000000000000000
310
0000000000D40E00006662782F32454241454532302D334338372D344246312D393744332D3036444436323438394243322F617474726962757465732E62696E504B01021400140006080800C270623B08DA0BD190000000410100003600000000000000000000000000290F00006662782F32454241454532302D33433837
310
2D344246312D393744332D3036444436323438394243322F6469726563746F72792E786D6C504B01021400140006080800C270623BAD7266E1FD000000A00100003B000000000000000000000000000D1000006662782F32454241454532302D334338372D344246312D393744332D3036444436323438394243322F726573
310
6F75726365732F636F72652E786D6C504B0506000000000E000E0080040000631100000000
  0
XRECORD
  5
16D
102
{ACAD_REACTORS
330
16A
102
}
330
16A
100
AcDbXrecord
280
     1
270
     1
271
     1
  0
XRECORD
  5
16E
102
{ACAD_REACTORS
330
16A
102
}
330
16A
100
AcDbXrecord
280
     1
270
     1
271
     1
  0
XRECORD
  5
2E42
102
{ACAD_REACTORS
330
22B
102
}
330
22B
100
AcDbXrecord
280
     1
102
DISPLAYNAME
  1
Metric50
102
FLAGS
 90
        0
  0
CELLSTYLEMAP
  5
2E41
102
{ACAD_REACTORS
330
159
102
}
330
159
100
AcDbCellStyleMap
 90
        3
300
CELLSTYLE
  1
TABLEFORMAT_BEGIN
 90
        5
170
     1
 91
        0
 92
    32768
 62
   257
 93
        1
300
CONTENTFORMAT
  1
CONTENTFORMAT_BEGIN
 90
        0
 91
        0
 92
      512
 93
        0
300

 40
0.0
140
1.0
 94
        5
 62
     0
340
11
144
6.0
309
CONTENTFORMAT_END
171
     1
301
MARGIN
  1
CELLMARGIN_BEGIN
 40
1.5
 40
1.5
 40
1.5
 40
1.5
 40
4.5
 40
4.5
309
CELLMARGIN_END
 94
        6
 95
        1
302
GRIDFORMAT
  1
GRIDFORMAT_BEGIN
 90
        0
 91
        1
 62
     0
 92
       -2
340
14
 93
        0
 40
1.125
309
GRIDFORMAT_END
 95
        2
302
GRIDFORMAT
  1
GRIDFORMAT_BEGIN
 90
        0
 91
        1
 62
     0
 92
       -2
340
14
 93
        0
 40
1.125
309
GRIDFORMAT_END
 95
        4
302
GRIDFORMAT
  1
GRIDFORMAT_BEGIN
 90
        0
 91
        1
 62
     0
 92
       -2
340
14
 93
        0
 40
1.125
309
GRIDFORMAT_END
 95
        8
302
GRIDFORMAT
  1
GRIDFORMAT_BEGIN
 90
        0
 91
        1
 62
     0
 92
       -2
340
14
 93
        0
 40
1.125
309
GRIDFORMAT_END
 95
       16
302
GRIDFORMAT
  1
GRIDFORMAT_BEGIN
 90
        0
 91
        1
 62
     0
 92
       -2
340
14
 93
        0
 40
1.125
309
GRIDFORMAT_END
 95
       32
302
GRIDFORMAT
  1
GRIDFORMAT_BEGIN
 90
        0
 91
        1
 62
     0
 92
       -2
340
14
 93
        0
 40
1.125
309
GRIDFORMAT_END
309
TABLEFORMAT_END
  1
CELLSTYLE_BEGIN
 90
        1
 91
        1
300
_TITLE
309
CELLSTYLE_END
300
CELLSTYLE
  1
TABLEFORMAT_BEGIN
 90
        5
170
     1
 91
        0
 92
        0
 62
   257
 93
        1
300
CONTENTFORMAT
  1
CONTENTFORMAT_BEGIN
 90
        0
 91
        0
 92
      512
 93
        0
300

 40
0.0
140
1.0
 94
        5
 62
     0
340
11
144
4.5
309
CONTENTFORMAT_END
171
     1
301
MARGIN
  1
CELLMARGIN_BEGIN
 40
1.5
 40
1.5
 40
1.5
 40
1.5
 40
4.5
 40
4.5
309
CELLMARGIN_END
 94
        6
 95
        1
302
GRIDFORMAT
  1
GRIDFORMAT_BEGIN
 90
        0
 91
        1
 62
     0
 92
       -2
340
14
 93
        0
 40
1.125
309
GRIDFORMAT_END
 95
        2
302
GRIDFORMAT
  1
GRIDFORMAT_BEGIN
 90
        0
 91
        1
 62
     0
 92
       -2
340
14
 93
        0
 40
1.125
309
GRIDFORMAT_END
 95
        4
302
GRIDFORMAT
  1
GRIDFORMAT_BEGIN
 90
        0
 91
        1
 62
     0
 92
       -2
340
14
 93
        0
 40
1.125
309
GRIDFORMAT_END
 95
        8
302
GRIDFORMAT
  1
GRIDFORMAT_BEGIN
 90
        0
 91
        1
 62
     0
 92
       -2
340
14
 93
        0
 40
1.125
309
GRIDFORMAT_END
 95
       16
302
GRIDFORMAT
  1
GRIDFORMAT_BEGIN
 90
        0
 91
        1
 62
     0
 92
       -2
340
14
 93
        0
 40
1.125
309
GRIDFORMAT_END
 95
       32
302
GRIDFORMAT
  1
GRIDFORMAT_BEGIN
 90
        0
 91
        1
 62
     0
 92
       -2
340
14
 93
        0
 40
1.125
309
GRIDFORMAT_END
309
TABLEFORMAT_END
  1
CELLSTYLE_BEGIN
 90
        2
 91
        1
300
_HEADER
309
CELLSTYLE_END
300
CELLSTYLE
  1
TABLEFORMAT_BEGIN
 90
        5
170
     1
 91
        0
 92
        0
 62
   257
 93
        1
300
CONTENTFORMAT
  1
CONTENTFORMAT_BEGIN
 90
        0
 91
        0
 92
      512
 93
        0
300

 40
0.0
140
1.0
 94
        2
 62
     0
340
11
144
4.5
309
CONTENTFORMAT_END
171
     1
301
MARGIN
  1
CELLMARGIN_BEGIN
 40
1.5
 40
1.5
 40
1.5
 40
1.5
 40
4.5
 40
4.5
309
CELLMARGIN_END
 94
        6
 95
        1
302
GRIDFORMAT
  1
GRIDFORMAT_BEGIN
 90
        0
 91
        1
 62
     0
 92
       -2
340
14
 93
        0
 40
1.125
309
GRIDFORMAT_END
 95
        2
302
GRIDFORMAT
  1
GRIDFORMAT_BEGIN
 90
        0
 91
        1
 62
     0
 92
       -2
340
14
 93
        0
 40
1.125
309
GRIDFORMAT_END
 95
        4
302
GRIDFORMAT
  1
GRIDFORMAT_BEGIN
 90
        0
 91
        1
 62
     0
 92
       -2
340
14
 93
        0
 40
1.125
309
GRIDFORMAT_END
 95
        8
302
GRIDFORMAT
  1
GRIDFORMAT_BEGIN
 90
        0
 91
        1
 62
     0
 92
       -2
340
14
 93
        0
 40
1.125
309
GRIDFORMAT_END
 95
       16
302
GRIDFORMAT
  1
GRIDFORMAT_BEGIN
 90
        0
 91
        1
 62
     0
 92
       -2
340
14
 93
        0
 40
1.125
309
GRIDFORMAT_END
 95
       32
302
GRIDFORMAT
  1
GRIDFORMAT_BEGIN
 90
        0
 91
        1
 62
     0
 92
       -2
340
14
 93
        0
 40
1.125
309
GRIDFORMAT_END
309
TABLEFORMAT_END
  1
CELLSTYLE_BEGIN
 90
        3
 91
        2
300
_DATA
309
CELLSTYLE_END
  0
ENDSEC
  0
SECTION
  2
ACDSDATA
 70
     2
 71
     8
  0
ACDSSCHEMA
 90
        0
  1
AcDb_Thumbnail_Schema
  2
AcDbDs::ID
280
    10
 91
        8
  2
Thumbnail_Data
280
    15
 91
        0
101
ACDSRECORD
 95
        0
 90
        1
  2
AcDbDs::TreatedAsObjectData
280
     1
291
     1
101
ACDSRECORD
 95
        0
 90
        2
  2
AcDbDs::Legacy
280
     1
291
     1
101
ACDSRECORD
  1
AcDbDs::ID
 90
        3
  2
AcDs:Indexable
280
     1
291
     1
101
ACDSRECORD
  1
AcDbDs::ID
 90
        4
  2
AcDbDs::HandleAttribute
280
     7
282
     1
  0
ACDSSCHEMA
 90
        1
  1
AcDbDs::TreatedAsObjectDataSchema
  2
AcDbDs::TreatedAsObjectData
280
     1
 91
        0
  0
ACDSSCHEMA
 90
        2
  1
AcDbDs::LegacySchema
  2
AcDbDs::Legacy
280
     1
 91
        0
  0
ACDSSCHEMA
 90
        3
  1
AcDbDs::IndexedPropertySchema
  2
AcDs:Indexable
280
     1
 91
        0
  0
ACDSSCHEMA
 90
        4
  1
AcDbDs::HandleAttributeSchema
  2
AcDbDs::HandleAttribute
280
     7
 91
        1
284
     1
  0
ACDSRECORD
 90
        0
  2
AcDbDs::ID
280
    10
320
22
  2
Thumbnail_Data
280
    15
 94
     3432
310
89504E470D0A1A0A0000000D49484452000001340000010008030000000AB47A1600000300504C5445212830000000C8C8C80000000000000000000000000000000000000000000000000000330000660000990000CC0000FF0033000033330033660033990033CC0033FF0066000066330066660066990066CC0066FF0099
310
000099330099660099990099CC0099FF00CC0000CC3300CC6600CC9900CCCC00CCFF00FF0000FF3300FF6600FF9900FFCC00FFFF3300003300333300663300993300CC3300FF3333003333333333663333993333CC3333FF3366003366333366663366993366CC3366FF3399003399333399663399993399CC3399FF33CC00
310
33CC3333CC6633CC9933CCCC33CCFF33FF0033FF3333FF6633FF9933FFCC33FFFF6600006600336600666600996600CC6600FF6633006633336633666633996633CC6633FF6666006666336666666666996666CC6666FF6699006699336699666699996699CC6699FF66CC0066CC3366CC6666CC9966CCCC66CCFF66FF0066
310
FF3366FF6666FF9966FFCC66FFFF9900009900339900669900999900CC9900FF9933009933339933669933999933CC9933FF9966009966339966669966999966CC9966FF9999009999339999669999999999CC9999FF99CC0099CC3399CC6699CC9999CCCC99CCFF99FF0099FF3399FF6699FF9999FFCC99FFFFCC0000CC00
310
33CC0066CC0099CC00CCCC00FFCC3300CC3333CC3366CC3399CC33CCCC33FFCC6600CC6633CC6666CC6699CC66CCCC66FFCC9900CC9933CC9966CC9999CC99CCCC99FFCCCC00CCCC33CCCC66CCCC99CCCCCCCCCCFFCCFF00CCFF33CCFF66CCFF99CCFFCCCCFFFFFF0000FF0033FF0066FF0099FF00CCFF00FFFF3300FF3333
310
FF3366FF3399FF33CCFF33FFFF6600FF6633FF6666FF6699FF66CCFF66FFFF9900FF9933FF9966FF9999FF99CCFF99FFFFCC00FFCC33FFCC66FFCC99FFCCCCFFCCFFFFFF00FFFF33FFFF66FFFF99FFFFCCFFFFFF0000000D0D0D1A1A1A2828283535354343435050505D5D5D6B6B6B787878868686939393A1A1A1AEAEAEBB
310
BBBBC9C9C9D6D6D6E4E4E4F1F1F1FFFFFF000000000000000000000000000000000000000000000000000000000000B21171F6000004714944415478DAEDDD6BCE9B3A1000502F67F6BF9E6F1BFD7F75AB8F788CCD231524841CD4AAC881400EE3F1A3482E256FD16DA3B2FF4BEB098F13F3BFEDEE60FBE94A46DFFFD81D7F
310
59AC6E4F5CBBFC29EBDBDAE7CFA2C50C2D8E478B56EF8268F966C6C50BC725B472205AE9037876CAE6CE25D1E687947DDBCFE285B782E8B3D06284B65A47BE092DF6A29528D0DAECB28FF244B4D2FDFEEBA28D7F74C4DE4CB7A71D380CED2AADE7F8C2D0F69AB5B7FB72B48EE143D0E679F925396DE2D98156B6D2DD4BD0D2
310
CDB57DD728AF414BD7DA42DB1FD8E7A23537974794AB688754CF259E3DA38C67CC0E474BE3CDDAC18F59E929688311EF7EB4A7CC4E19B0CF6F2286A587475A5BA9B7D062E7F626B47AF173735ADFF2F4DD9F2BA2C5C2B458FFF4CF401BF5D33E04ADDFD93113785AE776116DF94AB199E08EAF9EDD44ECD6B4E2D968F9CE46
310
5F3A18C5C78B5BCF32402B57467BDEECA4F9B4324E636F98E5D8441B0D5DCAFBD1CA95D1F60F195E88B6B3F44CB4F586A01F6D954F401BFDE7C03F3DED7F6D3DBB67F72168A3B9B717A32DCD035EBD7A8E0744C7E4B45D8FADA9AA17401BDECA2C092F0DBECF46EB47ADEB6CAF8BB40DB46733CCCF62B43CF1D8965A80E7AF
310
7D2ADA3664D99E203F066DB5A5BE12DAD2B06B6B02E040B4DDC1BC7C6F27A19DBF3D8F366CA2E3A06B7F2EDA1BAF0D0D1A3468D0A0418306ED16683F5FB88934D5131A3468D0A04183060D1A3468D0A04183060D1A3468D0A04183060D1A3468D0A04183060D1A3468D0A04183060D1A3468B740F34ABC48533DA14183060D
310
1A3468D0A04183060D1A3468D0A04183060D1A3468D0A04183060D1A3468D0A04183060D1A3468D0A041BB029AB7BB459AEA090D1A3468D0A0418306ED4D37BEB6A6E9DFA5A3231D96964BFDBB1A6AA48FEA5AD38FBD983EED969BBD07DAC2FAD1A5FEFED902D8B3E332EC43733ABDFC7EC3FD222DFAB08B5A5E7FF2802FDA
310
D5B0E3B11AF9F4B75BD9F8166819206A1C95D2D4B48A5263A746E26F3C56B41A69DDF3B849A4458F9663ACA980D126B5B66CC22C3921DE31A745E9AB6A5FB3625A233C4A967DA8D696A1A6C314A837CB69CB6653D58D478A6F1BC31A4F29F872FD9EA2EE6E91166B6653722AB375D9A356E6C8E88FCC36856554ED1BA1259C
310
5410395BFDF6D8F2E2F5A9DE45C965D1465F6D0EEED47A1A1140837655B4486D41E421552E8A5A921A86E6C888EF428BDAC78A615194A6A4E9FDC67C14F11D68516AE720755D1B982A14B963DB0ECFBF082D713523F06628B51856313BFC9B22ADFE899829C43CE4A2EDF17E27DA38A7CD77631469EDC95FDD7AFEC651D386
310
C6AC09CDC3D274B87E9A7E1A3468D0A04183060D1AB4E2ED6E6F77AB9ED0A04183060D1A3468D0A04183060D1A3468D0A04183060D1A3468D0A04183060D1A3468D0A04183060D1A3468D0A07D249AB7BB459AEA090D1A3468D0A04183060D1A3468D0A04183060D1A3468D0A04183060D1A3468D0A04183060D1A3468D0A0
310
4183060D1AB40F45F34AFCE7445A513DA14183060D1A3468D0A04183060D1A3468D0A04183060D1A3468D0A0411B7DFE1FFFDC2333BFB42F2E0000000049454E44AE426082F3A032CD1334D040030D34D040030D34D040030D34D040030D34D040030D34D040030D34D040030D34D040030D34D040030D34D040030DB4EE68
310
3C8A3CFE4165F952A4C95F6E9EA081061A68A0DD0DED4529957752F3F37A1169344FD040030D34D040030D34D040030D34D040030D34D040030D34D09E89F60FC8937DDFD2F725470000000049454E44AE42608286E0769EA6D66EEF4DDA9C82D4DE3594EB71645F93E6EFF2BE98017F4ADA69D211DF109CE5FF2D3D49F6C7
310
E5815B5D43F57742FE4FEB8934A421AD08693C529C48FB076971F730421AD29A95D600AF4B6B02A4952FAD11DE93D6180A00000000000000000000000000000000000000000000000000000000000000000000000000000000000000000000000000A07EFE007DC30F27750BE73E0000000049454E44AE426082D6D889D131
310
159A7078A8EBAECC660A9D7CCFEF12DB1242B72116CC2E8DC0B6D32DF70D5EEDE12C9A60C4F87E3D686CF2C30B27773A0E8574B5BEE46D9E88C6F6ECABCCEBB4D4583B636979CF7AADEF132BEBF99BD90C21658A98ED23A38F138B47F047ED10255686D863F158A7C4CE6EF8DBB895D4ADC64E887D566377AE2F444C4C81B7
310
33E3795F2EAF4AD8A64F107346C9FF89398B64AD901D626417F1E153C4484CED0F69CCAE02D81719B31E257C8F18C4EACD95189CD68259740292E936D9E32BC4E0ACE6DF34E635AFE0779AF2300DDFF1FC5B1FADF5DDA329A276C598D752FD6C5D391BFE1FF31F7C291E2B1D5D683CA6C40AD795E4787E5B1380658031E94A
310
F8AA4E7C93980819FE3D1AB115AC22B906C95822D0FCFA4E74613B7316625E98B6AF7EDD17B58280CF122396DE25A4319160BA2B8DC19DF3689246ED5F5CE4392A5C2A5D3F46713F168ACF2E12E30D59B3363EA9CB060166CE53AA410CB6FC35A92BAF75F8BA8C3C7A549E582F3D8A57D7AF83709A840235FC581FF1982796
310
44611C0D47307FC6FBAE6EFBB4A396F87B22D84051B4FF8245B6487441321E7B3531E9C648F87F37BFE26562E4C4632F247672F7066FF37D6284F71383ECAA337F0B7B31A331EACB8FE5781EF082E7076536A169A1FC316C6404FDF8B13C62AEEF229B4D4B78312AE0C57A1DE1658D5938E17538EC177D063C01169B096C2B
310
83A7E331FB36EE692C798AD5A9CE123EEA457AF58821426C9462BD428CABC7733829B194D78464A988793F4B51624ED6378344B4B6E1129BBB38CCD3D1D0BF43CC09D7C993D9C1AD8DB97FB7AB8BCC182BB935C17D626C1CF7486370891D35037356D6E795CA30B140D17BA80F364A0CA71A1BF335965D7B1E1073C2884788
310
199505891D944AE9C728DF8F65B7D3231AC323CC466209A3D3E2B16275E5950ED70E7AAD9701DE75941765C6787F9D5837FD634A2C8F58D0F5380E29400CA0933665B8DFECA69B1B03DFE761623C338EDF8D9A4F2C16A8100AF48FC968A70D3111B187951222063A11131DB4980A116BD5DB73DC4B83B45652408B057A0E23
310
D185B893493B3FE695CA2CE0F44852655E2AD196987F6949979AE8BC8AC663C6DACEB8BB2886F35A92CA138B4517F2057F3A868F728158A59CE48DE2B127889DC5647D12731C99438C0940120B6EBF43EC4A913C9A7F502B99BE1DE165876E458C2E128B312354D0184BECF3326287BCEA1213F7497B133112F72F33651BDE
310
0079B9A2390A69BF92585AA7378A8E893B335A5BD5950588913FA3AAF8DC9ED7AFE18D2A4C0C493519E16DD6A3F892085689293125A6C4949812FB3AB1CFE654518DB526C6EFD3ED2DAC126B5509ECD625F82AB1D3462DF1813FD69CDBDEFCA8C6F8A0AF986404A6313BB5D1B4E5B77E8C8F6A4CAC570239C4ECD29C7DC2EA
310
A735065F637CFD85FC6D0BE497FD18F135BA073D4B08CD820062C446B58FC563754C8929B196C426B590A9C66E284DED2E312D80B1B2A9A6A6A6A6A6A6A6A6A6A6A6A6A6A6A6A6A6A6A6A6A6A6A6A6A6A6A6A6A6A6A6A6A6A6A6A6A6A6A6A6A6A6A6A6A6A6A6A6A6A6A676D3FE00E513C6182AA389E60000000049454E44AE
310
426082
  0
ACDSRECORD
 90
        0
  2
AcDbDs::ID
280
    10
320
D3
  2
Thumbnail_Data
280
    15
 94
     1161
310
89504E470D0A1A0A0000000D4948445200000100000000B5080300000087DCD12600000300504C5445FFFFFF000000C8C8C80000000000000000000000000000000000000000000000000000330000660000990000CC0000FF0033000033330033660033990033CC0033FF0066000066330066660066990066CC0066FF0099
310
000099330099660099990099CC0099FF00CC0000CC3300CC6600CC9900CCCC00CCFF00FF0000FF3300FF6600FF9900FFCC00FFFF3300003300333300663300993300CC3300FF3333003333333333663333993333CC3333FF3366003366333366663366993366CC3366FF3399003399333399663399993399CC3399FF33CC00
310
33CC3333CC6633CC9933CCCC33CCFF33FF0033FF3333FF6633FF9933FFCC33FFFF6600006600336600666600996600CC6600FF6633006633336633666633996633CC6633FF6666006666336666666666996666CC6666FF6699006699336699666699996699CC6699FF66CC0066CC3366CC6666CC9966CCCC66CCFF66FF0066
310
FF3366FF6666FF9966FFCC66FFFF9900009900339900669900999900CC9900FF9933009933339933669933999933CC9933FF9966009966339966669966999966CC9966FF9999009999339999669999999999CC9999FF99CC0099CC3399CC6699CC9999CCCC99CCFF99FF0099FF3399FF6699FF9999FFCC99FFFFCC0000CC00
310
33CC0066CC0099CC00CCCC00FFCC3300CC3333CC3366CC3399CC33CCCC33FFCC6600CC6633CC6666CC6699CC66CCCC66FFCC9900CC9933CC9966CC9999CC99CCCC99FFCCCC00CCCC33CCCC66CCCC99CCCCCCCCCCFFCCFF00CCFF33CCFF66CCFF99CCFFCCCCFFFFFF0000FF0033FF0066FF0099FF00CCFF00FFFF3300FF3333
310
FF3366FF3399FF33CCFF33FFFF6600FF6633FF6666FF6699FF66CCFF66FFFF9900FF9933FF9966FF9999FF99CCFF99FFFFCC00FFCC33FFCC66FFCC99FFCCCCFFCCFFFFFF00FFFF33FFFF66FFFF99FFFFCCFFFFFF0000000D0D0D1A1A1A2828283535354343435050505D5D5D6B6B6B787878868686939393A1A1A1AEAEAEBB
310
BBBBC9C9C9D6D6D6E4E4E4F1F1F1FFFFFF000000000000000000000000000000000000000000000000000000000000B0E2D2350000013E4944415478DAEDDDB11184301443C1DF7F998A5D0483134A30A07540018FB1F6A26356F99935D547801D20C97EB43D9F009D6F3FAE8000AE8000020860040570050410800214A080
310
0D1040000A508002364000012840010AD8000104A000052860030410800214A0800D1040000A508002364000012840010AD8000104A000052860030410800214A0800D104080BF2A9093E70D0AE4F05B39AE404B80082080004650005740000104A000056C80000250800214B001020840010A50C006082000052840011B20
310
800014A000056C80000250800214B001020840010A50C006082000052840011B20800014A000056C80000250800214B001020840010A50C006082000052840011B20800014A000056C80000250800214B0015F0F50F2EFF2BE2F303EB222802B208000021841016C407D80FD1BBCEF690304B803949F0B2119936F10150AC9
310
0000000049454E44AE4260824E44AE426082
  0
ENDSEC
  0
EOF
