  0
SECTION
  2
HEADER
  9
$ACADVER
  1
AC1027
  9
$ACADMAINTVER
 70
   106
  9
$DWGCODEPAGE
  3
ANSI_932
  9
$LASTSAVEDBY
  1
takamura205
  9
$REQUIREDVERSIONS
160
                 0
  9
$INSBASE
 10
0.0
 20
0.0
 30
0.0
  9
$EXTMIN
 10
35785.82830891649
 20
28277.30141662591
 30
0.0
  9
$EXTMAX
 10
37465.82830891649
 20
29465.30141662591
 30
0.0
  9
$LIMMIN
 10
0.0
 20
0.0
  9
$LIMMAX
 10
420.0
 20
297.0
  9
$ORTHOMODE
 70
     0
  9
$REGENMODE
 70
     1
  9
$FILLMODE
 70
     1
  9
$QTEXTMODE
 70
     0
  9
$MIRRTEXT
 70
     0
  9
$LTSCALE
 40
1.0
  9
$ATTMODE
 70
     1
  9
$TEXTSIZE
 40
2.5
  9
$TRACEWID
 40
1.0
  9
$TEXTSTYLE
  7
Standard
  9
$CLAYER
  8
寸法線
  9
$CELTYPE
  6
ByLayer
  9
$CECOLOR
 62
   256
  9
$CELTSCALE
 40
1.0
  9
$DISPSILH
 70
     0
  9
$DIMSCALE
 40
1.0
  9
$DIMASZ
 40
2.5
  9
$DIMEXO
 40
0.625
  9
$DIMDLI
 40
3.75
  9
$DIMRND
 40
0.0
  9
$DIMDLE
 40
0.0
  9
$DIMEXE
 40
1.25
  9
$DIMTP
 40
0.0
  9
$DIMTM
 40
0.0
  9
$DIMTXT
 40
20.0
  9
$DIMCEN
 40
2.5
  9
$DIMTSZ
 40
0.0
  9
$DIMTOL
 70
     0
  9
$DIMLIM
 70
     0
  9
$DIMTIH
 70
     0
  9
$DIMTOH
 70
     0
  9
$DIMSE1
 70
     0
  9
$DIMSE2
 70
     0
  9
$DIMTAD
 70
     1
  9
$DIMZIN
 70
     8
  9
$DIMBLK
  1

  9
$DIMASO
 70
     1
  9
$DIMSHO
 70
     1
  9
$DIMPOST
  1

  9
$DIMAPOST
  1

  9
$DIMALT
 70
     0
  9
$DIMALTD
 70
     3
  9
$DIMALTF
 40
0.03937007874016
  9
$DIMLFAC
 40
1.0
  9
$DIMTOFL
 70
     1
  9
$DIMTVP
 40
0.0
  9
$DIMTIX
 70
     0
  9
$DIMSOXD
 70
     0
  9
$DIMSAH
 70
     0
  9
$DIMBLK1
  1

  9
$DIMBLK2
  1

  9
$DIMSTYLE
  2
ISO-25
  9
$DIMCLRD
 70
     0
  9
$DIMCLRE
 70
     0
  9
$DIMCLRT
 70
     0
  9
$DIMTFAC
 40
1.0
  9
$DIMGAP
 40
0.625
  9
$DIMJUST
 70
     0
  9
$DIMSD1
 70
     0
  9
$DIMSD2
 70
     0
  9
$DIMTOLJ
 70
     0
  9
$DIMTZIN
 70
     8
  9
$DIMALTZ
 70
     0
  9
$DIMALTTZ
 70
     0
  9
$DIMUPT
 70
     0
  9
$DIMDEC
 70
     2
  9
$DIMTDEC
 70
     2
  9
$DIMALTU
 70
     2
  9
$DIMALTTD
 70
     3
  9
$DIMTXSTY
  7
Standard
  9
$DIMAUNIT
 70
     0
  9
$DIMADEC
 70
     0
  9
$DIMALTRND
 40
0.0
  9
$DIMAZIN
 70
     0
  9
$DIMDSEP
 70
    44
  9
$DIMATFIT
 70
     3
  9
$DIMFRAC
 70
     0
  9
$DIMLDRBLK
  1

  9
$DIMLUNIT
 70
     2
  9
$DIMLWD
 70
    -2
  9
$DIMLWE
 70
    -2
  9
$DIMTMOVE
 70
     0
  9
$DIMFXL
 40
1.0
  9
$DIMFXLON
 70
     0
  9
$DIMJOGANG
 40
0.7853981633974483
  9
$DIMTFILL
 70
     0
  9
$DIMTFILLCLR
 70
     0
  9
$DIMARCSYM
 70
     0
  9
$DIMLTYPE
  6

  9
$DIMLTEX1
  6

  9
$DIMLTEX2
  6

  9
$DIMTXTDIRECTION
 70
     0
  9
$LUNITS
 70
     2
  9
$LUPREC
 70
     4
  9
$SKETCHINC
 40
1.0
  9
$FILLETRAD
 40
1.0
  9
$AUNITS
 70
     0
  9
$AUPREC
 70
     0
  9
$MENU
  1
.
  9
$ELEVATION
 40
0.0
  9
$PELEVATION
 40
0.0
  9
$THICKNESS
 40
0.0
  9
$LIMCHECK
 70
     0
  9
$CHAMFERA
 40
0.0
  9
$CHAMFERB
 40
0.0
  9
$CHAMFERC
 40
0.0
  9
$CHAMFERD
 40
0.0
  9
$SKPOLY
 70
     0
  9
$TDCREATE
 40
2457175.672123785
  9
$TDUCREATE
 40
2457175.297123785
  9
$TDUPDATE
 40
2457871.506029433
  9
$TDUUPDATE
 40
2457871.131029432
  9
$TDINDWG
 40
0.7310298380
  9
$TDUSRTIMER
 40
0.7310297338
  9
$USRTIMER
 70
     1
  9
$ANGBASE
 50
0.0
  9
$ANGDIR
 70
     0
  9
$PDMODE
 70
     0
  9
$PDSIZE
 40
0.0
  9
$PLINEWID
 40
0.0
  9
$SPLFRAME
 70
     0
  9
$SPLINETYPE
 70
     6
  9
$SPLINESEGS
 70
     8
  9
$HANDSEED
  5
3092
  9
$SURFTAB1
 70
     6
  9
$SURFTAB2
 70
     6
  9
$SURFTYPE
 70
     6
  9
$SURFU
 70
     6
  9
$SURFV
 70
     6
  9
$UCSBASE
  2

  9
$UCSNAME
  2

  9
$UCSORG
 10
0.0
 20
0.0
 30
0.0
  9
$UCSXDIR
 10
1.0
 20
0.0
 30
0.0
  9
$UCSYDIR
 10
0.0
 20
1.0
 30
0.0
  9
$UCSORTHOREF
  2

  9
$UCSORTHOVIEW
 70
     0
  9
$UCSORGTOP
 10
0.0
 20
0.0
 30
0.0
  9
$UCSORGBOTTOM
 10
0.0
 20
0.0
 30
0.0
  9
$UCSORGLEFT
 10
0.0
 20
0.0
 30
0.0
  9
$UCSORGRIGHT
 10
0.0
 20
0.0
 30
0.0
  9
$UCSORGFRONT
 10
0.0
 20
0.0
 30
0.0
  9
$UCSORGBACK
 10
0.0
 20
0.0
 30
0.0
  9
$PUCSBASE
  2

  9
$PUCSNAME
  2

  9
$PUCSORG
 10
0.0
 20
0.0
 30
0.0
  9
$PUCSXDIR
 10
1.0
 20
0.0
 30
0.0
  9
$PUCSYDIR
 10
0.0
 20
1.0
 30
0.0
  9
$PUCSORTHOREF
  2

  9
$PUCSORTHOVIEW
 70
     0
  9
$PUCSORGTOP
 10
0.0
 20
0.0
 30
0.0
  9
$PUCSORGBOTTOM
 10
0.0
 20
0.0
 30
0.0
  9
$PUCSORGLEFT
 10
0.0
 20
0.0
 30
0.0
  9
$PUCSORGRIGHT
 10
0.0
 20
0.0
 30
0.0
  9
$PUCSORGFRONT
 10
0.0
 20
0.0
 30
0.0
  9
$PUCSORGBACK
 10
0.0
 20
0.0
 30
0.0
  9
$USERI1
 70
     0
  9
$USERI2
 70
     0
  9
$USERI3
 70
     0
  9
$USERI4
 70
     0
  9
$USERI5
 70
     0
  9
$USERR1
 40
0.0
  9
$USERR2
 40
0.0
  9
$USERR3
 40
0.0
  9
$USERR4
 40
0.0
  9
$USERR5
 40
0.0
  9
$WORLDVIEW
 70
     1
  9
$SHADEDGE
 70
     3
  9
$SHADEDIF
 70
    70
  9
$TILEMODE
 70
     1
  9
$MAXACTVP
 70
    64
  9
$PINSBASE
 10
0.0
 20
0.0
 30
0.0
  9
$PLIMCHECK
 70
     0
  9
$PEXTMIN
 10
25.69999999999999
 20
19.5
 30
0.0
  9
$PEXTMAX
 10
231.3
 20
175.5
 30
0.0
  9
$PLIMMIN
 10
-4.9847412109375
 20
-4.984749794006347
  9
$PLIMMAX
 10
415.0042419433593
 20
292.0259008407593
  9
$UNITMODE
 70
     0
  9
$VISRETAIN
 70
     1
  9
$PLINEGEN
 70
     0
  9
$PSLTSCALE
 70
     1
  9
$TREEDEPTH
 70
  3020
  9
$CMLSTYLE
  2
Standard
  9
$CMLJUST
 70
     0
  9
$CMLSCALE
 40
20.0
  9
$PROXYGRAPHICS
 70
     1
  9
$MEASUREMENT
 70
     1
  9
$CELWEIGHT
370
    -1
  9
$ENDCAPS
280
     0
  9
$JOINSTYLE
280
     0
  9
$LWDISPLAY
290
     0
  9
$INSUNITS
 70
     4
  9
$HYPERLINKBASE
  1

  9
$STYLESHEET
  1
monochrome.stb
  9
$XEDIT
290
     1
  9
$CEPSNTYPE
380
     0
  9
$PSTYLEMODE
290
     0
  9
$FINGERPRINTGUID
  2
{083708C7-F509-4151-B42C-06F3721D7F80}
  9
$VERSIONGUID
  2
{25C58676-BA53-41A7-B093-9100FCF9548C}
  9
$EXTNAMES
290
     1
  9
$PSVPSCALE
 40
0.0
  9
$OLESTARTUP
290
     0
  9
$SORTENTS
280
   127
  9
$INDEXCTL
280
     0
  9
$HIDETEXT
280
     1
  9
$XCLIPFRAME
280
     2
  9
$HALOGAP
280
     0
  9
$OBSCOLOR
 70
   257
  9
$OBSLTYPE
280
     0
  9
$INTERSECTIONDISPLAY
280
     0
  9
$INTERSECTIONCOLOR
 70
   257
  9
$DIMASSOC
280
     2
  9
$PROJECTNAME
  1

  9
$CAMERADISPLAY
290
     0
  9
$LENSLENGTH
 40
50.0
  9
$CAMERAHEIGHT
 40
1524.0
  9
$STEPSPERSEC
 40
2.0
  9
$STEPSIZE
 40
6.0
  9
$3DDWFPREC
 40
2.0
  9
$PSOLWIDTH
 40
5.0
  9
$PSOLHEIGHT
 40
80.0
  9
$LOFTANG1
 40
1.570796326794896
  9
$LOFTANG2
 40
1.570796326794896
  9
$LOFTMAG1
 40
0.0
  9
$LOFTMAG2
 40
0.0
  9
$LOFTPARAM
 70
     7
  9
$LOFTNORMALS
280
     1
  9
$LATITUDE
 40
37.795
  9
$LONGITUDE
 40
-122.394
  9
$NORTHDIRECTION
 40
0.0
  9
$TIMEZONE
 70
 -8000
  9
$LIGHTGLYPHDISPLAY
280
     1
  9
$TILEMODELIGHTSYNCH
280
     1
  9
$CMATERIAL
347
E3
  9
$SOLIDHIST
280
     0
  9
$SHOWHIST
280
     1
  9
$DWFFRAME
280
     2
  9
$DGNFRAME
280
     0
  9
$REALWORLDSCALE
290
     1
  9
$INTERFERECOLOR
 62
     1
  9
$INTERFEREOBJVS
345
F0
  9
$INTERFEREVPVS
346
ED
  9
$CSHADOW
280
     0
  9
$SHADOWPLANELOCATION
 40
0.0
  0
ENDSEC
  0
SECTION
  2
CLASSES
  0
CLASS
  1
ACDBDICTIONARYWDFLT
  2
AcDbDictionaryWithDefault
  3
ObjectDBX Classes
 90
        0
 91
        1
280
     0
281
     0
  0
CLASS
  1
DICTIONARYVAR
  2
AcDbDictionaryVar
  3
ObjectDBX Classes
 90
        0
 91
       11
280
     0
281
     0
  0
CLASS
  1
TABLESTYLE
  2
AcDbTableStyle
  3
ObjectDBX Classes
 90
     4095
 91
        1
280
     0
281
     0
  0
CLASS
  1
MATERIAL
  2
AcDbMaterial
  3
ObjectDBX Classes
 90
     1153
 91
        3
280
     0
281
     0
  0
CLASS
  1
VISUALSTYLE
  2
AcDbVisualStyle
  3
ObjectDBX Classes
 90
     4095
 91
       24
280
     0
281
     0
  0
CLASS
  1
SCALE
  2
AcDbScale
  3
ObjectDBX Classes
 90
     1153
 91
       17
280
     0
281
     0
  0
CLASS
  1
MLEADERSTYLE
  2
AcDbMLeaderStyle
  3
ACDB_MLEADERSTYLE_CLASS
 90
     4095
 91
        2
280
     0
281
     0
  0
CLASS
  1
CELLSTYLEMAP
  2
AcDbCellStyleMap
  3
ObjectDBX Classes
 90
     1152
 91
        1
280
     0
281
     0
  0
CLASS
  1
EXACXREFPANELOBJECT
  2
ExAcXREFPanelObject
  3
EXAC_ESW
 90
     1025
 91
        0
280
     0
281
     0
  0
CLASS
  1
NPOCOLLECTION
  2
AcDbImpNonPersistentObjectsCollection
  3
ObjectDBX Classes
 90
     1153
 91
        0
280
     0
281
     0
  0
CLASS
  1
LAYER_INDEX
  2
AcDbLayerIndex
  3
ObjectDBX Classes
 90
        0
 91
        0
280
     0
281
     0
  0
CLASS
  1
SPATIAL_INDEX
  2
AcDbSpatialIndex
  3
ObjectDBX Classes
 90
        0
 91
        0
280
     0
281
     0
  0
CLASS
  1
IDBUFFER
  2
AcDbIdBuffer
  3
ObjectDBX Classes
 90
        0
 91
        0
280
     0
281
     0
  0
CLASS
  1
ACDBSECTIONVIEWSTYLE
  2
AcDbSectionViewStyle
  3
ObjectDBX Classes
 90
     1025
 91
        1
280
     0
281
     0
  0
CLASS
  1
ACDBDETAILVIEWSTYLE
  2
AcDbDetailViewStyle
  3
ObjectDBX Classes
 90
     1025
 91
        1
280
     0
281
     0
  0
CLASS
  1
DIMASSOC
  2
AcDbDimAssoc
  3
"AcDbDimAssoc|Product Desc:     AcDim ARX App For Dimension|Company:          Autodesk, Inc.|WEB Address:      www.autodesk.com"
 90
        0
 91
        7
280
     0
281
     0
  0
CLASS
  1
SORTENTSTABLE
  2
AcDbSortentsTable
  3
ObjectDBX Classes
 90
        0
 91
        1
280
     0
281
     0
  0
CLASS
  1
PLOTSETTINGS
  2
AcDbPlotSettings
  3
ObjectDBX Classes
 90
        0
 91
        1
280
     0
281
     0
  0
ENDSEC
  0
SECTION
  2
TABLES
  0
TABLE
  2
VPORT
  5
8
330
0
100
AcDbSymbolTable
 70
     1
  0
VPORT
  5
E1
330
8
100
AcDbSymbolTableRecord
100
AcDbViewportTableRecord
  2
*Active
 70
     0
 10
0.0
 20
0.0
 11
1.0
 21
1.0
 12
36639.50194070038
 22
28849.90143239161
 13
0.0
 23
0.0
 14
10.0
 24
10.0
 15
10.0
 25
10.0
 16
0.0
 26
0.0
 36
1.0
 17
0.0
 27
0.0
 37
0.0
 40
2458.345979352378
 41
1.203585147247119
 42
50.0
 43
0.0
 44
0.0
 50
0.0
 51
0.0
 71
     0
 72
  1000
 73
     1
 74
     3
 75
     0
 76
     1
 77
     0
 78
     0
281
     0
 65
     1
110
0.0
120
0.0
130
0.0
111
1.0
121
0.0
131
0.0
112
0.0
122
1.0
132
0.0
 79
     0
146
0.0
348
EC
 60
     3
 61
     5
292
     1
282
     1
141
0.0
142
0.0
 63
   250
421
  3355443
1001
ACAD_NAV_VCDISPLAY
1070
     3
  0
ENDTAB
  0
TABLE
  2
LTYPE
  5
5
330
0
100
AcDbSymbolTable
 70
     4
  0
LTYPE
  5
14
330
5
100
AcDbSymbolTableRecord
100
AcDbLinetypeTableRecord
  2
ByBlock
 70
     0
  3

 72
    65
 73
     0
 40
0.0
  0
LTYPE
  5
15
330
5
100
AcDbSymbolTableRecord
100
AcDbLinetypeTableRecord
  2
ByLayer
 70
     0
  3

 72
    65
 73
     0
 40
0.0
  0
LTYPE
  5
16
330
5
100
AcDbSymbolTableRecord
100
AcDbLinetypeTableRecord
  2
Continuous
 70
     0
  3
Solid line
 72
    65
 73
     0
 40
0.0
  0
LTYPE
  5
25A
330
5
100
AcDbSymbolTableRecord
100
AcDbLinetypeTableRecord
  2
ACAD_ISO04W100
 70
     0
  3
ISO long-dash dot ____ . ____ . ____ . ____ . _
 72
    65
 73
     4
 40
30.0
 49
24.0
 74
     0
 49
-3.0
 74
     0
 49
0.0
 74
     0
 49
-3.0
 74
     0
  0
LTYPE
  5
25E
330
5
100
AcDbSymbolTableRecord
100
AcDbLinetypeTableRecord
  2
ACAD_ISO02W100
 70
     0
  3
ISO dash __ __ __ __ __ __ __ __ __ __ __ __ __
 72
    65
 73
     2
 40
15.0
 49
12.0
 74
     0
 49
-3.0
 74
     0
  0
LTYPE
  5
260
330
5
100
AcDbSymbolTableRecord
100
AcDbLinetypeTableRecord
  2
ACAD_ISO07W100
 70
     0
  3
ISO dot . . . . . . . . . . . . . . . . . . . .
 72
    65
 73
     2
 40
3.0
 49
0.0
 74
     0
 49
-3.0
 74
     0
  0
ENDTAB
  0
TABLE
  2
LAYER
  5
2
102
{ACAD_XDICTIONARY
360
1F6
102
}
330
0
100
AcDbSymbolTable
 70
    14
  0
LAYER
  5
10
102
{ACAD_XDICTIONARY
360
133
102
}
330
2
100
AcDbSymbolTableRecord
100
AcDbLayerTableRecord
  2
0
 70
     0
 62
     7
  6
Continuous
370
    -3
390
F
347
E5
348
0
  0
LAYER
  5
255
330
2
100
AcDbSymbolTableRecord
100
AcDbLayerTableRecord
  2
中心線
 70
     0
 62
     3
  6
ACAD_ISO04W100
370
     9
390
F
347
E5
348
0
1001
AcAecLayerStandard
1000

1000

1001
AcCmTransparency
1071
        0
  0
LAYER
  5
25B
330
2
100
AcDbSymbolTableRecord
100
AcDbLayerTableRecord
  2
外形線②
 70
     0
 62
     7
  6
Continuous
370
    15
390
F
347
E5
348
0
1001
AcAecLayerStandard
1000

1000

1001
AcCmTransparency
1071
        0
  0
LAYER
  5
25C
330
2
100
AcDbSymbolTableRecord
100
AcDbLayerTableRecord
  2
寸法線
 70
     0
 62
     3
  6
Continuous
370
    13
390
F
347
E5
348
0
1001
AcAecLayerStandard
1000

1000

1001
AcCmTransparency
1071
        0
  0
LAYER
  5
25D
330
2
100
AcDbSymbolTableRecord
100
AcDbLayerTableRecord
  2
点線
 70
     0
 62
     4
  6
ACAD_ISO02W100
370
     9
390
F
347
E5
348
0
1001
AcAecLayerStandard
1000

1000

1001
AcCmTransparency
1071
        0
  0
LAYER
  5
25F
330
2
100
AcDbSymbolTableRecord
100
AcDbLayerTableRecord
  2
オフセット
 70
     0
 62
    -6
  6
Continuous
370
    13
390
F
347
E5
348
0
1001
AcAecLayerStandard
1000

1000

1001
AcCmTransparency
1071
        0
  0
LAYER
  5
271
330
2
100
AcDbSymbolTableRecord
100
AcDbLayerTableRecord
  2
Defpoints
 70
     0
 62
     7
  6
Continuous
290
     0
370
    -3
390
F
347
E5
348
0
  0
LAYER
  5
2F1
330
2
100
AcDbSymbolTableRecord
100
AcDbLayerTableRecord
  2
ビューポート
 70
     0
 62
     3
  6
Continuous
370
    15
390
F
347
E5
348
0
1001
AcAecLayerStandard
1000

1000

1001
AcCmTransparency
1071
        0
  0
LAYER
  5
382
330
2
100
AcDbSymbolTableRecord
100
AcDbLayerTableRecord
  2
外形線
 70
     0
 62
     7
  6
Continuous
370
    15
390
F
347
E5
348
0
1001
AcAecLayerStandard
1000

1000

1001
AcCmTransparency
1071
        0
  0
LAYER
  5
430
330
2
100
AcDbSymbolTableRecord
100
AcDbLayerTableRecord
  2
LED器具
 70
     0
 62
     4
  6
Continuous
370
    13
390
F
347
E5
348
0
1001
AcAecLayerStandard
1000

1000

1001
AcCmTransparency
1071
        0
  0
LAYER
  5
44D
330
2
100
AcDbSymbolTableRecord
100
AcDbLayerTableRecord
  2
孔
 70
     0
 62
     4
  6
Continuous
370
    15
390
F
347
E5
348
0
1001
AcAecLayerStandard
1000

1000

1001
AcCmTransparency
1071
        0
  0
LAYER
  5
AAC
330
2
100
AcDbSymbolTableRecord
100
AcDbLayerTableRecord
  2
枠線
 70
     0
 62
     2
  6
Continuous
370
     9
390
F
347
E5
348
0
1001
AcAecLayerStandard
1000

1000

1001
AcCmTransparency
1071
        0
  0
LAYER
  5
CEA
102
{ACAD_XDICTIONARY
360
CEB
102
}
330
2
100
AcDbSymbolTableRecord
100
AcDbLayerTableRecord
  2
1
 70
     0
 62
     7
  6
Continuous
370
    -3
390
F
347
E5
348
0
  0
LAYER
  5
DBB
330
2
100
AcDbSymbolTableRecord
100
AcDbLayerTableRecord
  2
○
 70
     0
 62
     3
  6
Continuous
370
     9
390
F
347
E5
348
0
1001
AcAecLayerStandard
1000

1000

1001
AcCmTransparency
1071
        0
  0
ENDTAB
  0
TABLE
  2
STYLE
  5
3
330
0
100
AcDbSymbolTable
 70
     4
  0
STYLE
  5
11
330
3
100
AcDbSymbolTableRecord
100
AcDbTextStyleTableRecord
  2
Standard
 70
     0
 40
0.0
 41
1.0
 50
0.0
 71
     0
 42
2.5
  3
arial.ttf
  4

1001
ACAD
1000
Arial
1071
       34
  0
STYLE
  5
129
330
3
100
AcDbSymbolTableRecord
100
AcDbTextStyleTableRecord
  2
Annotative
 70
     0
 40
0.0
 41
1.0
 50
0.0
 71
     0
 42
2.5
  3
arial.ttf
  4

1001
AcadAnnotative
1000
AnnotativeData
1002
{
1070
     1
1070
     1
1002
}
1001
ACAD
1000
Arial
1071
       34
  0
STYLE
  5
259
330
3
100
AcDbSymbolTableRecord
100
AcDbTextStyleTableRecord
  2

 70
     1
 40
0.0
 41
1.0
 50
0.0
 71
     0
 42
2.5
  3
ltypeshp.shx
  4

  0
STYLE
  5
CEC
330
3
100
AcDbSymbolTableRecord
100
AcDbTextStyleTableRecord
  2
BIGFONT
 70
     0
 40
1.0
 41
1.0
 50
0.0
 71
     0
 42
1.0
  3
TXT
  4
BIGFONT
  0
ENDTAB
  0
TABLE
  2
VIEW
  5
6
330
0
100
AcDbSymbolTable
 70
     0
  0
ENDTAB
  0
TABLE
  2
UCS
  5
7
330
0
100
AcDbSymbolTable
 70
     0
  0
ENDTAB
  0
TABLE
  2
APPID
  5
9
330
0
100
AcDbSymbolTable
 70
    13
  0
APPID
  5
12
330
9
100
AcDbSymbolTableRecord
100
AcDbRegAppTableRecord
  2
ACAD
 70
     0
  0
APPID
  5
A0
330
9
100
AcDbSymbolTableRecord
100
AcDbRegAppTableRecord
  2
ACAD_PSEXT
 70
     0
  0
APPID
  5
12A
330
9
100
AcDbSymbolTableRecord
100
AcDbRegAppTableRecord
  2
AcadAnnoPO
 70
     0
  0
APPID
  5
12B
330
9
100
AcDbSymbolTableRecord
100
AcDbRegAppTableRecord
  2
AcadAnnotative
 70
     0
  0
APPID
  5
12C
330
9
100
AcDbSymbolTableRecord
100
AcDbRegAppTableRecord
  2
ACAD_DSTYLE_DIMJAG
 70
     0
  0
APPID
  5
12D
330
9
100
AcDbSymbolTableRecord
100
AcDbRegAppTableRecord
  2
ACAD_DSTYLE_DIMTALN
 70
     0
  0
APPID
  5
15C
330
9
100
AcDbSymbolTableRecord
100
AcDbRegAppTableRecord
  2
ACAD_MLEADERVER
 70
     0
  0
APPID
  5
20E
330
9
100
AcDbSymbolTableRecord
100
AcDbRegAppTableRecord
  2
ACAD_NAV_VCDISPLAY
 70
     0
  0
APPID
  5
256
330
9
100
AcDbSymbolTableRecord
100
AcDbRegAppTableRecord
  2
AcAecLayerStandard
 70
     0
  0
APPID
  5
257
330
9
100
AcDbSymbolTableRecord
100
AcDbRegAppTableRecord
  2
AcCmTransparency
 70
     0
  0
APPID
  5
264
330
9
100
AcDbSymbolTableRecord
100
AcDbRegAppTableRecord
  2
ACAD_EXEMPT_FROM_CAD_STANDARDS
 70
     0
  0
APPID
  5
26F
330
9
100
AcDbSymbolTableRecord
100
AcDbRegAppTableRecord
  2
ACAD_DSTYLE_DIMRADIAL_EXTENSION
 70
     0
  0
APPID
  5
A2B
330
9
100
AcDbSymbolTableRecord
100
AcDbRegAppTableRecord
  2
AcadAnnoMonitorAlertIconDisabled
 70
     0
  0
ENDTAB
  0
TABLE
  2
DIMSTYLE
  5
A
330
0
100
AcDbSymbolTable
 70
     3
100
AcDbDimStyleTable
 71
     2
340
27
340
12E
  0
DIMSTYLE
105
1A7
330
A
100
AcDbSymbolTableRecord
100
AcDbDimStyleTableRecord
  2
Standard
 70
     0
340
11
  0
DIMSTYLE
105
12E
330
A
100
AcDbSymbolTableRecord
100
AcDbDimStyleTableRecord
  2
Annotative
 70
     0
 40
0.0
 41
2.5
 42
0.625
 43
3.75
 44
1.25
 73
     0
 74
     0
 77
     1
 78
     8
140
2.5
141
2.5
143
0.03937007874016
147
0.625
171
     3
172
     1
271
     2
272
     2
274
     3
278
    44
283
     0
284
     8
340
11
1001
AcadAnnotative
1000
AnnotativeData
1002
{
1070
     1
1070
     1
1002
}
1001
ACAD_DSTYLE_DIMJAG
1070
   388
1040
1.5
1001
ACAD_DSTYLE_DIMTALN
1070
   392
1070
     0
  0
DIMSTYLE
105
27
102
{ACAD_REACTORS
330
2EF1
330
2F0C
330
2F24
330
2F79
330
2F91
330
2FA9
330
2FC3
102
}
330
A
100
AcDbSymbolTableRecord
100
AcDbDimStyleTableRecord
  2
ISO-25
 70
     0
 41
2.5
 42
0.625
 43
3.75
 44
1.25
 73
     0
 74
     0
 77
     1
 78
     8
140
20.0
141
2.5
143
0.03937007874016
147
0.625
171
     3
172
     1
271
     2
272
     2
274
     3
278
    44
283
     0
284
     8
340
11
1001
ACAD_DSTYLE_DIMJAG
1070
   388
1040
1.5
1001
ACAD_DSTYLE_DIMTALN
1070
   392
1070
     0
  0
ENDTAB
  0
TABLE
  2
BLOCK_RECORD
  5
1
330
0
100
AcDbSymbolTable
 70
     8
  0
BLOCK_RECORD
  5
1F
102
{ACAD_XDICTIONARY
360
1C5
102
}
330
1
100
AcDbSymbolTableRecord
100
AcDbBlockTableRecord
  2
*Model_Space
340
22
 70
     0
280
     1
281
     0
  0
BLOCK_RECORD
  5
D2
330
1
100
AcDbSymbolTableRecord
100
AcDbBlockTableRecord
  2
*Paper_Space
340
D3
 70
     0
280
     1
281
     0
  0
BLOCK_RECORD
  5
D6
330
1
100
AcDbSymbolTableRecord
100
AcDbBlockTableRecord
  2
*Paper_Space0
340
D7
 70
     0
280
     1
281
     0
  0
BLOCK_RECORD
  5
2EF2
330
1
100
AcDbSymbolTableRecord
100
AcDbBlockTableRecord
  2
*D1
340
0
 70
     0
280
     1
281
     0
  0
BLOCK_RECORD
  5
2F0D
330
1
100
AcDbSymbolTableRecord
100
AcDbBlockTableRecord
  2
*D2
340
0
 70
     0
280
     1
281
     0
  0
BLOCK_RECORD
  5
2F25
330
1
100
AcDbSymbolTableRecord
100
AcDbBlockTableRecord
  2
*D3
340
0
 70
     0
280
     1
281
     0
  0
BLOCK_RECORD
  5
2F7A
330
1
100
AcDbSymbolTableRecord
100
AcDbBlockTableRecord
  2
*D4
340
0
 70
     0
280
     1
281
     0
  0
BLOCK_RECORD
  5
2F92
330
1
100
AcDbSymbolTableRecord
100
AcDbBlockTableRecord
  2
*D5
340
0
 70
     0
280
     1
281
     0
  0
BLOCK_RECORD
  5
2FAA
330
1
100
AcDbSymbolTableRecord
100
AcDbBlockTableRecord
  2
*D6
340
0
 70
     0
280
     1
281
     0
  0
BLOCK_RECORD
  5
2FC4
330
1
100
AcDbSymbolTableRecord
100
AcDbBlockTableRecord
  2
*D7
340
0
 70
     0
280
     1
281
     0
  0
ENDTAB
  0
ENDSEC
  0
SECTION
  2
BLOCKS
  0
BLOCK
  5
20
330
1F
100
AcDbEntity
  8
0
100
AcDbBlockBegin
  2
*Model_Space
 70
     0
 10
0.0
 20
0.0
 30
0.0
  3
*Model_Space
  1

  0
ENDBLK
  5
21
330
1F
100
AcDbEntity
  8
0
100
AcDbBlockEnd
  0
BLOCK
  5
D4
330
D2
100
AcDbEntity
 67
     1
  8
0
100
AcDbBlockBegin
  2
*Paper_Space
 70
     0
 10
0.0
 20
0.0
 30
0.0
  3
*Paper_Space
  1

  0
ENDBLK
  5
D5
330
D2
100
AcDbEntity
 67
     1
  8
0
100
AcDbBlockEnd
  0
BLOCK
  5
D8
330
D6
100
AcDbEntity
 67
     1
  8
0
100
AcDbBlockBegin
  2
*Paper_Space0
 70
     0
 10
0.0
 20
0.0
 30
0.0
  3
*Paper_Space0
  1

  0
ENDBLK
  5
D9
330
D6
100
AcDbEntity
 67
     1
  8
0
100
AcDbBlockEnd
  0
BLOCK
  5
2EF3
330
2EF2
100
AcDbEntity
  8
0
100
AcDbBlockBegin
  2
*D1
 70
     1
 10
0.0
 20
0.0
 30
0.0
  3
*D1
  1

  0
LINE
  5
2FEA
330
2EF2
100
AcDbEntity
  8
寸法線
 62
     0
440
 16777216
370
    -2
100
AcDbLine
 10
36082.29621540287
 20
29042.43771879219
 30
0.0
 11
36082.29621540287
 21
29116.83293103712
 31
0.0
  0
LINE
  5
2FEB
330
2EF2
100
AcDbEntity
  8
寸法線
 62
     0
440
 16777216
370
    -2
100
AcDbLine
 10
36756.29621540287
 20
29042.43771879219
 30
0.0
 11
36756.29621540287
 21
29116.83293103712
 31
0.0
  0
LINE
  5
2FEC
330
2EF2
100
AcDbEntity
  8
寸法線
 62
     0
440
 16777216
370
    -2
100
AcDbLine
 10
36084.79621540287
 20
29115.58293103712
 30
0.0
 11
36753.79621540287
 21
29115.58293103712
 31
0.0
  0
SOLID
  5
2FED
330
2EF2
100
AcDbEntity
  8
寸法線
 62
     0
440
 16777216
100
AcDbTrace
 10
36084.79621540287
 20
29115.99959770379
 30
0.0
 11
36084.79621540287
 21
29115.16626437045
 31
0.0
 12
36082.29621540287
 22
29115.58293103712
 32
0.0
 13
36082.29621540287
 23
29115.58293103712
 33
0.0
  0
SOLID
  5
2FEE
330
2EF2
100
AcDbEntity
  8
寸法線
 62
     0
440
 16777216
100
AcDbTrace
 10
36753.79621540287
 20
29115.99959770379
 30
0.0
 11
36753.79621540287
 21
29115.16626437045
 31
0.0
 12
36756.29621540287
 22
29115.58293103712
 32
0.0
 13
36756.29621540287
 23
29115.58293103712
 33
0.0
  0
MTEXT
  5
2FEF
330
2EF2
100
AcDbEntity
  8
寸法線
 62
     0
440
 16777216
100
AcDbMText
 10
36419.29621540287
 20
29126.41939079156
 30
0.0
 40
20.0
 41
0.0
 46
0.0
 71
     5
 72
     1
  1
674
 73
     1
 44
1.0
  0
POINT
  5
2FF0
330
2EF2
100
AcDbEntity
  8
Defpoints
 62
     0
440
 16777216
100
AcDbPoint
 10
36082.29621540287
 20
29041.81271879219
 30
0.0
  0
POINT
  5
2FF1
330
2EF2
100
AcDbEntity
  8
Defpoints
 62
     0
440
 16777216
100
AcDbPoint
 10
36756.29621540287
 20
29041.81271879219
 30
0.0
  0
POINT
  5
2FF2
330
2EF2
100
AcDbEntity
  8
Defpoints
 62
     0
440
 16777216
100
AcDbPoint
 10
36756.29621540287
 20
29115.58293103712
 30
0.0
  0
ENDBLK
  5
2EF4
330
2EF2
100
AcDbEntity
  8
0
100
AcDbBlockEnd
  0
BLOCK
  5
2F0E
330
2F0D
100
AcDbEntity
  8
0
100
AcDbBlockBegin
  2
*D2
 70
     1
 10
0.0
 20
0.0
 30
0.0
  3
*D2
  1

  0
LINE
  5
2FF3
330
2F0D
100
AcDbEntity
  8
寸法線
 62
     0
440
 16777216
370
    -2
100
AcDbLine
 10
36755.92121540288
 20
28751.6857802115
 30
0.0
 11
36827.6100203953
 21
28751.6857802115
 31
0.0
  0
LINE
  5
2FF4
330
2F0D
100
AcDbEntity
  8
寸法線
 62
     0
440
 16777216
370
    -2
100
AcDbLine
 10
36755.92121540288
 20
28803.6857802115
 30
0.0
 11
36827.6100203953
 21
28803.6857802115
 31
0.0
  0
LINE
  5
2FF5
330
2F0D
100
AcDbEntity
  8
寸法線
 62
     0
440
 16777216
370
    -2
100
AcDbLine
 10
36826.3600203953
 20
28754.1857802115
 30
0.0
 11
36826.3600203953
 21
28801.1857802115
 31
0.0
  0
SOLID
  5
2FF6
330
2F0D
100
AcDbEntity
  8
寸法線
 62
     0
440
 16777216
100
AcDbTrace
 10
36825.94335372864
 20
28754.1857802115
 30
0.0
 11
36826.77668706197
 21
28754.1857802115
 31
0.0
 12
36826.3600203953
 22
28751.6857802115
 32
0.0
 13
36826.3600203953
 23
28751.6857802115
 33
0.0
  0
SOLID
  5
2FF7
330
2F0D
100
AcDbEntity
  8
寸法線
 62
     0
440
 16777216
100
AcDbTrace
 10
36825.94335372864
 20
28801.1857802115
 30
0.0
 11
36826.77668706197
 21
28801.1857802115
 31
0.0
 12
36826.3600203953
 22
28803.6857802115
 32
0.0
 13
36826.3600203953
 23
28803.6857802115
 33
0.0
  0
MTEXT
  5
2FF8
330
2F0D
100
AcDbEntity
  8
寸法線
 62
     0
440
 16777216
100
AcDbMText
 10
36815.52356064086
 20
28777.6857802115
 30
0.0
 40
20.0
 41
0.0
 46
0.0
 71
     5
 72
     1
  1
52
 11
0.0000000000000001
 21
1.0
 31
0.0
 73
     1
 44
1.0
  0
POINT
  5
2FF9
330
2F0D
100
AcDbEntity
  8
Defpoints
 62
     0
440
 16777216
100
AcDbPoint
 10
36755.29621540287
 20
28751.6857802115
 30
0.0
  0
POINT
  5
2FFA
330
2F0D
100
AcDbEntity
  8
Defpoints
 62
     0
440
 16777216
100
AcDbPoint
 10
36755.29621540287
 20
28803.6857802115
 30
0.0
  0
POINT
  5
2FFB
330
2F0D
100
AcDbEntity
  8
Defpoints
 62
     0
440
 16777216
100
AcDbPoint
 10
36826.3600203953
 20
28803.6857802115
 30
0.0
  0
ENDBLK
  5
2F0F
330
2F0D
100
AcDbEntity
  8
0
100
AcDbBlockEnd
  0
BLOCK
  5
2F26
330
2F25
100
AcDbEntity
  8
0
100
AcDbBlockBegin
  2
*D3
 70
     1
 10
0.0
 20
0.0
 30
0.0
  3
*D3
  1

  0
LINE
  5
2FFC
330
2F25
100
AcDbEntity
  8
寸法線
 62
     0
440
 16777216
370
    -2
100
AcDbLine
 10
36755.92121540288
 20
28751.6857802115
 30
0.0
 11
36827.6100203953
 21
28751.6857802115
 31
0.0
  0
LINE
  5
2FFD
330
2F25
100
AcDbEntity
  8
寸法線
 62
     0
440
 16777216
370
    -2
100
AcDbLine
 10
36716.92121540287
 20
28747.6857802115
 30
0.0
 11
36827.6100203953
 21
28747.6857802115
 31
0.0
  0
LINE
  5
2FFE
330
2F25
100
AcDbEntity
  8
寸法線
 62
     0
440
 16777216
370
    -2
100
AcDbLine
 10
36826.3600203953
 20
28754.1857802115
 30
0.0
 11
36826.3600203953
 21
28756.6857802115
 31
0.0
  0
LINE
  5
2FFF
330
2F25
100
AcDbEntity
  8
寸法線
 62
     0
440
 16777216
370
    -2
100
AcDbLine
 10
36826.3600203953
 20
28745.1857802115
 30
0.0
 11
36826.3600203953
 21
28727.60221950209
 31
0.0
  0
LINE
  5
3000
330
2F25
100
AcDbEntity
  8
寸法線
 62
     0
440
 16777216
370
    -2
100
AcDbLine
 10
36826.3600203953
 20
28751.6857802115
 30
0.0
 11
36826.3600203953
 21
28747.6857802115
 31
0.0
  0
SOLID
  5
3001
330
2F25
100
AcDbEntity
  8
寸法線
 62
     0
440
 16777216
100
AcDbTrace
 10
36825.94335372864
 20
28754.1857802115
 30
0.0
 11
36826.77668706197
 21
28754.1857802115
 31
0.0
 12
36826.3600203953
 22
28751.6857802115
 32
0.0
 13
36826.3600203953
 23
28751.6857802115
 33
0.0
  0
SOLID
  5
3002
330
2F25
100
AcDbEntity
  8
寸法線
 62
     0
440
 16777216
100
AcDbTrace
 10
36825.94335372864
 20
28745.1857802115
 30
0.0
 11
36826.77668706197
 21
28745.1857802115
 31
0.0
 12
36826.3600203953
 22
28747.6857802115
 32
0.0
 13
36826.3600203953
 23
28747.6857802115
 33
0.0
  0
MTEXT
  5
3003
330
2F25
100
AcDbEntity
  8
寸法線
 62
     0
440
 16777216
100
AcDbMText
 10
36815.7350203953
 20
28735.1439998568
 30
0.0
 40
20.0
 41
0.0
 46
0.0
 71
     5
 72
     1
  1
4
 11
0.0000000000000001
 21
1.0
 31
0.0
 73
     1
 44
1.0
  0
POINT
  5
3004
330
2F25
100
AcDbEntity
  8
Defpoints
 62
     0
440
 16777216
100
AcDbPoint
 10
36755.29621540287
 20
28751.6857802115
 30
0.0
  0
POINT
  5
3005
330
2F25
100
AcDbEntity
  8
Defpoints
 62
     0
440
 16777216
100
AcDbPoint
 10
36716.29621540287
 20
28747.6857802115
 30
0.0
  0
POINT
  5
3006
330
2F25
100
AcDbEntity
  8
Defpoints
 62
     0
440
 16777216
100
AcDbPoint
 10
36826.3600203953
 20
28747.6857802115
 30
0.0
  0
ENDBLK
  5
2F27
330
2F25
100
AcDbEntity
  8
0
100
AcDbBlockEnd
  0
BLOCK
  5
2F7B
330
2F7A
100
AcDbEntity
  8
0
100
AcDbBlockBegin
  2
*D4
 70
     1
 10
0.0
 20
0.0
 30
0.0
  3
*D4
  1

  0
LINE
  5
3007
330
2F7A
100
AcDbEntity
  8
寸法線
 62
     0
440
 16777216
370
    -2
100
AcDbLine
 10
36974.50558766011
 20
28803.68578056051
 30
0.0
 11
36871.19979051477
 21
28803.68578056051
 31
0.0
  0
LINE
  5
3008
330
2F7A
100
AcDbEntity
  8
寸法線
 62
     0
440
 16777216
370
    -2
100
AcDbLine
 10
36974.50558766012
 20
28747.68578056051
 30
0.0
 11
36871.19979051477
 21
28747.68578056051
 31
0.0
  0
LINE
  5
3009
330
2F7A
100
AcDbEntity
  8
寸法線
 62
     0
440
 16777216
370
    -2
100
AcDbLine
 10
36872.44979051477
 20
28801.18578056051
 30
0.0
 11
36872.44979051477
 21
28750.18578056051
 31
0.0
  0
SOLID
  5
300A
330
2F7A
100
AcDbEntity
  8
寸法線
 62
     0
440
 16777216
100
AcDbTrace
 10
36872.03312384811
 20
28801.18578056051
 30
0.0
 11
36872.86645718144
 21
28801.18578056051
 31
0.0
 12
36872.44979051477
 22
28803.68578056051
 32
0.0
 13
36872.44979051477
 23
28803.68578056051
 33
0.0
  0
SOLID
  5
300B
330
2F7A
100
AcDbEntity
  8
寸法線
 62
     0
440
 16777216
100
AcDbTrace
 10
36872.03312384811
 20
28750.18578056051
 30
0.0
 11
36872.86645718144
 21
28750.18578056051
 31
0.0
 12
36872.44979051477
 22
28747.68578056051
 32
0.0
 13
36872.44979051477
 23
28747.68578056051
 33
0.0
  0
MTEXT
  5
300C
330
2F7A
100
AcDbEntity
  8
寸法線
 62
     0
440
 16777216
100
AcDbMText
 10
36861.61333076033
 20
28775.68578056052
 30
0.0
 40
20.0
 41
0.0
 46
0.0
 71
     5
 72
     1
  1
56
 11
0.0000000000000001
 21
1.0
 31
0.0
 73
     1
 44
1.0
  0
POINT
  5
300D
330
2F7A
100
AcDbEntity
  8
Defpoints
 62
     0
440
 16777216
100
AcDbPoint
 10
36975.13058766011
 20
28803.68578056051
 30
0.0
  0
POINT
  5
300E
330
2F7A
100
AcDbEntity
  8
Defpoints
 62
     0
440
 16777216
100
AcDbPoint
 10
36975.13058766012
 20
28747.68578056051
 30
0.0
  0
POINT
  5
300F
330
2F7A
100
AcDbEntity
  8
Defpoints
 62
     0
440
 16777216
100
AcDbPoint
 10
36872.44979051477
 20
28747.68578056051
 30
0.0
  0
ENDBLK
  5
2F7C
330
2F7A
100
AcDbEntity
  8
0
100
AcDbBlockEnd
  0
BLOCK
  5
2F93
330
2F92
100
AcDbEntity
  8
0
100
AcDbBlockBegin
  2
*D5
 70
     1
 10
0.0
 20
0.0
 30
0.0
  3
*D5
  1

  0
LINE
  5
3010
330
2F92
100
AcDbEntity
  8
寸法線
 62
     0
440
 16777216
370
    -2
100
AcDbLine
 10
36906.33058766012
 20
28772.31078056051
 30
0.0
 11
36906.33058766012
 21
28845.08156425954
 31
0.0
  0
LINE
  5
3011
330
2F92
100
AcDbEntity
  8
寸法線
 62
     0
440
 16777216
370
    -2
100
AcDbLine
 10
36975.13058766012
 20
28804.31078056051
 30
0.0
 11
36975.13058766012
 21
28845.08156425954
 31
0.0
  0
LINE
  5
3012
330
2F92
100
AcDbEntity
  8
寸法線
 62
     0
440
 16777216
370
    -2
100
AcDbLine
 10
36908.83058766011
 20
28843.83156425954
 30
0.0
 11
36972.63058766012
 21
28843.83156425954
 31
0.0
  0
SOLID
  5
3013
330
2F92
100
AcDbEntity
  8
寸法線
 62
     0
440
 16777216
100
AcDbTrace
 10
36908.83058766011
 20
28844.24823092621
 30
0.0
 11
36908.83058766011
 21
28843.41489759287
 31
0.0
 12
36906.33058766012
 22
28843.83156425954
 32
0.0
 13
36906.33058766012
 23
28843.83156425954
 33
0.0
  0
SOLID
  5
3014
330
2F92
100
AcDbEntity
  8
寸法線
 62
     0
440
 16777216
100
AcDbTrace
 10
36972.63058766012
 20
28844.24823092621
 30
0.0
 11
36972.63058766012
 21
28843.41489759287
 31
0.0
 12
36975.13058766012
 22
28843.83156425954
 32
0.0
 13
36975.13058766012
 23
28843.83156425954
 33
0.0
  0
MTEXT
  5
3015
330
2F92
100
AcDbEntity
  8
寸法線
 62
     0
440
 16777216
100
AcDbMText
 10
36940.73058766012
 20
28856.47566385026
 30
0.0
 40
20.0
 41
0.0
 46
0.0
 71
     5
 72
     1
  1
68,8
 73
     1
 44
1.0
  0
POINT
  5
3016
330
2F92
100
AcDbEntity
  8
Defpoints
 62
     0
440
 16777216
100
AcDbPoint
 10
36906.33058766012
 20
28771.68578056051
 30
0.0
  0
POINT
  5
3017
330
2F92
100
AcDbEntity
  8
Defpoints
 62
     0
440
 16777216
100
AcDbPoint
 10
36975.13058766012
 20
28803.68578056051
 30
0.0
  0
POINT
  5
3018
330
2F92
100
AcDbEntity
  8
Defpoints
 62
     0
440
 16777216
100
AcDbPoint
 10
36975.13058766012
 20
28843.83156425954
 30
0.0
  0
ENDBLK
  5
2F94
330
2F92
100
AcDbEntity
  8
0
100
AcDbBlockEnd
  0
BLOCK
  5
2FAB
330
2FAA
100
AcDbEntity
  8
0
100
AcDbBlockBegin
  2
*D6
 70
     1
 10
0.0
 20
0.0
 30
0.0
  3
*D6
  1

  0
LINE
  5
3019
330
2FAA
100
AcDbEntity
  8
寸法線
 62
     0
440
 16777216
370
    -2
100
AcDbLine
 10
36975.13058766011
 20
28804.31078056051
 30
0.0
 11
36975.13058766011
 21
28845.08156425954
 31
0.0
  0
LINE
  5
301A
330
2FAA
100
AcDbEntity
  8
寸法線
 62
     0
440
 16777216
370
    -2
100
AcDbLine
 10
36991.13058766012
 20
28788.06078056161
 30
0.0
 11
36991.13058766012
 21
28845.08156425954
 31
0.0
  0
LINE
  5
301B
330
2FAA
100
AcDbEntity
  8
寸法線
 62
     0
440
 16777216
370
    -2
100
AcDbLine
 10
36977.63058766011
 20
28843.83156425954
 30
0.0
 11
36988.63058766012
 21
28843.83156425954
 31
0.0
  0
LINE
  5
301C
330
2FAA
100
AcDbEntity
  8
寸法線
 62
     0
440
 16777216
370
    -2
100
AcDbLine
 10
36991.13058766012
 20
28843.83156425954
 30
0.0
 11
37021.6336572372
 21
28843.83156425954
 31
0.0
  0
SOLID
  5
301D
330
2FAA
100
AcDbEntity
  8
寸法線
 62
     0
440
 16777216
100
AcDbTrace
 10
36977.63058766011
 20
28844.24823092621
 30
0.0
 11
36977.63058766011
 21
28843.41489759287
 31
0.0
 12
36975.13058766011
 22
28843.83156425954
 32
0.0
 13
36975.13058766011
 23
28843.83156425954
 33
0.0
  0
SOLID
  5
301E
330
2FAA
100
AcDbEntity
  8
寸法線
 62
     0
440
 16777216
100
AcDbTrace
 10
36988.63058766012
 20
28844.24823092621
 30
0.0
 11
36988.63058766012
 21
28843.41489759287
 31
0.0
 12
36991.13058766012
 22
28843.83156425954
 32
0.0
 13
36991.13058766012
 23
28843.83156425954
 33
0.0
  0
MTEXT
  5
301F
330
2FAA
100
AcDbEntity
  8
寸法線
 62
     0
440
 16777216
100
AcDbMText
 10
37007.63212244866
 20
28854.66802401398
 30
0.0
 40
20.0
 41
0.0
 46
0.0
 71
     5
 72
     1
  1
16
 73
     1
 44
1.0
  0
POINT
  5
3020
330
2FAA
100
AcDbEntity
  8
Defpoints
 62
     0
440
 16777216
100
AcDbPoint
 10
36975.13058766011
 20
28803.68578056051
 30
0.0
  0
POINT
  5
3021
330
2FAA
100
AcDbEntity
  8
Defpoints
 62
     0
440
 16777216
100
AcDbPoint
 10
36991.13058766012
 20
28787.43578056161
 30
0.0
  0
POINT
  5
3022
330
2FAA
100
AcDbEntity
  8
Defpoints
 62
     0
440
 16777216
100
AcDbPoint
 10
36991.13058766012
 20
28843.83156425954
 30
0.0
  0
ENDBLK
  5
2FAC
330
2FAA
100
AcDbEntity
  8
0
100
AcDbBlockEnd
  0
BLOCK
  5
2FC5
330
2FC4
100
AcDbEntity
  8
0
100
AcDbBlockBegin
  2
*D7
 70
     1
 10
0.0
 20
0.0
 30
0.0
  3
*D7
  1

  0
LINE
  5
3035
330
2FC4
100
AcDbEntity
  8
寸法線
 62
     0
440
 16777216
370
    -2
100
AcDbLine
 10
36991.1305876601
 20
28788.06078056055
 30
0.0
 11
36991.1305876601
 21
28905.4279837021
 31
0.0
  0
LINE
  5
3036
330
2FC4
100
AcDbEntity
  8
寸法線
 62
     0
440
 16777216
370
    -2
100
AcDbLine
 10
36906.33058766012
 20
28772.31078056052
 30
0.0
 11
36906.33058766012
 21
28905.4279837021
 31
0.0
  0
LINE
  5
3037
330
2FC4
100
AcDbEntity
  8
寸法線
 62
     0
440
 16777216
370
    -2
100
AcDbLine
 10
36988.6305876601
 20
28904.1779837021
 30
0.0
 11
36908.83058766011
 21
28904.1779837021
 31
0.0
  0
SOLID
  5
3038
330
2FC4
100
AcDbEntity
  8
寸法線
 62
     0
440
 16777216
100
AcDbTrace
 10
36988.6305876601
 20
28904.59465036877
 30
0.0
 11
36988.6305876601
 21
28903.76131703543
 31
0.0
 12
36991.1305876601
 22
28904.1779837021
 32
0.0
 13
36991.1305876601
 23
28904.1779837021
 33
0.0
  0
SOLID
  5
3039
330
2FC4
100
AcDbEntity
  8
寸法線
 62
     0
440
 16777216
100
AcDbTrace
 10
36908.83058766011
 20
28904.59465036877
 30
0.0
 11
36908.83058766011
 21
28903.76131703543
 31
0.0
 12
36906.33058766012
 22
28904.1779837021
 32
0.0
 13
36906.33058766012
 23
28904.1779837021
 33
0.0
  0
MTEXT
  5
303A
330
2FC4
100
AcDbEntity
  8
寸法線
 62
     0
440
 16777216
100
AcDbMText
 10
36948.73058766011
 20
28916.82208329282
 30
0.0
 40
20.0
 41
0.0
 46
0.0
 71
     5
 72
     1
  1
84,8
 73
     1
 44
1.0
  0
POINT
  5
303B
330
2FC4
100
AcDbEntity
  8
Defpoints
 62
     0
440
 16777216
100
AcDbPoint
 10
36991.1305876601
 20
28787.43578056054
 30
0.0
  0
POINT
  5
303C
330
2FC4
100
AcDbEntity
  8
Defpoints
 62
     0
440
 16777216
100
AcDbPoint
 10
36906.33058766012
 20
28771.68578056052
 30
0.0
  0
POINT
  5
303D
330
2FC4
100
AcDbEntity
  8
Defpoints
 62
     0
440
 16777216
100
AcDbPoint
 10
36906.33058766012
 20
28904.1779837021
 30
0.0
  0
ENDBLK
  5
2FC6
330
2FC4
100
AcDbEntity
  8
0
100
AcDbBlockEnd
  0
ENDSEC
  0
SECTION
  2
ENTITIES
  0
XLINE
  5
7DC
330
1F
100
AcDbEntity
  8
オフセット
100
AcDbXline
 10
32915.44093491146
 20
27902.11527306976
 30
0.0
 11
0.0
 21
-1.0
 31
0.0
  0
XLINE
  5
7E4
330
1F
100
AcDbEntity
  8
オフセット
100
AcDbXline
 10
32915.44093491146
 20
28102.11527306976
 30
0.0
 11
-1.0
 21
0.0
 31
0.0
  0
XLINE
  5
7E5
330
1F
100
AcDbEntity
  8
オフセット
100
AcDbXline
 10
34415.44093491146
 20
27902.11527306976
 30
0.0
 11
0.0
 21
-1.0
 31
0.0
  0
XLINE
  5
7E6
330
1F
100
AcDbEntity
  8
オフセット
100
AcDbXline
 10
33153.94093491146
 20
27902.11527306976
 30
0.0
 11
0.0
 21
-1.0
 31
0.0
  0
XLINE
  5
873
330
1F
100
AcDbEntity
  8
オフセット
100
AcDbXline
 10
32915.44093491146
 20
28273.73237812786
 30
0.0
 11
-1.0
 21
0.0
 31
0.0
  0
XLINE
  5
93D
330
1F
100
AcDbEntity
  8
オフセット
100
AcDbXline
 10
33316.24093491146
 20
27902.11527306976
 30
0.0
 11
0.0
 21
-1.0
 31
0.0
  0
XLINE
  5
998
330
1F
100
AcDbEntity
  8
オフセット
100
AcDbXline
 10
34410.44093491146
 20
27902.11527306976
 30
0.0
 11
0.0
 21
-1.0
 31
0.0
  0
XLINE
  5
999
330
1F
100
AcDbEntity
  8
オフセット
100
AcDbXline
 10
34420.44093491146
 20
27902.11527306976
 30
0.0
 11
0.0
 21
-1.0
 31
0.0
  0
XLINE
  5
99F
330
1F
100
AcDbEntity
  8
オフセット
100
AcDbXline
 10
34113.44093491146
 20
27902.11527306976
 30
0.0
 11
0.0
 21
-1.0
 31
0.0
  0
XLINE
  5
9A0
330
1F
100
AcDbEntity
  8
オフセット
100
AcDbXline
 10
32915.44093491146
 20
28288.23237812785
 30
0.0
 11
-1.0
 21
0.0
 31
0.0
  0
XLINE
  5
9A1
330
1F
100
AcDbEntity
  8
オフセット
100
AcDbXline
 10
32915.44093491146
 20
28259.23237812785
 30
0.0
 11
-1.0
 21
0.0
 31
0.0
  0
XLINE
  5
9A2
330
1F
100
AcDbEntity
  8
オフセット
100
AcDbXline
 10
32915.44093491146
 20
28288.73237812786
 30
0.0
 11
-1.0
 21
0.0
 31
0.0
  0
XLINE
  5
9A3
330
1F
100
AcDbEntity
  8
オフセット
100
AcDbXline
 10
32915.44093491146
 20
28258.73237812785
 30
0.0
 11
-1.0
 21
0.0
 31
0.0
  0
XLINE
  5
9A6
330
1F
100
AcDbEntity
  8
オフセット
100
AcDbXline
 10
32915.44093491146
 20
28289.23237812785
 30
0.0
 11
-1.0
 21
0.0
 31
0.0
  0
XLINE
  5
9A7
330
1F
100
AcDbEntity
  8
オフセット
100
AcDbXline
 10
32915.44093491146
 20
28258.23237812786
 30
0.0
 11
-1.0
 21
0.0
 31
0.0
  0
XLINE
  5
9BE
330
1F
100
AcDbEntity
  8
オフセット
100
AcDbXline
 10
34102.44093491146
 20
27902.11527306976
 30
0.0
 11
0.0
 21
-1.0
 31
0.0
  0
XLINE
  5
9C5
330
1F
100
AcDbEntity
  8
オフセット
100
AcDbXline
 10
32930.94093491146
 20
27902.11527306976
 30
0.0
 11
0.0
 21
-1.0
 31
0.0
  0
XLINE
  5
C17
330
1F
100
AcDbEntity
  8
オフセット
100
AcDbXline
 10
32915.44093491146
 20
29033.35326060758
 30
0.0
 11
-1.0
 21
0.0
 31
0.0
  0
XLINE
  5
C18
330
1F
100
AcDbEntity
  8
オフセット
100
AcDbXline
 10
32915.44093491146
 20
29197.60326060758
 30
0.0
 11
-1.0
 21
0.0
 31
0.0
  0
XLINE
  5
C19
330
1F
100
AcDbEntity
  8
オフセット
100
AcDbXline
 10
33489.19848660889
 20
27902.11527306976
 30
0.0
 11
0.0
 21
-1.0
 31
0.0
  0
XLINE
  5
C1A
330
1F
100
AcDbEntity
  8
オフセット
100
AcDbXline
 10
34731.19848660889
 20
27902.11527306976
 30
0.0
 11
0.0
 21
-1.0
 31
0.0
  0
XLINE
  5
C1B
330
1F
100
AcDbEntity
  8
オフセット
100
AcDbXline
 10
34751.19848660889
 20
27902.11527306976
 30
0.0
 11
0.0
 21
-1.0
 31
0.0
  0
XLINE
  5
C1C
330
1F
100
AcDbEntity
  8
オフセット
100
AcDbXline
 10
33469.19848660889
 20
27902.11527306976
 30
0.0
 11
0.0
 21
-1.0
 31
0.0
  0
XLINE
  5
C1E
330
1F
100
AcDbEntity
  8
オフセット
100
AcDbXline
 10
35007.19848660889
 20
27902.11527306976
 30
0.0
 11
0.0
 21
-1.0
 31
0.0
  0
XLINE
  5
C1F
330
1F
100
AcDbEntity
  8
オフセット
100
AcDbXline
 10
35017.19848660889
 20
27902.11527306976
 30
0.0
 11
0.0
 21
-1.0
 31
0.0
  0
XLINE
  5
C21
330
1F
100
AcDbEntity
  8
オフセット
100
AcDbXline
 10
34990.19848660889
 20
27902.11527306976
 30
0.0
 11
0.0
 21
-1.0
 31
0.0
  0
XLINE
  5
C22
330
1F
100
AcDbEntity
  8
オフセット
100
AcDbXline
 10
32915.44093491146
 20
29049.60326060757
 30
0.0
 11
-1.0
 21
0.0
 31
0.0
  0
XLINE
  5
C23
330
1F
100
AcDbEntity
  8
オフセット
100
AcDbXline
 10
32915.44093491146
 20
29059.60326060758
 30
0.0
 11
-1.0
 21
0.0
 31
0.0
  0
XLINE
  5
C24
330
1F
100
AcDbEntity
  8
オフセット
100
AcDbXline
 10
32915.44093491146
 20
28972.60326060758
 30
0.0
 11
-1.0
 21
0.0
 31
0.0
  0
XLINE
  5
C25
330
1F
100
AcDbEntity
  8
オフセット
100
AcDbXline
 10
32915.44093491146
 20
28962.60326060758
 30
0.0
 11
-1.0
 21
0.0
 31
0.0
  0
XLINE
  5
C27
330
1F
100
AcDbEntity
  8
オフセット
100
AcDbXline
 10
32915.44093491146
 20
29144.60326060757
 30
0.0
 11
-1.0
 21
0.0
 31
0.0
  0
XLINE
  5
C42
330
1F
100
AcDbEntity
  8
オフセット
100
AcDbXline
 10
32915.44093491146
 20
29149.60326060758
 30
0.0
 11
-1.0
 21
0.0
 31
0.0
  0
XLINE
  5
C43
330
1F
100
AcDbEntity
  8
オフセット
100
AcDbXline
 10
32915.44093491146
 20
29134.60326060758
 30
0.0
 11
-1.0
 21
0.0
 31
0.0
  0
XLINE
  5
C44
330
1F
100
AcDbEntity
  8
オフセット
100
AcDbXline
 10
32915.44093491146
 20
29154.60326060757
 30
0.0
 11
-1.0
 21
0.0
 31
0.0
  0
XLINE
  5
139A
330
1F
100
AcDbEntity
  8
オフセット
100
AcDbXline
 10
33476.72668080684
 20
27902.11527306976
 30
0.0
 11
0.0
 21
-1.0
 31
0.0
  0
XLINE
  5
139B
330
1F
100
AcDbEntity
  8
オフセット
100
AcDbXline
 10
32915.44093491146
 20
26742.6918408935
 30
0.0
 11
-1.0
 21
0.0
 31
0.0
  0
XLINE
  5
139C
330
1F
100
AcDbEntity
  8
オフセット
100
AcDbXline
 10
33473.72668080684
 20
27902.11527306976
 30
0.0
 11
0.0
 21
-1.0
 31
0.0
  0
XLINE
  5
139D
330
1F
100
AcDbEntity
  8
オフセット
100
AcDbXline
 10
33558.02668080684
 20
27902.11527306976
 30
0.0
 11
0.0
 21
-1.0
 31
0.0
  0
XLINE
  5
139E
330
1F
100
AcDbEntity
  8
オフセット
100
AcDbXline
 10
32915.44093491146
 20
27827.60024921857
 30
0.0
 11
-1.0
 21
0.0
 31
0.0
  0
XLINE
  5
13A2
330
1F
100
AcDbEntity
  8
オフセット
100
AcDbXline
 10
34881.72432892951
 20
27902.11527306976
 30
0.0
 11
0.0
 21
-1.0
 31
0.0
  0
XLINE
  5
13A3
330
1F
100
AcDbEntity
  8
オフセット
100
AcDbXline
 10
34825.72432892951
 20
27902.11527306976
 30
0.0
 11
0.0
 21
-1.0
 31
0.0
  0
XLINE
  5
13A9
330
1F
100
AcDbEntity
  8
オフセット
100
AcDbXline
 10
34827.72432892951
 20
27902.11527306976
 30
0.0
 11
0.0
 21
-1.0
 31
0.0
  0
XLINE
  5
13AA
330
1F
100
AcDbEntity
  8
オフセット
100
AcDbXline
 10
34824.72432892951
 20
27902.11527306976
 30
0.0
 11
0.0
 21
-1.0
 31
0.0
  0
XLINE
  5
1423
330
1F
100
AcDbEntity
  8
オフセット
100
AcDbXline
 10
33395.87668080683
 20
27902.11527306976
 30
0.0
 11
0.0
 21
-1.0
 31
0.0
  0
XLINE
  5
1424
330
1F
100
AcDbEntity
  8
オフセット
100
AcDbXline
 10
33396.87668080683
 20
27902.11527306976
 30
0.0
 11
0.0
 21
-1.0
 31
0.0
  0
XLINE
  5
143F
330
1F
100
AcDbEntity
  8
オフセット
100
AcDbXline
 10
32915.44093491146
 20
26985.22845980732
 30
0.0
 11
-1.0
 21
0.0
 31
0.0
  0
XLINE
  5
1440
330
1F
100
AcDbEntity
  8
オフセット
100
AcDbXline
 10
32915.44093491146
 20
26935.22845980732
 30
0.0
 11
-1.0
 21
0.0
 31
0.0
  0
XLINE
  5
1933
330
1F
100
AcDbEntity
  8
オフセット
100
AcDbXline
 10
33648.18243935384
 20
27902.11527306976
 30
0.0
 11
0.0
 21
-1.0
 31
0.0
  0
XLINE
  5
1967
330
1F
100
AcDbEntity
  8
オフセット
100
AcDbXline
 10
36005.25983477048
 20
27902.11527306976
 30
0.0
 11
0.0
 21
-1.0
 31
0.0
  0
XLINE
  5
1968
330
1F
100
AcDbEntity
  8
オフセット
100
AcDbXline
 10
37203.25983477048
 20
27902.11527306976
 30
0.0
 11
0.0
 21
-1.0
 31
0.0
  0
XLINE
  5
196E
330
1F
100
AcDbEntity
  8
オフセット
100
AcDbXline
 10
36004.25983477048
 20
27902.11527306976
 30
0.0
 11
0.0
 21
-1.0
 31
0.0
  0
XLINE
  5
1A0F
330
1F
100
AcDbEntity
  8
オフセット
100
AcDbXline
 10
32915.44093491146
 20
27591.14148766218
 30
0.0
 11
-1.0
 21
0.0
 31
0.0
  0
XLINE
  5
1A4A
330
1F
100
AcDbEntity
  8
オフセット
100
AcDbXline
 10
32915.44093491146
 20
27666.14148766218
 30
0.0
 11
-1.0
 21
0.0
 31
0.0
  0
LINE
  5
1A4B
330
1F
100
AcDbEntity
  8
点線
100
AcDbLine
 10
36109.00736102087
 20
28772.3302074025
 30
0.0
 11
36109.79621540287
 21
28771.9357802115
 31
0.0
  0
ARC
  5
1A4C
330
1F
100
AcDbEntity
  8
点線
100
AcDbCircle
 10
36108.56014742537
 20
28771.4357802115
 30
0.0
 40
1.0
100
AcDbArc
 50
63.43494882293366
 51
90.0
  0
LINE
  5
1A4D
330
1F
100
AcDbEntity
  8
点線
100
AcDbLine
 10
36109.79621540287
 20
28771.9357802115
 30
0.0
 11
36109.79621540287
 21
28802.9357802115
 31
0.0
  0
LINE
  5
1A4E
330
1F
100
AcDbEntity
  8
点線
100
AcDbLine
 10
36109.79621540287
 20
28802.9357802115
 30
0.0
 11
36109.00736102087
 21
28802.5413530205
 31
0.0
  0
ARC
  5
1A4F
330
1F
100
AcDbEntity
  8
点線
100
AcDbCircle
 10
36108.56014742537
 20
28803.4357802115
 30
0.0
 40
1.0
100
AcDbArc
 50
270.0
 51
296.5650511770663
  0
LINE
  5
1A50
330
1F
100
AcDbEntity
  8
点線
100
AcDbLine
 10
36108.56014742537
 20
28802.4357802115
 30
0.0
 11
36099.79621540287
 21
28802.4357802115
 31
0.0
  0
LINE
  5
1A51
330
1F
100
AcDbEntity
  8
点線
100
AcDbLine
 10
36098.79621540287
 20
28801.4357802115
 30
0.0
 11
36098.79621540287
 21
28773.4357802115
 31
0.0
  0
ARC
  5
1A52
330
1F
100
AcDbEntity
  8
点線
100
AcDbCircle
 10
36099.79621540287
 20
28801.4357802115
 30
0.0
 40
1.0
100
AcDbArc
 50
90.0
 51
180.0
  0
LINE
  5
1A53
330
1F
100
AcDbEntity
  8
点線
100
AcDbLine
 10
36099.79621540287
 20
28772.4357802115
 30
0.0
 11
36108.56014742537
 21
28772.4357802115
 31
0.0
  0
ARC
  5
1A54
330
1F
100
AcDbEntity
  8
点線
100
AcDbCircle
 10
36099.79621540287
 20
28773.4357802115
 30
0.0
 40
1.0
100
AcDbArc
 50
180.0
 51
270.0
  0
LINE
  5
1A55
330
1F
100
AcDbEntity
  8
点線
100
AcDbLine
 10
36718.58506978487
 20
28772.3302074025
 30
0.0
 11
36717.79621540288
 21
28771.9357802115
 31
0.0
  0
ARC
  5
1A56
330
1F
100
AcDbEntity
  8
点線
100
AcDbCircle
 10
36719.03228338037
 20
28771.4357802115
 30
0.0
 40
1.0
100
AcDbArc
 50
90.0
 51
116.5650511770955
  0
LINE
  5
1A57
330
1F
100
AcDbEntity
  8
点線
100
AcDbLine
 10
36717.79621540288
 20
28771.9357802115
 30
0.0
 11
36717.79621540288
 21
28802.9357802115
 31
0.0
  0
LINE
  5
1A58
330
1F
100
AcDbEntity
  8
点線
100
AcDbLine
 10
36717.79621540288
 20
28802.9357802115
 30
0.0
 11
36718.58506978487
 21
28802.5413530205
 31
0.0
  0
ARC
  5
1A59
330
1F
100
AcDbEntity
  8
点線
100
AcDbCircle
 10
36719.03228338037
 20
28803.4357802115
 30
0.0
 40
1.0
100
AcDbArc
 50
243.4349488229045
 51
270.0
  0
LINE
  5
1A5A
330
1F
100
AcDbEntity
  8
点線
100
AcDbLine
 10
36719.03228338037
 20
28802.4357802115
 30
0.0
 11
36727.79621540287
 21
28802.4357802115
 31
0.0
  0
LINE
  5
1A5B
330
1F
100
AcDbEntity
  8
点線
100
AcDbLine
 10
36728.79621540287
 20
28801.4357802115
 30
0.0
 11
36728.79621540287
 21
28773.4357802115
 31
0.0
  0
ARC
  5
1A5C
330
1F
100
AcDbEntity
  8
点線
100
AcDbCircle
 10
36727.79621540287
 20
28801.4357802115
 30
0.0
 40
1.0
100
AcDbArc
 50
0.0
 51
90.0
  0
LINE
  5
1A5D
330
1F
100
AcDbEntity
  8
点線
100
AcDbLine
 10
36727.79621540287
 20
28772.4357802115
 30
0.0
 11
36719.03228338037
 21
28772.4357802115
 31
0.0
  0
ARC
  5
1A5E
330
1F
100
AcDbEntity
  8
点線
100
AcDbCircle
 10
36727.79621540287
 20
28773.4357802115
 30
0.0
 40
1.0
100
AcDbArc
 50
270.0
 51
0.0
  0
LINE
  5
1A5F
330
1F
100
AcDbEntity
  8
点線
100
AcDbLine
 10
36109.79621540287
 20
28801.9357802115
 30
0.0
 11
36413.79621540287
 21
28801.9357802115
 31
0.0
  0
LINE
  5
1A60
330
1F
100
AcDbEntity
  8
点線
100
AcDbLine
 10
36413.79621540287
 20
28801.9357802115
 30
0.0
 11
36717.79621540288
 21
28801.9357802115
 31
0.0
  0
LINE
  5
1A61
330
1F
100
AcDbEntity
  8
点線
100
AcDbLine
 10
36717.79621540288
 20
28772.9357802115
 30
0.0
 11
36413.79621540287
 21
28772.9357802115
 31
0.0
  0
LINE
  5
1A62
330
1F
100
AcDbEntity
  8
点線
100
AcDbLine
 10
36413.79621540287
 20
28772.9357802115
 30
0.0
 11
36386.94621540288
 21
28772.9357802115
 31
0.0
  0
LINE
  5
1A63
330
1F
100
AcDbEntity
  8
点線
100
AcDbLine
 10
36258.94621540288
 20
28772.9357802115
 30
0.0
 11
36109.79621540287
 21
28772.9357802115
 31
0.0
  0
MTEXT
  5
1A65
330
1F
100
AcDbEntity
  8
寸法線
100
AcDbMText
 10
36439.42785080854
 20
28841.79127690417
 30
0.0
 40
20.0
 41
0.0
 46
0.0
 71
     5
 72
     1
  1
{\fMS PGothic|b0|i0|c128|p50;灯具取付寸法　　最内ピッチ　}540\P{\fMS PGothic|b0|i0|c128|p50;　　　　　　　　　　　最外ピッチ　}614
 73
     1
 44
1.0
  0
LINE
  5
1A66
330
1F
100
AcDbEntity
  8
中心線
100
AcDbLine
 10
36062.29621540287
 20
28787.4357802115
 30
0.0
 11
37035.03032449338
 21
28787.4357802115
 31
0.0
  0
CIRCLE
  5
1A68
330
1F
100
AcDbEntity
  8
○
100
AcDbCircle
 10
36018.71837155595
 20
28921.85274604941
 30
0.0
 40
15.0
  0
MTEXT
  5
1A69
330
1F
100
AcDbEntity
  8
寸法線
100
AcDbMText
 10
36012.22554309423
 20
28931.59659654041
 30
0.0
 40
20.0
 41
35.534113038535
 46
0.0
 71
     1
 72
     5
  1
4
 73
     1
 44
1.0
1001
ACAD
1000
ACAD_MTEXT_COLUMN_INFO_BEGIN
1070
    75
1070
     2
1070
    79
1070
     0
1070
    76
1070
     1
1070
    78
1070
     0
1070
    48
1040
35.534113038535
1070
    49
1040
12.5
1070
    50
1070
     1
1040
0.0
1000
ACAD_MTEXT_COLUMN_INFO_END
  0
CIRCLE
  5
1A6A
330
1F
100
AcDbEntity
  8
○
100
AcDbCircle
 10
36069.1737234858
 20
28921.85274604941
 30
0.0
 40
15.0
  0
MTEXT
  5
1A6B
330
1F
100
AcDbEntity
  8
寸法線
100
AcDbMText
 10
36062.68089502408
 20
28931.59659654041
 30
0.0
 40
20.0
 41
35.534113038535
 46
0.0
 71
     1
 72
     5
  1
3
 73
     1
 44
1.0
1001
ACAD
1000
ACAD_MTEXT_COLUMN_INFO_BEGIN
1070
    75
1070
     2
1070
    79
1070
     0
1070
    76
1070
     1
1070
    78
1070
     0
1070
    48
1040
35.534113038535
1070
    49
1040
12.5
1070
    50
1070
     1
1040
0.0
1000
ACAD_MTEXT_COLUMN_INFO_END
  0
CIRCLE
  5
1A6C
330
1F
100
AcDbEntity
  8
○
100
AcDbCircle
 10
36646.90758635331
 20
28921.85274604941
 30
0.0
 40
15.0
  0
MTEXT
  5
1A6D
330
1F
100
AcDbEntity
  8
寸法線
100
AcDbMText
 10
36640.41475789159
 20
28931.59659654041
 30
0.0
 40
20.0
 41
35.534113038535
 46
0.0
 71
     1
 72
     5
  1
1
 73
     1
 44
1.0
1001
ACAD
1000
ACAD_MTEXT_COLUMN_INFO_BEGIN
1070
    75
1070
     2
1070
    79
1070
     0
1070
    76
1070
     1
1070
    78
1070
     0
1070
    48
1040
35.534113038535
1070
    49
1040
12.5
1070
    50
1070
     1
1040
0.0
1000
ACAD_MTEXT_COLUMN_INFO_END
  0
CIRCLE
  5
1A6E
330
1F
100
AcDbEntity
  8
○
100
AcDbCircle
 10
36156.77404777709
 20
28921.85274604941
 30
0.0
 40
15.0
  0
MTEXT
  5
1A6F
330
1F
100
AcDbEntity
  8
寸法線
100
AcDbMText
 10
36150.28121931536
 20
28931.59659654041
 30
0.0
 40
20.0
 41
35.534113038535
 46
0.0
 71
     1
 72
     5
  1
8
 73
     1
 44
1.0
1001
ACAD
1000
ACAD_MTEXT_COLUMN_INFO_BEGIN
1070
    75
1070
     2
1070
    79
1070
     0
1070
    76
1070
     1
1070
    78
1070
     0
1070
    48
1040
35.534113038535
1070
    49
1040
12.5
1070
    50
1070
     1
1040
0.0
1000
ACAD_MTEXT_COLUMN_INFO_END
  0
CIRCLE
  5
1A70
330
1F
100
AcDbEntity
  8
○
100
AcDbCircle
 10
36460.62222966953
 20
28921.85274604941
 30
0.0
 40
15.0
  0
MTEXT
  5
1A71
330
1F
100
AcDbEntity
  8
寸法線
100
AcDbMText
 10
36454.12940120781
 20
28931.59659654041
 30
0.0
 40
20.0
 41
35.534113038535
 46
0.0
 71
     1
 72
     5
  1
6
 73
     1
 44
1.0
1001
ACAD
1000
ACAD_MTEXT_COLUMN_INFO_BEGIN
1070
    75
1070
     2
1070
    79
1070
     0
1070
    76
1070
     1
1070
    78
1070
     0
1070
    48
1040
35.534113038535
1070
    49
1040
12.5
1070
    50
1070
     1
1040
0.0
1000
ACAD_MTEXT_COLUMN_INFO_END
  0
CIRCLE
  5
1A72
330
1F
100
AcDbEntity
  8
○
100
AcDbCircle
 10
36740.95959319724
 20
28921.85274604941
 30
0.0
 40
15.0
  0
MTEXT
  5
1A73
330
1F
100
AcDbEntity
  8
寸法線
100
AcDbMText
 10
36734.46676473552
 20
28931.59659654041
 30
0.0
 40
20.0
 41
35.534113038535
 46
0.0
 71
     1
 72
     5
  1
5
 73
     1
 44
1.0
1001
ACAD
1000
ACAD_MTEXT_COLUMN_INFO_BEGIN
1070
    75
1070
     2
1070
    79
1070
     0
1070
    76
1070
     1
1070
    78
1070
     0
1070
    48
1040
35.534113038535
1070
    49
1040
12.5
1070
    50
1070
     1
1040
0.0
1000
ACAD_MTEXT_COLUMN_INFO_END
  0
LINE
  5
1A74
330
1F
100
AcDbEntity
  8
○
100
AcDbLine
 10
36643.30419126154
 20
28936.4134995949
 30
0.0
 11
36566.33382271911
 21
29037.62155610675
 31
0.0
  0
LINE
  5
1A75
330
1F
100
AcDbEntity
  8
○
100
AcDbLine
 10
36639.67296332267
 20
28908.71272209187
 30
0.0
 11
36559.03314646059
 21
28756.32606923899
 31
0.0
  0
LINE
  5
1A76
330
1F
100
AcDbEntity
  8
○
100
AcDbLine
 10
36162.88167878219
 20
28935.5529958101
 30
0.0
 11
36186.1349663693
 21
28985.65500845397
 31
0.0
  0
LINE
  5
1A77
330
1F
100
AcDbEntity
  8
○
100
AcDbLine
 10
36162.73992411425
 20
28908.09017653897
 30
0.0
 11
36185.94686404594
 21
28760.39398449302
 31
0.0
  0
LINE
  5
1A78
330
1F
100
AcDbEntity
  8
○
100
AcDbLine
 10
36453.45691442666
 20
28935.03069192387
 30
0.0
 11
36424.24661808205
 21
28982.80106876074
 31
0.0
  0
LINE
  5
1A79
330
1F
100
AcDbEntity
  8
○
100
AcDbLine
 10
36456.18538006053
 20
28907.52395107051
 30
0.0
 11
36412.52198503793
 21
28751.17713765059
 31
0.0
  0
LINE
  5
1A7A
330
1F
100
AcDbEntity
  8
○
100
AcDbLine
 10
36080.3540633733
 20
28931.8527460494
 30
0.0
 11
36129.05805423752
 21
29036.71847363335
 31
0.0
  0
LINE
  5
1A7B
330
1F
100
AcDbEntity
  8
○
100
AcDbLine
 10
36080.3540633733
 20
28911.85274604941
 30
0.0
 11
36129.39624146373
 21
28749.63630954204
 31
0.0
  0
LINE
  5
1A7C
330
1F
100
AcDbEntity
  8
○
100
AcDbLine
 10
36025.41966084224
 20
28935.27260901076
 30
0.0
 11
36091.55358894818
 21
29040.28997087386
 31
0.0
  0
LINE
  5
1A7D
330
1F
100
AcDbEntity
  8
○
100
AcDbLine
 10
36023.29262270429
 20
28907.56722098268
 30
0.0
 11
36091.06784437549
 21
28787.4357802115
 31
0.0
  0
LINE
  5
1A7E
330
1F
100
AcDbEntity
  8
○
100
AcDbLine
 10
36734.13131133075
 20
28935.208440219
 30
0.0
 11
36712.33357777595
 21
29037.85034992651
 31
0.0
  0
LINE
  5
1A7F
330
1F
100
AcDbEntity
  8
○
100
AcDbLine
 10
36736.6053627208
 20
28907.49862897596
 30
0.0
 11
36706.79621540287
 21
28749.89232186653
 31
0.0
  0
CIRCLE
  5
1A80
330
1F
100
AcDbEntity
  8
○
100
AcDbCircle
 10
36831.49995169636
 20
28921.85274604941
 30
0.0
 40
15.0
  0
MTEXT
  5
1A81
330
1F
100
AcDbEntity
  8
寸法線
100
AcDbMText
 10
36825.00712323464
 20
28931.59659654041
 30
0.0
 40
20.0
 41
35.534113038535
 46
0.0
 71
     1
 72
     5
  1
2
 73
     1
 44
1.0
1001
ACAD
1000
ACAD_MTEXT_COLUMN_INFO_BEGIN
1070
    75
1070
     2
1070
    79
1070
     0
1070
    76
1070
     1
1070
    78
1070
     0
1070
    48
1040
35.534113038535
1070
    49
1040
12.5
1070
    50
1070
     1
1040
0.0
1000
ACAD_MTEXT_COLUMN_INFO_END
  0
LINE
  5
1A82
330
1F
100
AcDbEntity
  8
○
100
AcDbLine
 10
36826.20910080491
 20
28935.88866058479
 30
0.0
 11
36756.26405352926
 21
29039.84512252621
 31
0.0
  0
LINE
  5
1A83
330
1F
100
AcDbEntity
  8
○
100
AcDbLine
 10
36827.45710843502
 20
28907.40783627591
 30
0.0
 11
36752.60980637667
 21
28775.68010723574
 31
0.0
  0
CIRCLE
  5
1AA8
330
1F
100
AcDbEntity
  8
○
100
AcDbCircle
 10
36390.65494431935
 20
28921.85274604941
 30
0.0
 40
15.0
  0
MTEXT
  5
1AA9
330
1F
100
AcDbEntity
  8
寸法線
100
AcDbMText
 10
36384.16211585763
 20
28931.59659654041
 30
0.0
 40
20.0
 41
35.534113038535
 46
0.0
 71
     1
 72
     5
  1
7
 73
     1
 44
1.0
1001
ACAD
1000
ACAD_MTEXT_COLUMN_INFO_BEGIN
1070
    75
1070
     2
1070
    79
1070
     0
1070
    76
1070
     1
1070
    78
1070
     0
1070
    48
1040
35.534113038535
1070
    49
1040
12.5
1070
    50
1070
     1
1040
0.0
1000
ACAD_MTEXT_COLUMN_INFO_END
  0
LINE
  5
1AAA
330
1F
100
AcDbEntity
  8
○
100
AcDbLine
 10
36383.48962907649
 20
28935.03069192387
 30
0.0
 11
36354.27933273188
 21
28982.80106876074
 31
0.0
  0
LINE
  5
1AAB
330
1F
100
AcDbEntity
  8
○
100
AcDbLine
 10
36386.21809471036
 20
28907.52395107051
 30
0.0
 11
36339.42244260531
 21
28766.07756352984
 31
0.0
  0
XLINE
  5
2109
330
1F
100
AcDbEntity
  8
オフセット
100
AcDbXline
 10
33743.53243935385
 20
27902.11527306976
 30
0.0
 11
0.0
 21
-1.0
 31
0.0
  0
LINE
  5
2128
330
1F
100
AcDbEntity
  8
中心線
100
AcDbLine
 10
36706.79621540287
 20
29080.6090083684
 30
0.0
 11
36706.79621540287
 21
28737.0475961157
 31
0.0
  0
XLINE
  5
2129
330
1F
100
AcDbEntity
  8
オフセット
100
AcDbXline
 10
37275.23680287379
 20
27902.11527306976
 30
0.0
 11
0.0
 21
-1.0
 31
0.0
  0
XLINE
  5
212A
330
1F
100
AcDbEntity
  8
オフセット
100
AcDbXline
 10
38275.23680287379
 20
27902.11527306976
 30
0.0
 11
0.0
 21
-1.0
 31
0.0
  0
XLINE
  5
212B
330
1F
100
AcDbEntity
  8
オフセット
100
AcDbXline
 10
37775.23680287379
 20
27902.11527306976
 30
0.0
 11
0.0
 21
-1.0
 31
0.0
  0
XLINE
  5
212C
330
1F
100
AcDbEntity
  8
オフセット
100
AcDbXline
 10
37945.23680287379
 20
27902.11527306976
 30
0.0
 11
0.0
 21
-1.0
 31
0.0
  0
XLINE
  5
212E
330
1F
100
AcDbEntity
  8
オフセット
100
AcDbXline
 10
37274.23680287379
 20
27902.11527306976
 30
0.0
 11
0.0
 21
-1.0
 31
0.0
  0
XLINE
  5
2132
330
1F
100
AcDbEntity
  8
オフセット
100
AcDbXline
 10
32915.44093491146
 20
27420.72496568053
 30
0.0
 11
-1.0
 21
0.0
 31
0.0
  0
XLINE
  5
2133
330
1F
100
AcDbEntity
  8
オフセット
100
AcDbXline
 10
32915.44093491146
 20
27535.83850189697
 30
0.0
 11
-1.0
 21
0.0
 31
0.0
  0
LINE
  5
2664
330
1F
100
AcDbEntity
  8
枠線
100
AcDbLine
 10
36997.82830891649
 20
28310.30141662592
 30
0.0
 11
36997.82830891649
 21
28700.30141662591
 31
0.0
  0
LINE
  5
2665
330
1F
100
AcDbEntity
  8
枠線
100
AcDbLine
 10
36997.82830891649
 20
28700.30141662591
 30
0.0
 11
37417.82830891649
 21
28700.30141662591
 31
0.0
  0
LINE
  5
2666
330
1F
100
AcDbEntity
  8
枠線
100
AcDbLine
 10
36997.82830891649
 20
28352.30141662592
 30
0.0
 11
37417.82830891649
 21
28352.30141662592
 31
0.0
  0
LINE
  5
2667
330
1F
100
AcDbEntity
  8
枠線
100
AcDbLine
 10
36997.82830891649
 20
28394.30141662591
 30
0.0
 11
37417.82830891649
 21
28394.30141662591
 31
0.0
  0
LINE
  5
2668
330
1F
100
AcDbEntity
  8
枠線
100
AcDbLine
 10
36997.82830891649
 20
28436.30141662591
 30
0.0
 11
37417.82830891649
 21
28436.30141662591
 31
0.0
  0
LINE
  5
2669
330
1F
100
AcDbEntity
  8
枠線
100
AcDbLine
 10
36997.82830891649
 20
28478.30141662591
 30
0.0
 11
37417.82830891649
 21
28478.30141662591
 31
0.0
  0
LINE
  5
266A
330
1F
100
AcDbEntity
  8
枠線
100
AcDbLine
 10
36997.82830891649
 20
28520.30141662591
 30
0.0
 11
37417.82830891649
 21
28520.30141662591
 31
0.0
  0
LINE
  5
266B
330
1F
100
AcDbEntity
  8
枠線
100
AcDbLine
 10
36997.82830891649
 20
28562.30141662591
 30
0.0
 11
37417.82830891649
 21
28562.30141662591
 31
0.0
  0
LINE
  5
266C
330
1F
100
AcDbEntity
  8
枠線
100
AcDbLine
 10
36997.82830891649
 20
28604.30141662591
 30
0.0
 11
37417.82830891649
 21
28604.30141662591
 31
0.0
  0
LINE
  5
266D
330
1F
100
AcDbEntity
  8
枠線
100
AcDbLine
 10
36997.82830891649
 20
28646.30141662591
 30
0.0
 11
37417.82830891649
 21
28646.30141662591
 31
0.0
  0
LINE
  5
266E
330
1F
100
AcDbEntity
  8
枠線
100
AcDbLine
 10
37099.82830891649
 20
28700.30141662591
 30
0.0
 11
37099.82830891649
 21
28310.30141662592
 31
0.0
  0
LINE
  5
266F
330
1F
100
AcDbEntity
  8
枠線
100
AcDbLine
 10
37105.82830891649
 20
28700.30141662591
 30
0.0
 11
37105.82830891649
 21
28310.30141662592
 31
0.0
  0
LINE
  5
2670
330
1F
100
AcDbEntity
  8
枠線
100
AcDbLine
 10
37165.82830891649
 20
28436.30141662591
 30
0.0
 11
37165.82830891649
 21
28394.30141662591
 31
0.0
  0
LINE
  5
2671
330
1F
100
AcDbEntity
  8
枠線
100
AcDbLine
 10
37171.82830891649
 20
28436.30141662591
 30
0.0
 11
37171.82830891649
 21
28394.30141662591
 31
0.0
  0
LINE
  5
2672
330
1F
100
AcDbEntity
  8
枠線
100
AcDbLine
 10
37291.82830891649
 20
28436.30141662591
 30
0.0
 11
37291.82830891649
 21
28394.30141662591
 31
0.0
  0
LINE
  5
2673
330
1F
100
AcDbEntity
  8
枠線
100
AcDbLine
 10
37297.82830891649
 20
28436.30141662591
 30
0.0
 11
37297.82830891649
 21
28394.30141662591
 31
0.0
  0
LINE
  5
2674
330
1F
100
AcDbEntity
  8
枠線
100
AcDbLine
 10
37357.82830891649
 20
28436.30141662591
 30
0.0
 11
37357.82830891649
 21
28394.30141662591
 31
0.0
  0
LINE
  5
2675
330
1F
100
AcDbEntity
  8
枠線
100
AcDbLine
 10
37231.82830891649
 20
28436.30141662591
 30
0.0
 11
37231.82830891649
 21
28394.30141662591
 31
0.0
  0
LINE
  5
2676
330
1F
100
AcDbEntity
  8
枠線
100
AcDbLine
 10
36937.82830891649
 20
29432.30141662591
 30
0.0
 11
36937.82830891649
 21
29192.30141662591
 31
0.0
  0
LINE
  5
2677
330
1F
100
AcDbEntity
  8
枠線
100
AcDbLine
 10
36997.82830891649
 20
29432.30141662591
 30
0.0
 11
36997.82830891649
 21
29192.30141662591
 31
0.0
  0
LINE
  5
2678
330
1F
100
AcDbEntity
  8
枠線
100
AcDbLine
 10
37003.82830891649
 20
29192.30141662591
 30
0.0
 11
37003.82830891649
 21
29432.30141662591
 31
0.0
  0
LINE
  5
2679
330
1F
100
AcDbEntity
  8
枠線
100
AcDbLine
 10
36937.82830891649
 20
29372.30141662591
 30
0.0
 11
37417.82830891649
 21
29372.30141662591
 31
0.0
  0
LINE
  5
267A
330
1F
100
AcDbEntity
  8
枠線
100
AcDbLine
 10
36937.82830891649
 20
29336.30141662591
 30
0.0
 11
37417.82830891649
 21
29336.30141662591
 31
0.0
  0
LINE
  5
267B
330
1F
100
AcDbEntity
  8
枠線
100
AcDbLine
 10
36937.82830891649
 20
29300.30141662591
 30
0.0
 11
37417.82830891649
 21
29300.30141662591
 31
0.0
  0
LINE
  5
267C
330
1F
100
AcDbEntity
  8
枠線
100
AcDbLine
 10
36937.82830891649
 20
29264.30141662591
 30
0.0
 11
37417.82830891649
 21
29264.30141662591
 31
0.0
  0
LINE
  5
267D
330
1F
100
AcDbEntity
  8
枠線
100
AcDbLine
 10
36937.82830891649
 20
29228.30141662591
 30
0.0
 11
37417.82830891649
 21
29228.30141662591
 31
0.0
  0
LINE
  5
267E
330
1F
100
AcDbEntity
  8
枠線
100
AcDbLine
 10
36937.82830891649
 20
29192.30141662591
 30
0.0
 11
37417.82830891649
 21
29192.30141662591
 31
0.0
  0
LINE
  5
267F
330
1F
100
AcDbEntity
  8
枠線
100
AcDbLine
 10
37183.82830891649
 20
29432.30141662591
 30
0.0
 11
37183.82830891649
 21
29192.30141662591
 31
0.0
  0
LINE
  5
2680
330
1F
100
AcDbEntity
  8
枠線
100
AcDbLine
 10
37300.82830891649
 20
29432.30141662591
 30
0.0
 11
37300.82830891649
 21
29192.30141662591
 31
0.0
  0
LINE
  5
2681
330
1F
100
AcDbEntity
  8
外形線
100
AcDbLine
 10
35815.82830891649
 20
29450.30141662591
 30
0.0
 11
35815.82830891649
 21
28292.30141662591
 31
0.0
  0
LINE
  5
2682
330
1F
100
AcDbEntity
  8
外形線
100
AcDbLine
 10
37435.82830891649
 20
29450.30141662591
 30
0.0
 11
35815.82830891649
 21
29450.30141662591
 31
0.0
  0
LINE
  5
2683
330
1F
100
AcDbEntity
  8
枠線
100
AcDbLine
 10
35833.82830891649
 20
29432.30141662591
 30
0.0
 11
35833.82830891649
 21
28310.30141662592
 31
0.0
  0
LINE
  5
2684
330
1F
100
AcDbEntity
  8
枠線
100
AcDbLine
 10
35833.82830891649
 20
28310.30141662592
 30
0.0
 11
37417.82830891649
 21
28310.30141662592
 31
0.0
  0
LINE
  5
2685
330
1F
100
AcDbEntity
  8
枠線
100
AcDbLine
 10
37417.82830891649
 20
28310.30141662592
 30
0.0
 11
37417.82830891649
 21
29432.30141662591
 31
0.0
  0
LINE
  5
2686
330
1F
100
AcDbEntity
  8
枠線
100
AcDbLine
 10
37417.82830891649
 20
29432.30141662591
 30
0.0
 11
35833.82830891649
 21
29432.30141662591
 31
0.0
  0
LINE
  5
2687
330
1F
100
AcDbEntity
  8
枠線
100
AcDbLine
 10
36931.82830891649
 20
29432.30141662591
 30
0.0
 11
36931.82830891649
 21
29192.30141662591
 31
0.0
  0
LINE
  5
2688
330
1F
100
AcDbEntity
  8
枠線
100
AcDbLine
 10
36937.82830891649
 20
29192.30141662591
 30
0.0
 11
36937.82830891649
 21
29432.30141662591
 31
0.0
  0
LINE
  5
2689
330
1F
100
AcDbEntity
  8
枠線
100
AcDbLine
 10
36451.82830891649
 20
29432.30141662591
 30
0.0
 11
36451.82830891649
 21
29192.30141662591
 31
0.0
  0
LINE
  5
268A
330
1F
100
AcDbEntity
  8
枠線
100
AcDbLine
 10
36511.82830891649
 20
29432.30141662591
 30
0.0
 11
36511.82830891649
 21
29192.30141662591
 31
0.0
  0
LINE
  5
268B
330
1F
100
AcDbEntity
  8
枠線
100
AcDbLine
 10
36517.82830891649
 20
29192.30141662591
 30
0.0
 11
36517.82830891649
 21
29432.30141662591
 31
0.0
  0
LINE
  5
268C
330
1F
100
AcDbEntity
  8
枠線
100
AcDbLine
 10
36451.82830891649
 20
29372.30141662591
 30
0.0
 11
36931.82830891649
 21
29372.30141662591
 31
0.0
  0
LINE
  5
268D
330
1F
100
AcDbEntity
  8
枠線
100
AcDbLine
 10
36451.82830891649
 20
29336.30141662591
 30
0.0
 11
36931.82830891649
 21
29336.30141662591
 31
0.0
  0
LINE
  5
268E
330
1F
100
AcDbEntity
  8
枠線
100
AcDbLine
 10
36451.82830891649
 20
29300.30141662591
 30
0.0
 11
36931.82830891649
 21
29300.30141662591
 31
0.0
  0
LINE
  5
268F
330
1F
100
AcDbEntity
  8
枠線
100
AcDbLine
 10
36451.82830891649
 20
29264.30141662591
 30
0.0
 11
36931.82830891649
 21
29264.30141662591
 31
0.0
  0
LINE
  5
2690
330
1F
100
AcDbEntity
  8
枠線
100
AcDbLine
 10
36451.82830891649
 20
29228.30141662591
 30
0.0
 11
36931.82830891649
 21
29228.30141662591
 31
0.0
  0
LINE
  5
2691
330
1F
100
AcDbEntity
  8
枠線
100
AcDbLine
 10
36451.82830891649
 20
29192.30141662591
 30
0.0
 11
36931.82830891649
 21
29192.30141662591
 31
0.0
  0
LINE
  5
2692
330
1F
100
AcDbEntity
  8
枠線
100
AcDbLine
 10
36697.82830891649
 20
29432.30141662591
 30
0.0
 11
36697.82830891649
 21
29192.30141662591
 31
0.0
  0
LINE
  5
2693
330
1F
100
AcDbEntity
  8
枠線
100
AcDbLine
 10
36814.82830891649
 20
29432.30141662591
 30
0.0
 11
36814.82830891649
 21
29192.30141662591
 31
0.0
  0
LINE
  5
2694
330
1F
100
AcDbEntity
  8
枠線
100
AcDbLine
 10
36451.82830891649
 20
29192.30141662591
 30
0.0
 11
36451.82830891649
 21
29432.30141662591
 31
0.0
  0
LINE
  5
2695
330
1F
100
AcDbEntity
  8
外形線
100
AcDbLine
 10
37435.82830891649
 20
29450.30141662591
 30
0.0
 11
37435.82830891649
 21
28292.30141662591
 31
0.0
  0
LINE
  5
2696
330
1F
100
AcDbEntity
  8
外形線
100
AcDbLine
 10
37435.82830891649
 20
28292.30141662591
 30
0.0
 11
35815.82830891649
 21
28292.30141662591
 31
0.0
  0
MTEXT
  5
2697
330
1F
100
AcDbEntity
  8
寸法線
100
AcDbMText
 10
36606.70376299323
 20
29402.26287970344
 30
0.0
 40
30.00000000000001
 41
174.8674808517826
 46
0.0
 71
     5
 72
     5
  1
{\fMS PGothic|b0|i0|c128|p50;部品名}
 73
     1
 44
1.0
1001
ACAD
1000
ACAD_MTEXT_COLUMN_INFO_BEGIN
1070
    75
1070
     2
1070
    79
1070
     0
1070
    76
1070
     1
1070
    78
1070
     0
1070
    48
1040
174.8674808517826
1070
    49
1040
12.5
1070
    50
1070
     1
1040
0.0
1000
ACAD_MTEXT_COLUMN_INFO_END
  0
MTEXT
  5
2698
330
1F
100
AcDbEntity
  8
寸法線
100
AcDbMText
 10
36755.20376299314
 20
29402.34810697621
 30
0.0
 40
30.00000000000001
 41
109.1764692682045
 46
0.0
 71
     5
 72
     5
  1
{\fMS PGothic|b0|i0|c128|p50;材質}
 73
     1
 44
1.0
1001
ACAD
1000
ACAD_MTEXT_COLUMN_INFO_BEGIN
1070
    75
1070
     2
1070
    79
1070
     0
1070
    76
1070
     1
1070
    78
1070
     0
1070
    48
1040
109.1764692682045
1070
    49
1040
12.5
1070
    50
1070
     1
1040
0.0
1000
ACAD_MTEXT_COLUMN_INFO_END
  0
MTEXT
  5
2699
330
1F
100
AcDbEntity
  8
寸法線
100
AcDbMText
 10
36872.20376299323
 20
29402.17765243074
 30
0.0
 40
30.00000000000001
 41
115.2368875816973
 46
0.0
 71
     5
 72
     5
  1
{\fMS PGothic|b0|i0|c128|p50;摘要}
 73
     1
 44
1.0
1001
ACAD
1000
ACAD_MTEXT_COLUMN_INFO_BEGIN
1070
    75
1070
     2
1070
    79
1070
     0
1070
    76
1070
     1
1070
    78
1070
     0
1070
    48
1040
115.2368875816973
1070
    49
1040
12.5
1070
    50
1070
     1
1040
0.0
1000
ACAD_MTEXT_COLUMN_INFO_END
  0
MTEXT
  5
269A
330
1F
100
AcDbEntity
  8
寸法線
100
AcDbMText
 10
36482.95285483987
 20
29401.09595620095
 30
0.0
 40
18.0
 41
10.0
 46
0.0
 71
     5
 72
     5
  1
{\fMS PGothic|b0|i0|c128|p50;部番}
 73
     1
 44
1.0
1001
ACAD
1000
ACAD_MTEXT_COLUMN_INFO_BEGIN
1070
    75
1070
     2
1070
    79
1070
     0
1070
    76
1070
     1
1070
    78
1070
     0
1070
    48
1040
10.0
1070
    49
1040
12.5
1070
    50
1070
     1
1040
0.0
1000
ACAD_MTEXT_COLUMN_INFO_END
  0
MTEXT
  5
269B
330
1F
100
AcDbEntity
  8
寸法線
100
AcDbMText
 10
36481.82830891649
 20
29354.31369210659
 30
0.0
 40
21.00000000000001
 41
10.0
 46
0.0
 71
     5
 72
     5
  1
{\fMS PGothic|b0|i0|c128|p50;①}
 73
     1
 44
1.0
1001
ACAD
1000
ACAD_MTEXT_COLUMN_INFO_BEGIN
1070
    75
1070
     2
1070
    79
1070
     0
1070
    76
1070
     1
1070
    78
1070
     0
1070
    48
1040
10.0
1070
    49
1040
12.5
1070
    50
1070
     1
1040
0.0
1000
ACAD_MTEXT_COLUMN_INFO_END
  0
MTEXT
  5
269C
330
1F
100
AcDbEntity
  8
寸法線
100
AcDbMText
 10
36481.82830891649
 20
29318.31369210659
 30
0.0
 40
21.00000000000001
 41
10.0
 46
0.0
 71
     5
 72
     5
  1
{\fMS PGothic|b0|i0|c128|p50;②}
 73
     1
 44
1.0
1001
ACAD
1000
ACAD_MTEXT_COLUMN_INFO_BEGIN
1070
    75
1070
     2
1070
    79
1070
     0
1070
    76
1070
     1
1070
    78
1070
     0
1070
    48
1040
10.0
1070
    49
1040
12.5
1070
    50
1070
     1
1040
0.0
1000
ACAD_MTEXT_COLUMN_INFO_END
  0
MTEXT
  5
269D
330
1F
100
AcDbEntity
  8
寸法線
100
AcDbMText
 10
36481.82830891649
 20
29282.31369210662
 30
0.0
 40
21.00000000000001
 41
10.0
 46
0.0
 71
     5
 72
     5
  1
{\fMS PGothic|b0|i0|c128|p50;③}
 73
     1
 44
1.0
1001
ACAD
1000
ACAD_MTEXT_COLUMN_INFO_BEGIN
1070
    75
1070
     2
1070
    79
1070
     0
1070
    76
1070
     1
1070
    78
1070
     0
1070
    48
1040
10.0
1070
    49
1040
12.5
1070
    50
1070
     1
1040
0.0
1000
ACAD_MTEXT_COLUMN_INFO_END
  0
MTEXT
  5
269E
330
1F
100
AcDbEntity
  8
寸法線
100
AcDbMText
 10
36481.82830891649
 20
29246.3136921066
 30
0.0
 40
21.00000000000001
 41
10.0
 46
0.0
 71
     5
 72
     5
  1
{\fMS PGothic|b0|i0|c128|p50;④}
 73
     1
 44
1.0
1001
ACAD
1000
ACAD_MTEXT_COLUMN_INFO_BEGIN
1070
    75
1070
     2
1070
    79
1070
     0
1070
    76
1070
     1
1070
    78
1070
     0
1070
    48
1040
10.0
1070
    49
1040
12.5
1070
    50
1070
     1
1040
0.0
1000
ACAD_MTEXT_COLUMN_INFO_END
  0
MTEXT
  5
269F
330
1F
100
AcDbEntity
  8
寸法線
100
AcDbMText
 10
36481.82830891649
 20
29210.31369210659
 30
0.0
 40
21.00000000000001
 41
10.0
 46
0.0
 71
     5
 72
     5
  1
{\fMS PGothic|b0|i0|c128|p50;⑤}
 73
     1
 44
1.0
1001
ACAD
1000
ACAD_MTEXT_COLUMN_INFO_BEGIN
1070
    75
1070
     2
1070
    79
1070
     0
1070
    76
1070
     1
1070
    78
1070
     0
1070
    48
1040
10.0
1070
    49
1040
12.5
1070
    50
1070
     1
1040
0.0
1000
ACAD_MTEXT_COLUMN_INFO_END
  0
MTEXT
  5
26A0
330
1F
100
AcDbEntity
  8
寸法線
100
AcDbMText
 10
37092.70376299314
 20
29402.26287970344
 30
0.0
 40
30.00000000000001
 41
208.789682174116
 46
0.0
 71
     5
 72
     5
  1
{\fMS PGothic|b0|i0|c128|p50;部品名}
 73
     1
 44
1.0
1001
ACAD
1000
ACAD_MTEXT_COLUMN_INFO_BEGIN
1070
    75
1070
     2
1070
    79
1070
     0
1070
    76
1070
     1
1070
    78
1070
     0
1070
    48
1040
208.789682174116
1070
    49
1040
12.5
1070
    50
1070
     1
1040
0.0
1000
ACAD_MTEXT_COLUMN_INFO_END
  0
MTEXT
  5
26A1
330
1F
100
AcDbEntity
  8
寸法線
100
AcDbMText
 10
37241.20376299314
 20
29402.34810697621
 30
0.0
 40
30.00000000000001
 41
121.2416595124814
 46
0.0
 71
     5
 72
     5
  1
{\fMS PGothic|b0|i0|c128|p50;材質}
 73
     1
 44
1.0
1001
ACAD
1000
ACAD_MTEXT_COLUMN_INFO_BEGIN
1070
    75
1070
     2
1070
    79
1070
     0
1070
    76
1070
     1
1070
    78
1070
     0
1070
    48
1040
121.2416595124814
1070
    49
1040
12.5
1070
    50
1070
     1
1040
0.0
1000
ACAD_MTEXT_COLUMN_INFO_END
  0
MTEXT
  5
26A2
330
1F
100
AcDbEntity
  8
寸法線
100
AcDbMText
 10
37358.20376299315
 20
29402.17765243074
 30
0.0
 40
30.00000000000001
 41
124.8927565777121
 46
0.0
 71
     5
 72
     5
  1
{\fMS PGothic|b0|i0|c128|p50;摘要}
 73
     1
 44
1.0
1001
ACAD
1000
ACAD_MTEXT_COLUMN_INFO_BEGIN
1070
    75
1070
     2
1070
    79
1070
     0
1070
    76
1070
     1
1070
    78
1070
     0
1070
    48
1040
124.8927565777121
1070
    49
1040
12.5
1070
    50
1070
     1
1040
0.0
1000
ACAD_MTEXT_COLUMN_INFO_END
  0
MTEXT
  5
26A3
330
1F
100
AcDbEntity
  8
寸法線
100
AcDbMText
 10
36968.95285483992
 20
29401.09595620095
 30
0.0
 40
18.0
 41
10.0
 46
0.0
 71
     5
 72
     5
  1
{\fMS PGothic|b0|i0|c128|p50;部番}
 73
     1
 44
1.0
1001
ACAD
1000
ACAD_MTEXT_COLUMN_INFO_BEGIN
1070
    75
1070
     2
1070
    79
1070
     0
1070
    76
1070
     1
1070
    78
1070
     0
1070
    48
1040
10.0
1070
    49
1040
12.5
1070
    50
1070
     1
1040
0.0
1000
ACAD_MTEXT_COLUMN_INFO_END
  0
MTEXT
  5
26A4
330
1F
100
AcDbEntity
  8
寸法線
100
AcDbMText
 10
36967.82830891655
 20
29354.31369210659
 30
0.0
 40
21.00000000000001
 41
10.0
 46
0.0
 71
     5
 72
     5
  1
{\fMS PGothic|b0|i0|c128|p50;⑥}
 73
     1
 44
1.0
1001
ACAD
1000
ACAD_MTEXT_COLUMN_INFO_BEGIN
1070
    75
1070
     2
1070
    79
1070
     0
1070
    76
1070
     1
1070
    78
1070
     0
1070
    48
1040
10.0
1070
    49
1040
12.5
1070
    50
1070
     1
1040
0.0
1000
ACAD_MTEXT_COLUMN_INFO_END
  0
MTEXT
  5
26A5
330
1F
100
AcDbEntity
  8
寸法線
100
AcDbMText
 10
36967.82830891655
 20
29318.31369210659
 30
0.0
 40
21.00000000000001
 41
10.0
 46
0.0
 71
     5
 72
     5
  1
{\fMS PGothic|b0|i0|c128|p50;⑦}
 73
     1
 44
1.0
1001
ACAD
1000
ACAD_MTEXT_COLUMN_INFO_BEGIN
1070
    75
1070
     2
1070
    79
1070
     0
1070
    76
1070
     1
1070
    78
1070
     0
1070
    48
1040
10.0
1070
    49
1040
12.5
1070
    50
1070
     1
1040
0.0
1000
ACAD_MTEXT_COLUMN_INFO_END
  0
MTEXT
  5
26A6
330
1F
100
AcDbEntity
  8
寸法線
100
AcDbMText
 10
36967.82830891655
 20
29282.31369210662
 30
0.0
 40
21.00000000000001
 41
10.0
 46
0.0
 71
     5
 72
     5
  1
{\fMS PGothic|b0|i0|c128|p50;⑧}
 73
     1
 44
1.0
1001
ACAD
1000
ACAD_MTEXT_COLUMN_INFO_BEGIN
1070
    75
1070
     2
1070
    79
1070
     0
1070
    76
1070
     1
1070
    78
1070
     0
1070
    48
1040
10.0
1070
    49
1040
12.5
1070
    50
1070
     1
1040
0.0
1000
ACAD_MTEXT_COLUMN_INFO_END
  0
MTEXT
  5
26A7
330
1F
100
AcDbEntity
  8
寸法線
100
AcDbMText
 10
36967.82830891655
 20
29246.3136921066
 30
0.0
 40
21.00000000000001
 41
10.0
 46
0.0
 71
     5
 72
     5
  1
{\fMS PGothic|b0|i0|c128|p50;⑨}
 73
     1
 44
1.0
1001
ACAD
1000
ACAD_MTEXT_COLUMN_INFO_BEGIN
1070
    75
1070
     2
1070
    79
1070
     0
1070
    76
1070
     1
1070
    78
1070
     0
1070
    48
1040
10.0
1070
    49
1040
12.5
1070
    50
1070
     1
1040
0.0
1000
ACAD_MTEXT_COLUMN_INFO_END
  0
MTEXT
  5
26A8
330
1F
100
AcDbEntity
  8
寸法線
100
AcDbMText
 10
36967.82830891655
 20
29210.31369210659
 30
0.0
 40
21.00000000000001
 41
10.0
 46
0.0
 71
     5
 72
     5
  1
{\fMS PGothic|b0|i0|c128|p50;⑩}
 73
     1
 44
1.0
1001
ACAD
1000
ACAD_MTEXT_COLUMN_INFO_BEGIN
1070
    75
1070
     2
1070
    79
1070
     0
1070
    76
1070
     1
1070
    78
1070
     0
1070
    48
1040
10.0
1070
    49
1040
12.5
1070
    50
1070
     1
1040
0.0
1000
ACAD_MTEXT_COLUMN_INFO_END
  0
TEXT
  5
26A9
330
1F
100
AcDbEntity
  8
寸法線
100
AcDbText
 10
37111.88236234935
 20
28677.98951439416
 30
0.0
 40
12.9
  1
広告灯内用放電灯器具（LEDランプ用）
100
AcDbText
  0
TEXT
  5
26AA
330
1F
100
AcDbEntity
  8
寸法線
100
AcDbText
 10
37112.42862418752
 20
28658.87406487858
 30
0.0
 40
9.0
  1
AC100/200V　　50/60Hz
100
AcDbText
  0
MTEXT
  5
26AB
330
1F
100
AcDbEntity
  8
寸法線
100
AcDbMText
 10
37048.82830891649
 20
28623.4683444088
 30
0.0
 40
21.00000000000001
 41
134.5371276319638
 46
0.0
 71
     5
 72
     5
  1
{\fMS PGothic|b0|i0|c128|p50;品名}
 73
     1
 44
1.0
1001
ACAD
1000
ACAD_MTEXT_COLUMN_INFO_BEGIN
1070
    75
1070
     2
1070
    79
1070
     0
1070
    76
1070
     1
1070
    78
1070
     0
1070
    48
1040
134.5371276319638
1070
    49
1040
12.5
1070
    50
1070
     1
1040
0.0
1000
ACAD_MTEXT_COLUMN_INFO_END
  0
MTEXT
  5
26AC
330
1F
100
AcDbEntity
  8
寸法線
100
AcDbMText
 10
37048.82830891649
 20
28581.40868531792
 30
0.0
 40
21.00000000000001
 41
107.3977478795059
 46
0.0
 71
     5
 72
     5
  1
{\fMS PGothic|b0|i0|c128|p50;型番}
 73
     1
 44
1.0
1001
ACAD
1000
ACAD_MTEXT_COLUMN_INFO_BEGIN
1070
    75
1070
     2
1070
    79
1070
     0
1070
    76
1070
     1
1070
    78
1070
     0
1070
    48
1040
107.3977478795059
1070
    49
1040
12.5
1070
    50
1070
     1
1040
0.0
1000
ACAD_MTEXT_COLUMN_INFO_END
  0
MTEXT
  5
26AD
330
1F
100
AcDbEntity
  8
寸法線
100
AcDbMText
 10
37048.82830891649
 20
28539.40868531792
 30
0.0
 40
21.00000000000001
 41
111.0985654956457
 46
0.0
 71
     5
 72
     5
  1
{\fMS PGothic|b0|i0|c128|p50;図番}
 73
     1
 44
1.0
1001
ACAD
1000
ACAD_MTEXT_COLUMN_INFO_BEGIN
1070
    75
1070
     2
1070
    79
1070
     0
1070
    76
1070
     1
1070
    78
1070
     0
1070
    48
1040
111.0985654956457
1070
    49
1040
12.5
1070
    50
1070
     1
1040
0.0
1000
ACAD_MTEXT_COLUMN_INFO_END
  0
MTEXT
  5
26AE
330
1F
100
AcDbEntity
  8
寸法線
100
AcDbMText
 10
37048.82830891649
 20
28497.17004895428
 30
0.0
 40
21.00000000000001
 41
79.75
 46
0.0
 71
     5
 72
     5
  1
{\fMS PGothic|b0|i0|c128|p50;尺度}
 73
     1
 44
1.0
1001
ACAD
1000
ACAD_MTEXT_COLUMN_INFO_BEGIN
1070
    75
1070
     2
1070
    79
1070
     0
1070
    76
1070
     1
1070
    78
1070
     0
1070
    48
1040
79.75
1070
    49
1040
12.5
1070
    50
1070
     1
1040
0.0
1000
ACAD_MTEXT_COLUMN_INFO_END
  0
MTEXT
  5
26AF
330
1F
100
AcDbEntity
  8
寸法線
100
AcDbMText
 10
37048.82830891649
 20
28455.82629895428
 30
0.0
 40
21.00000000000001
 41
79.75
 46
0.0
 71
     5
 72
     5
  1
{\fMS PGothic|b0|i0|c128|p50;日付}
 73
     1
 44
1.0
1001
ACAD
1000
ACAD_MTEXT_COLUMN_INFO_BEGIN
1070
    75
1070
     2
1070
    79
1070
     0
1070
    76
1070
     1
1070
    78
1070
     0
1070
    48
1040
79.75
1070
    49
1040
12.5
1070
    50
1070
     1
1040
0.0
1000
ACAD_MTEXT_COLUMN_INFO_END
  0
MTEXT
  5
26B0
330
1F
100
AcDbEntity
  8
寸法線
100
AcDbMText
 10
37048.82830891649
 20
28413.34902622701
 30
0.0
 40
21.00000000000001
 41
79.75
 46
0.0
 71
     5
 72
     5
  1
{\fMS PGothic|b0|i0|c128|p50;設計}
 73
     1
 44
1.0
1001
ACAD
1000
ACAD_MTEXT_COLUMN_INFO_BEGIN
1070
    75
1070
     2
1070
    79
1070
     0
1070
    76
1070
     1
1070
    78
1070
     0
1070
    48
1040
79.75
1070
    49
1040
12.5
1070
    50
1070
     1
1040
0.0
1000
ACAD_MTEXT_COLUMN_INFO_END
  0
MTEXT
  5
26B1
330
1F
100
AcDbEntity
  8
寸法線
100
AcDbMText
 10
37201.82830891655
 20
28415.68766259063
 30
0.0
 40
16.8
 41
77.95127031754964
 46
0.0
 71
     5
 72
     5
  1
{\fMS PGothic|b0|i0|c128|p50;製図}
 73
     1
 44
1.0
1001
ACAD
1000
ACAD_MTEXT_COLUMN_INFO_BEGIN
1070
    75
1070
     2
1070
    79
1070
     0
1070
    76
1070
     1
1070
    78
1070
     0
1070
    48
1040
77.95127031754964
1070
    49
1040
12.5
1070
    50
1070
     1
1040
0.0
1000
ACAD_MTEXT_COLUMN_INFO_END
  0
MTEXT
  5
26B2
330
1F
100
AcDbEntity
  8
寸法線
100
AcDbMText
 10
37327.82830891655
 20
28416.30811713614
 30
0.0
 40
16.8
 41
64.78344696047134
 46
0.0
 71
     5
 72
     5
  1
{\fMS PGothic|b0|i0|c128|p50;承認}
 73
     1
 44
1.0
1001
ACAD
1000
ACAD_MTEXT_COLUMN_INFO_BEGIN
1070
    75
1070
     2
1070
    79
1070
     0
1070
    76
1070
     1
1070
    78
1070
     0
1070
    48
1040
64.78344696047134
1070
    49
1040
12.5
1070
    50
1070
     1
1040
0.0
1000
ACAD_MTEXT_COLUMN_INFO_END
  0
MTEXT
  5
26B3
330
1F
100
AcDbEntity
  8
寸法線
100
AcDbMText
 10
37261.82830891655
 20
28333.09811859801
 30
0.0
 40
21.00000000000001
 41
479.1527611076308
 46
0.0
 71
     5
 72
     5
  1
{\fMS PGothic|b0|i0|c128|p50;高村電機工業株式会社}
 73
     1
 44
1.0
1001
ACAD
1000
ACAD_MTEXT_COLUMN_INFO_BEGIN
1070
    75
1070
     2
1070
    79
1070
     0
1070
    76
1070
     1
1070
    78
1070
     0
1070
    48
1040
479.1527611076308
1070
    49
1040
12.5
1070
    50
1070
     1
1040
0.0
1000
ACAD_MTEXT_COLUMN_INFO_END
  0
MTEXT
  5
26B4
330
1F
100
AcDbEntity
  8
寸法線
100
AcDbMText
 10
37114.25169909965
 20
28644.29661452644
 30
0.0
 40
24.00000000000002
 41
379.4707622710557
 46
0.0
 71
     1
 72
     5
  1
{\fMS PGothic|b0|i0|c128|p50;ゼブライト・V　}30W
 73
     1
 44
1.0
1001
ACAD
1000
ACAD_MTEXT_COLUMN_INFO_BEGIN
1070
    75
1070
     2
1070
    79
1070
     0
1070
    76
1070
     1
1070
    78
1070
     0
1070
    48
1040
379.4707622710557
1070
    49
1040
12.5
1070
    50
1070
     1
1040
0.0
1000
ACAD_MTEXT_COLUMN_INFO_END
  0
MTEXT
  5
26B5
330
1F
100
AcDbEntity
  8
寸法線
100
AcDbMText
 10
37115.18764923142
 20
28597.13393415125
 30
0.0
 40
24.00000000000002
 41
326.790400944592
 46
0.0
 71
     1
 72
     5
  1
CSG{\fMS PGothic|b0|i0|c128|p50;‐}300KB-V
 73
     1
 44
1.0
1001
ACAD
1000
ACAD_MTEXT_COLUMN_INFO_BEGIN
1070
    75
1070
     2
1070
    79
1070
     0
1070
    76
1070
     1
1070
    78
1070
     0
1070
    48
1040
326.790400944592
1070
    49
1040
12.5
1070
    50
1070
     1
1040
0.0
1000
ACAD_MTEXT_COLUMN_INFO_END
  0
LINE
  5
26B6
330
1F
100
AcDbEntity
  8
枠線
100
AcDbLine
 10
37258.82830891649
 20
28520.30141662591
 30
0.0
 11
37258.82830891649
 21
28478.30141662591
 31
0.0
  0
LINE
  5
26B7
330
1F
100
AcDbEntity
  8
枠線
100
AcDbLine
 10
37264.82830891649
 20
28520.30141662591
 30
0.0
 11
37264.82830891649
 21
28478.30141662591
 31
0.0
  0
CIRCLE
  5
26B8
330
1F
100
AcDbEntity
  8
枠線
100
AcDbCircle
 10
37309.82830891649
 20
28499.30141662591
 30
0.0
 40
12.0
  0
CIRCLE
  5
26B9
330
1F
100
AcDbEntity
  8
枠線
100
AcDbCircle
 10
37309.82830891649
 20
28499.30141662591
 30
0.0
 40
6.0
  0
LINE
  5
26BA
330
1F
100
AcDbEntity
  8
枠線
100
AcDbLine
 10
37354.82830891649
 20
28505.30141662591
 30
0.0
 11
37354.82830891649
 21
28493.30141662592
 31
0.0
  0
LINE
  5
26BB
330
1F
100
AcDbEntity
  8
枠線
100
AcDbLine
 10
37354.82830891649
 20
28493.30141662592
 30
0.0
 11
37384.82830891649
 21
28487.30141662591
 31
0.0
  0
LINE
  5
26BC
330
1F
100
AcDbEntity
  8
枠線
100
AcDbLine
 10
37384.82830891649
 20
28487.30141662591
 30
0.0
 11
37384.82830891649
 21
28511.30141662591
 31
0.0
  0
LINE
  5
26BD
330
1F
100
AcDbEntity
  8
枠線
100
AcDbLine
 10
37384.82830891649
 20
28511.30141662591
 30
0.0
 11
37354.82830891649
 21
28505.30141662591
 31
0.0
  0
LINE
  5
26BE
330
1F
100
AcDbEntity
  8
中心線
 48
0.5
100
AcDbLine
 10
37294.82830891649
 20
28499.30141662591
 30
0.0
 11
37387.82830891649
 21
28499.30141662591
 31
0.0
  0
LINE
  5
26BF
330
1F
100
AcDbEntity
  8
中心線
 48
0.5
100
AcDbLine
 10
37309.82830891649
 20
28514.30141662591
 30
0.0
 11
37309.82830891649
 21
28484.30141662591
 31
0.0
  0
MTEXT
  5
26C0
330
1F
100
AcDbEntity
  8
中心線
100
AcDbMText
 10
37182.51968511713
 20
28499.53293398297
 30
0.0
 40
24.00000000000002
 41
137.1373031534895
 46
0.0
 71
     5
 72
     5
  1
1  :  4
 73
     1
 44
1.0
1001
ACAD
1000
ACAD_MTEXT_COLUMN_INFO_BEGIN
1070
    75
1070
     2
1070
    79
1070
     0
1070
    76
1070
     1
1070
    78
1070
     0
1070
    48
1040
137.1373031534895
1070
    49
1040
12.5
1070
    50
1070
     1
1040
0.0
1000
ACAD_MTEXT_COLUMN_INFO_END
  0
MTEXT
  5
26C1
330
1F
100
AcDbEntity
  8
寸法線
100
AcDbMText
 10
36523.40281600472
 20
29365.24191340207
 30
0.0
 40
9.600000000000001
 41
151.6297294085016
 46
0.0
 71
     1
 72
     5
  1
{\fMS PGothic|b0|i0|c128|p50;器具本体}
 73
     1
 44
1.0
1001
ACAD
1000
ACAD_MTEXT_COLUMN_INFO_BEGIN
1070
    75
1070
     2
1070
    79
1070
     0
1070
    76
1070
     1
1070
    78
1070
     0
1070
    48
1040
151.6297294085016
1070
    49
1040
12.5
1070
    50
1070
     1
1040
0.0
1000
ACAD_MTEXT_COLUMN_INFO_END
  0
MTEXT
  5
26C2
330
1F
100
AcDbEntity
  8
寸法線
100
AcDbMText
 10
36704.28547051201
 20
29369.76522699309
 30
0.0
 40
8.0
 41
163.0743348696414
 46
0.0
 71
     1
 72
     5
  1
{\fMS PGothic|b0|i0|c128|p50;鋼鈑　}0.6{\fMS PGothic|b0|i0|c128|p50;ｔ}\P{\fMS PGothic|b0|i0|c128|p50;（亜鉛メッキ板）}
 73
     1
 44
1.0
1001
ACAD
1000
ACAD_MTEXT_COLUMN_INFO_BEGIN
1070
    75
1070
     2
1070
    79
1070
     0
1070
    76
1070
     1
1070
    78
1070
     0
1070
    48
1040
163.0743348696414
1070
    49
1040
12.5
1070
    50
1070
     1
1040
0.0
1000
ACAD_MTEXT_COLUMN_INFO_END
  0
MTEXT
  5
26C3
330
1F
100
AcDbEntity
  8
寸法線
100
AcDbMText
 10
36818.16107180064
 20
29361.19467280749
 30
0.0
 40
8.0
 41
127.6574633589698
 46
0.0
 71
     1
 72
     5
  1
{\fMS PGothic|b0|i0|c128|p50;ホーミング加工}
 73
     1
 44
1.0
1001
ACAD
1000
ACAD_MTEXT_COLUMN_INFO_BEGIN
1070
    75
1070
     2
1070
    79
1070
     0
1070
    76
1070
     1
1070
    78
1070
     0
1070
    48
1040
127.6574633589698
1070
    49
1040
12.5
1070
    50
1070
     1
1040
0.0
1000
ACAD_MTEXT_COLUMN_INFO_END
  0
MTEXT
  5
26C4
330
1F
100
AcDbEntity
  8
寸法線
100
AcDbMText
 10
36523.39490179897
 20
29291.64416089737
 30
0.0
 40
9.600000000000001
 41
177.2417588968819
 46
0.0
 71
     1
 72
     5
  1
{\fMS PGothic|b0|i0|c128|p50;絶縁ブッシング}
 73
     1
 44
1.0
1001
ACAD
1000
ACAD_MTEXT_COLUMN_INFO_BEGIN
1070
    75
1070
     2
1070
    79
1070
     0
1070
    76
1070
     1
1070
    78
1070
     0
1070
    48
1040
177.2417588968819
1070
    49
1040
12.5
1070
    50
1070
     1
1040
0.0
1000
ACAD_MTEXT_COLUMN_INFO_END
  0
MTEXT
  5
26C5
330
1F
100
AcDbEntity
  8
寸法線
100
AcDbMText
 10
36706.48743610138
 20
29296.59115944601
 30
0.0
 40
8.0
 41
112.0581813088574
 46
0.0
 71
     1
 72
     5
  1
P.P{\fMS PGothic|b0|i0|c128|p50;樹脂}
 73
     1
 44
1.0
1001
ACAD
1000
ACAD_MTEXT_COLUMN_INFO_BEGIN
1070
    75
1070
     2
1070
    79
1070
     0
1070
    76
1070
     1
1070
    78
1070
     0
1070
    48
1040
112.0581813088574
1070
    49
1040
12.5
1070
    50
1070
     1
1040
0.0
1000
ACAD_MTEXT_COLUMN_INFO_END
  0
MTEXT
  5
26C6
330
1F
100
AcDbEntity
  8
寸法線
100
AcDbMText
 10
36521.5393708381
 20
29258.11764363513
 30
0.0
 40
9.600000000000001
 41
209.7639475286996
 46
0.0
 71
     1
 72
     5
  1
{\fMS PGothic|b0|i0|c128|p50;ランプソケット（固定側）}
 73
     1
 44
1.0
1001
ACAD
1000
ACAD_MTEXT_COLUMN_INFO_BEGIN
1070
    75
1070
     2
1070
    79
1070
     0
1070
    76
1070
     1
1070
    78
1070
     0
1070
    48
1040
209.7639475286996
1070
    49
1040
12.5
1070
    50
1070
     1
1040
0.0
1000
ACAD_MTEXT_COLUMN_INFO_END
  0
MTEXT
  5
26C7
330
1F
100
AcDbEntity
  8
寸法線
100
AcDbMText
 10
36705.25043275965
 20
29260.59117598269
 30
0.0
 40
8.0
 41
114.358547341013
 46
0.0
 71
     1
 72
     5
  1
{\fMS PGothic|b0|i0|c128|p50;P.P樹脂\P黄銅}
 73
     1
 44
1.0
1001
ACAD
1000
ACAD_MTEXT_COLUMN_INFO_BEGIN
1070
    75
1070
     2
1070
    79
1070
     0
1070
    76
1070
     1
1070
    78
1070
     0
1070
    48
1040
114.358547341013
1070
    49
1040
12.5
1070
    50
1070
     1
1040
0.0
1000
ACAD_MTEXT_COLUMN_INFO_END
  0
MTEXT
  5
26C8
330
1F
100
AcDbEntity
  8
寸法線
100
AcDbMText
 10
36523.39490179897
 20
29221.49928948727
 30
0.0
 40
9.600000000000001
 41
210.5417588968994
 46
0.0
 71
     1
 72
     5
  1
{\fMS PGothic|b0|i0|c128|p50;ランプソケット（スプリング側）}
 73
     1
 44
1.0
1001
ACAD
1000
ACAD_MTEXT_COLUMN_INFO_BEGIN
1070
    75
1070
     2
1070
    79
1070
     0
1070
    76
1070
     1
1070
    78
1070
     0
1070
    48
1040
210.5417588968994
1070
    49
1040
12.5
1070
    50
1070
     1
1040
0.0
1000
ACAD_MTEXT_COLUMN_INFO_END
  0
MTEXT
  5
26C9
330
1F
100
AcDbEntity
  8
寸法線
100
AcDbMText
 10
36702.15787250899
 20
29225.20954666714
 30
0.0
 40
8.0
 41
140.8380455093865
 46
0.0
 71
     1
 72
     5
  1
P.P{\fMS PGothic|b0|i0|c128|p50;樹脂}\P{\fMS PGothic|b0|i0|c128|p50;黄銅}
 73
     1
 44
1.0
1001
ACAD
1000
ACAD_MTEXT_COLUMN_INFO_BEGIN
1070
    75
1070
     2
1070
    79
1070
     0
1070
    76
1070
     1
1070
    78
1070
     0
1070
    48
1040
140.8380455093865
1070
    49
1040
12.5
1070
    50
1070
     1
1040
0.0
1000
ACAD_MTEXT_COLUMN_INFO_END
  0
LINE
  5
26CA
330
1F
100
AcDbEntity
  8
外形線
100
AcDbLine
 10
35785.82830891649
 20
29465.30141662591
 30
0.0
 11
35785.82830891649
 21
28277.30141662591
 31
0.0
  0
LINE
  5
26CB
330
1F
100
AcDbEntity
  8
外形線
100
AcDbLine
 10
35785.82830891649
 20
28277.30141662591
 30
0.0
 11
37465.82830891649
 21
28277.30141662591
 31
0.0
  0
LINE
  5
26CC
330
1F
100
AcDbEntity
  8
外形線
100
AcDbLine
 10
37465.82830891649
 20
28277.30141662591
 30
0.0
 11
37465.82830891649
 21
29465.30141662591
 31
0.0
  0
LINE
  5
26CD
330
1F
100
AcDbEntity
  8
外形線
100
AcDbLine
 10
37465.82830891649
 20
29465.30141662591
 30
0.0
 11
35785.82830891649
 21
29465.30141662591
 31
0.0
  0
TEXT
  5
26CE
330
1F
100
AcDbEntity
  8
1
 62
     3
100
AcDbText
 10
36408.92236418952
 20
28557.26963856752
 30
0.0
 40
13.5
  1
１．左記の様にランプをセットしてください
 41
0.6666666666670002
  7
BIGFONT
100
AcDbText
  0
TEXT
  5
26CF
330
1F
100
AcDbEntity
  8
1
 62
     3
100
AcDbText
 10
36426.60107512702
 20
28537.23401031231
 30
0.0
 40
13.5
  1
器具側の電極はスプリングソケット側になっています。
 41
0.6666666666670002
  7
BIGFONT
100
AcDbText
  0
TEXT
  5
26D0
330
1F
100
AcDbEntity
  8
1
 62
     3
100
AcDbText
 10
36427.18994231453
 20
28518.37658843731
 30
0.0
 40
13.5
  1
ランプの電極はマーク（シール）側になっています。
 41
0.6666666666670002
  7
BIGFONT
100
AcDbText
  0
TEXT
  5
26D1
330
1F
100
AcDbEntity
  8
1
 62
     3
100
AcDbText
 10
36427.18994231453
 20
28500.10901031232
 30
0.0
 40
13.5
  1
セット方向はランプはマーク（シール）が正面方向を
 41
0.6666666666670002
  7
BIGFONT
100
AcDbText
  0
TEXT
  5
26D2
330
1F
100
AcDbEntity
  8
1
 62
     3
100
AcDbText
 10
36411.07601002284
 20
28452.52011057273
 30
0.0
 40
13.5
  1
２．精密部品を使用しておりますので衝撃等を与えますと
 41
0.6666666666670002
  7
BIGFONT
100
AcDbText
  0
TEXT
  5
26D3
330
1F
100
AcDbEntity
  8
1
 62
     3
100
AcDbText
 10
36429.93343189784
 20
28433.0733006769
 30
0.0
 40
13.5
  1
誤動作もしくは不点の恐れがあります。
 41
0.6666666666670002
  7
BIGFONT
100
AcDbText
  0
TEXT
  5
26D4
330
1F
100
AcDbEntity
  8
1
 62
     3
100
AcDbText
 10
36410.48714283534
 20
28406.5557225519
 30
0.0
 40
13.5
  1
３．この製品は定電流式２４Ｖ仕様です。
 41
0.6666666666670002
  7
BIGFONT
100
AcDbText
  0
TEXT
  5
26D5
330
1F
100
AcDbEntity
  8
1
 62
     3
100
AcDbText
 10
36427.57601002284
 20
28386.52008615866
 30
0.0
 40
13.5
  1
必ず専用のランプと安定器のセットでご使用下さい。
 41
0.6666666666670002
  7
BIGFONT
100
AcDbText
  0
TEXT
  5
26D6
330
1F
100
AcDbEntity
  8
1
 62
     3
100
AcDbText
 10
36428.01168710616
 20
28481.68003895815
 30
0.0
 40
13.5
  1
向く様にして下さい。
 41
0.6666666666670002
  7
BIGFONT
100
AcDbText
  0
TEXT
  5
26D7
330
1F
100
AcDbEntity
  8
1
 62
     3
100
AcDbText
 10
36137.10127043951
 20
28551.62090809878
 30
0.0
 40
12.0
  1
取扱い説明及び注意事項
 41
0.6666666666670002
  7
BIGFONT
100
AcDbText
  0
LINE
  5
26D8
330
1F
100
AcDbEntity
  8
1
  6
Continuous
 62
     3
100
AcDbLine
 10
36264.16320504659
 20
28509.00183430027
 30
0.0
 11
36264.16320504659
 21
28494.00183430027
 31
0.0
  0
LINE
  5
26D9
330
1F
100
AcDbEntity
  8
1
  6
Continuous
 62
     3
100
AcDbLine
 10
36264.16320504659
 20
28494.00183430027
 30
0.0
 11
36117.234633618
 21
28494.00183430027
 31
0.0
  0
LINE
  5
26DA
330
1F
100
AcDbEntity
  8
1
  6
Continuous
 62
     3
100
AcDbLine
 10
36117.234633618
 20
28494.00183430027
 30
0.0
 11
36114.16320504658
 21
28494.00183430027
 31
0.0
  0
LINE
  5
26DB
330
1F
100
AcDbEntity
  8
1
  6
Continuous
 62
     3
100
AcDbLine
 10
36114.16320504658
 20
28494.00183430027
 30
0.0
 11
36114.16320504658
 21
28509.00183430027
 31
0.0
  0
LINE
  5
26DC
330
1F
100
AcDbEntity
  8
1
  6
Continuous
 62
     3
100
AcDbLine
 10
36114.16320504658
 20
28509.00183430027
 30
0.0
 11
36264.16320504659
 21
28509.00183430027
 31
0.0
  0
LINE
  5
26DD
330
1F
100
AcDbEntity
  8
1
  6
Continuous
 62
     3
100
AcDbLine
 10
36264.16320504659
 20
28509.00183430027
 30
0.0
 11
36268.66320504658
 21
28509.00183430027
 31
0.0
  0
LINE
  5
26DE
330
1F
100
AcDbEntity
  8
1
  6
Continuous
 62
     3
100
AcDbLine
 10
36268.66320504658
 20
28509.00183430027
 30
0.0
 11
36268.66320504658
 21
28494.00183430027
 31
0.0
  0
LINE
  5
26DF
330
1F
100
AcDbEntity
  8
1
  6
Continuous
 62
     3
100
AcDbLine
 10
36268.66320504658
 20
28494.00183430027
 30
0.0
 11
36264.16320504659
 21
28494.00183430027
 31
0.0
  0
LINE
  5
26E0
330
1F
100
AcDbEntity
  8
1
  6
Continuous
 62
     3
100
AcDbLine
 10
36114.16320504658
 20
28509.00183430027
 30
0.0
 11
36109.66320504659
 21
28509.00183430027
 31
0.0
  0
LINE
  5
26E1
330
1F
100
AcDbEntity
  8
1
  6
Continuous
 62
     3
100
AcDbLine
 10
36109.66320504659
 20
28509.00183430027
 30
0.0
 11
36109.66320504659
 21
28494.00183430027
 31
0.0
  0
LINE
  5
26E2
330
1F
100
AcDbEntity
  8
1
  6
Continuous
 62
     3
100
AcDbLine
 10
36109.66320504659
 20
28494.00183430027
 30
0.0
 11
36114.16320504658
 21
28494.00183430027
 31
0.0
  0
LINE
  5
26E3
330
1F
100
AcDbEntity
  8
1
  6
Continuous
 62
     3
100
AcDbLine
 10
36109.66320504659
 20
28504.50183430027
 30
0.0
 11
36105.16320504659
 21
28504.50183430027
 31
0.0
  0
LINE
  5
26E4
330
1F
100
AcDbEntity
  8
1
  6
Continuous
 62
     3
100
AcDbLine
 10
36109.66320504659
 20
28498.50183430028
 30
0.0
 11
36105.16320504659
 21
28498.50183430028
 31
0.0
  0
LINE
  5
26E5
330
1F
100
AcDbEntity
  8
1
  6
Continuous
 62
     3
100
AcDbLine
 10
36268.66320504658
 20
28504.50183430027
 30
0.0
 11
36273.16320504659
 21
28504.50183430027
 31
0.0
  0
LINE
  5
26E6
330
1F
100
AcDbEntity
  8
1
  6
Continuous
 62
     3
100
AcDbLine
 10
36268.66320504658
 20
28498.50183430028
 30
0.0
 11
36273.16320504659
 21
28498.50183430028
 31
0.0
  0
LINE
  5
26E7
330
1F
100
AcDbEntity
  8
1
  6
Continuous
 62
     3
100
AcDbLine
 10
36295.34177647517
 20
28504.50183430027
 30
0.0
 11
36332.84177647516
 21
28504.50183430027
 31
0.0
  0
LINE
  5
26E8
330
1F
100
AcDbEntity
  8
1
  6
Continuous
 62
     3
100
AcDbLine
 10
36332.84177647516
 20
28504.50183430027
 30
0.0
 11
36332.84177647516
 21
28449.71612001456
 31
0.0
  0
LINE
  5
26E9
330
1F
100
AcDbEntity
  8
1
  6
Continuous
 62
     3
100
AcDbLine
 10
36332.84177647516
 20
28449.71612001456
 30
0.0
 11
36224.48463361801
 21
28449.71612001456
 31
0.0
  0
LINE
  5
26EA
330
1F
100
AcDbEntity
  8
1
  6
Continuous
 62
     3
100
AcDbLine
 10
36295.34177647517
 20
28498.50183430028
 30
0.0
 11
36317.84177647517
 21
28498.50183430028
 31
0.0
  0
LINE
  5
26EB
330
1F
100
AcDbEntity
  8
1
  6
Continuous
 62
     3
100
AcDbLine
 10
36317.84177647517
 20
28498.50183430028
 30
0.0
 11
36317.84177647517
 21
28455.71612001457
 31
0.0
  0
LINE
  5
26EC
330
1F
100
AcDbEntity
  8
1
  6
Continuous
 62
     3
100
AcDbLine
 10
36317.84177647517
 20
28455.71612001457
 30
0.0
 11
36224.48463361801
 21
28455.71612001457
 31
0.0
  0
LINE
  5
26ED
330
1F
100
AcDbEntity
  8
1
  6
Continuous
 62
     3
100
AcDbLine
 10
36224.48463361801
 20
28460.21612001456
 30
0.0
 11
36224.48463361801
 21
28445.21612001456
 31
0.0
  0
LINE
  5
26EE
330
1F
100
AcDbEntity
  8
1
  6
Continuous
 62
     3
100
AcDbLine
 10
36224.48463361801
 20
28445.21612001456
 30
0.0
 11
36164.48463361801
 21
28445.21612001456
 31
0.0
  0
LINE
  5
26EF
330
1F
100
AcDbEntity
  8
1
  6
Continuous
 62
     3
100
AcDbLine
 10
36164.48463361801
 20
28445.21612001456
 30
0.0
 11
36164.48463361801
 21
28460.21612001456
 31
0.0
  0
LINE
  5
26F0
330
1F
100
AcDbEntity
  8
1
  6
Continuous
 62
     3
100
AcDbLine
 10
36164.48463361801
 20
28460.21612001456
 30
0.0
 11
36224.48463361801
 21
28460.21612001456
 31
0.0
  0
LINE
  5
26F1
330
1F
100
AcDbEntity
  8
1
  6
Continuous
 62
     3
100
AcDbLine
 10
36167.25844314182
 20
28445.21612001456
 30
0.0
 11
36167.25844314182
 21
28430.21612001456
 31
0.0
  0
LINE
  5
26F2
330
1F
100
AcDbEntity
  8
1
  6
Continuous
 62
     3
100
AcDbLine
 10
36167.25844314182
 20
28430.21612001456
 30
0.0
 11
36119.61558599898
 21
28430.21612001456
 31
0.0
  0
TEXT
  5
26F3
330
1F
100
AcDbEntity
  8
1
 62
     3
100
AcDbText
 10
36239.37558684577
 20
28458.06887359357
 30
0.0
 40
7.466666666666665
  1
赤
 41
0.6666666666670002
  7
BIGFONT
100
AcDbText
  0
TEXT
  5
26F4
330
1F
100
AcDbEntity
  8
1
 62
     3
100
AcDbText
 10
36241.35089609056
 20
28436.34046376284
 30
0.0
 40
7.466666666666665
  1
白
 41
0.6666666666670002
  7
BIGFONT
100
AcDbText
  0
TEXT
  5
26F5
330
1F
100
AcDbEntity
  8
1
 62
     3
100
AcDbText
 10
36297.64720142909
 20
28485.72317046857
 30
0.0
 40
7.466666666666665
  1
赤
 41
0.6666666666670002
  7
BIGFONT
100
AcDbText
  0
TEXT
  5
26F6
330
1F
100
AcDbEntity
  8
1
 62
     3
100
AcDbText
 10
36297.64720142909
 20
28508.43921864565
 30
0.0
 40
7.466666666666665
  1
白
 41
0.6666666666670002
  7
BIGFONT
100
AcDbText
  0
LINE
  5
26F7
330
1F
100
AcDbEntity
  8
1
  6
Continuous
 62
     3
100
AcDbLine
 10
36259.66320504659
 20
28504.50183430027
 30
0.0
 11
36259.66320504659
 21
28498.50183430028
 31
0.0
  0
LINE
  5
26F8
330
1F
100
AcDbEntity
  8
1
  6
Continuous
 62
     3
100
AcDbLine
 10
36259.66320504659
 20
28498.50183430028
 30
0.0
 11
36244.66320504659
 21
28498.50183430028
 31
0.0
  0
LINE
  5
26F9
330
1F
100
AcDbEntity
  8
1
  6
Continuous
 62
     3
100
AcDbLine
 10
36244.66320504659
 20
28498.50183430028
 30
0.0
 11
36244.66320504659
 21
28504.50183430027
 31
0.0
  0
LINE
  5
26FA
330
1F
100
AcDbEntity
  8
1
  6
Continuous
 62
     3
100
AcDbLine
 10
36244.66320504659
 20
28504.50183430027
 30
0.0
 11
36259.66320504659
 21
28504.50183430027
 31
0.0
  0
TEXT
  5
26FB
330
1F
100
AcDbEntity
  8
1
 62
     3
100
AcDbText
 10
36246.87745859055
 20
28498.71610666649
 30
0.0
 40
5.107133992513066
  1
マーク
 41
0.692308381786
  7
BIGFONT
100
AcDbText
  0
TEXT
  5
26FC
330
1F
100
AcDbEntity
  8
1
 62
     3
100
AcDbText
 10
36131.92496835618
 20
28457.85901031232
 30
0.0
 40
7.466666666666665
  1
白
 41
0.6666666666670002
  7
BIGFONT
100
AcDbText
  0
TEXT
  5
26FD
330
1F
100
AcDbEntity
  8
1
 62
     3
100
AcDbText
 10
36131.92496835618
 20
28439.52565256492
 30
0.0
 40
7.466666666666665
  1
黒
 41
0.6666666666670002
  7
BIGFONT
100
AcDbText
  0
TEXT
  5
26FE
330
1F
100
AcDbEntity
  8
1
 62
     3
100
AcDbText
 10
36147.57861349612
 20
28431.18510348623
 30
0.0
 40
7.466666666666665
  1
アース
 41
0.6666666666670002
  7
BIGFONT
100
AcDbText
  0
TEXT
  5
26FF
330
1F
100
AcDbEntity
  8
1
 62
     3
100
AcDbText
 10
36152.35372812179
 20
28419.62087554669
 30
0.0
 40
7.466666666666665
  1
緑
 41
0.6666666666670002
  7
BIGFONT
100
AcDbText
  0
LINE
  5
2700
330
1F
100
AcDbEntity
  8
1
  6
Continuous
 62
     3
100
AcDbLine
 10
36295.34177647517
 20
28509.00183430027
 30
0.0
 11
36295.34177647517
 21
28494.00183430027
 31
0.0
  0
LINE
  5
2701
330
1F
100
AcDbEntity
  8
1
  6
Continuous
 62
     3
100
AcDbLine
 10
36295.34177647517
 20
28494.00183430027
 30
0.0
 11
36278.34177647517
 21
28494.00183430027
 31
0.0
  0
LINE
  5
2702
330
1F
100
AcDbEntity
  8
1
  6
Continuous
 62
     3
100
AcDbLine
 10
36278.34177647517
 20
28494.00183430027
 30
0.0
 11
36278.34177647517
 21
28509.00183430027
 31
0.0
  0
LINE
  5
2703
330
1F
100
AcDbEntity
  8
1
  6
Continuous
 62
     3
100
AcDbLine
 10
36278.34177647517
 20
28509.00183430027
 30
0.0
 11
36295.34177647517
 21
28509.00183430027
 31
0.0
  0
LINE
  5
2704
330
1F
100
AcDbEntity
  8
1
  6
Continuous
 62
     3
100
AcDbLine
 10
36083.16614787351
 20
28494.00183430027
 30
0.0
 11
36083.16614787351
 21
28509.00183430027
 31
0.0
  0
TEXT
  5
2705
330
1F
100
AcDbEntity
  8
1
 62
     3
100
AcDbText
 10
36205.30620208013
 20
28516.52567697898
 30
0.0
 40
9.0
  1
防沫ソケット配線接続側
 41
0.6666666666670002
  7
BIGFONT
100
AcDbText
  0
LINE
  5
2706
330
1F
100
AcDbEntity
  8
1
  6
Continuous
 62
     3
100
AcDbLine
 10
36289.30606218946
 20
28509.00183430027
 30
0.0
 11
36285.7804211638
 21
28514.95421525266
 31
0.0
  0
LINE
  5
2707
330
1F
100
AcDbEntity
  8
1
  6
Continuous
 62
     3
100
AcDbLine
 10
36083.16614787351
 20
28504.50183430027
 30
0.0
 11
36072.13043358777
 21
28504.50183430027
 31
0.0
  0
LINE
  5
2708
330
1F
100
AcDbEntity
  8
1
  6
Continuous
 62
     3
100
AcDbLine
 10
36083.16614787351
 20
28498.50183430028
 30
0.0
 11
36072.13043358777
 21
28498.50183430028
 31
0.0
  0
LINE
  5
2709
330
1F
100
AcDbEntity
  8
1
  6
Continuous
 62
     3
100
AcDbLine
 10
36075.66614787351
 20
28507.75183430028
 30
0.0
 11
36069.77329073064
 21
28502.25183430028
 31
0.0
  0
LINE
  5
270A
330
1F
100
AcDbEntity
  8
1
  6
Continuous
 62
     3
100
AcDbLine
 10
36070.16614787351
 20
28508.14469144313
 30
0.0
 11
36075.66614787351
 21
28501.85897715742
 31
0.0
  0
LINE
  5
270B
330
1F
100
AcDbEntity
  8
1
  6
Continuous
 62
     3
100
AcDbLine
 10
36075.27329073064
 20
28501.07326287171
 30
0.0
 11
36069.77329073064
 21
28494.78754858599
 31
0.0
  0
LINE
  5
270C
330
1F
100
AcDbEntity
  8
1
  6
Continuous
 62
     3
100
AcDbLine
 10
36070.55900501634
 20
28500.68040572885
 30
0.0
 11
36074.09471930206
 21
28495.57326287171
 31
0.0
  0
TEXT
  5
270D
330
1F
100
AcDbEntity
  8
1
 62
     3
100
AcDbText
 10
36305.54843840827
 20
28484.73550770814
 30
0.0
 40
7.466666666666665
  1
＋
 41
0.6666666666670002
  7
BIGFONT
100
AcDbText
  0
TEXT
  5
270E
330
1F
100
AcDbEntity
  8
1
 62
     3
100
AcDbText
 10
36304.56077564784
 20
28508.43921864565
 30
0.0
 40
7.466666666666665
  1
－
 41
0.6666666666670002
  7
BIGFONT
100
AcDbText
  0
TEXT
  5
270F
330
1F
100
AcDbEntity
  8
1
 62
     3
100
AcDbText
 10
36248.26445403326
 20
28435.35280100242
 30
0.0
 40
7.466666666666665
  1
－
 41
0.6666666666670002
  7
BIGFONT
100
AcDbText
  0
TEXT
  5
2710
330
1F
100
AcDbEntity
  8
1
 62
     3
100
AcDbText
 10
36247.27682382491
 20
28458.06887359357
 30
0.0
 40
7.466666666666665
  1
＋
 41
0.6666666666670002
  7
BIGFONT
100
AcDbText
  0
TEXT
  5
2711
330
1F
100
AcDbEntity
  8
1
 62
     3
100
AcDbText
 10
36157.35372812179
 20
28495.57320302066
 30
0.0
 40
12.0
  1
ＬＥＤ　ランプ
 41
0.6666666666670002
  7
BIGFONT
100
AcDbText
  0
TEXT
  5
2712
330
1F
100
AcDbEntity
  8
1
 62
     3
100
AcDbText
 10
36172.67449605026
 20
28447.85541432041
 30
0.0
 40
9.600000000000001
  1
ＬＥＤ用電源
 41
0.6666666666670002
  7
BIGFONT
100
AcDbText
  0
LINE
  5
2713
330
1F
100
AcDbEntity
  8
1
  6
Continuous
 62
     3
100
AcDbLine
 10
36164.48463361801
 20
28455.71612001457
 30
0.0
 11
36130.06796695135
 21
28455.76373906218
 31
0.0
  0
LINE
  5
2714
330
1F
100
AcDbEntity
  8
1
  6
Continuous
 62
     3
100
AcDbLine
 10
36164.48463361801
 20
28449.71612001456
 30
0.0
 11
36131.11558599898
 21
28449.71612001456
 31
0.0
  0
TEXT
  5
2715
330
1F
100
AcDbEntity
  8
1
 62
     3
100
AcDbText
 10
36108.30624277022
 20
28446.33524729148
 30
0.0
 40
12.0
  1
電源
 41
0.6666666666670002
  7
BIGFONT
100
AcDbText
  0
LINE
  5
2716
330
1F
100
AcDbEntity
  8
1
  6
Continuous
 62
     3
100
AcDbLine
 10
36293.66991549952
 20
28506.6474116643
 30
0.0
 11
36288.3365821662
 21
28506.6474116643
 31
0.0
  0
LINE
  5
2717
330
1F
100
AcDbEntity
  8
1
  6
Continuous
 62
     3
100
AcDbLine
 10
36288.3365821662
 20
28506.6474116643
 30
0.0
 11
36288.3365821662
 21
28496.26265797857
 31
0.0
  0
LINE
  5
2718
330
1F
100
AcDbEntity
  8
1
  6
Continuous
 62
     3
100
AcDbLine
 10
36288.3365821662
 20
28496.26265797857
 30
0.0
 11
36293.66991549952
 21
28496.26265797857
 31
0.0
  0
LINE
  5
2719
330
1F
100
AcDbEntity
  8
1
  6
Continuous
 62
     3
100
AcDbLine
 10
36293.66991549952
 20
28506.6474116643
 30
0.0
 11
36293.66991549952
 21
28496.26265797857
 31
0.0
  0
LINE
  5
271A
330
1F
100
AcDbEntity
  8
1
  6
Continuous
 62
     3
100
AcDbLine
 10
36083.16614787351
 20
28494.00183430027
 30
0.0
 11
36083.16614787351
 21
28509.00183430027
 31
0.0
  0
LINE
  5
271B
330
1F
100
AcDbEntity
  8
1
  6
Continuous
 62
     3
100
AcDbLine
 10
36083.16614787351
 20
28509.00183430027
 30
0.0
 11
36100.16614787351
 21
28509.00183430027
 31
0.0
  0
LINE
  5
271C
330
1F
100
AcDbEntity
  8
1
  6
Continuous
 62
     3
100
AcDbLine
 10
36100.16614787351
 20
28509.00183430027
 30
0.0
 11
36100.16614787351
 21
28494.00183430027
 31
0.0
  0
LINE
  5
271D
330
1F
100
AcDbEntity
  8
1
  6
Continuous
 62
     3
100
AcDbLine
 10
36100.16614787351
 20
28494.00183430027
 30
0.0
 11
36083.16614787351
 21
28494.00183430027
 31
0.0
  0
LINE
  5
271E
330
1F
100
AcDbEntity
  8
1
  6
Continuous
 62
     3
100
AcDbLine
 10
36084.83800884913
 20
28496.35625693625
 30
0.0
 11
36090.17134218247
 21
28496.35625693625
 31
0.0
  0
LINE
  5
271F
330
1F
100
AcDbEntity
  8
1
  6
Continuous
 62
     3
100
AcDbLine
 10
36090.17134218247
 20
28496.35625693625
 30
0.0
 11
36090.17134218247
 21
28506.74101062198
 31
0.0
  0
LINE
  5
2720
330
1F
100
AcDbEntity
  8
1
  6
Continuous
 62
     3
100
AcDbLine
 10
36090.17134218247
 20
28506.74101062198
 30
0.0
 11
36084.83800884913
 21
28506.74101062198
 31
0.0
  0
LINE
  5
2721
330
1F
100
AcDbEntity
  8
1
  6
Continuous
 62
     3
100
AcDbLine
 10
36084.83800884913
 20
28496.35625693625
 30
0.0
 11
36084.83800884913
 21
28506.74101062198
 31
0.0
  0
MTEXT
  5
2722
330
1F
100
AcDbEntity
  8
寸法線
100
AcDbMText
 10
36523.40281600472
 20
29329.24191340207
 30
0.0
 40
9.600000000000001
 41
206.0602204717434
 46
0.0
 71
     1
 72
     5
  1
{\fMS PGothic|b0|i0|c128|p50;ランプソケット取付金具}
 73
     1
 44
1.0
1001
ACAD
1000
ACAD_MTEXT_COLUMN_INFO_BEGIN
1070
    75
1070
     2
1070
    79
1070
     0
1070
    76
1070
     1
1070
    78
1070
     0
1070
    48
1040
206.0602204717434
1070
    49
1040
12.5
1070
    50
1070
     1
1040
0.0
1000
ACAD_MTEXT_COLUMN_INFO_END
  0
MTEXT
  5
2723
330
1F
100
AcDbEntity
  8
寸法線
100
AcDbMText
 10
36704.28547051201
 20
29333.76522699309
 30
0.0
 40
8.0
 41
163.0743348696414
 46
0.0
 71
     1
 72
     5
  1
{\fMS PGothic|b0|i0|c128|p50;鋼鈑　}1{\fMS PGothic|b0|i0|c128|p50;ｔ}\P{\fMS PGothic|b0|i0|c128|p50;（亜鉛メッキ板）}
 73
     1
 44
1.0
1001
ACAD
1000
ACAD_MTEXT_COLUMN_INFO_BEGIN
1070
    75
1070
     2
1070
    79
1070
     0
1070
    76
1070
     1
1070
    78
1070
     0
1070
    48
1040
163.0743348696414
1070
    49
1040
12.5
1070
    50
1070
     1
1040
0.0
1000
ACAD_MTEXT_COLUMN_INFO_END
  0
MTEXT
  5
2A05
330
1F
100
AcDbEntity
  8
寸法線
100
AcDbMText
 10
37007.43114546603
 20
29367.91013411685
 30
0.0
 40
9.599999999999999
 41
181.3710989523388
 46
0.0
 71
     1
 72
     5
  1
{\fMS PGothic|b0|i0|c128|p50;電源装置取付鋼鈑}
 73
     1
 44
1.0
1001
ACAD
1000
ACAD_MTEXT_COLUMN_INFO_BEGIN
1070
    75
1070
     2
1070
    79
1070
     0
1070
    76
1070
     1
1070
    78
1070
     0
1070
    48
1040
181.3710989523388
1070
    49
1040
12.5
1070
    50
1070
     1
1040
0.0
1000
ACAD_MTEXT_COLUMN_INFO_END
  0
MTEXT
  5
2A07
330
1F
100
AcDbEntity
  8
寸法線
100
AcDbMText
 10
37007.43114546603
 20
29327.93366885921
 30
0.0
 40
9.599999999999999
 41
181.3710989523388
 46
0.0
 71
     1
 72
     5
  1
{\fMS PGothic|b0|i0|c128|p50;専用電源装置}
 73
     1
 44
1.0
1001
ACAD
1000
ACAD_MTEXT_COLUMN_INFO_BEGIN
1070
    75
1070
     2
1070
    79
1070
     0
1070
    76
1070
     1
1070
    78
1070
     0
1070
    48
1040
181.3710989523388
1070
    49
1040
12.5
1070
    50
1070
     1
1040
0.0
1000
ACAD_MTEXT_COLUMN_INFO_END
  0
MTEXT
  5
2A08
330
1F
100
AcDbEntity
  8
寸法線
100
AcDbMText
 10
37305.01529630548
 20
29328.86262093258
 30
0.0
 40
6.4
 41
162.8281777420561
 46
0.0
 71
     1
 72
     5
  1
{\fMS PGothic|b0|i0|c128|p50;レシップ製定電流電源装置}\PK68-023C059-302
 73
     1
 44
1.0
1001
ACAD
1000
ACAD_MTEXT_COLUMN_INFO_BEGIN
1070
    75
1070
     2
1070
    79
1070
     0
1070
    76
1070
     1
1070
    78
1070
     0
1070
    48
1040
162.8281777420561
1070
    49
1040
12.5
1070
    50
1070
     1
1040
0.0
1000
ACAD_MTEXT_COLUMN_INFO_END
  0
MTEXT
  5
2A09
330
1F
100
AcDbEntity
  8
寸法線
100
AcDbMText
 10
37007.48515536144
 20
29292.77959782836
 30
0.0
 40
9.599999999999999
 41
199.244644231323
 46
0.0
 71
     1
 72
     5
  1
{\fMS PGothic|b0|i0|c128|p50;電源用　アース付端子台}
 73
     1
 44
1.0
1001
ACAD
1000
ACAD_MTEXT_COLUMN_INFO_BEGIN
1070
    75
1070
     2
1070
    79
1070
     0
1070
    76
1070
     1
1070
    78
1070
     0
1070
    48
1040
199.244644231323
1070
    49
1040
12.5
1070
    50
1070
     1
1040
0.0
1000
ACAD_MTEXT_COLUMN_INFO_END
  0
MTEXT
  5
2AC3
330
1F
100
AcDbEntity
  8
寸法線
100
AcDbMText
 10
37190.28547051201
 20
29369.76522699309
 30
0.0
 40
8.0
 41
163.0743348696414
 46
0.0
 71
     1
 72
     5
  1
{\fMS PGothic|b0|i0|c128|p50;鋼鈑　}0.8{\fMS PGothic|b0|i0|c128|p50;ｔ}\P{\fMS PGothic|b0|i0|c128|p50;（亜鉛メッキ板）}
 73
     1
 44
1.0
1001
ACAD
1000
ACAD_MTEXT_COLUMN_INFO_BEGIN
1070
    75
1070
     2
1070
    79
1070
     0
1070
    76
1070
     1
1070
    78
1070
     0
1070
    48
1040
163.0743348696414
1070
    49
1040
12.5
1070
    50
1070
     1
1040
0.0
1000
ACAD_MTEXT_COLUMN_INFO_END
  0
LINE
  5
2C64
330
1F
100
AcDbEntity
  8
外形線
100
AcDbLine
 10
36083.29621540288
 20
28761.6857802115
 30
0.0
 11
36083.29621540288
 21
28751.6857802115
 31
0.0
  0
LINE
  5
2C65
330
1F
100
AcDbEntity
  8
外形線
100
AcDbLine
 10
36083.29621540288
 20
28751.6857802115
 30
0.0
 11
36755.29621540287
 21
28751.6857802115
 31
0.0
  0
LINE
  5
2C66
102
{ACAD_REACTORS
330
2F23
330
2F3F
102
}
330
1F
100
AcDbEntity
  8
外形線
100
AcDbLine
 10
36755.29621540287
 20
28751.6857802115
 30
0.0
 11
36755.29621540287
 21
28761.6857802115
 31
0.0
  0
LINE
  5
2C67
330
1F
100
AcDbEntity
  8
外形線
100
AcDbLine
 10
36755.29621540287
 20
28761.6857802115
 30
0.0
 11
36386.44621540288
 21
28761.6857802115
 31
0.0
  0
LINE
  5
2C68
330
1F
100
AcDbEntity
  8
外形線
100
AcDbLine
 10
36083.29621540288
 20
28767.68578056051
 30
0.0
 11
36083.29621540288
 21
28803.6857802115
 31
0.0
  0
LINE
  5
2C69
330
1F
100
AcDbEntity
  8
外形線
100
AcDbLine
 10
36084.29621540287
 20
28783.6857802115
 30
0.0
 11
36086.57211732342
 21
28783.23059982739
 31
0.0
  0
LINE
  5
2C6A
330
1F
100
AcDbEntity
  8
外形線
100
AcDbLine
 10
36084.29621540287
 20
28783.6857802115
 30
0.0
 11
36084.29621540287
 21
28803.6857802115
 31
0.0
  0
LINE
  5
2C6B
330
1F
100
AcDbEntity
  8
外形線
100
AcDbLine
 10
36084.29621540287
 20
28803.6857802115
 30
0.0
 11
36083.29621540288
 21
28803.6857802115
 31
0.0
  0
ELLIPSE
  5
2C6C
330
1F
100
AcDbEntity
  8
外形線
100
AcDbEllipse
 10
36086.65335826001
 20
28781.1857802115
 30
0.0
 11
-2.35714285713766
 21
1.5
 31
0.0
210
0.0
220
0.0
230
1.0
 40
0.6753514169109462
 41
3.682438273673346
 42
4.822127997503216
  0
ARC
  5
2C6D
330
1F
100
AcDbEntity
  8
外形線
100
AcDbCircle
 10
36085.98376891793
 20
28780.28885780021
 30
0.0
 40
3.0
100
AcDbArc
 50
61.78442072581224
 51
78.69006752528486
  0
LINE
  5
2C6E
330
1F
100
AcDbEntity
  8
外形線
100
AcDbLine
 10
36084.29621540287
 20
28803.1857802115
 30
0.0
 11
36084.79621540287
 21
28803.1857802115
 31
0.0
  0
LINE
  5
2C6F
330
1F
100
AcDbEntity
  8
外形線
100
AcDbLine
 10
36084.79621540287
 20
28803.1857802115
 30
0.0
 11
36084.79621540287
 21
28783.5857802115
 31
0.0
  0
LINE
  5
2C70
330
1F
100
AcDbEntity
  8
外形線
100
AcDbLine
 10
36084.79621540287
 20
28803.1857802115
 30
0.0
 11
36096.79621540287
 21
28803.1857802115
 31
0.0
  0
LINE
  5
2C71
330
1F
100
AcDbEntity
  8
外形線
100
AcDbLine
 10
36097.79621540287
 20
28802.1857802115
 30
0.0
 11
36097.79621540287
 21
28772.6857802115
 31
0.0
  0
ARC
  5
2C72
330
1F
100
AcDbEntity
  8
外形線
100
AcDbCircle
 10
36096.79621540287
 20
28802.1857802115
 30
0.0
 40
1.0
100
AcDbArc
 50
0.0
 51
90.0
  0
ARC
  5
2C73
330
1F
100
AcDbEntity
  8
外形線
100
AcDbCircle
 10
36096.79621540287
 20
28772.6857802115
 30
0.0
 40
1.0
100
AcDbArc
 50
270.0
 51
0.0
  0
LINE
  5
2C74
330
1F
100
AcDbEntity
  8
外形線
100
AcDbLine
 10
36096.79621540287
 20
28771.6857802115
 30
0.0
 11
36089.19564289245
 21
28771.6857802115
 31
0.0
  0
LINE
  5
2C75
330
1F
100
AcDbEntity
  8
外形線
100
AcDbLine
 10
36089.19564289245
 20
28780.71947706628
 30
0.0
 11
36089.19564289245
 21
28771.6857802115
 31
0.0
  0
LINE
  5
2C76
330
1F
100
AcDbEntity
  8
外形線
100
AcDbLine
 10
36089.19564289245
 20
28771.6857802115
 30
0.0
 11
36089.19564289244
 21
28766.72465209959
 31
0.0
  0
ARC
  5
2C77
330
1F
100
AcDbEntity
  8
外形線
100
AcDbCircle
 10
36079.74823154113
 20
28768.14373068404
 30
0.0
 40
9.559246875214904
100
AcDbArc
 50
323.1356689796041
 51
350.9878324004474
  0
ARC
  5
2C78
330
1F
100
AcDbEntity
  8
外形線
100
AcDbCircle
 10
36087.79621540286
 20
28762.10896443227
 30
0.0
 40
0.5
100
AcDbArc
 50
143.1356689792651
 51
180.0000000008337
  0
ARC
  5
2C79
330
1F
100
AcDbEntity
  8
外形線
100
AcDbCircle
 10
36088.69564289244
 20
28766.72465209959
 30
0.0
 40
0.5
100
AcDbArc
 50
350.9878324008564
 51
0.0
  0
LINE
  5
2C7A
330
1F
100
AcDbEntity
  8
外形線
100
AcDbLine
 10
36087.29621540287
 20
28761.6857802115
 30
0.0
 11
36087.29621540287
 21
28762.10896443226
 31
0.0
  0
LINE
  5
2C7B
330
1F
100
AcDbEntity
  8
外形線
100
AcDbLine
 10
36755.29621540287
 20
28757.68578056051
 30
0.0
 11
36755.97949697587
 21
28759.05234370651
 31
0.0
  0
ARC
  5
2C7C
330
1F
100
AcDbEntity
  8
外形線
100
AcDbCircle
 10
36753.29621540287
 20
28760.39398449302
 30
0.0
 40
3.0
100
AcDbArc
 50
333.4349488229205
 51
0.0
  0
LINE
  5
2C7D
330
1F
100
AcDbEntity
  8
外形線
100
AcDbLine
 10
36756.29621540287
 20
28760.39398449302
 30
0.0
 11
36756.29621540287
 21
28766.27156699813
 31
0.0
  0
ARC
  5
2C7E
330
1F
100
AcDbEntity
  8
外形線
100
AcDbCircle
 10
36755.79621540287
 20
28766.27156699813
 30
0.0
 40
0.5
100
AcDbArc
 50
0.0
 51
44.99999999955322
  0
LINE
  5
2C7F
330
1F
100
AcDbEntity
  8
外形線
100
AcDbLine
 10
36756.14976879347
 20
28766.62512038872
 30
0.0
 11
36755.44266201228
 21
28767.33222716992
 31
0.0
  0
ARC
  5
2C80
330
1F
100
AcDbEntity
  8
外形線
100
AcDbCircle
 10
36755.79621540287
 20
28767.68578056051
 30
0.0
 40
0.5
100
AcDbArc
 50
180.0
 51
224.9999999995532
  0
LINE
  5
2C81
330
1F
100
AcDbEntity
  8
外形線
100
AcDbLine
 10
36755.29621540287
 20
28767.68578056051
 30
0.0
 11
36755.29621540287
 21
28803.6857802115
 31
0.0
  0
LINE
  5
2C82
330
1F
100
AcDbEntity
  8
外形線
100
AcDbLine
 10
36754.29621540287
 20
28783.6857802115
 30
0.0
 11
36752.02031348232
 21
28783.23059982739
 31
0.0
  0
LINE
  5
2C83
330
1F
100
AcDbEntity
  8
外形線
100
AcDbLine
 10
36754.29621540287
 20
28783.6857802115
 30
0.0
 11
36754.29621540287
 21
28803.6857802115
 31
0.0
  0
LINE
  5
2C84
102
{ACAD_REACTORS
330
2F23
102
}
330
1F
100
AcDbEntity
  8
外形線
100
AcDbLine
 10
36754.29621540287
 20
28803.6857802115
 30
0.0
 11
36755.29621540287
 21
28803.6857802115
 31
0.0
  0
ELLIPSE
  5
2C85
330
1F
100
AcDbEntity
  8
外形線
100
AcDbEllipse
 10
36751.93907254573
 20
28781.1857802115
 30
0.0
 11
2.35714285713766
 21
1.5
 31
0.0
210
0.0
220
0.0
230
-1.0
 40
0.6753514169109462
 41
3.682438273673346
 42
4.822127997503216
  0
ARC
  5
2C86
330
1F
100
AcDbEntity
  8
外形線
100
AcDbCircle
 10
36752.60866188782
 20
28780.28885780021
 30
0.0
 40
3.0
100
AcDbArc
 50
101.3099324747151
 51
118.2155792741877
  0
LINE
  5
2C87
330
1F
100
AcDbEntity
  8
外形線
100
AcDbLine
 10
36754.29621540287
 20
28803.1857802115
 30
0.0
 11
36753.79621540287
 21
28803.1857802115
 31
0.0
  0
LINE
  5
2C88
330
1F
100
AcDbEntity
  8
外形線
100
AcDbLine
 10
36753.79621540287
 20
28803.1857802115
 30
0.0
 11
36753.79621540287
 21
28783.5857802115
 31
0.0
  0
LINE
  5
2C89
330
1F
100
AcDbEntity
  8
外形線
100
AcDbLine
 10
36753.79621540287
 20
28803.1857802115
 30
0.0
 11
36739.79621540287
 21
28803.1857802115
 31
0.0
  0
LINE
  5
2C8A
330
1F
100
AcDbEntity
  8
外形線
100
AcDbLine
 10
36738.79621540288
 20
28802.1857802115
 30
0.0
 11
36738.79621540288
 21
28772.6857802115
 31
0.0
  0
ARC
  5
2C8B
330
1F
100
AcDbEntity
  8
外形線
100
AcDbCircle
 10
36739.79621540287
 20
28802.1857802115
 30
0.0
 40
1.0
100
AcDbArc
 50
90.0
 51
180.0
  0
ARC
  5
2C8C
330
1F
100
AcDbEntity
  8
外形線
100
AcDbCircle
 10
36739.79621540287
 20
28772.6857802115
 30
0.0
 40
1.0
100
AcDbArc
 50
180.0
 51
270.0
  0
LINE
  5
2C8D
330
1F
100
AcDbEntity
  8
外形線
100
AcDbLine
 10
36739.79621540287
 20
28771.6857802115
 30
0.0
 11
36749.39678791329
 21
28771.6857802115
 31
0.0
  0
LINE
  5
2C8E
330
1F
100
AcDbEntity
  8
外形線
100
AcDbLine
 10
36749.3967879133
 20
28780.71947706628
 30
0.0
 11
36749.3967879133
 21
28771.6857802115
 31
0.0
  0
LINE
  5
2C8F
330
1F
100
AcDbEntity
  8
外形線
100
AcDbLine
 10
36749.3967879133
 20
28771.6857802115
 30
0.0
 11
36749.39678791331
 21
28766.72465209959
 31
0.0
  0
ARC
  5
2C90
330
1F
100
AcDbEntity
  8
外形線
100
AcDbCircle
 10
36758.84419926461
 20
28768.14373068404
 30
0.0
 40
9.559246875214904
100
AcDbArc
 50
189.0121675995525
 51
216.8643310199848
  0
ARC
  5
2C91
330
1F
100
AcDbEntity
  8
外形線
100
AcDbCircle
 10
36750.79621540288
 20
28762.10896443227
 30
0.0
 40
0.5
100
AcDbArc
 50
359.9999999991662
 51
36.86433102115536
  0
ARC
  5
2C92
330
1F
100
AcDbEntity
  8
外形線
100
AcDbCircle
 10
36749.8967879133
 20
28766.72465209959
 30
0.0
 40
0.5
100
AcDbArc
 50
180.0
 51
189.0121675991434
  0
LINE
  5
2C93
330
1F
100
AcDbEntity
  8
外形線
100
AcDbLine
 10
36751.29621540287
 20
28761.6857802115
 30
0.0
 11
36751.29621540287
 21
28762.10896443226
 31
0.0
  0
LINE
  5
2C94
330
1F
100
AcDbEntity
  8
外形線
100
AcDbLine
 10
36738.79621540288
 20
28798.7357802115
 30
0.0
 11
36730.29621540287
 21
28798.7357802115
 31
0.0
  0
ARC
  5
2C95
330
1F
100
AcDbEntity
  8
外形線
100
AcDbCircle
 10
36730.29621540287
 20
28798.2357802115
 30
0.0
 40
0.5
100
AcDbArc
 50
90.0
 51
180.0
  0
LINE
  5
2C96
330
1F
100
AcDbEntity
  8
外形線
100
AcDbLine
 10
36729.79621540287
 20
28798.2357802115
 30
0.0
 11
36729.79621540287
 21
28776.6357802115
 31
0.0
  0
LINE
  5
2C97
330
1F
100
AcDbEntity
  8
外形線
100
AcDbLine
 10
36730.29621540287
 20
28776.13578021149
 30
0.0
 11
36738.79621540288
 21
28776.13578021149
 31
0.0
  0
ARC
  5
2C98
330
1F
100
AcDbEntity
  8
外形線
100
AcDbCircle
 10
36730.29621540287
 20
28776.6357802115
 30
0.0
 40
0.5
100
AcDbArc
 50
180.0
 51
270.0
  0
LINE
  5
2C99
330
1F
100
AcDbEntity
  8
外形線
100
AcDbLine
 10
36121.79621540287
 20
28751.6857802115
 30
0.0
 11
36121.79621540287
 21
28748.1857802115
 31
0.0
  0
LINE
  5
2C9A
330
1F
100
AcDbEntity
  8
外形線
100
AcDbLine
 10
36122.29621540287
 20
28747.6857802115
 30
0.0
 11
36141.29621540287
 21
28747.6857802115
 31
0.0
  0
ARC
  5
2C9B
330
1F
100
AcDbEntity
  8
外形線
100
AcDbCircle
 10
36122.29621540287
 20
28748.1857802115
 30
0.0
 40
0.5
100
AcDbArc
 50
180.0
 51
270.0
  0
LINE
  5
2C9C
330
1F
100
AcDbEntity
  8
外形線
100
AcDbLine
 10
36141.79621540287
 20
28748.1857802115
 30
0.0
 11
36141.79621540287
 21
28751.6857802115
 31
0.0
  0
ARC
  5
2C9D
330
1F
100
AcDbEntity
  8
外形線
100
AcDbCircle
 10
36141.29621540287
 20
28748.1857802115
 30
0.0
 40
0.5
100
AcDbArc
 50
270.0
 51
0.0
  0
LINE
  5
2C9E
330
1F
100
AcDbEntity
  8
外形線
100
AcDbLine
 10
36141.79621540287
 20
28749.6857802115
 30
0.0
 11
36142.29621540287
 21
28749.6857802115
 31
0.0
  0
ARC
  5
2C9F
330
1F
100
AcDbEntity
  8
外形線
100
AcDbCircle
 10
36142.76543899647
 20
28751.6617507195
 30
0.0
 40
2.030918567864959
100
AcDbArc
 50
256.6416865202825
 51
0.6779299878933172
  0
ARC
  5
2CA0
330
1F
100
AcDbEntity
  8
外形線
100
AcDbCircle
 10
36142.80583163889
 20
28751.64263034737
 30
0.0
 40
1.617898346868975
100
AcDbArc
 50
251.6399975157831
 51
1.371947721248656
  0
LINE
  5
2CA1
330
1F
100
AcDbEntity
  8
外形線
100
AcDbLine
 10
36142.29621540287
 20
28751.6857802115
 30
0.0
 11
36142.29621540287
 21
28750.10708928547
 31
0.0
  0
LINE
  5
2CA2
330
1F
100
AcDbEntity
  8
外形線
100
AcDbLine
 10
36716.79621540287
 20
28751.6857802115
 30
0.0
 11
36716.79621540287
 21
28748.1857802115
 31
0.0
  0
LINE
  5
2CA3
330
1F
100
AcDbEntity
  8
外形線
100
AcDbLine
 10
36716.29621540287
 20
28747.6857802115
 30
0.0
 11
36697.29621540287
 21
28747.6857802115
 31
0.0
  0
ARC
  5
2CA4
102
{ACAD_REACTORS
330
2F3F
102
}
330
1F
100
AcDbEntity
  8
外形線
100
AcDbCircle
 10
36716.29621540287
 20
28748.1857802115
 30
0.0
 40
0.5
100
AcDbArc
 50
270.0
 51
0.0
  0
LINE
  5
2CA5
330
1F
100
AcDbEntity
  8
外形線
100
AcDbLine
 10
36696.79621540287
 20
28748.1857802115
 30
0.0
 11
36696.79621540287
 21
28751.6857802115
 31
0.0
  0
ARC
  5
2CA6
330
1F
100
AcDbEntity
  8
外形線
100
AcDbCircle
 10
36697.29621540287
 20
28748.1857802115
 30
0.0
 40
0.5
100
AcDbArc
 50
180.0
 51
270.0
  0
LINE
  5
2CA7
330
1F
100
AcDbEntity
  8
外形線
100
AcDbLine
 10
36696.79621540287
 20
28749.6857802115
 30
0.0
 11
36696.29621540287
 21
28749.6857802115
 31
0.0
  0
ARC
  5
2CA8
330
1F
100
AcDbEntity
  8
外形線
100
AcDbCircle
 10
36695.82699180928
 20
28751.6617507195
 30
0.0
 40
2.030918567864959
100
AcDbArc
 50
179.3220700121067
 51
283.3583134801251
  0
ARC
  5
2CA9
330
1F
100
AcDbEntity
  8
外形線
100
AcDbCircle
 10
36695.78659916686
 20
28751.64263034737
 30
0.0
 40
1.617898346868975
100
AcDbArc
 50
178.6280522787514
 51
288.3600024838205
  0
LINE
  5
2CAA
330
1F
100
AcDbEntity
  8
外形線
100
AcDbLine
 10
36696.29621540287
 20
28751.6857802115
 30
0.0
 11
36696.29621540287
 21
28750.10708928547
 31
0.0
  0
LINE
  5
2CAB
330
1F
100
AcDbEntity
  8
外形線
100
AcDbLine
 10
36755.29621540287
 20
29029.8127187922
 30
0.0
 11
36755.29621540287
 21
29053.81271879219
 31
0.0
  0
LINE
  5
2CAC
330
1F
100
AcDbEntity
  8
外形線
100
AcDbLine
 10
36738.79621540288
 20
29053.81271879219
 30
0.0
 11
36730.29621540287
 21
29053.81271879219
 31
0.0
  0
ARC
  5
2CAD
330
1F
100
AcDbEntity
  8
外形線
100
AcDbCircle
 10
36730.29621540287
 20
29053.31271879219
 30
0.0
 40
0.5
100
AcDbArc
 50
90.0
 51
180.0
  0
LINE
  5
2CAE
330
1F
100
AcDbEntity
  8
外形線
100
AcDbLine
 10
36083.29621540288
 20
29053.81271879219
 30
0.0
 11
36083.29621540288
 21
29029.8127187922
 31
0.0
  0
LINE
  5
2CAF
330
1F
100
AcDbEntity
  8
外形線
100
AcDbLine
 10
36730.29621540287
 20
29029.8127187922
 30
0.0
 11
36738.79621540288
 21
29029.8127187922
 31
0.0
  0
LINE
  5
2CB0
330
1F
100
AcDbEntity
  8
外形線
100
AcDbLine
 10
36729.79621540287
 20
29052.8127187922
 30
0.0
 11
36097.79621540287
 21
29052.8127187922
 31
0.0
  0
LINE
  5
2CB1
330
1F
100
AcDbEntity
  8
外形線
100
AcDbLine
 10
36097.79621540287
 20
29030.81271879219
 30
0.0
 11
36729.79621540287
 21
29030.81271879219
 31
0.0
  0
LINE
  5
2CB2
330
1F
100
AcDbEntity
  8
外形線
100
AcDbLine
 10
36083.29621540288
 20
29050.8127187922
 30
0.0
 11
36082.29915673416
 21
29044.99653935527
 31
0.0
  0
ARC
  5
2CB3
330
1F
100
AcDbEntity
  8
外形線
100
AcDbCircle
 10
36082.54575521512
 20
29044.95543960844
 30
0.0
 40
0.25
100
AcDbArc
 50
170.537677792045
 51
176.5230231830233
  0
ARC
  5
2CB4
330
1F
100
AcDbEntity
  8
外形線
100
AcDbCircle
 10
36082.54575521512
 20
29044.95543960844
 30
0.0
 40
0.25
100
AcDbArc
 50
183.4769768169767
 51
243.4349488229235
  0
LINE
  5
2CB5
102
{ACAD_REACTORS
330
2F08
102
}
330
1F
100
AcDbEntity
  8
外形線
100
AcDbLine
 10
36082.29621540287
 20
29044.97060147189
 30
0.0
 11
36082.29621540287
 21
29038.6548361125
 31
0.0
  0
LINE
  5
2CB6
330
1F
100
AcDbEntity
  8
外形線
100
AcDbLine
 10
36082.43395181625
 20
29044.73183281069
 30
0.0
 11
36083.29621540288
 21
29044.31271879219
 31
0.0
  0
LINE
  5
2CB7
330
1F
100
AcDbEntity
  8
外形線
100
AcDbLine
 10
36083.29621540288
 20
29032.81271879219
 30
0.0
 11
36082.29915673416
 21
29038.62889822912
 31
0.0
  0
ARC
  5
2CB8
330
1F
100
AcDbEntity
  8
外形線
100
AcDbCircle
 10
36082.54575521512
 20
29038.66999797594
 30
0.0
 40
0.25
100
AcDbArc
 50
183.4769768169767
 51
189.4623222084304
  0
ARC
  5
2CB9
330
1F
100
AcDbEntity
  8
外形線
100
AcDbCircle
 10
36082.54575521512
 20
29038.66999797594
 30
0.0
 40
0.25
100
AcDbArc
 50
116.5650511770765
 51
176.5230231830233
  0
LINE
  5
2CBA
330
1F
100
AcDbEntity
  8
外形線
100
AcDbLine
 10
36082.43395181625
 20
29038.8936047737
 30
0.0
 11
36083.29621540288
 21
29039.31271879219
 31
0.0
  0
LINE
  5
2CBB
330
1F
100
AcDbEntity
  8
外形線
100
AcDbLine
 10
36083.29621540288
 20
29053.81271879219
 30
0.0
 11
36083.29621540288
 21
29057.81271879219
 31
0.0
  0
LINE
  5
2CBC
330
1F
100
AcDbEntity
  8
外形線
100
AcDbLine
 10
36083.29621540288
 20
29057.81271879219
 30
0.0
 11
36084.29621540287
 21
29057.81271879219
 31
0.0
  0
LINE
  5
2CBD
330
1F
100
AcDbEntity
  8
外形線
100
AcDbLine
 10
36084.29621540287
 20
29057.81271879219
 30
0.0
 11
36084.29621540287
 21
29025.81271879219
 31
0.0
  0
LINE
  5
2CBE
330
1F
100
AcDbEntity
  8
外形線
100
AcDbLine
 10
36084.29621540287
 20
29025.81271879219
 30
0.0
 11
36083.29621540288
 21
29025.81271879219
 31
0.0
  0
LINE
  5
2CBF
330
1F
100
AcDbEntity
  8
外形線
100
AcDbLine
 10
36083.29621540288
 20
29025.81271879219
 30
0.0
 11
36083.29621540288
 21
29032.81271879219
 31
0.0
  0
LINE
  5
2CC0
330
1F
100
AcDbEntity
  8
外形線
100
AcDbLine
 10
36084.29621540287
 20
29025.81271879219
 30
0.0
 11
36084.79621540287
 21
29025.81271879219
 31
0.0
  0
LINE
  5
2CC1
330
1F
100
AcDbEntity
  8
外形線
100
AcDbLine
 10
36084.79621540287
 20
29025.81271879219
 30
0.0
 11
36084.79621540287
 21
29057.81271879219
 31
0.0
  0
LINE
  5
2CC2
330
1F
100
AcDbEntity
  8
外形線
100
AcDbLine
 10
36084.79621540287
 20
29057.81271879219
 30
0.0
 11
36084.29621540287
 21
29057.81271879219
 31
0.0
  0
LINE
  5
2CC3
330
1F
100
AcDbEntity
  8
外形線
100
AcDbLine
 10
36084.79621540287
 20
29025.81271879219
 30
0.0
 11
36096.79621540287
 21
29025.81271879219
 31
0.0
  0
LINE
  5
2CC4
330
1F
100
AcDbEntity
  8
外形線
100
AcDbLine
 10
36097.79621540287
 20
29026.81271879219
 30
0.0
 11
36097.79621540287
 21
29056.81271879219
 31
0.0
  0
ARC
  5
2CC5
330
1F
100
AcDbEntity
  8
外形線
100
AcDbCircle
 10
36096.79621540287
 20
29026.81271879219
 30
0.0
 40
1.0
100
AcDbArc
 50
270.0
 51
0.0
  0
LINE
  5
2CC6
330
1F
100
AcDbEntity
  8
外形線
100
AcDbLine
 10
36096.79621540287
 20
29057.81271879219
 30
0.0
 11
36084.79621540287
 21
29057.81271879219
 31
0.0
  0
ARC
  5
2CC7
330
1F
100
AcDbEntity
  8
外形線
100
AcDbCircle
 10
36096.79621540287
 20
29056.81271879219
 30
0.0
 40
1.0
100
AcDbArc
 50
0.0
 51
90.0
  0
LINE
  5
2CC8
330
1F
100
AcDbEntity
  8
外形線
100
AcDbLine
 10
36755.29621540287
 20
29053.81271879219
 30
0.0
 11
36755.29621540287
 21
29029.8127187922
 31
0.0
  0
LINE
  5
2CC9
330
1F
100
AcDbEntity
  8
外形線
100
AcDbLine
 10
36755.29621540287
 20
29050.8127187922
 30
0.0
 11
36756.29327407158
 21
29044.99653935527
 31
0.0
  0
ARC
  5
2CCA
330
1F
100
AcDbEntity
  8
外形線
100
AcDbCircle
 10
36756.04667559063
 20
29044.95543960844
 30
0.0
 40
0.25
100
AcDbArc
 50
3.476976816976713
 51
9.46232220795494
  0
ARC
  5
2CCB
330
1F
100
AcDbEntity
  8
外形線
100
AcDbCircle
 10
36756.04667559063
 20
29044.95543960844
 30
0.0
 40
0.25
100
AcDbArc
 50
296.5650511770765
 51
356.5230231830233
  0
LINE
  5
2CCC
102
{ACAD_REACTORS
330
2F08
102
}
330
1F
100
AcDbEntity
  8
外形線
100
AcDbLine
 10
36756.29621540287
 20
29044.97060147189
 30
0.0
 11
36756.29621540287
 21
29038.6548361125
 31
0.0
  0
LINE
  5
2CCD
330
1F
100
AcDbEntity
  8
外形線
100
AcDbLine
 10
36756.1584789895
 20
29044.73183281069
 30
0.0
 11
36755.29621540287
 21
29044.31271879219
 31
0.0
  0
LINE
  5
2CCE
330
1F
100
AcDbEntity
  8
外形線
100
AcDbLine
 10
36755.29621540287
 20
29032.81271879219
 30
0.0
 11
36756.29327407158
 21
29038.62889822912
 31
0.0
  0
ARC
  5
2CCF
330
1F
100
AcDbEntity
  8
外形線
100
AcDbCircle
 10
36756.04667559063
 20
29038.66999797594
 30
0.0
 40
0.25
100
AcDbArc
 50
350.5376777915696
 51
356.5230231830233
  0
ARC
  5
2CD0
330
1F
100
AcDbEntity
  8
外形線
100
AcDbCircle
 10
36756.04667559063
 20
29038.66999797594
 30
0.0
 40
0.25
100
AcDbArc
 50
3.476976816976713
 51
63.43494882292347
  0
LINE
  5
2CD1
330
1F
100
AcDbEntity
  8
外形線
100
AcDbLine
 10
36756.1584789895
 20
29038.8936047737
 30
0.0
 11
36755.29621540287
 21
29039.31271879219
 31
0.0
  0
LINE
  5
2CD2
330
1F
100
AcDbEntity
  8
外形線
100
AcDbLine
 10
36755.29621540287
 20
29053.81271879219
 30
0.0
 11
36755.29621540287
 21
29057.81271879219
 31
0.0
  0
LINE
  5
2CD3
330
1F
100
AcDbEntity
  8
外形線
100
AcDbLine
 10
36755.29621540287
 20
29057.81271879219
 30
0.0
 11
36754.29621540287
 21
29057.81271879219
 31
0.0
  0
LINE
  5
2CD4
330
1F
100
AcDbEntity
  8
外形線
100
AcDbLine
 10
36754.29621540287
 20
29057.81271879219
 30
0.0
 11
36754.29621540287
 21
29025.81271879219
 31
0.0
  0
LINE
  5
2CD5
330
1F
100
AcDbEntity
  8
外形線
100
AcDbLine
 10
36754.29621540287
 20
29025.81271879219
 30
0.0
 11
36755.29621540287
 21
29025.81271879219
 31
0.0
  0
LINE
  5
2CD6
330
1F
100
AcDbEntity
  8
外形線
100
AcDbLine
 10
36755.29621540287
 20
29025.81271879219
 30
0.0
 11
36755.29621540287
 21
29032.81271879219
 31
0.0
  0
LINE
  5
2CD7
330
1F
100
AcDbEntity
  8
外形線
100
AcDbLine
 10
36754.29621540287
 20
29025.81271879219
 30
0.0
 11
36753.79621540287
 21
29025.81271879219
 31
0.0
  0
LINE
  5
2CD8
330
1F
100
AcDbEntity
  8
外形線
100
AcDbLine
 10
36753.79621540287
 20
29025.81271879219
 30
0.0
 11
36753.79621540287
 21
29057.81271879219
 31
0.0
  0
LINE
  5
2CD9
330
1F
100
AcDbEntity
  8
外形線
100
AcDbLine
 10
36753.79621540287
 20
29057.81271879219
 30
0.0
 11
36754.29621540287
 21
29057.81271879219
 31
0.0
  0
LINE
  5
2CDA
330
1F
100
AcDbEntity
  8
外形線
100
AcDbLine
 10
36753.79621540287
 20
29057.81271879219
 30
0.0
 11
36739.79621540287
 21
29057.81271879219
 31
0.0
  0
LINE
  5
2CDB
330
1F
100
AcDbEntity
  8
外形線
100
AcDbLine
 10
36738.79621540288
 20
29056.81271879219
 30
0.0
 11
36738.79621540288
 21
29026.81271879219
 31
0.0
  0
ARC
  5
2CDC
330
1F
100
AcDbEntity
  8
外形線
100
AcDbCircle
 10
36739.79621540287
 20
29056.81271879219
 30
0.0
 40
1.0
100
AcDbArc
 50
90.0
 51
180.0
  0
ARC
  5
2CDD
330
1F
100
AcDbEntity
  8
外形線
100
AcDbCircle
 10
36739.79621540287
 20
29026.81271879219
 30
0.0
 40
1.0
100
AcDbArc
 50
180.0
 51
270.0
  0
LINE
  5
2CDE
330
1F
100
AcDbEntity
  8
外形線
100
AcDbLine
 10
36739.79621540287
 20
29025.81271879219
 30
0.0
 11
36753.79621540287
 21
29025.81271879219
 31
0.0
  0
LINE
  5
2CDF
330
1F
100
AcDbEntity
  8
外形線
100
AcDbLine
 10
36729.79621540287
 20
29053.31271879219
 30
0.0
 11
36729.79621540287
 21
29045.0627187922
 31
0.0
  0
ARC
  5
2CE0
330
1F
100
AcDbEntity
  8
外形線
100
AcDbCircle
 10
36730.29621540287
 20
29045.0627187922
 30
0.0
 40
0.5
100
AcDbArc
 50
180.0
 51
270.0
  0
ARC
  5
2CE1
330
1F
100
AcDbEntity
  8
外形線
100
AcDbCircle
 10
36730.29621540287
 20
29030.31271879219
 30
0.0
 40
0.5
100
AcDbArc
 50
180.0
 51
270.0
  0
LINE
  5
2CE2
330
1F
100
AcDbEntity
  8
外形線
100
AcDbLine
 10
36732.29621540287
 20
29053.81271879219
 30
0.0
 11
36097.79621540287
 21
29053.81271879219
 31
0.0
  0
LINE
  5
2CE3
330
1F
100
AcDbEntity
  8
外形線
100
AcDbLine
 10
36097.79621540287
 20
29029.8127187922
 30
0.0
 11
36732.29621540287
 21
29029.8127187922
 31
0.0
  0
LINE
  5
2CE4
330
1F
100
AcDbEntity
  8
外形線
100
AcDbLine
 10
36738.79621540288
 20
29044.56271879219
 30
0.0
 11
36730.29621540287
 21
29044.56271879219
 31
0.0
  0
LINE
  5
2CE5
330
1F
100
AcDbEntity
  8
外形線
100
AcDbLine
 10
36738.79621540288
 20
29039.06271879219
 30
0.0
 11
36730.29621540287
 21
29039.06271879219
 31
0.0
  0
LINE
  5
2CE6
330
1F
100
AcDbEntity
  8
外形線
100
AcDbLine
 10
36731.29621540287
 20
29044.56271879219
 30
0.0
 11
36731.29621540287
 21
29039.06271879219
 31
0.0
  0
LINE
  5
2CE7
330
1F
100
AcDbEntity
  8
外形線
100
AcDbLine
 10
36729.79621540287
 20
29038.56271879219
 30
0.0
 11
36729.79621540287
 21
29030.31271879219
 31
0.0
  0
ARC
  5
2CE8
330
1F
100
AcDbEntity
  8
外形線
100
AcDbCircle
 10
36730.29621540287
 20
29038.56271879219
 30
0.0
 40
0.5
100
AcDbArc
 50
90.0
 51
180.0
  0
ARC
  5
2CE9
330
1F
100
AcDbEntity
  8
孔
100
AcDbCircle
 10
36151.29621540287
 20
29041.81271879219
 30
0.0
 40
5.0
100
AcDbArc
 50
270.0
 51
90.0
  0
ARC
  5
2CEA
330
1F
100
AcDbEntity
  8
孔
100
AcDbCircle
 10
36107.29621540287
 20
29041.81271879219
 30
0.0
 40
5.0
100
AcDbArc
 50
90.0
 51
143.1301023543243
  0
ARC
  5
2CEB
330
1F
100
AcDbEntity
  8
孔
100
AcDbCircle
 10
36107.29621540287
 20
29041.81271879219
 30
0.0
 40
5.0
100
AcDbArc
 50
216.8698976456756
 51
270.0
  0
LINE
  5
2CEC
330
1F
100
AcDbEntity
  8
孔
100
AcDbLine
 10
36097.79621540287
 20
29044.81271879219
 30
0.0
 11
36103.29621540287
 21
29044.81271879219
 31
0.0
  0
LINE
  5
2CED
330
1F
100
AcDbEntity
  8
孔
100
AcDbLine
 10
36097.79621540287
 20
29038.81271879219
 30
0.0
 11
36103.29621540287
 21
29038.81271879219
 31
0.0
  0
LINE
  5
2CEE
330
1F
100
AcDbEntity
  8
孔
100
AcDbLine
 10
36107.29621540287
 20
29046.81271879219
 30
0.0
 11
36121.79621540287
 21
29046.81271879219
 31
0.0
  0
LINE
  5
2CEF
330
1F
100
AcDbEntity
  8
孔
100
AcDbLine
 10
36141.79621540287
 20
29046.81271879219
 30
0.0
 11
36151.29621540287
 21
29046.81271879219
 31
0.0
  0
LINE
  5
2CF0
330
1F
100
AcDbEntity
  8
孔
100
AcDbLine
 10
36107.29621540287
 20
29036.81271879219
 30
0.0
 11
36121.79621540287
 21
29036.81271879219
 31
0.0
  0
LINE
  5
2CF1
330
1F
100
AcDbEntity
  8
孔
100
AcDbLine
 10
36141.79621540287
 20
29036.81271879219
 30
0.0
 11
36151.29621540287
 21
29036.81271879219
 31
0.0
  0
LINE
  5
2CF2
330
1F
100
AcDbEntity
  8
外形線
100
AcDbLine
 10
36121.79621540287
 20
29045.81271879219
 30
0.0
 11
36121.79621540287
 21
29037.81271879219
 31
0.0
  0
LINE
  5
2CF3
330
1F
100
AcDbEntity
  8
外形線
100
AcDbLine
 10
36125.29621540288
 20
29034.31271879219
 30
0.0
 11
36134.29621540287
 21
29034.31271879219
 31
0.0
  0
ARC
  5
2CF4
330
1F
100
AcDbEntity
  8
外形線
100
AcDbCircle
 10
36138.29621540287
 20
29037.81271879219
 30
0.0
 40
3.5
100
AcDbArc
 50
270.0
 51
0.0
  0
ARC
  5
2CF5
330
1F
100
AcDbEntity
  8
外形線
100
AcDbCircle
 10
36125.29621540288
 20
29037.81271879219
 30
0.0
 40
3.5
100
AcDbArc
 50
180.0
 51
270.0
  0
LINE
  5
2CF6
330
1F
100
AcDbEntity
  8
外形線
100
AcDbLine
 10
36141.79621540287
 20
29037.81271879219
 30
0.0
 11
36141.79621540287
 21
29045.81271879219
 31
0.0
  0
ARC
  5
2CF7
330
1F
100
AcDbEntity
  8
外形線
100
AcDbCircle
 10
36138.29621540287
 20
29045.81271879219
 30
0.0
 40
3.5
100
AcDbArc
 50
0.0
 51
90.0
  0
LINE
  5
2CF8
330
1F
100
AcDbEntity
  8
外形線
100
AcDbLine
 10
36134.29621540287
 20
29049.31271879219
 30
0.0
 11
36125.29621540288
 21
29049.31271879219
 31
0.0
  0
ARC
  5
2CF9
330
1F
100
AcDbEntity
  8
外形線
100
AcDbCircle
 10
36125.29621540288
 20
29045.81271879219
 30
0.0
 40
3.5
100
AcDbArc
 50
90.0
 51
180.0
  0
LINE
  5
2CFA
330
1F
100
AcDbEntity
  8
外形線
100
AcDbLine
 10
36121.79621540287
 20
29045.81271879219
 30
0.0
 11
36123.79621540287
 21
29045.81271879219
 31
0.0
  0
LINE
  5
2CFB
330
1F
100
AcDbEntity
  8
外形線
100
AcDbLine
 10
36123.79621540287
 20
29045.81271879219
 30
0.0
 11
36123.79621540287
 21
29037.81271879219
 31
0.0
  0
LINE
  5
2CFC
330
1F
100
AcDbEntity
  8
外形線
100
AcDbLine
 10
36123.79621540287
 20
29037.81271879219
 30
0.0
 11
36121.79621540287
 21
29037.81271879219
 31
0.0
  0
LINE
  5
2CFD
330
1F
100
AcDbEntity
  8
外形線
100
AcDbLine
 10
36134.29621540287
 20
29035.31271879219
 30
0.0
 11
36134.29621540287
 21
29032.81271879219
 31
0.0
  0
LINE
  5
2CFE
330
1F
100
AcDbEntity
  8
外形線
100
AcDbLine
 10
36134.29621540287
 20
29032.81271879219
 30
0.0
 11
36138.29621540287
 21
29032.81271879219
 31
0.0
  0
LINE
  5
2CFF
330
1F
100
AcDbEntity
  8
外形線
100
AcDbLine
 10
36138.29621540287
 20
29032.81271879219
 30
0.0
 11
36138.29621540287
 21
29035.31271879219
 31
0.0
  0
LINE
  5
2D00
330
1F
100
AcDbEntity
  8
外形線
100
AcDbLine
 10
36138.29621540287
 20
29035.31271879219
 30
0.0
 11
36134.29621540287
 21
29035.31271879219
 31
0.0
  0
LINE
  5
2D01
330
1F
100
AcDbEntity
  8
外形線
100
AcDbLine
 10
36134.29621540287
 20
29048.31271879219
 30
0.0
 11
36134.29621540287
 21
29050.8127187922
 31
0.0
  0
LINE
  5
2D02
330
1F
100
AcDbEntity
  8
外形線
100
AcDbLine
 10
36134.29621540287
 20
29050.8127187922
 30
0.0
 11
36138.29621540287
 21
29050.8127187922
 31
0.0
  0
LINE
  5
2D03
330
1F
100
AcDbEntity
  8
外形線
100
AcDbLine
 10
36138.29621540287
 20
29050.8127187922
 30
0.0
 11
36138.29621540287
 21
29048.31271879219
 31
0.0
  0
LINE
  5
2D04
330
1F
100
AcDbEntity
  8
外形線
100
AcDbLine
 10
36138.29621540287
 20
29048.31271879219
 30
0.0
 11
36134.29621540287
 21
29048.31271879219
 31
0.0
  0
LINE
  5
2D05
330
1F
100
AcDbEntity
  8
外形線
100
AcDbLine
 10
36141.79621540287
 20
29044.81271879219
 30
0.0
 11
36144.79621540287
 21
29044.81271879219
 31
0.0
  0
LINE
  5
2D06
330
1F
100
AcDbEntity
  8
外形線
100
AcDbLine
 10
36144.79621540287
 20
29044.81271879219
 30
0.0
 11
36144.79621540287
 21
29038.81271879219
 31
0.0
  0
LINE
  5
2D07
330
1F
100
AcDbEntity
  8
外形線
100
AcDbLine
 10
36144.79621540287
 20
29038.81271879219
 30
0.0
 11
36141.79621540287
 21
29038.81271879219
 31
0.0
  0
LINE
  5
2D08
330
1F
100
AcDbEntity
  8
外形線
100
AcDbLine
 10
36137.79621540287
 20
29043.81271879219
 30
0.0
 11
36126.79621540287
 21
29043.81271879219
 31
0.0
  0
LINE
  5
2D09
330
1F
100
AcDbEntity
  8
外形線
100
AcDbLine
 10
36126.79621540287
 20
29043.81271879219
 30
0.0
 11
36126.79621540287
 21
29039.81271879219
 31
0.0
  0
LINE
  5
2D0A
330
1F
100
AcDbEntity
  8
外形線
100
AcDbLine
 10
36126.79621540287
 20
29039.81271879219
 30
0.0
 11
36137.79621540287
 21
29039.81271879219
 31
0.0
  0
ARC
  5
2D0B
330
1F
100
AcDbEntity
  8
外形線
100
AcDbCircle
 10
36137.79621540287
 20
29041.81271879219
 30
0.0
 40
2.0
100
AcDbArc
 50
270.0
 51
90.0
  0
LINE
  5
2D0C
330
1F
100
AcDbEntity
  8
外形線
100
AcDbLine
 10
36121.79621540287
 20
29038.56271879219
 30
0.0
 11
36122.79621540287
 21
29038.56271879219
 31
0.0
  0
LINE
  5
2D0D
330
1F
100
AcDbEntity
  8
外形線
100
AcDbLine
 10
36122.79621540287
 20
29038.56271879219
 30
0.0
 11
36122.79621540287
 21
29045.0627187922
 31
0.0
  0
LINE
  5
2D0E
330
1F
100
AcDbEntity
  8
外形線
100
AcDbLine
 10
36122.79621540287
 20
29045.0627187922
 30
0.0
 11
36121.79621540287
 21
29045.0627187922
 31
0.0
  0
LINE
  5
2D0F
330
1F
100
AcDbEntity
  8
外形線
100
AcDbLine
 10
36097.79621540287
 20
29051.3127187922
 30
0.0
 11
36167.29621540287
 21
29051.3127187922
 31
0.0
  0
LINE
  5
2D10
330
1F
100
AcDbEntity
  8
外形線
100
AcDbLine
 10
36167.29621540287
 20
29051.3127187922
 30
0.0
 11
36167.29621540287
 21
29044.11531241544
 31
0.0
  0
LINE
  5
2D11
330
1F
100
AcDbEntity
  8
外形線
100
AcDbLine
 10
36167.29621540287
 20
29039.51012516895
 30
0.0
 11
36167.29621540287
 21
29032.31271879219
 31
0.0
  0
LINE
  5
2D12
330
1F
100
AcDbEntity
  8
外形線
100
AcDbLine
 10
36167.29621540287
 20
29032.31271879219
 30
0.0
 11
36097.79621540287
 21
29032.31271879219
 31
0.0
  0
LINE
  5
2D13
330
1F
100
AcDbEntity
  8
外形線
100
AcDbLine
 10
36097.79621540287
 20
29033.31271879219
 30
0.0
 11
36134.29621540287
 21
29033.31271879219
 31
0.0
  0
LINE
  5
2D14
330
1F
100
AcDbEntity
  8
外形線
100
AcDbLine
 10
36138.29621540287
 20
29033.31271879219
 30
0.0
 11
36167.29621540287
 21
29033.31271879219
 31
0.0
  0
LINE
  5
2D15
330
1F
100
AcDbEntity
  8
外形線
100
AcDbLine
 10
36167.29621540287
 20
29050.31271879219
 30
0.0
 11
36138.29621540287
 21
29050.31271879219
 31
0.0
  0
LINE
  5
2D16
330
1F
100
AcDbEntity
  8
外形線
100
AcDbLine
 10
36097.79621540287
 20
29050.31271879219
 30
0.0
 11
36134.29621540287
 21
29050.31271879219
 31
0.0
  0
LINE
  5
2D17
330
1F
100
AcDbEntity
  8
外形線
100
AcDbLine
 10
36163.29621540287
 20
29045.3127187922
 30
0.0
 11
36159.29621540287
 21
29045.3127187922
 31
0.0
  0
LINE
  5
2D18
330
1F
100
AcDbEntity
  8
外形線
100
AcDbLine
 10
36159.29621540287
 20
29045.3127187922
 30
0.0
 11
36159.29621540287
 21
29038.31271879219
 31
0.0
  0
LINE
  5
2D19
330
1F
100
AcDbEntity
  8
外形線
100
AcDbLine
 10
36159.29621540287
 20
29038.31271879219
 30
0.0
 11
36163.29621540287
 21
29038.31271879219
 31
0.0
  0
LINE
  5
2D1A
330
1F
100
AcDbEntity
  8
外形線
100
AcDbLine
 10
36162.79621540287
 20
29038.31271879219
 30
0.0
 11
36162.79621540287
 21
29045.3127187922
 31
0.0
  0
LINE
  5
2D1B
330
1F
100
AcDbEntity
  8
外形線
100
AcDbLine
 10
36162.79621540287
 20
29045.3127187922
 30
0.0
 11
36170.3974436539
 21
29043.18695479455
 31
0.0
  0
LINE
  5
2D1C
330
1F
100
AcDbEntity
  8
外形線
100
AcDbLine
 10
36170.3974436539
 20
29040.43848278984
 30
0.0
 11
36162.79621540287
 21
29038.31271879219
 31
0.0
  0
ARC
  5
2D1D
330
1F
100
AcDbEntity
  8
外形線
100
AcDbCircle
 10
36169.79621540287
 20
29041.81271879219
 30
0.0
 40
1.5
100
AcDbArc
 50
293.6293777308575
 51
66.37062226914252
  0
LINE
  5
2D1E
330
1F
100
AcDbEntity
  8
外形線
100
AcDbLine
 10
36163.29621540287
 20
29045.3127187922
 30
0.0
 11
36163.29621540287
 21
29045.17288849587
 31
0.0
  0
LINE
  5
2D1F
330
1F
100
AcDbEntity
  8
外形線
100
AcDbLine
 10
36163.29621540287
 20
29038.31271879219
 30
0.0
 11
36163.29621540287
 21
29038.45254908852
 31
0.0
  0
LINE
  5
2D20
330
1F
100
AcDbEntity
  8
孔
100
AcDbLine
 10
36183.29621540287
 20
29037.31271879219
 30
0.0
 11
36184.32041053772
 21
29045.44579203387
 31
0.0
  0
LINE
  5
2D21
330
1F
100
AcDbEntity
  8
孔
100
AcDbLine
 10
36187.27202026802
 20
29045.44579203387
 30
0.0
 11
36188.29621540287
 21
29037.31271879219
 31
0.0
  0
ARC
  5
2D22
330
1F
100
AcDbEntity
  8
孔
100
AcDbCircle
 10
36185.79621540287
 20
29045.17746387657
 30
0.0
 40
1.5
100
AcDbArc
 50
10.30484646891518
 51
169.6951535310848
  0
LINE
  5
2D23
330
1F
100
AcDbEntity
  8
孔
100
AcDbLine
 10
36183.29621540287
 20
29037.31271879219
 30
0.0
 11
36188.29621540287
 21
29037.31271879219
 31
0.0
  0
LINE
  5
2D24
330
1F
100
AcDbEntity
  8
孔
100
AcDbLine
 10
36183.29621540287
 20
29037.31271879219
 30
0.0
 11
36183.29621540287
 21
29036.81271879219
 31
0.0
  0
LINE
  5
2D25
330
1F
100
AcDbEntity
  8
孔
100
AcDbLine
 10
36183.29621540287
 20
29036.81271879219
 30
0.0
 11
36188.29621540287
 21
29036.81271879219
 31
0.0
  0
LINE
  5
2D26
330
1F
100
AcDbEntity
  8
孔
100
AcDbLine
 10
36188.29621540287
 20
29036.81271879219
 30
0.0
 11
36188.29621540287
 21
29037.31271879219
 31
0.0
  0
CIRCLE
  5
2D27
330
1F
100
AcDbEntity
  8
孔
100
AcDbCircle
 10
36196.29621540287
 20
29041.81271879219
 30
0.0
 40
2.1
  0
CIRCLE
  5
2D28
330
1F
100
AcDbEntity
  8
孔
100
AcDbCircle
 10
36224.29621540288
 20
29041.81271879219
 30
0.0
 40
2.1
  0
CIRCLE
  5
2D29
330
1F
100
AcDbEntity
  8
孔
100
AcDbCircle
 10
36316.29621540287
 20
29041.81271879219
 30
0.0
 40
2.1
  0
CIRCLE
  5
2D2A
330
1F
100
AcDbEntity
  8
孔
100
AcDbCircle
 10
36336.29621540287
 20
29041.81271879219
 30
0.0
 40
2.1
  0
CIRCLE
  5
2D2B
330
1F
100
AcDbEntity
  8
孔
100
AcDbCircle
 10
36367.29621540288
 20
29041.81271879219
 30
0.0
 40
2.1
  0
CIRCLE
  5
2D2C
330
1F
100
AcDbEntity
  8
孔
100
AcDbCircle
 10
36381.29621540287
 20
29041.81271879219
 30
0.0
 40
2.1
  0
CIRCLE
  5
2D2D
330
1F
100
AcDbEntity
  8
孔
100
AcDbCircle
 10
36416.29621540287
 20
29041.81271879219
 30
0.0
 40
2.1
  0
CIRCLE
  5
2D2E
330
1F
100
AcDbEntity
  8
孔
100
AcDbCircle
 10
36460.29621540287
 20
29041.81271879219
 30
0.0
 40
2.1
  0
CIRCLE
  5
2D2F
330
1F
100
AcDbEntity
  8
孔
100
AcDbCircle
 10
36473.29621540287
 20
29041.81271879219
 30
0.0
 40
2.1
  0
CIRCLE
  5
2D30
330
1F
100
AcDbEntity
  8
孔
100
AcDbCircle
 10
36505.29621540287
 20
29041.81271879219
 30
0.0
 40
2.1
  0
CIRCLE
  5
2D31
330
1F
100
AcDbEntity
  8
孔
100
AcDbCircle
 10
36515.29621540287
 20
29041.81271879219
 30
0.0
 40
2.1
  0
LINE
  5
2D32
330
1F
100
AcDbEntity
  8
孔
100
AcDbLine
 10
36203.29621540287
 20
29045.3127187922
 30
0.0
 11
36203.29621540287
 21
29038.31271879219
 31
0.0
  0
LINE
  5
2D33
330
1F
100
AcDbEntity
  8
孔
100
AcDbLine
 10
36203.29621540287
 20
29038.31271879219
 30
0.0
 11
36217.29621540287
 21
29038.31271879219
 31
0.0
  0
LINE
  5
2D34
330
1F
100
AcDbEntity
  8
孔
100
AcDbLine
 10
36217.29621540287
 20
29038.31271879219
 30
0.0
 11
36217.29621540287
 21
29045.3127187922
 31
0.0
  0
LINE
  5
2D35
330
1F
100
AcDbEntity
  8
孔
100
AcDbLine
 10
36217.29621540287
 20
29045.3127187922
 30
0.0
 11
36203.29621540287
 21
29045.3127187922
 31
0.0
  0
LINE
  5
2D36
330
1F
100
AcDbEntity
  8
孔
100
AcDbLine
 10
36233.29621540287
 20
29037.31271879219
 30
0.0
 11
36234.32041053773
 21
29045.44579203387
 31
0.0
  0
LINE
  5
2D37
330
1F
100
AcDbEntity
  8
孔
100
AcDbLine
 10
36237.27202026802
 20
29045.44579203387
 30
0.0
 11
36238.29621540287
 21
29037.31271879219
 31
0.0
  0
ARC
  5
2D38
330
1F
100
AcDbEntity
  8
孔
100
AcDbCircle
 10
36235.79621540288
 20
29045.17746387657
 30
0.0
 40
1.5
100
AcDbArc
 50
10.30484646891518
 51
169.6951535310848
  0
LINE
  5
2D39
330
1F
100
AcDbEntity
  8
孔
100
AcDbLine
 10
36233.29621540287
 20
29037.31271879219
 30
0.0
 11
36238.29621540287
 21
29037.31271879219
 31
0.0
  0
LINE
  5
2D3A
330
1F
100
AcDbEntity
  8
孔
100
AcDbLine
 10
36233.29621540287
 20
29037.31271879219
 30
0.0
 11
36233.29621540287
 21
29036.81271879219
 31
0.0
  0
LINE
  5
2D3B
330
1F
100
AcDbEntity
  8
孔
100
AcDbLine
 10
36233.29621540287
 20
29036.81271879219
 30
0.0
 11
36238.29621540287
 21
29036.81271879219
 31
0.0
  0
LINE
  5
2D3C
330
1F
100
AcDbEntity
  8
孔
100
AcDbLine
 10
36238.29621540287
 20
29036.81271879219
 30
0.0
 11
36238.29621540287
 21
29037.31271879219
 31
0.0
  0
LINE
  5
2D3D
330
1F
100
AcDbEntity
  8
孔
100
AcDbLine
 10
36285.29621540288
 20
29037.31271879219
 30
0.0
 11
36286.32041053772
 21
29045.44579203387
 31
0.0
  0
LINE
  5
2D3E
330
1F
100
AcDbEntity
  8
孔
100
AcDbLine
 10
36289.27202026802
 20
29045.44579203387
 30
0.0
 11
36290.29621540287
 21
29037.31271879219
 31
0.0
  0
ARC
  5
2D3F
330
1F
100
AcDbEntity
  8
孔
100
AcDbCircle
 10
36287.79621540287
 20
29045.17746387657
 30
0.0
 40
1.5
100
AcDbArc
 50
10.30484646891518
 51
169.6951535310848
  0
LINE
  5
2D40
330
1F
100
AcDbEntity
  8
孔
100
AcDbLine
 10
36285.29621540288
 20
29037.31271879219
 30
0.0
 11
36290.29621540287
 21
29037.31271879219
 31
0.0
  0
LINE
  5
2D41
330
1F
100
AcDbEntity
  8
孔
100
AcDbLine
 10
36285.29621540288
 20
29037.31271879219
 30
0.0
 11
36285.29621540288
 21
29036.81271879219
 31
0.0
  0
LINE
  5
2D42
330
1F
100
AcDbEntity
  8
孔
100
AcDbLine
 10
36285.29621540288
 20
29036.81271879219
 30
0.0
 11
36290.29621540287
 21
29036.81271879219
 31
0.0
  0
LINE
  5
2D43
330
1F
100
AcDbEntity
  8
孔
100
AcDbLine
 10
36290.29621540287
 20
29036.81271879219
 30
0.0
 11
36290.29621540287
 21
29037.31271879219
 31
0.0
  0
LINE
  5
2D44
330
1F
100
AcDbEntity
  8
孔
100
AcDbLine
 10
36387.29621540287
 20
29037.31271879219
 30
0.0
 11
36388.32041053772
 21
29045.44579203387
 31
0.0
  0
LINE
  5
2D45
330
1F
100
AcDbEntity
  8
孔
100
AcDbLine
 10
36391.27202026802
 20
29045.44579203387
 30
0.0
 11
36392.29621540287
 21
29037.31271879219
 31
0.0
  0
ARC
  5
2D46
330
1F
100
AcDbEntity
  8
孔
100
AcDbCircle
 10
36389.79621540287
 20
29045.17746387657
 30
0.0
 40
1.5
100
AcDbArc
 50
10.30484646891518
 51
169.6951535310848
  0
LINE
  5
2D47
330
1F
100
AcDbEntity
  8
孔
100
AcDbLine
 10
36387.29621540287
 20
29037.31271879219
 30
0.0
 11
36392.29621540287
 21
29037.31271879219
 31
0.0
  0
LINE
  5
2D48
330
1F
100
AcDbEntity
  8
孔
100
AcDbLine
 10
36387.29621540287
 20
29037.31271879219
 30
0.0
 11
36387.29621540287
 21
29036.81271879219
 31
0.0
  0
LINE
  5
2D49
330
1F
100
AcDbEntity
  8
孔
100
AcDbLine
 10
36387.29621540287
 20
29036.81271879219
 30
0.0
 11
36392.29621540287
 21
29036.81271879219
 31
0.0
  0
LINE
  5
2D4A
330
1F
100
AcDbEntity
  8
孔
100
AcDbLine
 10
36392.29621540287
 20
29036.81271879219
 30
0.0
 11
36392.29621540287
 21
29037.31271879219
 31
0.0
  0
LINE
  5
2D4B
330
1F
100
AcDbEntity
  8
孔
100
AcDbLine
 10
36444.29621540287
 20
29037.31271879219
 30
0.0
 11
36445.32041053772
 21
29045.44579203387
 31
0.0
  0
LINE
  5
2D4C
330
1F
100
AcDbEntity
  8
孔
100
AcDbLine
 10
36448.27202026802
 20
29045.44579203387
 30
0.0
 11
36449.29621540287
 21
29037.31271879219
 31
0.0
  0
ARC
  5
2D4D
330
1F
100
AcDbEntity
  8
孔
100
AcDbCircle
 10
36446.79621540287
 20
29045.17746387657
 30
0.0
 40
1.5
100
AcDbArc
 50
10.30484646891518
 51
169.6951535310848
  0
LINE
  5
2D4E
330
1F
100
AcDbEntity
  8
孔
100
AcDbLine
 10
36444.29621540287
 20
29037.31271879219
 30
0.0
 11
36449.29621540287
 21
29037.31271879219
 31
0.0
  0
LINE
  5
2D4F
330
1F
100
AcDbEntity
  8
孔
100
AcDbLine
 10
36444.29621540287
 20
29037.31271879219
 30
0.0
 11
36444.29621540287
 21
29036.81271879219
 31
0.0
  0
LINE
  5
2D50
330
1F
100
AcDbEntity
  8
孔
100
AcDbLine
 10
36444.29621540287
 20
29036.81271879219
 30
0.0
 11
36449.29621540287
 21
29036.81271879219
 31
0.0
  0
LINE
  5
2D51
330
1F
100
AcDbEntity
  8
孔
100
AcDbLine
 10
36449.29621540287
 20
29036.81271879219
 30
0.0
 11
36449.29621540287
 21
29037.31271879219
 31
0.0
  0
LINE
  5
2D52
330
1F
100
AcDbEntity
  8
孔
100
AcDbLine
 10
36616.29621540287
 20
29037.31271879219
 30
0.0
 11
36617.32041053773
 21
29045.44579203387
 31
0.0
  0
LINE
  5
2D53
330
1F
100
AcDbEntity
  8
孔
100
AcDbLine
 10
36620.27202026802
 20
29045.44579203387
 30
0.0
 11
36621.29621540287
 21
29037.31271879219
 31
0.0
  0
ARC
  5
2D54
330
1F
100
AcDbEntity
  8
孔
100
AcDbCircle
 10
36618.79621540288
 20
29045.17746387657
 30
0.0
 40
1.5
100
AcDbArc
 50
10.30484646891518
 51
169.6951535310848
  0
LINE
  5
2D55
330
1F
100
AcDbEntity
  8
孔
100
AcDbLine
 10
36616.29621540287
 20
29037.31271879219
 30
0.0
 11
36621.29621540287
 21
29037.31271879219
 31
0.0
  0
LINE
  5
2D56
330
1F
100
AcDbEntity
  8
孔
100
AcDbLine
 10
36616.29621540287
 20
29037.31271879219
 30
0.0
 11
36616.29621540287
 21
29036.81271879219
 31
0.0
  0
LINE
  5
2D57
330
1F
100
AcDbEntity
  8
孔
100
AcDbLine
 10
36616.29621540287
 20
29036.81271879219
 30
0.0
 11
36621.29621540287
 21
29036.81271879219
 31
0.0
  0
LINE
  5
2D58
330
1F
100
AcDbEntity
  8
孔
100
AcDbLine
 10
36621.29621540287
 20
29036.81271879219
 30
0.0
 11
36621.29621540287
 21
29037.31271879219
 31
0.0
  0
CIRCLE
  5
2D59
330
1F
100
AcDbEntity
  8
孔
100
AcDbCircle
 10
36251.29621540287
 20
29041.81271879219
 30
0.0
 40
4.0
  0
CIRCLE
  5
2D5A
330
1F
100
AcDbEntity
  8
孔
100
AcDbCircle
 10
36251.29621540287
 20
29041.81271879219
 30
0.0
 40
5.0
  0
LINE
  5
2D5B
330
1F
100
AcDbEntity
  8
孔
100
AcDbLine
 10
36267.39621540287
 20
29043.91271879219
 30
0.0
 11
36277.19621540288
 21
29043.91271879219
 31
0.0
  0
LINE
  5
2D5C
330
1F
100
AcDbEntity
  8
孔
100
AcDbLine
 10
36267.39621540287
 20
29039.71271879219
 30
0.0
 11
36277.19621540288
 21
29039.71271879219
 31
0.0
  0
ARC
  5
2D5D
330
1F
100
AcDbEntity
  8
孔
100
AcDbCircle
 10
36267.39621540285
 20
29041.81271879218
 30
0.0
 40
2.100000000013096
100
AcDbArc
 50
89.99999999958312
 51
270.0000000004169
  0
ARC
  5
2D5E
330
1F
100
AcDbEntity
  8
孔
100
AcDbCircle
 10
36277.19621540288
 20
29041.81271879219
 30
0.0
 40
2.099999999998544
100
AcDbArc
 50
270.0
 51
90.0
  0
LINE
  5
2D5F
330
1F
100
AcDbEntity
  8
孔
100
AcDbLine
 10
36325.39621540287
 20
29043.91271879219
 30
0.0
 11
36327.16621540287
 21
29043.91271879219
 31
0.0
  0
LINE
  5
2D60
330
1F
100
AcDbEntity
  8
孔
100
AcDbLine
 10
36325.39621540287
 20
29039.71271879219
 30
0.0
 11
36327.16621540287
 21
29039.71271879219
 31
0.0
  0
ARC
  5
2D61
330
1F
100
AcDbEntity
  8
孔
100
AcDbCircle
 10
36325.39621540286
 20
29041.81271879219
 30
0.0
 40
2.099999999998544
100
AcDbArc
 50
89.99999999958312
 51
270.0000000004169
  0
ARC
  5
2D62
330
1F
100
AcDbEntity
  8
孔
100
AcDbCircle
 10
36327.19600413528
 20
29041.81271879221
 30
0.0
 40
2.100211267589676
100
AcDbArc
 50
269.1873075332915
 51
90.81269246670853
  0
LINE
  5
2D63
330
1F
100
AcDbEntity
  8
孔
100
AcDbLine
 10
36350.39621540287
 20
29043.91271879219
 30
0.0
 11
36356.19621540287
 21
29043.91271879219
 31
0.0
  0
LINE
  5
2D64
330
1F
100
AcDbEntity
  8
孔
100
AcDbLine
 10
36350.39621540287
 20
29039.71271879219
 30
0.0
 11
36356.19621540287
 21
29039.71271879219
 31
0.0
  0
ARC
  5
2D65
330
1F
100
AcDbEntity
  8
孔
100
AcDbCircle
 10
36350.39621540286
 20
29041.81271879219
 30
0.0
 40
2.099999999998544
100
AcDbArc
 50
89.99999999958312
 51
270.0000000004169
  0
ARC
  5
2D66
330
1F
100
AcDbEntity
  8
孔
100
AcDbCircle
 10
36356.19621540287
 20
29041.81271879218
 30
0.0
 40
2.100000000013096
100
AcDbArc
 50
270.0
 51
90.0
  0
LINE
  5
2D67
330
1F
100
AcDbEntity
  8
孔
100
AcDbLine
 10
36397.39621540287
 20
29043.91271879221
 30
0.0
 11
36403.19621540287
 21
29043.91271879221
 31
0.0
  0
LINE
  5
2D68
330
1F
100
AcDbEntity
  8
孔
100
AcDbLine
 10
36397.39621540287
 20
29039.71271879221
 30
0.0
 11
36403.19621540287
 21
29039.71271879221
 31
0.0
  0
ARC
  5
2D69
330
1F
100
AcDbEntity
  8
孔
100
AcDbCircle
 10
36397.39621540286
 20
29041.81271879221
 30
0.0
 40
2.099999999998544
100
AcDbArc
 50
89.99999999958312
 51
270.0000000004169
  0
ARC
  5
2D6A
330
1F
100
AcDbEntity
  8
孔
100
AcDbCircle
 10
36403.19621540287
 20
29041.81271879219
 30
0.0
 40
2.100000000013096
100
AcDbArc
 50
270.0
 51
90.0
  0
CIRCLE
  5
2D6B
330
1F
100
AcDbEntity
  8
孔
100
AcDbCircle
 10
36430.29621540287
 20
29041.81271879219
 30
0.0
 40
4.0
  0
CIRCLE
  5
2D6C
330
1F
100
AcDbEntity
  8
孔
100
AcDbCircle
 10
36430.29621540287
 20
29041.81271879219
 30
0.0
 40
5.0
  0
LINE
  5
2D6D
330
1F
100
AcDbEntity
  8
孔
100
AcDbLine
 10
36487.39621540288
 20
29043.91271879221
 30
0.0
 11
36493.19621540289
 21
29043.91271879221
 31
0.0
  0
LINE
  5
2D6E
330
1F
100
AcDbEntity
  8
孔
100
AcDbLine
 10
36487.39621540288
 20
29039.71271879221
 30
0.0
 11
36493.19621540289
 21
29039.71271879221
 31
0.0
  0
ARC
  5
2D6F
330
1F
100
AcDbEntity
  8
孔
100
AcDbCircle
 10
36487.39621540287
 20
29041.81271879221
 30
0.0
 40
2.099999999998544
100
AcDbArc
 50
89.99999999958312
 51
270.0000000004169
  0
ARC
  5
2D70
330
1F
100
AcDbEntity
  8
孔
100
AcDbCircle
 10
36493.19621540288
 20
29041.81271879219
 30
0.0
 40
2.100000000013096
100
AcDbArc
 50
270.0
 51
90.0
  0
CIRCLE
  5
2D71
330
1F
100
AcDbEntity
  8
孔
100
AcDbCircle
 10
36581.29621540285
 20
29045.81271879219
 30
0.0
 40
2.1
  0
CIRCLE
  5
2D72
330
1F
100
AcDbEntity
  8
孔
100
AcDbCircle
 10
36581.29621540285
 20
29036.81271879219
 30
0.0
 40
1.5
  0
LINE
  5
2D73
330
1F
100
AcDbEntity
  8
孔
100
AcDbLine
 10
36599.39621540287
 20
29043.91271879219
 30
0.0
 11
36609.19621540287
 21
29043.91271879219
 31
0.0
  0
LINE
  5
2D74
330
1F
100
AcDbEntity
  8
孔
100
AcDbLine
 10
36599.39621540287
 20
29039.71271879219
 30
0.0
 11
36609.19621540287
 21
29039.71271879219
 31
0.0
  0
ARC
  5
2D75
330
1F
100
AcDbEntity
  8
孔
100
AcDbCircle
 10
36599.39621540286
 20
29041.81271879219
 30
0.0
 40
2.099999999998544
100
AcDbArc
 50
89.99999999958312
 51
270.0000000004169
  0
ARC
  5
2D76
330
1F
100
AcDbEntity
  8
孔
100
AcDbCircle
 10
36609.19621540287
 20
29041.81271879218
 30
0.0
 40
2.100000000013096
100
AcDbArc
 50
270.0
 51
90.0
  0
LINE
  5
2D77
330
1F
100
AcDbEntity
  8
孔
100
AcDbLine
 10
36636.79621540287
 20
29045.3127187922
 30
0.0
 11
36642.79621540287
 21
29045.3127187922
 31
0.0
  0
LINE
  5
2D78
330
1F
100
AcDbEntity
  8
孔
100
AcDbLine
 10
36636.79621540287
 20
29038.31271879219
 30
0.0
 11
36642.79621540287
 21
29038.31271879219
 31
0.0
  0
ARC
  5
2D79
330
1F
100
AcDbEntity
  8
孔
100
AcDbCircle
 10
36642.79621540289
 20
29041.81271879219
 30
0.0
 40
3.5
100
AcDbArc
 50
269.9999999995831
 51
90.00000000041687
  0
ARC
  5
2D7A
330
1F
100
AcDbEntity
  8
孔
100
AcDbCircle
 10
36636.79621540289
 20
29041.81271879219
 30
0.0
 40
3.5
100
AcDbArc
 50
90.00000000041687
 51
269.9999999995831
  0
CIRCLE
  5
2D7B
330
1F
100
AcDbEntity
  8
孔
100
AcDbCircle
 10
36656.29621540287
 20
29041.81271879219
 30
0.0
 40
2.75
  0
ARC
  5
2D7C
330
1F
100
AcDbEntity
  8
孔
100
AcDbCircle
 10
36687.29621540287
 20
29041.81271879219
 30
0.0
 40
5.0
100
AcDbArc
 50
90.0
 51
270.0
  0
LINE
  5
2D7D
330
1F
100
AcDbEntity
  8
孔
100
AcDbLine
 10
36729.79621540287
 20
29046.81271879219
 30
0.0
 11
36716.79621540287
 21
29046.81271879219
 31
0.0
  0
LINE
  5
2D7E
330
1F
100
AcDbEntity
  8
孔
100
AcDbLine
 10
36696.79621540287
 20
29046.81271879219
 30
0.0
 11
36687.29621540287
 21
29046.81271879219
 31
0.0
  0
LINE
  5
2D7F
330
1F
100
AcDbEntity
  8
孔
100
AcDbLine
 10
36729.79621540287
 20
29036.81271879219
 30
0.0
 11
36716.79621540287
 21
29036.81271879219
 31
0.0
  0
LINE
  5
2D80
330
1F
100
AcDbEntity
  8
孔
100
AcDbLine
 10
36696.79621540287
 20
29036.81271879219
 30
0.0
 11
36687.29621540287
 21
29036.81271879219
 31
0.0
  0
LINE
  5
2D81
330
1F
100
AcDbEntity
  8
外形線
100
AcDbLine
 10
36716.79621540287
 20
29045.81271879219
 30
0.0
 11
36716.79621540287
 21
29037.81271879219
 31
0.0
  0
LINE
  5
2D82
330
1F
100
AcDbEntity
  8
外形線
100
AcDbLine
 10
36713.29621540287
 20
29034.31271879219
 30
0.0
 11
36704.29621540287
 21
29034.31271879219
 31
0.0
  0
ARC
  5
2D83
330
1F
100
AcDbEntity
  8
外形線
100
AcDbCircle
 10
36700.29621540287
 20
29037.81271879219
 30
0.0
 40
3.5
100
AcDbArc
 50
180.0
 51
270.0
  0
ARC
  5
2D84
330
1F
100
AcDbEntity
  8
外形線
100
AcDbCircle
 10
36713.29621540287
 20
29037.81271879219
 30
0.0
 40
3.5
100
AcDbArc
 50
270.0
 51
0.0
  0
LINE
  5
2D85
330
1F
100
AcDbEntity
  8
外形線
100
AcDbLine
 10
36696.79621540287
 20
29037.81271879219
 30
0.0
 11
36696.79621540287
 21
29045.81271879219
 31
0.0
  0
ARC
  5
2D86
330
1F
100
AcDbEntity
  8
外形線
100
AcDbCircle
 10
36700.29621540287
 20
29045.81271879219
 30
0.0
 40
3.5
100
AcDbArc
 50
90.0
 51
180.0
  0
LINE
  5
2D87
330
1F
100
AcDbEntity
  8
外形線
100
AcDbLine
 10
36704.29621540287
 20
29049.31271879219
 30
0.0
 11
36713.29621540287
 21
29049.31271879219
 31
0.0
  0
ARC
  5
2D88
330
1F
100
AcDbEntity
  8
外形線
100
AcDbCircle
 10
36713.29621540287
 20
29045.81271879219
 30
0.0
 40
3.5
100
AcDbArc
 50
0.0
 51
90.0
  0
LINE
  5
2D89
330
1F
100
AcDbEntity
  8
外形線
100
AcDbLine
 10
36716.79621540287
 20
29045.81271879219
 30
0.0
 11
36714.79621540287
 21
29045.81271879219
 31
0.0
  0
LINE
  5
2D8A
330
1F
100
AcDbEntity
  8
外形線
100
AcDbLine
 10
36714.79621540287
 20
29045.81271879219
 30
0.0
 11
36714.79621540287
 21
29037.81271879219
 31
0.0
  0
LINE
  5
2D8B
330
1F
100
AcDbEntity
  8
外形線
100
AcDbLine
 10
36714.79621540287
 20
29037.81271879219
 30
0.0
 11
36716.79621540287
 21
29037.81271879219
 31
0.0
  0
LINE
  5
2D8C
330
1F
100
AcDbEntity
  8
外形線
100
AcDbLine
 10
36704.29621540287
 20
29035.31271879219
 30
0.0
 11
36704.29621540287
 21
29032.81271879219
 31
0.0
  0
LINE
  5
2D8D
330
1F
100
AcDbEntity
  8
外形線
100
AcDbLine
 10
36704.29621540287
 20
29032.81271879219
 30
0.0
 11
36700.29621540287
 21
29032.81271879219
 31
0.0
  0
LINE
  5
2D8E
330
1F
100
AcDbEntity
  8
外形線
100
AcDbLine
 10
36700.29621540287
 20
29032.81271879219
 30
0.0
 11
36700.29621540287
 21
29035.31271879219
 31
0.0
  0
LINE
  5
2D8F
330
1F
100
AcDbEntity
  8
外形線
100
AcDbLine
 10
36700.29621540287
 20
29035.31271879219
 30
0.0
 11
36704.29621540287
 21
29035.31271879219
 31
0.0
  0
LINE
  5
2D90
330
1F
100
AcDbEntity
  8
外形線
100
AcDbLine
 10
36704.29621540287
 20
29048.31271879219
 30
0.0
 11
36704.29621540287
 21
29050.8127187922
 31
0.0
  0
LINE
  5
2D91
330
1F
100
AcDbEntity
  8
外形線
100
AcDbLine
 10
36704.29621540287
 20
29050.8127187922
 30
0.0
 11
36700.29621540287
 21
29050.8127187922
 31
0.0
  0
LINE
  5
2D92
330
1F
100
AcDbEntity
  8
外形線
100
AcDbLine
 10
36700.29621540287
 20
29050.8127187922
 30
0.0
 11
36700.29621540287
 21
29048.31271879219
 31
0.0
  0
LINE
  5
2D93
330
1F
100
AcDbEntity
  8
外形線
100
AcDbLine
 10
36700.29621540287
 20
29048.31271879219
 30
0.0
 11
36704.29621540287
 21
29048.31271879219
 31
0.0
  0
LINE
  5
2D94
330
1F
100
AcDbEntity
  8
外形線
100
AcDbLine
 10
36696.79621540287
 20
29044.81271879219
 30
0.0
 11
36693.79621540287
 21
29044.81271879219
 31
0.0
  0
LINE
  5
2D95
330
1F
100
AcDbEntity
  8
外形線
100
AcDbLine
 10
36693.79621540287
 20
29044.81271879219
 30
0.0
 11
36693.79621540287
 21
29038.81271879219
 31
0.0
  0
LINE
  5
2D96
330
1F
100
AcDbEntity
  8
外形線
100
AcDbLine
 10
36693.79621540287
 20
29038.81271879219
 30
0.0
 11
36696.79621540287
 21
29038.81271879219
 31
0.0
  0
LINE
  5
2D97
330
1F
100
AcDbEntity
  8
外形線
100
AcDbLine
 10
36700.79621540287
 20
29043.81271879219
 30
0.0
 11
36711.79621540287
 21
29043.81271879219
 31
0.0
  0
LINE
  5
2D98
330
1F
100
AcDbEntity
  8
外形線
100
AcDbLine
 10
36711.79621540287
 20
29043.81271879219
 30
0.0
 11
36711.79621540287
 21
29039.81271879219
 31
0.0
  0
LINE
  5
2D99
330
1F
100
AcDbEntity
  8
外形線
100
AcDbLine
 10
36711.79621540287
 20
29039.81271879219
 30
0.0
 11
36700.79621540287
 21
29039.81271879219
 31
0.0
  0
ARC
  5
2D9A
330
1F
100
AcDbEntity
  8
外形線
100
AcDbCircle
 10
36700.79621540287
 20
29041.81271879219
 30
0.0
 40
2.0
100
AcDbArc
 50
90.0
 51
270.0
  0
LINE
  5
2D9B
330
1F
100
AcDbEntity
  8
外形線
100
AcDbLine
 10
36716.79621540287
 20
29038.56271879219
 30
0.0
 11
36715.79621540287
 21
29038.56271879219
 31
0.0
  0
LINE
  5
2D9C
330
1F
100
AcDbEntity
  8
外形線
100
AcDbLine
 10
36715.79621540287
 20
29038.56271879219
 30
0.0
 11
36715.79621540287
 21
29045.0627187922
 31
0.0
  0
LINE
  5
2D9D
330
1F
100
AcDbEntity
  8
外形線
100
AcDbLine
 10
36715.79621540287
 20
29045.0627187922
 30
0.0
 11
36716.79621540287
 21
29045.0627187922
 31
0.0
  0
LINE
  5
2D9E
330
1F
100
AcDbEntity
  8
外形線
100
AcDbLine
 10
36729.79621540287
 20
29051.3127187922
 30
0.0
 11
36671.29621540287
 21
29051.3127187922
 31
0.0
  0
LINE
  5
2D9F
330
1F
100
AcDbEntity
  8
外形線
100
AcDbLine
 10
36671.29621540287
 20
29051.3127187922
 30
0.0
 11
36671.29621540287
 21
29044.11531241544
 31
0.0
  0
LINE
  5
2DA0
330
1F
100
AcDbEntity
  8
外形線
100
AcDbLine
 10
36671.29621540287
 20
29039.51012516895
 30
0.0
 11
36671.29621540287
 21
29032.31271879219
 31
0.0
  0
LINE
  5
2DA1
330
1F
100
AcDbEntity
  8
外形線
100
AcDbLine
 10
36671.29621540287
 20
29032.31271879219
 30
0.0
 11
36729.79621540287
 21
29032.31271879219
 31
0.0
  0
LINE
  5
2DA2
330
1F
100
AcDbEntity
  8
外形線
100
AcDbLine
 10
36729.79621540287
 20
29033.31271879219
 30
0.0
 11
36704.29621540287
 21
29033.31271879219
 31
0.0
  0
LINE
  5
2DA3
330
1F
100
AcDbEntity
  8
外形線
100
AcDbLine
 10
36700.29621540287
 20
29033.31271879219
 30
0.0
 11
36671.29621540287
 21
29033.31271879219
 31
0.0
  0
LINE
  5
2DA4
330
1F
100
AcDbEntity
  8
外形線
100
AcDbLine
 10
36671.29621540287
 20
29050.31271879219
 30
0.0
 11
36700.29621540287
 21
29050.31271879219
 31
0.0
  0
LINE
  5
2DA5
330
1F
100
AcDbEntity
  8
外形線
100
AcDbLine
 10
36729.79621540287
 20
29050.31271879219
 30
0.0
 11
36704.29621540287
 21
29050.31271879219
 31
0.0
  0
LINE
  5
2DA6
330
1F
100
AcDbEntity
  8
外形線
100
AcDbLine
 10
36675.29621540287
 20
29045.3127187922
 30
0.0
 11
36679.29621540287
 21
29045.3127187922
 31
0.0
  0
LINE
  5
2DA7
330
1F
100
AcDbEntity
  8
外形線
100
AcDbLine
 10
36679.29621540287
 20
29045.3127187922
 30
0.0
 11
36679.29621540287
 21
29038.31271879219
 31
0.0
  0
LINE
  5
2DA8
330
1F
100
AcDbEntity
  8
外形線
100
AcDbLine
 10
36679.29621540287
 20
29038.31271879219
 30
0.0
 11
36675.29621540287
 21
29038.31271879219
 31
0.0
  0
LINE
  5
2DA9
330
1F
100
AcDbEntity
  8
外形線
100
AcDbLine
 10
36675.79621540287
 20
29038.31271879219
 30
0.0
 11
36675.79621540287
 21
29045.3127187922
 31
0.0
  0
LINE
  5
2DAA
330
1F
100
AcDbEntity
  8
外形線
100
AcDbLine
 10
36675.79621540287
 20
29045.3127187922
 30
0.0
 11
36668.19498715184
 21
29043.18695479455
 31
0.0
  0
LINE
  5
2DAB
330
1F
100
AcDbEntity
  8
外形線
100
AcDbLine
 10
36668.19498715184
 20
29040.43848278984
 30
0.0
 11
36675.79621540287
 21
29038.31271879219
 31
0.0
  0
ARC
  5
2DAC
330
1F
100
AcDbEntity
  8
外形線
100
AcDbCircle
 10
36668.79621540287
 20
29041.81271879219
 30
0.0
 40
1.5
100
AcDbArc
 50
113.6293777308575
 51
246.3706222691425
  0
LINE
  5
2DAD
330
1F
100
AcDbEntity
  8
外形線
100
AcDbLine
 10
36675.29621540287
 20
29045.3127187922
 30
0.0
 11
36675.29621540287
 21
29045.17288849587
 31
0.0
  0
LINE
  5
2DAE
330
1F
100
AcDbEntity
  8
外形線
100
AcDbLine
 10
36675.29621540287
 20
29038.31271879219
 30
0.0
 11
36675.29621540287
 21
29038.45254908852
 31
0.0
  0
LINE
  5
2DAF
330
1F
100
AcDbEntity
  8
外形線
100
AcDbLine
 10
36959.13058766012
 20
28787.43578056051
 30
0.0
 11
36959.13058766012
 21
28785.42021612344
 31
0.0
  0
LINE
  5
2DB0
102
{ACAD_REACTORS
330
2FC2
102
}
330
1F
100
AcDbEntity
  8
外形線
100
AcDbLine
 10
36991.13058766012
 20
28784.59632638761
 30
0.0
 11
36991.13058766012
 21
28787.43578056161
 31
0.0
  0
ARC
  5
2DB1
102
{ACAD_REACTORS
330
2F90
330
2FA8
330
2FC2
330
2FDA
102
}
330
1F
100
AcDbEntity
  8
外形線
100
AcDbCircle
 10
36975.13058766011
 20
28787.6838574836
 30
0.0
 40
16.00192307691588
100
AcDbArc
 50
359.1117111338804
 51
180.8882888661196
  0
ARC
  5
2DB2
330
1F
100
AcDbEntity
  8
外形線
100
AcDbCircle
 10
36975.13058766012
 20
28787.43578056051
 30
0.0
 40
16.24999999999987
100
AcDbArc
 50
194.141110233819
 51
217.6271906288117
  0
ARC
  5
2DB3
330
1F
100
AcDbEntity
  8
外形線
100
AcDbCircle
 10
36950.38058766012
 20
28768.35699653217
 30
0.0
 40
15.0
100
AcDbArc
 50
0.0
 51
37.6271906288117
  0
ARC
  5
2DB4
330
1F
100
AcDbEntity
  8
外形線
100
AcDbCircle
 10
36967.13058766012
 20
28785.42021612344
 30
0.0
 40
8.0
100
AcDbArc
 50
180.0
 51
194.141110233819
  0
ARC
  5
2DB5
330
1F
100
AcDbEntity
  8
外形線
100
AcDbCircle
 10
36975.13058766012
 20
28787.43578056051
 30
0.0
 40
16.24999999999987
100
AcDbArc
 50
322.3728093711883
 51
349.9367255563702
  0
ARC
  5
2DB6
330
1F
100
AcDbEntity
  8
外形線
100
AcDbCircle
 10
36999.88058766012
 20
28768.35699653217
 30
0.0
 40
15.0
100
AcDbArc
 50
142.3728093711883
 51
180.0
  0
LINE
  5
2DB7
330
1F
100
AcDbEntity
  8
外形線
100
AcDbLine
 10
36965.38058766012
 20
28768.35699653217
 30
0.0
 11
36965.38058766012
 21
28753.68578056051
 31
0.0
  0
LINE
  5
2DB8
330
1F
100
AcDbEntity
  8
外形線
100
AcDbLine
 10
36965.38058766012
 20
28753.68578056051
 30
0.0
 11
36972.13058766012
 21
28753.68578056051
 31
0.0
  0
LINE
  5
2DB9
330
1F
100
AcDbEntity
  8
外形線
100
AcDbLine
 10
36978.13058766012
 20
28753.68578056051
 30
0.0
 11
36984.88058766012
 21
28753.68578056051
 31
0.0
  0
LINE
  5
2DBA
330
1F
100
AcDbEntity
  8
外形線
100
AcDbLine
 10
36984.88058766012
 20
28753.68578056051
 30
0.0
 11
36984.88058766012
 21
28768.35699653217
 31
0.0
  0
LINE
  5
2DBB
330
1F
100
AcDbEntity
  8
外形線
100
AcDbLine
 10
36963.33058766012
 20
28761.68578056051
 30
0.0
 11
36963.33058766012
 21
28751.68578056051
 31
0.0
  0
LINE
  5
2DBC
330
1F
100
AcDbEntity
  8
外形線
100
AcDbLine
 10
36963.33058766012
 20
28751.68578056051
 30
0.0
 11
36986.93058766012
 21
28751.68578056051
 31
0.0
  0
LINE
  5
2DBD
330
1F
100
AcDbEntity
  8
外形線
100
AcDbLine
 10
36986.93058766012
 20
28751.68578056051
 30
0.0
 11
36986.93058766012
 21
28761.68578056051
 31
0.0
  0
LINE
  5
2DBE
330
1F
100
AcDbEntity
  8
外形線
100
AcDbLine
 10
36963.33058766012
 20
28761.68578056051
 30
0.0
 11
36965.38058766012
 21
28761.68578056051
 31
0.0
  0
LINE
  5
2DBF
330
1F
100
AcDbEntity
  8
外形線
100
AcDbLine
 10
36965.38058766012
 20
28761.68578056051
 30
0.0
 11
36965.38058766012
 21
28757.38578056051
 31
0.0
  0
LINE
  5
2DC0
330
1F
100
AcDbEntity
  8
外形線
100
AcDbLine
 10
36965.38058766012
 20
28757.38578056051
 30
0.0
 11
36964.78058766012
 21
28757.38578056051
 31
0.0
  0
LINE
  5
2DC1
330
1F
100
AcDbEntity
  8
外形線
100
AcDbLine
 10
36964.78058766012
 20
28757.38578056051
 30
0.0
 11
36964.78058766012
 21
28761.08578056051
 31
0.0
  0
LINE
  5
2DC2
330
1F
100
AcDbEntity
  8
外形線
100
AcDbLine
 10
36964.78058766012
 20
28761.08578056051
 30
0.0
 11
36963.93058766012
 21
28761.08578056051
 31
0.0
  0
LINE
  5
2DC3
330
1F
100
AcDbEntity
  8
外形線
100
AcDbLine
 10
36963.93058766012
 20
28761.08578056051
 30
0.0
 11
36963.93058766012
 21
28752.28578056051
 31
0.0
  0
LINE
  5
2DC4
330
1F
100
AcDbEntity
  8
外形線
100
AcDbLine
 10
36963.93058766012
 20
28752.28578056051
 30
0.0
 11
36972.13058766012
 21
28752.28578056051
 31
0.0
  0
LINE
  5
2DC5
330
1F
100
AcDbEntity
  8
外形線
100
AcDbLine
 10
36978.13058766012
 20
28752.28578056051
 30
0.0
 11
36986.33058766013
 21
28752.28578056051
 31
0.0
  0
LINE
  5
2DC6
330
1F
100
AcDbEntity
  8
外形線
100
AcDbLine
 10
36986.33058766013
 20
28752.28578056051
 30
0.0
 11
36986.33058766013
 21
28761.08578056051
 31
0.0
  0
LINE
  5
2DC7
330
1F
100
AcDbEntity
  8
外形線
100
AcDbLine
 10
36986.33058766013
 20
28761.08578056051
 30
0.0
 11
36985.48058766012
 21
28761.08578056051
 31
0.0
  0
LINE
  5
2DC8
330
1F
100
AcDbEntity
  8
外形線
100
AcDbLine
 10
36985.48058766012
 20
28761.08578056051
 30
0.0
 11
36985.48058766012
 21
28757.38578056051
 31
0.0
  0
LINE
  5
2DC9
330
1F
100
AcDbEntity
  8
外形線
100
AcDbLine
 10
36985.48058766012
 20
28757.38578056051
 30
0.0
 11
36984.88058766012
 21
28757.38578056051
 31
0.0
  0
LINE
  5
2DCA
330
1F
100
AcDbEntity
  8
外形線
100
AcDbLine
 10
36984.88058766012
 20
28757.38578056051
 30
0.0
 11
36984.88058766012
 21
28761.68578056051
 31
0.0
  0
LINE
  5
2DCB
330
1F
100
AcDbEntity
  8
外形線
100
AcDbLine
 10
36984.88058766012
 20
28761.68578056051
 30
0.0
 11
36986.93058766012
 21
28761.68578056051
 31
0.0
  0
LINE
  5
2DCC
330
1F
100
AcDbEntity
  8
外形線
100
AcDbLine
 10
36972.13058766012
 20
28753.68578056051
 30
0.0
 11
36972.13058766012
 21
28751.68578056051
 31
0.0
  0
LINE
  5
2DCD
330
1F
100
AcDbEntity
  8
外形線
100
AcDbLine
 10
36978.13058766012
 20
28753.68578056051
 30
0.0
 11
36978.13058766012
 21
28751.68578056051
 31
0.0
  0
LINE
  5
2DCE
330
1F
100
AcDbEntity
  8
外形線
100
AcDbLine
 10
36966.88058766012
 20
28751.68578056051
 30
0.0
 11
36966.88058766012
 21
28747.68578056051
 31
0.0
  0
LINE
  5
2DCF
102
{ACAD_REACTORS
330
2F90
102
}
330
1F
100
AcDbEntity
  8
外形線
100
AcDbLine
 10
36966.88058766012
 20
28747.68578056051
 30
0.0
 11
36983.38058766012
 21
28747.68578056051
 31
0.0
  0
LINE
  5
2DD0
330
1F
100
AcDbEntity
  8
外形線
100
AcDbLine
 10
36983.38058766012
 20
28747.68578056051
 30
0.0
 11
36983.38058766012
 21
28751.68578056051
 31
0.0
  0
LINE
  5
2DD1
330
1F
100
AcDbEntity
  8
孔
100
AcDbLine
 10
36973.48058766012
 20
28800.03578056051
 30
0.0
 11
36973.48058766012
 21
28798.33578056051
 31
0.0
  0
LINE
  5
2DD2
330
1F
100
AcDbEntity
  8
孔
100
AcDbLine
 10
36976.78058766012
 20
28800.03578056051
 30
0.0
 11
36976.78058766012
 21
28798.33578056051
 31
0.0
  0
ARC
  5
2DD3
330
1F
100
AcDbEntity
  8
孔
100
AcDbCircle
 10
36975.13058766012
 20
28800.03578056052
 30
0.0
 40
1.650000000001455
100
AcDbArc
 50
359.9999999995831
 51
180.0000000004169
  0
ARC
  5
2DD4
330
1F
100
AcDbEntity
  8
孔
100
AcDbCircle
 10
36975.13058766012
 20
28798.33578056051
 30
0.0
 40
1.650000000001455
100
AcDbArc
 50
180.0
 51
0.0
  0
CIRCLE
  5
2DD5
330
1F
100
AcDbEntity
  8
孔
100
AcDbCircle
 10
36975.13058766012
 20
28788.68578056051
 30
0.0
 40
1.6
  0
LINE
  5
2DD6
330
1F
100
AcDbEntity
  8
孔
100
AcDbLine
 10
36973.48058766012
 20
28780.03578056051
 30
0.0
 11
36973.48058766012
 21
28776.33578056051
 31
0.0
  0
LINE
  5
2DD7
330
1F
100
AcDbEntity
  8
孔
100
AcDbLine
 10
36976.78058766012
 20
28780.03578056051
 30
0.0
 11
36976.78058766012
 21
28776.33578056051
 31
0.0
  0
ARC
  5
2DD8
330
1F
100
AcDbEntity
  8
孔
100
AcDbCircle
 10
36975.13058766013
 20
28780.03578056052
 30
0.0
 40
1.650000000008731
100
AcDbArc
 50
359.9999999995831
 51
180.0000000004169
  0
ARC
  5
2DD9
330
1F
100
AcDbEntity
  8
孔
100
AcDbCircle
 10
36975.13058766012
 20
28776.3357805605
 30
0.0
 40
1.650000000001455
100
AcDbArc
 50
179.9999999995831
 51
0.0000000004168817
  0
LINE
  5
2DDA
330
1F
100
AcDbEntity
  8
孔
100
AcDbLine
 10
36972.63058766012
 20
28768.18578056051
 30
0.0
 11
36972.63058766012
 21
28761.18578056051
 31
0.0
  0
LINE
  5
2DDB
330
1F
100
AcDbEntity
  8
孔
100
AcDbLine
 10
36977.63058766012
 20
28768.18578056051
 30
0.0
 11
36977.63058766012
 21
28761.18578056051
 31
0.0
  0
ARC
  5
2DDC
330
1F
100
AcDbEntity
  8
孔
100
AcDbCircle
 10
36975.13058766013
 20
28768.18578056051
 30
0.0
 40
2.500000000007275
100
AcDbArc
 50
0.0
 51
180.0
  0
ARC
  5
2DDD
330
1F
100
AcDbEntity
  8
孔
100
AcDbCircle
 10
36975.13058766013
 20
28761.18578056051
 30
0.0
 40
2.499999999992724
100
AcDbArc
 50
180.0
 51
0.0
  0
LINE
  5
2DDE
330
1F
100
AcDbEntity
  8
外形線
100
AcDbLine
 10
36965.38058766012
 20
28767.68578056051
 30
0.0
 11
36972.63058766012
 21
28767.68578056051
 31
0.0
  0
LINE
  5
2DDF
330
1F
100
AcDbEntity
  8
外形線
100
AcDbLine
 10
36977.63058766012
 20
28767.68578056051
 30
0.0
 11
36984.88058766012
 21
28767.68578056051
 31
0.0
  0
LINE
  5
2DE0
330
1F
100
AcDbEntity
  8
外形線
100
AcDbLine
 10
36965.38058766012
 20
28757.68578056051
 30
0.0
 11
36984.88058766012
 21
28757.68578056051
 31
0.0
  0
LINE
  5
2DE1
330
1F
100
AcDbEntity
  8
外形線
100
AcDbLine
 10
36966.13058766012
 20
28793.43578056051
 30
0.0
 11
36966.13058766012
 21
28782.93578056051
 31
0.0
  0
LINE
  5
2DE2
330
1F
100
AcDbEntity
  8
外形線
100
AcDbLine
 10
36970.63058766012
 20
28793.43578056051
 30
0.0
 11
36970.63058766012
 21
28782.93578056051
 31
0.0
  0
ARC
  5
2DE3
330
1F
100
AcDbEntity
  8
外形線
100
AcDbCircle
 10
36968.38058766013
 20
28793.43578056051
 30
0.0
 40
2.250000000007275
100
AcDbArc
 50
0.0
 51
180.0
  0
ARC
  5
2DE4
330
1F
100
AcDbEntity
  8
外形線
100
AcDbCircle
 10
36968.38058766013
 20
28782.93578056051
 30
0.0
 40
2.250000000007275
100
AcDbArc
 50
180.0
 51
0.0
  0
LINE
  5
2DE5
330
1F
100
AcDbEntity
  8
外形線
100
AcDbLine
 10
36979.63058766011
 20
28793.43578056051
 30
0.0
 11
36979.63058766011
 21
28782.93578056051
 31
0.0
  0
LINE
  5
2DE6
330
1F
100
AcDbEntity
  8
外形線
100
AcDbLine
 10
36984.13058766011
 20
28793.43578056051
 30
0.0
 11
36984.13058766011
 21
28782.93578056051
 31
0.0
  0
ARC
  5
2DE7
330
1F
100
AcDbEntity
  8
外形線
100
AcDbCircle
 10
36981.88058766012
 20
28793.43578056051
 30
0.0
 40
2.250000000007275
100
AcDbArc
 50
0.0
 51
180.0
  0
ARC
  5
2DE8
330
1F
100
AcDbEntity
  8
外形線
100
AcDbCircle
 10
36981.88058766012
 20
28782.93578056051
 30
0.0
 40
2.250000000007275
100
AcDbArc
 50
180.0
 51
0.0
  0
LINE
  5
2DE9
330
1F
100
AcDbEntity
  8
外形線
100
AcDbLine
 10
36083.29621540288
 20
28757.68578056051
 30
0.0
 11
36082.61293382987
 21
28759.05234370651
 31
0.0
  0
ARC
  5
2DEA
330
1F
100
AcDbEntity
  8
外形線
100
AcDbCircle
 10
36085.29621540288
 20
28760.39398449302
 30
0.0
 40
3.0
100
AcDbArc
 50
180.0
 51
206.5650511770794
  0
LINE
  5
2DEB
330
1F
100
AcDbEntity
  8
外形線
100
AcDbLine
 10
36082.29621540287
 20
28760.39398449302
 30
0.0
 11
36082.29621540287
 21
28766.27156699813
 31
0.0
  0
ARC
  5
2DEC
330
1F
100
AcDbEntity
  8
外形線
100
AcDbCircle
 10
36082.79621540287
 20
28766.27156699813
 30
0.0
 40
0.5
100
AcDbArc
 50
135.0000000004468
 51
180.0
  0
LINE
  5
2DED
330
1F
100
AcDbEntity
  8
外形線
100
AcDbLine
 10
36082.44266201228
 20
28766.62512038872
 30
0.0
 11
36083.14976879347
 21
28767.33222716992
 31
0.0
  0
ARC
  5
2DEE
330
1F
100
AcDbEntity
  8
外形線
100
AcDbCircle
 10
36082.79621540287
 20
28767.68578056051
 30
0.0
 40
0.5
100
AcDbArc
 50
315.0000000004467
 51
0.0
  0
XLINE
  5
2E34
330
1F
100
AcDbEntity
  8
オフセット
100
AcDbXline
 10
36250.52572567998
 20
27902.11527306976
 30
0.0
 11
0.0
 21
-1.0
 31
0.0
  0
LINE
  5
2E35
330
1F
100
AcDbEntity
  8
中心線
100
AcDbLine
 10
36131.79621540287
 20
29080.6090083684
 30
0.0
 11
36131.79621540287
 21
28737.0475961157
 31
0.0
  0
XLINE
  5
2E36
330
1F
100
AcDbEntity
  8
オフセット
100
AcDbXline
 10
38414.71721721729
 20
27902.11527306976
 30
0.0
 11
0.0
 21
-1.0
 31
0.0
  0
XLINE
  5
2E37
330
1F
100
AcDbEntity
  8
オフセット
100
AcDbXline
 10
39044.71721721729
 20
27902.11527306976
 30
0.0
 11
0.0
 21
-1.0
 31
0.0
  0
XLINE
  5
2E38
330
1F
100
AcDbEntity
  8
オフセット
100
AcDbXline
 10
38729.71721721729
 20
27902.11527306976
 30
0.0
 11
0.0
 21
-1.0
 31
0.0
  0
XLINE
  5
2E39
330
1F
100
AcDbEntity
  8
オフセット
100
AcDbXline
 10
38929.71721721729
 20
27902.11527306976
 30
0.0
 11
0.0
 21
-1.0
 31
0.0
  0
LINE
  5
2E3A
330
1F
100
AcDbEntity
  8
外形線
100
AcDbLine
 10
36178.14621540288
 20
29029.8127187922
 30
0.0
 11
36178.14621540288
 21
29017.8127187922
 31
0.0
  0
LINE
  5
2E3B
330
1F
100
AcDbEntity
  8
外形線
100
AcDbLine
 10
36209.14621540288
 20
28973.8127187922
 30
0.0
 11
36435.14621540288
 21
28973.81271879219
 31
0.0
  0
LINE
  5
2E3C
330
1F
100
AcDbEntity
  8
外形線
100
AcDbLine
 10
36438.14621540288
 20
28976.81271879219
 30
0.0
 11
36438.14621540288
 21
29029.8127187922
 31
0.0
  0
ARC
  5
2E3D
330
1F
100
AcDbEntity
  8
外形線
100
AcDbCircle
 10
36435.14621540288
 20
28976.81271879219
 30
0.0
 40
3.0
100
AcDbArc
 50
270.0
 51
0.0
  0
LINE
  5
2E3E
330
1F
100
AcDbEntity
  8
孔
100
AcDbLine
 10
36196.29621540287
 20
29028.6627187922
 30
0.0
 11
36199.99621540286
 21
29028.6627187922
 31
0.0
  0
ARC
  5
2E3F
330
1F
100
AcDbEntity
  8
孔
100
AcDbCircle
 10
36199.99621540286
 20
29030.8127187922
 30
0.0
 40
2.150000000001455
100
AcDbArc
 50
270.0
 51
332.2822523101899
  0
ARC
  5
2E40
330
1F
100
AcDbEntity
  8
孔
100
AcDbCircle
 10
36196.29621540287
 20
29030.8127187922
 30
0.0
 40
2.150000000001455
100
AcDbArc
 50
207.7177476898101
 51
270.0
  0
LINE
  5
2E41
330
1F
100
AcDbEntity
  8
孔
100
AcDbLine
 10
36416.2962154029
 20
29028.6627187922
 30
0.0
 11
36419.9962154029
 21
29028.6627187922
 31
0.0
  0
ARC
  5
2E42
330
1F
100
AcDbEntity
  8
孔
100
AcDbCircle
 10
36419.9962154029
 20
29030.8127187922
 30
0.0
 40
2.150000000001455
100
AcDbArc
 50
270.0
 51
332.2822523101899
  0
ARC
  5
2E43
330
1F
100
AcDbEntity
  8
孔
100
AcDbCircle
 10
36416.29621540291
 20
29030.8127187922
 30
0.0
 40
2.150000000001455
100
AcDbArc
 50
207.7177476898101
 51
270.0
  0
CIRCLE
  5
2E44
330
1F
100
AcDbEntity
  8
孔
100
AcDbCircle
 10
36253.14621540288
 20
28992.81271879219
 30
0.0
 40
2.149999999999999
  0
CIRCLE
  5
2E45
330
1F
100
AcDbEntity
  8
孔
100
AcDbCircle
 10
36396.14621540288
 20
28992.81271879219
 30
0.0
 40
2.149999999999999
  0
LINE
  5
2E46
330
1F
100
AcDbEntity
  8
外形線
100
AcDbLine
 10
36175.14621540288
 20
29017.31271879219
 30
0.0
 11
36175.14621540288
 21
28973.31271879219
 31
0.0
  0
ARC
  5
2E47
330
1F
100
AcDbEntity
  8
外形線
100
AcDbCircle
 10
36175.64621540288
 20
29017.31271879219
 30
0.0
 40
0.5
100
AcDbArc
 50
90.0
 51
180.0
  0
ARC
  5
2E48
330
1F
100
AcDbEntity
  8
外形線
100
AcDbCircle
 10
36175.64621540288
 20
28973.31271879219
 30
0.0
 40
0.5
100
AcDbArc
 50
180.0
 51
270.0
  0
LINE
  5
2E49
330
1F
100
AcDbEntity
  8
外形線
100
AcDbLine
 10
36175.64621540288
 20
28972.8127187922
 30
0.0
 11
36196.64621540288
 21
28972.8127187922
 31
0.0
  0
LINE
  5
2E4A
330
1F
100
AcDbEntity
  8
外形線
100
AcDbLine
 10
36197.14621540288
 20
28973.31271879219
 30
0.0
 11
36197.14621540288
 21
29017.31271879219
 31
0.0
  0
ARC
  5
2E4B
330
1F
100
AcDbEntity
  8
外形線
100
AcDbCircle
 10
36196.64621540288
 20
28973.31271879219
 30
0.0
 40
0.5
100
AcDbArc
 50
270.0
 51
0.0
  0
ARC
  5
2E4C
330
1F
100
AcDbEntity
  8
外形線
100
AcDbCircle
 10
36196.64621540288
 20
29017.31271879219
 30
0.0
 40
0.5
100
AcDbArc
 50
0.0
 51
90.0
  0
LINE
  5
2E4D
330
1F
100
AcDbEntity
  8
外形線
100
AcDbLine
 10
36196.64621540288
 20
29017.81271879219
 30
0.0
 11
36175.64621540288
 21
29017.81271879219
 31
0.0
  0
LINE
  5
2E4E
330
1F
100
AcDbEntity
  8
外形線
100
AcDbLine
 10
36197.14621540288
 20
29000.81271879219
 30
0.0
 11
36208.64621540288
 21
29000.81271879219
 31
0.0
  0
ARC
  5
2E4F
330
1F
100
AcDbEntity
  8
外形線
100
AcDbCircle
 10
36208.64621540288
 20
29000.31271879219
 30
0.0
 40
0.5
100
AcDbArc
 50
0.0
 51
90.0
  0
LINE
  5
2E50
330
1F
100
AcDbEntity
  8
外形線
100
AcDbLine
 10
36209.14621540288
 20
29000.31271879219
 30
0.0
 11
36209.14621540288
 21
28973.31271879219
 31
0.0
  0
ARC
  5
2E51
330
1F
100
AcDbEntity
  8
外形線
100
AcDbCircle
 10
36208.64621540288
 20
28973.31271879219
 30
0.0
 40
0.5
100
AcDbArc
 50
270.0
 51
0.0
  0
LINE
  5
2E52
330
1F
100
AcDbEntity
  8
外形線
100
AcDbLine
 10
36208.64621540288
 20
28972.8127187922
 30
0.0
 11
36196.64621540288
 21
28972.8127187922
 31
0.0
  0
CIRCLE
  5
2E53
330
1F
100
AcDbEntity
  8
孔
100
AcDbCircle
 10
36179.14621540288
 20
29010.31271879219
 30
0.0
 40
2.149999999999999
  0
CIRCLE
  5
2E54
330
1F
100
AcDbEntity
  8
孔
100
AcDbCircle
 10
36193.14621540288
 20
29010.31271879219
 30
0.0
 40
2.149999999999999
  0
CIRCLE
  5
2E55
330
1F
100
AcDbEntity
  8
孔
100
AcDbCircle
 10
36179.14621540288
 20
28991.31271879219
 30
0.0
 40
2.149999999999999
  0
CIRCLE
  5
2E56
330
1F
100
AcDbEntity
  8
孔
100
AcDbCircle
 10
36193.14621540288
 20
28991.31271879219
 30
0.0
 40
2.149999999999999
  0
CIRCLE
  5
2E57
330
1F
100
AcDbEntity
  8
孔
100
AcDbCircle
 10
36179.14621540288
 20
28981.31271879219
 30
0.0
 40
2.149999999999999
  0
CIRCLE
  5
2E58
330
1F
100
AcDbEntity
  8
孔
100
AcDbCircle
 10
36193.14621540288
 20
28981.31271879219
 30
0.0
 40
2.149999999999999
  0
LINE
  5
2E59
330
1F
100
AcDbEntity
  8
外形線
100
AcDbLine
 10
36184.14621540288
 20
29013.81271879219
 30
0.0
 11
36184.14621540288
 21
29005.81271879219
 31
0.0
  0
LINE
  5
2E5A
330
1F
100
AcDbEntity
  8
外形線
100
AcDbLine
 10
36184.14621540288
 20
29005.81271879219
 30
0.0
 11
36188.14621540288
 21
29005.81271879219
 31
0.0
  0
LINE
  5
2E5B
330
1F
100
AcDbEntity
  8
外形線
100
AcDbLine
 10
36188.14621540288
 20
29005.81271879219
 30
0.0
 11
36188.14621540288
 21
29013.81271879219
 31
0.0
  0
LINE
  5
2E5C
330
1F
100
AcDbEntity
  8
外形線
100
AcDbLine
 10
36188.14621540288
 20
29013.81271879219
 30
0.0
 11
36184.14621540288
 21
29013.81271879219
 31
0.0
  0
LINE
  5
2E5D
330
1F
100
AcDbEntity
  8
外形線
100
AcDbLine
 10
36184.14621540288
 20
28990.81271879219
 30
0.0
 11
36184.14621540288
 21
28980.81271879219
 31
0.0
  0
LINE
  5
2E5E
330
1F
100
AcDbEntity
  8
外形線
100
AcDbLine
 10
36184.14621540288
 20
28980.81271879219
 30
0.0
 11
36188.14621540288
 21
28980.81271879219
 31
0.0
  0
LINE
  5
2E5F
330
1F
100
AcDbEntity
  8
外形線
100
AcDbLine
 10
36188.14621540288
 20
28980.81271879219
 30
0.0
 11
36188.14621540288
 21
28990.81271879219
 31
0.0
  0
LINE
  5
2E60
330
1F
100
AcDbEntity
  8
外形線
100
AcDbLine
 10
36188.14621540288
 20
28990.81271879219
 30
0.0
 11
36184.14621540288
 21
28990.81271879219
 31
0.0
  0
LINE
  5
2E61
330
1F
100
AcDbEntity
  8
中心線
 48
0.05
100
AcDbLine
 10
36186.14621540288
 20
29001.81271879219
 30
0.0
 11
36191.14621540288
 21
29001.81271879219
 31
0.0
  0
LINE
  5
2E62
330
1F
100
AcDbEntity
  8
中心線
 48
0.05
100
AcDbLine
 10
36186.14621540288
 20
29001.81271879219
 30
0.0
 11
36186.14621540288
 21
29006.81271879219
 31
0.0
  0
LINE
  5
2E63
330
1F
100
AcDbEntity
  8
中心線
 48
0.05
100
AcDbLine
 10
36186.14621540288
 20
29001.81271879219
 30
0.0
 11
36181.14621540288
 21
29001.81271879219
 31
0.0
  0
LINE
  5
2E64
330
1F
100
AcDbEntity
  8
中心線
 48
0.05
100
AcDbLine
 10
36186.14621540288
 20
29001.81271879219
 30
0.0
 11
36186.14621540288
 21
28996.81271879219
 31
0.0
  0
LINE
  5
2E65
330
1F
100
AcDbEntity
  8
外形線
100
AcDbLine
 10
36197.64621540288
 20
29000.81271879219
 30
0.0
 11
36197.64621540288
 21
28990.81271879219
 31
0.0
  0
LINE
  5
2E66
330
1F
100
AcDbEntity
  8
外形線
100
AcDbLine
 10
36197.64621540288
 20
28990.81271879219
 30
0.0
 11
36199.14621540288
 21
28990.81271879219
 31
0.0
  0
LINE
  5
2E67
330
1F
100
AcDbEntity
  8
外形線
100
AcDbLine
 10
36199.14621540288
 20
28990.81271879219
 30
0.0
 11
36199.14621540288
 21
28982.8127187922
 31
0.0
  0
LINE
  5
2E68
330
1F
100
AcDbEntity
  8
外形線
100
AcDbLine
 10
36199.14621540288
 20
28982.8127187922
 30
0.0
 11
36197.64621540288
 21
28982.8127187922
 31
0.0
  0
LINE
  5
2E69
330
1F
100
AcDbEntity
  8
外形線
100
AcDbLine
 10
36197.64621540288
 20
28982.8127187922
 30
0.0
 11
36197.64621540288
 21
28972.8127187922
 31
0.0
  0
LINE
  5
2E6A
330
1F
100
AcDbEntity
  8
外形線
100
AcDbLine
 10
36204.14621540288
 20
28989.31271879219
 30
0.0
 11
36204.14621540288
 21
28984.3127187922
 31
0.0
  0
LINE
  5
2E6B
330
1F
100
AcDbEntity
  8
外形線
100
AcDbLine
 10
36204.14621540288
 20
28984.3127187922
 30
0.0
 11
36206.64621540288
 21
28984.3127187922
 31
0.0
  0
LINE
  5
2E6C
330
1F
100
AcDbEntity
  8
外形線
100
AcDbLine
 10
36206.64621540288
 20
28984.3127187922
 30
0.0
 11
36206.64621540288
 21
28989.31271879219
 31
0.0
  0
LINE
  5
2E6D
330
1F
100
AcDbEntity
  8
外形線
100
AcDbLine
 10
36206.64621540288
 20
28989.31271879219
 30
0.0
 11
36204.14621540288
 21
28989.31271879219
 31
0.0
  0
LINE
  5
2E6E
330
1F
100
AcDbEntity
  8
外形線
100
AcDbLine
 10
36259.44621540288
 20
29008.81271879219
 30
0.0
 11
36259.44621540288
 21
28976.81271879219
 31
0.0
  0
ARC
  5
2E6F
330
1F
100
AcDbEntity
  8
外形線
100
AcDbCircle
 10
36260.44621540288
 20
29008.81271879219
 30
0.0
 40
1.0
100
AcDbArc
 50
90.0
 51
180.0
  0
LINE
  5
2E70
330
1F
100
AcDbEntity
  8
外形線
100
AcDbLine
 10
36260.44621540288
 20
28975.81271879219
 30
0.0
 11
36385.44621540288
 21
28975.81271879219
 31
0.0
  0
ARC
  5
2E71
330
1F
100
AcDbEntity
  8
外形線
100
AcDbCircle
 10
36260.44621540288
 20
28976.81271879219
 30
0.0
 40
1.0
100
AcDbArc
 50
180.0
 51
270.0
  0
LINE
  5
2E72
330
1F
100
AcDbEntity
  8
外形線
100
AcDbLine
 10
36386.44621540288
 20
28976.81271879219
 30
0.0
 11
36386.44621540288
 21
29008.81271879219
 31
0.0
  0
ARC
  5
2E73
330
1F
100
AcDbEntity
  8
外形線
100
AcDbCircle
 10
36385.44621540288
 20
28976.81271879219
 30
0.0
 40
1.0
100
AcDbArc
 50
270.0
 51
0.0
  0
LINE
  5
2E74
330
1F
100
AcDbEntity
  8
外形線
100
AcDbLine
 10
36385.44621540288
 20
29009.81271879219
 30
0.0
 11
36260.44621540288
 21
29009.81271879219
 31
0.0
  0
ARC
  5
2E75
330
1F
100
AcDbEntity
  8
外形線
100
AcDbCircle
 10
36385.44621540288
 20
29008.81271879219
 30
0.0
 40
1.0
100
AcDbArc
 50
0.0
 51
90.0
  0
LINE
  5
2E76
330
1F
100
AcDbEntity
  8
外形線
100
AcDbLine
 10
36259.44621540288
 20
28998.81271879219
 30
0.0
 11
36247.74621540288
 21
28998.81271879219
 31
0.0
  0
LINE
  5
2E77
330
1F
100
AcDbEntity
  8
外形線
100
AcDbLine
 10
36247.44621540288
 20
28998.51271879219
 30
0.0
 11
36247.44621540288
 21
28995.4127187922
 31
0.0
  0
ARC
  5
2E78
330
1F
100
AcDbEntity
  8
外形線
100
AcDbCircle
 10
36247.74621540288
 20
28995.4127187922
 30
0.0
 40
0.3
100
AcDbArc
 50
180.0
 51
270.0
  0
ARC
  5
2E79
330
1F
100
AcDbEntity
  8
外形線
100
AcDbCircle
 10
36247.74621540288
 20
28998.51271879219
 30
0.0
 40
0.3
100
AcDbArc
 50
90.0
 51
180.0
  0
LINE
  5
2E7A
330
1F
100
AcDbEntity
  8
外形線
100
AcDbLine
 10
36247.74621540288
 20
28995.11271879219
 30
0.0
 11
36253.14621540288
 21
28995.11271879219
 31
0.0
  0
LINE
  5
2E7B
330
1F
100
AcDbEntity
  8
外形線
100
AcDbLine
 10
36253.14621540288
 20
28990.51271879219
 30
0.0
 11
36247.74621540288
 21
28990.51271879219
 31
0.0
  0
ARC
  5
2E7C
330
1F
100
AcDbEntity
  8
外形線
100
AcDbCircle
 10
36247.74621540288
 20
28990.21271879219
 30
0.0
 40
0.3
100
AcDbArc
 50
90.0
 51
180.0
  0
LINE
  5
2E7D
330
1F
100
AcDbEntity
  8
外形線
100
AcDbLine
 10
36247.44621540288
 20
28990.21271879219
 30
0.0
 11
36247.44621540288
 21
28987.1127187922
 31
0.0
  0
LINE
  5
2E7E
330
1F
100
AcDbEntity
  8
外形線
100
AcDbLine
 10
36247.74621540288
 20
28986.81271879219
 30
0.0
 11
36259.44621540288
 21
28986.81271879219
 31
0.0
  0
ARC
  5
2E7F
330
1F
100
AcDbEntity
  8
外形線
100
AcDbCircle
 10
36247.74621540288
 20
28987.1127187922
 30
0.0
 40
0.3
100
AcDbArc
 50
180.0
 51
270.0
  0
ARC
  5
2E80
330
1F
100
AcDbEntity
  8
外形線
100
AcDbCircle
 10
36253.14621540288
 20
28992.81271879219
 30
0.0
 40
2.30000000000291
100
AcDbArc
 50
270.0
 51
90.0
  0
ARC
  5
2E81
330
1F
100
AcDbEntity
  8
外形線
100
AcDbCircle
 10
36256.11165447897
 20
28991.78829946611
 30
0.0
 40
6.030264183238933
100
AcDbArc
 50
56.42892761936801
 51
91.07027083668739
  0
ARC
  5
2E82
330
1F
100
AcDbEntity
  8
外形線
100
AcDbCircle
 10
36255.99621540288
 20
28997.96748543023
 30
0.0
 40
0.15
100
AcDbArc
 50
180.0
 51
271.0702708366873
  0
LINE
  5
2E83
330
1F
100
AcDbEntity
  8
外形線
100
AcDbLine
 10
36255.84621540288
 20
28998.81271879219
 30
0.0
 11
36255.84621540288
 21
28997.96748543023
 31
0.0
  0
ARC
  5
2E84
330
1F
100
AcDbEntity
  8
外形線
100
AcDbCircle
 10
36256.11165447897
 20
28993.83713811828
 30
0.0
 40
6.030264183238933
100
AcDbArc
 50
268.9297291633126
 51
303.571072380632
  0
ARC
  5
2E85
330
1F
100
AcDbEntity
  8
外形線
100
AcDbCircle
 10
36255.99621540288
 20
28987.65795215416
 30
0.0
 40
0.15
100
AcDbArc
 50
88.9297291633126
 51
180.0
  0
LINE
  5
2E86
330
1F
100
AcDbEntity
  8
外形線
100
AcDbLine
 10
36255.84621540288
 20
28986.81271879219
 30
0.0
 11
36255.84621540288
 21
28987.65795215416
 31
0.0
  0
LINE
  5
2E87
330
1F
100
AcDbEntity
  8
外形線
100
AcDbLine
 10
36386.44621540288
 20
28998.81271879219
 30
0.0
 11
36398.14621540288
 21
28998.81271879219
 31
0.0
  0
LINE
  5
2E88
330
1F
100
AcDbEntity
  8
外形線
100
AcDbLine
 10
36398.44621540288
 20
28998.51271879219
 30
0.0
 11
36398.44621540288
 21
28995.4127187922
 31
0.0
  0
ARC
  5
2E89
330
1F
100
AcDbEntity
  8
外形線
100
AcDbCircle
 10
36398.14621540288
 20
28995.4127187922
 30
0.0
 40
0.3
100
AcDbArc
 50
270.0
 51
0.0
  0
ARC
  5
2E8A
330
1F
100
AcDbEntity
  8
外形線
100
AcDbCircle
 10
36398.14621540288
 20
28998.51271879219
 30
0.0
 40
0.3
100
AcDbArc
 50
0.0
 51
90.0
  0
LINE
  5
2E8B
330
1F
100
AcDbEntity
  8
外形線
100
AcDbLine
 10
36398.14621540288
 20
28995.11271879219
 30
0.0
 11
36392.74621540288
 21
28995.11271879219
 31
0.0
  0
LINE
  5
2E8C
330
1F
100
AcDbEntity
  8
外形線
100
AcDbLine
 10
36392.74621540288
 20
28990.51271879219
 30
0.0
 11
36398.14621540288
 21
28990.51271879219
 31
0.0
  0
LINE
  5
2E8D
330
1F
100
AcDbEntity
  8
外形線
100
AcDbLine
 10
36398.44621540288
 20
28990.21271879219
 30
0.0
 11
36398.44621540288
 21
28987.1127187922
 31
0.0
  0
ARC
  5
2E8E
330
1F
100
AcDbEntity
  8
外形線
100
AcDbCircle
 10
36398.14621540288
 20
28990.21271879219
 30
0.0
 40
0.3
100
AcDbArc
 50
0.0
 51
90.0
  0
ARC
  5
2E8F
330
1F
100
AcDbEntity
  8
外形線
100
AcDbCircle
 10
36398.14621540288
 20
28987.1127187922
 30
0.0
 40
0.3
100
AcDbArc
 50
270.0
 51
0.0
  0
LINE
  5
2E90
330
1F
100
AcDbEntity
  8
外形線
100
AcDbLine
 10
36398.14621540288
 20
28986.81271879219
 30
0.0
 11
36386.44621540288
 21
28986.81271879219
 31
0.0
  0
ARC
  5
2E91
330
1F
100
AcDbEntity
  8
外形線
100
AcDbCircle
 10
36392.74621540288
 20
28992.81271879219
 30
0.0
 40
2.30000000000291
100
AcDbArc
 50
90.0
 51
270.0
  0
ARC
  5
2E92
330
1F
100
AcDbEntity
  8
外形線
100
AcDbCircle
 10
36389.78077632679
 20
28991.78829946611
 30
0.0
 40
6.030264183238933
100
AcDbArc
 50
88.9297291633126
 51
123.5710723801912
  0
ARC
  5
2E93
330
1F
100
AcDbEntity
  8
外形線
100
AcDbCircle
 10
36389.89621540288
 20
28997.96748543023
 30
0.0
 40
0.15
100
AcDbArc
 50
268.9297291633126
 51
0.0
  0
LINE
  5
2E94
330
1F
100
AcDbEntity
  8
外形線
100
AcDbLine
 10
36390.04621540288
 20
28998.81271879219
 30
0.0
 11
36390.04621540288
 21
28997.96748543023
 31
0.0
  0
ARC
  5
2E95
330
1F
100
AcDbEntity
  8
外形線
100
AcDbCircle
 10
36389.78077632679
 20
28993.83713811828
 30
0.0
 40
6.030264183238933
100
AcDbArc
 50
236.4289276198088
 51
271.0702708366873
  0
ARC
  5
2E96
330
1F
100
AcDbEntity
  8
外形線
100
AcDbCircle
 10
36389.89621540288
 20
28987.65795215416
 30
0.0
 40
0.15
100
AcDbArc
 50
0.0
 51
91.07027083668739
  0
LINE
  5
2E97
330
1F
100
AcDbEntity
  8
外形線
100
AcDbLine
 10
36390.04621540288
 20
28986.81271879219
 30
0.0
 11
36390.04621540288
 21
28987.65795215416
 31
0.0
  0
LINE
  5
2E98
330
1F
100
AcDbEntity
  8
外形線
100
AcDbLine
 10
36272.94621540288
 20
29004.31271879219
 30
0.0
 11
36272.94621540288
 21
28981.31271879219
 31
0.0
  0
LINE
  5
2E99
330
1F
100
AcDbEntity
  8
外形線
100
AcDbLine
 10
36273.94621540288
 20
28980.3127187922
 30
0.0
 11
36371.94621540288
 21
28980.3127187922
 31
0.0
  0
ARC
  5
2E9A
330
1F
100
AcDbEntity
  8
外形線
100
AcDbCircle
 10
36273.94621540288
 20
28981.31271879219
 30
0.0
 40
1.0
100
AcDbArc
 50
180.0
 51
270.0
  0
LINE
  5
2E9B
330
1F
100
AcDbEntity
  8
外形線
100
AcDbLine
 10
36372.94621540288
 20
28981.31271879219
 30
0.0
 11
36372.94621540288
 21
29004.31271879219
 31
0.0
  0
ARC
  5
2E9C
330
1F
100
AcDbEntity
  8
外形線
100
AcDbCircle
 10
36371.94621540288
 20
28981.31271879219
 30
0.0
 40
1.0
100
AcDbArc
 50
270.0
 51
0.0
  0
ARC
  5
2E9D
330
1F
100
AcDbEntity
  8
外形線
100
AcDbCircle
 10
36371.94621540288
 20
29004.31271879219
 30
0.0
 40
1.0
100
AcDbArc
 50
0.0
 51
90.0
  0
LINE
  5
2E9E
330
1F
100
AcDbEntity
  8
外形線
100
AcDbLine
 10
36371.94621540288
 20
29005.3127187922
 30
0.0
 11
36273.94621540288
 21
29005.3127187922
 31
0.0
  0
ARC
  5
2E9F
330
1F
100
AcDbEntity
  8
外形線
100
AcDbCircle
 10
36273.94621540288
 20
29004.31271879219
 30
0.0
 40
1.0
100
AcDbArc
 50
90.0
 51
180.0
  0
XLINE
  5
2EA0
330
1F
100
AcDbEntity
  8
オフセット
100
AcDbXline
 10
36346.37572567998
 20
27902.11527306976
 30
0.0
 11
0.0
 21
-1.0
 31
0.0
  0
LINE
  5
2EA1
330
1F
100
AcDbEntity
  8
外形線
100
AcDbLine
 10
36259.44621540288
 20
28761.6857802115
 30
0.0
 11
36209.14621540288
 21
28761.6857802115
 31
0.0
  0
LINE
  5
2EA2
330
1F
100
AcDbEntity
  8
外形線
100
AcDbLine
 10
36197.64621540288
 20
28761.6857802115
 30
0.0
 11
36197.14621540288
 21
28761.6857802115
 31
0.0
  0
LINE
  5
2EA3
330
1F
100
AcDbEntity
  8
外形線
100
AcDbLine
 10
36178.14621540288
 20
28751.6857802115
 30
0.0
 11
36178.14621540288
 21
28750.88578021149
 31
0.0
  0
LINE
  5
2EA4
330
1F
100
AcDbEntity
  8
外形線
100
AcDbLine
 10
36178.14621540288
 20
28750.88578021149
 30
0.0
 11
36438.14621540288
 21
28750.88578021149
 31
0.0
  0
LINE
  5
2EA5
330
1F
100
AcDbEntity
  8
外形線
100
AcDbLine
 10
36438.14621540288
 20
28750.88578021149
 30
0.0
 11
36438.14621540288
 21
28751.6857802115
 31
0.0
  0
LINE
  5
2EA6
330
1F
100
AcDbEntity
  8
外形線
100
AcDbLine
 10
36430.61802120493
 20
28751.6857802115
 30
0.0
 11
36170.61802120493
 21
28751.6857802115
 31
0.0
  0
LINE
  5
2EA7
330
1F
100
AcDbEntity
  8
外形線
100
AcDbLine
 10
36175.14621540288
 20
28771.1857802115
 30
0.0
 11
36175.14621540288
 21
28752.1857802115
 31
0.0
  0
LINE
  5
2EA8
330
1F
100
AcDbEntity
  8
外形線
100
AcDbLine
 10
36175.64621540288
 20
28751.6857802115
 30
0.0
 11
36197.14621540288
 21
28751.6857802115
 31
0.0
  0
ARC
  5
2EA9
330
1F
100
AcDbEntity
  8
外形線
100
AcDbCircle
 10
36175.64621540288
 20
28752.1857802115
 30
0.0
 40
0.5
100
AcDbArc
 50
180.0
 51
270.0
  0
LINE
  5
2EAA
330
1F
100
AcDbEntity
  8
外形線
100
AcDbLine
 10
36197.14621540288
 20
28760.6857802115
 30
0.0
 11
36197.14621540288
 21
28771.1857802115
 31
0.0
  0
ARC
  5
2EAB
330
1F
100
AcDbEntity
  8
外形線
100
AcDbCircle
 10
36196.64621540288
 20
28771.1857802115
 30
0.0
 40
0.5
100
AcDbArc
 50
0.0
 51
90.0
  0
LINE
  5
2EAC
330
1F
100
AcDbEntity
  8
外形線
100
AcDbLine
 10
36196.64621540288
 20
28771.6857802115
 30
0.0
 11
36175.64621540288
 21
28771.6857802115
 31
0.0
  0
ARC
  5
2EAD
330
1F
100
AcDbEntity
  8
外形線
100
AcDbCircle
 10
36175.64621540288
 20
28771.1857802115
 30
0.0
 40
0.5
100
AcDbArc
 50
90.0
 51
180.0
  0
LINE
  5
2EAE
330
1F
100
AcDbEntity
  8
外形線
100
AcDbLine
 10
36197.14621540288
 20
28751.6857802115
 30
0.0
 11
36208.64621540288
 21
28751.6857802115
 31
0.0
  0
LINE
  5
2EAF
330
1F
100
AcDbEntity
  8
外形線
100
AcDbLine
 10
36209.14621540288
 20
28752.1857802115
 30
0.0
 11
36209.14621540288
 21
28760.1857802115
 31
0.0
  0
ARC
  5
2EB0
330
1F
100
AcDbEntity
  8
外形線
100
AcDbCircle
 10
36208.64621540288
 20
28752.1857802115
 30
0.0
 40
0.5
100
AcDbArc
 50
270.0
 51
0.0
  0
ARC
  5
2EB1
330
1F
100
AcDbEntity
  8
外形線
100
AcDbCircle
 10
36208.64621540288
 20
28760.1857802115
 30
0.0
 40
0.5
100
AcDbArc
 50
0.0
 51
90.0
  0
LINE
  5
2EB2
330
1F
100
AcDbEntity
  8
外形線
100
AcDbLine
 10
36209.14621540288
 20
28760.6857802115
 30
0.0
 11
36197.14621540288
 21
28760.6857802115
 31
0.0
  0
LINE
  5
2EB3
330
1F
100
AcDbEntity
  8
外形線
100
AcDbLine
 10
36197.64621540288
 20
28760.6857802115
 30
0.0
 11
36197.64621540288
 21
28762.1857802115
 31
0.0
  0
LINE
  5
2EB4
330
1F
100
AcDbEntity
  8
外形線
100
AcDbLine
 10
36198.14621540288
 20
28762.6857802115
 30
0.0
 11
36208.64621540288
 21
28762.6857802115
 31
0.0
  0
ARC
  5
2EB5
330
1F
100
AcDbEntity
  8
外形線
100
AcDbCircle
 10
36198.14621540288
 20
28762.1857802115
 30
0.0
 40
0.5
100
AcDbArc
 50
90.0
 51
180.0
  0
LINE
  5
2EB6
330
1F
100
AcDbEntity
  8
外形線
100
AcDbLine
 10
36209.14621540288
 20
28762.1857802115
 30
0.0
 11
36209.14621540288
 21
28760.6857802115
 31
0.0
  0
ARC
  5
2EB7
330
1F
100
AcDbEntity
  8
外形線
100
AcDbCircle
 10
36208.64621540288
 20
28762.1857802115
 30
0.0
 40
0.5
100
AcDbArc
 50
0.0
 51
90.0
  0
LINE
  5
2EB8
330
1F
100
AcDbEntity
  8
中心線
 48
0.05
100
AcDbLine
 10
36186.14621540288
 20
28754.6857802115
 30
0.0
 11
36186.14621540288
 21
28748.6857802115
 31
0.0
  0
LINE
  5
2EB9
330
1F
100
AcDbEntity
  8
外形線
100
AcDbLine
 10
36259.44621540288
 20
28761.68578021149
 30
0.0
 11
36209.14621540288
 21
28761.68578021149
 31
0.0
  0
LINE
  5
2EBA
330
1F
100
AcDbEntity
  8
外形線
100
AcDbLine
 10
36259.44621540288
 20
28775.6857802115
 30
0.0
 11
36259.44621540288
 21
28751.6857802115
 31
0.0
  0
LINE
  5
2EBB
330
1F
100
AcDbEntity
  8
外形線
100
AcDbLine
 10
36259.44621540288
 20
28751.6857802115
 30
0.0
 11
36386.44621540288
 21
28751.6857802115
 31
0.0
  0
LINE
  5
2EBC
330
1F
100
AcDbEntity
  8
外形線
100
AcDbLine
 10
36386.44621540288
 20
28751.6857802115
 30
0.0
 11
36386.44621540288
 21
28775.6857802115
 31
0.0
  0
ARC
  5
2EBD
330
1F
100
AcDbEntity
  8
外形線
100
AcDbCircle
 10
36385.44621540288
 20
28775.6857802115
 30
0.0
 40
1.0
100
AcDbArc
 50
0.0
 51
90.0
  0
LINE
  5
2EBE
330
1F
100
AcDbEntity
  8
外形線
100
AcDbLine
 10
36385.44621540288
 20
28776.6857802115
 30
0.0
 11
36260.44621540288
 21
28776.6857802115
 31
0.0
  0
ARC
  5
2EBF
330
1F
100
AcDbEntity
  8
外形線
100
AcDbCircle
 10
36260.44621540288
 20
28775.6857802115
 30
0.0
 40
1.0
100
AcDbArc
 50
90.0
 51
180.0
  0
LINE
  5
2EC0
330
1F
100
AcDbEntity
  8
外形線
100
AcDbLine
 10
36259.44621540288
 20
28759.6857802115
 30
0.0
 11
36255.84621540288
 21
28753.6857802115
 31
0.0
  0
LINE
  5
2EC1
330
1F
100
AcDbEntity
  8
外形線
100
AcDbLine
 10
36255.84621540288
 20
28753.6857802115
 30
0.0
 11
36247.94621540288
 21
28753.6857802115
 31
0.0
  0
LINE
  5
2EC2
330
1F
100
AcDbEntity
  8
外形線
100
AcDbLine
 10
36247.44621540288
 20
28753.1857802115
 30
0.0
 11
36247.44621540288
 21
28751.6857802115
 31
0.0
  0
ARC
  5
2EC3
330
1F
100
AcDbEntity
  8
外形線
100
AcDbCircle
 10
36247.94621540288
 20
28753.1857802115
 30
0.0
 40
0.5
100
AcDbArc
 50
90.0
 51
180.0
  0
LINE
  5
2EC4
330
1F
100
AcDbEntity
  8
外形線
100
AcDbLine
 10
36247.44621540288
 20
28751.6857802115
 30
0.0
 11
36259.44621540288
 21
28751.6857802115
 31
0.0
  0
LINE
  5
2EC5
330
1F
100
AcDbEntity
  8
外形線
100
AcDbLine
 10
36386.44621540288
 20
28759.6857802115
 30
0.0
 11
36390.04621540288
 21
28753.6857802115
 31
0.0
  0
LINE
  5
2EC6
330
1F
100
AcDbEntity
  8
外形線
100
AcDbLine
 10
36390.04621540288
 20
28753.6857802115
 30
0.0
 11
36397.94621540288
 21
28753.6857802115
 31
0.0
  0
LINE
  5
2EC7
330
1F
100
AcDbEntity
  8
外形線
100
AcDbLine
 10
36398.44621540288
 20
28753.1857802115
 30
0.0
 11
36398.44621540288
 21
28751.6857802115
 31
0.0
  0
ARC
  5
2EC8
330
1F
100
AcDbEntity
  8
外形線
100
AcDbCircle
 10
36397.94621540288
 20
28753.1857802115
 30
0.0
 40
0.5
100
AcDbArc
 50
0.0
 51
90.0
  0
LINE
  5
2EC9
330
1F
100
AcDbEntity
  8
外形線
100
AcDbLine
 10
36398.44621540288
 20
28751.6857802115
 30
0.0
 11
36386.44621540288
 21
28751.6857802115
 31
0.0
  0
LINE
  5
2ECA
330
1F
100
AcDbEntity
  8
外形線
100
AcDbLine
 10
36259.44621540288
 20
28761.6857802115
 30
0.0
 11
36209.14621540288
 21
28761.6857802115
 31
0.0
  0
LINE
  5
2ECB
330
1F
100
AcDbEntity
  8
外形線
100
AcDbLine
 10
36197.64621540288
 20
28761.6857802115
 30
0.0
 11
36197.14621540288
 21
28761.6857802115
 31
0.0
  0
LINE
  5
2ECC
330
1F
100
AcDbEntity
  8
外形線
100
AcDbLine
 10
36175.14621540288
 20
28761.68578021149
 30
0.0
 11
36083.29621540288
 21
28761.6857802115
 31
0.0
  0
LINE
  5
2ECD
330
1F
100
AcDbEntity
  8
外形線
100
AcDbLine
 10
36197.64621540288
 20
28761.68578021149
 30
0.0
 11
36197.14621540288
 21
28761.6857802115
 31
0.0
  0
LINE
  5
2ECE
330
1F
100
AcDbEntity
  8
外形線
100
AcDbLine
 10
36259.44621540288
 20
28761.68578021149
 30
0.0
 11
36209.14621540288
 21
28761.68578021149
 31
0.0
  0
XLINE
  5
2ECF
330
1F
100
AcDbEntity
  8
オフセット
100
AcDbXline
 10
36266.02572567998
 20
27902.11527306976
 30
0.0
 11
0.0
 21
-1.0
 31
0.0
  0
XLINE
  5
2ED0
330
1F
100
AcDbEntity
  8
オフセット
100
AcDbXline
 10
36267.02572567998
 20
27902.11527306976
 30
0.0
 11
0.0
 21
-1.0
 31
0.0
  0
XLINE
  5
2ED1
330
1F
100
AcDbEntity
  8
オフセット
100
AcDbXline
 10
38413.71721721729
 20
27902.11527306976
 30
0.0
 11
0.0
 21
-1.0
 31
0.0
  0
XLINE
  5
2ED2
330
1F
100
AcDbEntity
  8
オフセット
100
AcDbXline
 10
32915.44093491146
 20
27746.33756015515
 30
0.0
 11
-1.0
 21
0.0
 31
0.0
  0
LINE
  5
2EEB
330
1F
100
AcDbEntity
  8
寸法線
100
AcDbLine
 10
36131.79621540287
 20
28841.21505698599
 30
0.0
 11
36131.79621540287
 21
28841.84005698599
 31
0.0
  0
LINE
  5
2EEC
330
1F
100
AcDbEntity
  8
寸法線
100
AcDbLine
 10
36706.79621540287
 20
28841.21505698599
 30
0.0
 11
36706.79621540287
 21
28841.84005698599
 31
0.0
  0
LINE
  5
2EED
330
1F
100
AcDbEntity
  8
寸法線
100
AcDbLine
 10
36134.29621540287
 20
28840.59005698599
 30
0.0
 11
36704.29621540287
 21
28840.59005698599
 31
0.0
  0
SOLID
  5
2EEE
330
1F
100
AcDbEntity
  8
寸法線
100
AcDbTrace
 10
36134.29621540287
 20
28841.00672365266
 30
0.0
 11
36134.29621540287
 21
28840.17339031932
 31
0.0
 12
36131.79621540287
 22
28840.59005698599
 32
0.0
 13
36131.79621540287
 23
28840.59005698599
 33
0.0
  0
SOLID
  5
2EEF
330
1F
100
AcDbEntity
  8
寸法線
100
AcDbTrace
 10
36704.29621540287
 20
28841.00672365266
 30
0.0
 11
36704.29621540287
 21
28840.17339031932
 31
0.0
 12
36706.79621540287
 22
28840.59005698599
 32
0.0
 13
36706.79621540287
 23
28840.59005698599
 33
0.0
  0
DIMENSION
  5
2EF1
102
{ACAD_XDICTIONARY
360
2EFE
102
}
102
{ACAD_REACTORS
330
2F08
102
}
330
1F
100
AcDbEntity
  8
寸法線
100
AcDbDimension
280
     0
  2
*D1
 10
36756.29621540287
 20
29115.58293103712
 30
0.0
 11
36419.29621540287
 21
29126.41939079156
 31
0.0
 70
    32
 71
     5
 42
674.0
 73
     0
 74
     0
 75
     0
  3
ISO-25
100
AcDbAlignedDimension
 13
36082.29621540287
 23
29041.81271879219
 33
0.0
 14
36756.29621540287
 24
29041.81271879219
 34
0.0
100
AcDbRotatedDimension
  0
DIMENSION
  5
2F0C
102
{ACAD_XDICTIONARY
360
2F19
102
}
102
{ACAD_REACTORS
330
2F23
102
}
330
1F
100
AcDbEntity
  8
寸法線
100
AcDbDimension
280
     0
  2
*D2
 10
36826.3600203953
 20
28803.6857802115
 30
0.0
 11
36815.52356064086
 21
28777.6857802115
 31
0.0
 70
    32
 71
     5
 42
52.0
 73
     0
 74
     0
 75
     0
  3
ISO-25
100
AcDbAlignedDimension
 13
36755.29621540287
 23
28751.6857802115
 33
0.0
 14
36755.29621540287
 24
28803.6857802115
 34
0.0
 50
90.0
100
AcDbRotatedDimension
  0
DIMENSION
  5
2F24
102
{ACAD_XDICTIONARY
360
2F33
102
}
102
{ACAD_REACTORS
330
2F3F
102
}
330
1F
100
AcDbEntity
  8
寸法線
100
AcDbDimension
280
     0
  2
*D3
 10
36826.3600203953
 20
28747.6857802115
 30
0.0
 11
36815.7350203953
 21
28735.1439998568
 31
0.0
 70
    32
 71
     5
 42
4.0
 73
     0
 74
     0
 75
     0
  3
ISO-25
100
AcDbAlignedDimension
 13
36755.29621540287
 23
28751.6857802115
 33
0.0
 14
36716.29621540287
 24
28747.6857802115
 34
0.0
 50
90.0
100
AcDbRotatedDimension
  0
LINE
  5
2F56
102
{ACAD_REACTORS
330
2FA8
102
}
330
1F
100
AcDbEntity
  8
中心線
100
AcDbLine
 10
36975.13058766012
 20
28813.68578090953
 30
0.0
 11
36975.13058766012
 21
28741.36225020409
 31
0.0
  0
LINE
  5
2F57
330
1F
100
AcDbEntity
  8
外形線
100
AcDbLine
 10
36907.33058766012
 20
28750.88578056051
 30
0.0
 11
36907.33058766012
 21
28751.68578056051
 31
0.0
  0
LINE
  5
2F58
330
1F
100
AcDbEntity
  8
外形線
100
AcDbLine
 10
36907.33058766012
 20
28751.68578056051
 30
0.0
 11
36984.33058766012
 21
28751.68578056051
 31
0.0
  0
LINE
  5
2F59
330
1F
100
AcDbEntity
  8
外形線
100
AcDbLine
 10
36966.88058766012
 20
28750.88578056051
 30
0.0
 11
36907.33058766012
 21
28750.88578056051
 31
0.0
  0
LINE
  5
2F5A
330
1F
100
AcDbEntity
  8
外形線
100
AcDbLine
 10
36951.33058766012
 20
28771.68578056051
 30
0.0
 11
36943.33058766012
 21
28771.68578056051
 31
0.0
  0
LINE
  5
2F5B
330
1F
100
AcDbEntity
  8
外形線
100
AcDbLine
 10
36909.33058766012
 20
28771.68578056051
 30
0.0
 11
36906.33058766012
 21
28771.68578056051
 31
0.0
  0
LINE
  5
2F5C
102
{ACAD_REACTORS
330
2FA8
330
2FDA
102
}
330
1F
100
AcDbEntity
  8
外形線
100
AcDbLine
 10
36906.33058766012
 20
28771.68578056051
 30
0.0
 11
36906.33058766012
 21
28751.68578056051
 31
0.0
  0
LINE
  5
2F5D
330
1F
100
AcDbEntity
  8
外形線
100
AcDbLine
 10
36906.33058766012
 20
28751.68578056051
 30
0.0
 11
36951.33058766012
 21
28751.68578056051
 31
0.0
  0
LINE
  5
2F5E
330
1F
100
AcDbEntity
  8
外形線
100
AcDbLine
 10
36951.33058766012
 20
28751.68578056051
 30
0.0
 11
36951.33058766012
 21
28771.68578056051
 31
0.0
  0
LINE
  5
2F5F
330
1F
100
AcDbEntity
  8
外形線
100
AcDbLine
 10
36909.33058766012
 20
28762.68578056051
 30
0.0
 11
36906.33058766012
 21
28762.68578056051
 31
0.0
  0
LINE
  5
2F60
330
1F
100
AcDbEntity
  8
外形線
100
AcDbLine
 10
36906.33058766012
 20
28762.68578056051
 30
0.0
 11
36906.33058766012
 21
28760.68578056051
 31
0.0
  0
LINE
  5
2F61
330
1F
100
AcDbEntity
  8
外形線
100
AcDbLine
 10
36906.33058766012
 20
28760.68578056051
 30
0.0
 11
36909.33058766012
 21
28760.68578056051
 31
0.0
  0
LINE
  5
2F62
330
1F
100
AcDbEntity
  8
外形線
100
AcDbLine
 10
36909.33058766012
 20
28751.68578056051
 30
0.0
 11
36909.33058766012
 21
28775.68578056051
 31
0.0
  0
LINE
  5
2F63
330
1F
100
AcDbEntity
  8
外形線
100
AcDbLine
 10
36910.33058766012
 20
28776.68578056051
 30
0.0
 11
36942.33058766012
 21
28776.68578056051
 31
0.0
  0
ARC
  5
2F64
330
1F
100
AcDbEntity
  8
外形線
100
AcDbCircle
 10
36942.33058766012
 20
28775.68578056051
 30
0.0
 40
1.0
100
AcDbArc
 50
0.0
 51
90.0
  0
ARC
  5
2F65
330
1F
100
AcDbEntity
  8
外形線
100
AcDbCircle
 10
36910.33058766012
 20
28775.68578056051
 30
0.0
 40
1.0
100
AcDbArc
 50
90.0
 51
180.0
  0
LINE
  5
2F66
330
1F
100
AcDbEntity
  8
外形線
100
AcDbLine
 10
36943.33058766012
 20
28775.68578056051
 30
0.0
 11
36943.33058766012
 21
28751.68578056051
 31
0.0
  0
LINE
  5
2F67
330
1F
100
AcDbEntity
  8
外形線
100
AcDbLine
 10
36943.33058766012
 20
28751.68578056051
 30
0.0
 11
36909.33058766012
 21
28751.68578056051
 31
0.0
  0
LINE
  5
2F68
330
1F
100
AcDbEntity
  8
外形線
100
AcDbLine
 10
36932.33058766012
 20
28751.68578056051
 30
0.0
 11
36932.33058766012
 21
28753.68578056051
 31
0.0
  0
LINE
  5
2F69
330
1F
100
AcDbEntity
  8
外形線
100
AcDbLine
 10
36932.33058766012
 20
28753.68578056051
 30
0.0
 11
36929.13058766012
 21
28753.68578056051
 31
0.0
  0
ARC
  5
2F6A
330
1F
100
AcDbEntity
  8
外形線
100
AcDbCircle
 10
36929.13058766012
 20
28753.18578056051
 30
0.0
 40
0.5
100
AcDbArc
 50
90.0
 51
180.0
  0
LINE
  5
2F6B
330
1F
100
AcDbEntity
  8
外形線
100
AcDbLine
 10
36920.33058766011
 20
28753.68578056051
 30
0.0
 11
36920.33058766011
 21
28751.68578056051
 31
0.0
  0
LINE
  5
2F6C
330
1F
100
AcDbEntity
  8
外形線
100
AcDbLine
 10
36924.03058766011
 20
28751.68578056051
 30
0.0
 11
36924.03058766011
 21
28753.18578056051
 31
0.0
  0
LINE
  5
2F6D
330
1F
100
AcDbEntity
  8
外形線
100
AcDbLine
 10
36928.63058766012
 20
28751.68578056051
 30
0.0
 11
36928.63058766012
 21
28753.18578056051
 31
0.0
  0
ARC
  5
2F6E
330
1F
100
AcDbEntity
  8
外形線
100
AcDbCircle
 10
36927.47403800879
 20
28755.7452055024
 30
0.0
 40
6.479445445243836
100
AcDbArc
 50
142.5430267976132
 51
198.5323287863177
  0
LINE
  5
2F6F
330
1F
100
AcDbEntity
  8
外形線
100
AcDbLine
 10
36922.33058766011
 20
28759.68578056051
 30
0.0
 11
36920.33058766011
 21
28759.68578056051
 31
0.0
  0
LINE
  5
2F70
330
1F
100
AcDbEntity
  8
外形線
100
AcDbLine
 10
36920.33058766011
 20
28759.68578056051
 30
0.0
 11
36920.33058766011
 21
28753.68578056051
 31
0.0
  0
LINE
  5
2F71
330
1F
100
AcDbEntity
  8
外形線
100
AcDbLine
 10
36922.33058766011
 20
28753.68578056051
 30
0.0
 11
36922.33058766011
 21
28759.68578056051
 31
0.0
  0
ARC
  5
2F72
330
1F
100
AcDbEntity
  8
外形線
100
AcDbCircle
 10
36925.18713731144
 20
28755.7452055024
 30
0.0
 40
6.479445445243836
100
AcDbArc
 50
341.4676712136822
 51
37.45697320235219
  0
LINE
  5
2F73
330
1F
100
AcDbEntity
  8
外形線
100
AcDbLine
 10
36930.33058766012
 20
28759.68578056051
 30
0.0
 11
36932.33058766012
 21
28759.68578056051
 31
0.0
  0
LINE
  5
2F74
330
1F
100
AcDbEntity
  8
外形線
100
AcDbLine
 10
36932.33058766012
 20
28759.68578056051
 30
0.0
 11
36932.33058766012
 21
28753.68578056051
 31
0.0
  0
LINE
  5
2F75
330
1F
100
AcDbEntity
  8
外形線
100
AcDbLine
 10
36930.33058766012
 20
28753.68578056051
 30
0.0
 11
36930.33058766012
 21
28759.68578056051
 31
0.0
  0
LINE
  5
2F76
330
1F
100
AcDbEntity
  8
外形線
100
AcDbLine
 10
36923.53058766011
 20
28753.68578056051
 30
0.0
 11
36920.33058766011
 21
28753.68578056051
 31
0.0
  0
ARC
  5
2F77
330
1F
100
AcDbEntity
  8
外形線
100
AcDbCircle
 10
36923.53058766011
 20
28753.18578056051
 30
0.0
 40
0.5
100
AcDbArc
 50
0.0
 51
90.0
  0
LINE
  5
2F78
330
1F
100
AcDbEntity
  8
外形線
100
AcDbLine
 10
36923.53058766011
 20
28753.68578056051
 30
0.0
 11
36929.13058766012
 21
28753.68578056051
 31
0.0
  0
DIMENSION
  5
2F79
102
{ACAD_XDICTIONARY
360
2F86
102
}
102
{ACAD_REACTORS
330
2F90
102
}
330
1F
100
AcDbEntity
  8
寸法線
100
AcDbDimension
280
     0
  2
*D4
 10
36872.44979051477
 20
28747.68578056051
 30
0.0
 11
36861.61333076033
 21
28775.68578056052
 31
0.0
 70
    32
 71
     5
 42
56.0
 73
     0
 74
     0
 75
     0
  3
ISO-25
100
AcDbAlignedDimension
 13
36975.13058766011
 23
28803.68578056051
 33
0.0
 14
36975.13058766012
 24
28747.68578056051
 34
0.0
 50
90.0
100
AcDbRotatedDimension
  0
DIMENSION
  5
2F91
102
{ACAD_XDICTIONARY
360
2F9E
102
}
102
{ACAD_REACTORS
330
2FA8
102
}
330
1F
100
AcDbEntity
  8
寸法線
100
AcDbDimension
280
     0
  2
*D5
 10
36975.13058766012
 20
28843.83156425954
 30
0.0
 11
36940.73058766012
 21
28856.47566385026
 31
0.0
 70
    32
 71
     5
 42
68.80000000000291
 73
     0
 74
     0
 75
     0
  3
ISO-25
100
AcDbAlignedDimension
 13
36906.33058766012
 23
28771.68578056051
 33
0.0
 14
36975.13058766012
 24
28803.68578056051
 34
0.0
100
AcDbRotatedDimension
  0
DIMENSION
  5
2FA9
102
{ACAD_XDICTIONARY
360
2FB7
102
}
102
{ACAD_REACTORS
330
2FC2
102
}
330
1F
100
AcDbEntity
  8
寸法線
100
AcDbDimension
280
     0
  2
*D6
 10
36991.13058766012
 20
28843.83156425954
 30
0.0
 11
37007.63212244866
 21
28854.66802401398
 31
0.0
 70
    32
 71
     5
 42
16.00000000000727
 73
     0
 74
     0
 75
     0
  3
ISO-25
100
AcDbAlignedDimension
 13
36975.13058766011
 23
28803.68578056051
 33
0.0
 14
36991.13058766012
 24
28787.43578056161
 34
0.0
100
AcDbRotatedDimension
  0
DIMENSION
  5
2FC3
102
{ACAD_XDICTIONARY
360
2FD0
102
}
102
{ACAD_REACTORS
330
2FDA
102
}
330
1F
100
AcDbEntity
  8
寸法線
100
AcDbDimension
280
     0
  2
*D7
 10
36906.33058766012
 20
28904.1779837021
 30
0.0
 11
36948.73058766011
 21
28916.82208329282
 31
0.0
 70
    32
 71
     5
 42
84.79999999998836
 73
     0
 74
     0
 75
     0
  3
ISO-25
100
AcDbAlignedDimension
 13
36991.1305876601
 23
28787.43578056054
 33
0.0
 14
36906.33058766012
 24
28771.68578056052
 34
0.0
100
AcDbRotatedDimension
  0
VIEWPORT
  5
318
102
{ACAD_XDICTIONARY
360
319
102
}
330
D2
100
AcDbEntity
 67
     1
  8
0
100
AcDbViewport
 10
211.3853471294841
 20
143.5205755233764
 30
0.0
 40
524.1411654859327
 41
314.237268371582
 68
     1
 69
     1
 12
211.3853471294841
 22
143.5205755233764
 13
0.0
 23
0.0
 14
10.0
 24
10.0
 15
10.0
 25
10.0
 16
0.0
 26
0.0
 36
1.0
 17
0.0
 27
0.0
 37
0.0
 42
50.0
 43
0.0
 44
0.0
 45
314.237268371582
 50
0.0
 51
0.0
 72
  1000
 90
   557088
  1

281
     0
 71
     1
 74
     0
110
0.0
120
0.0
130
0.0
111
1.0
121
0.0
131
0.0
112
0.0
122
1.0
132
0.0
 79
     0
146
0.0
170
     0
 61
     5
348
EC
292
     1
282
     1
141
0.0
142
0.0
 63
   250
421
  3355443
  0
VIEWPORT
  5
31C
102
{ACAD_XDICTIONARY
360
31D
102
}
330
D2
100
AcDbEntity
 67
     1
  8
外形線②
100
AcDbViewport
 10
128.5
 20
97.5
 30
0.0
 40
205.6
 41
156.0
 68
     2
 69
     2
 12
210.0
 22
148.5
 13
0.0
 23
0.0
 14
10.0
 24
10.0
 15
10.0
 25
10.0
 16
0.0
 26
0.0
 36
1.0
 17
0.0
 27
0.0
 37
0.0
 42
50.0
 43
0.0
 44
0.0
 45
321.3253284758076
 50
0.0
 51
0.0
 72
  1000
 90
   819808
  1

281
     0
 71
     1
 74
     0
110
0.0
120
0.0
130
0.0
111
1.0
121
0.0
131
0.0
112
0.0
122
1.0
132
0.0
 79
     0
146
0.0
170
     0
 61
     5
348
EC
292
     1
282
     1
141
0.0
142
0.0
 63
   250
421
  3355443
  0
ENDSEC
  0
SECTION
  2
OBJECTS
  0
DICTIONARY
  5
C
330
0
100
AcDbDictionary
281
     1
  3
ACAD_CIP_PREVIOUS_PRODUCT_INFO
350
20D
  3
ACAD_COLOR
350
79
  3
ACAD_DETAILVIEWSTYLE
350
212
  3
ACAD_GROUP
350
D
  3
ACAD_LAYOUT
350
1A
  3
ACAD_MATERIAL
350
78
  3
ACAD_MLEADERSTYLE
350
124
  3
ACAD_MLINESTYLE
350
17
  3
ACAD_PLOTSETTINGS
350
19
  3
ACAD_PLOTSTYLENAME
350
E
  3
ACAD_SCALELIST
350
103
  3
ACAD_SECTIONVIEWSTYLE
350
210
  3
ACAD_TABLESTYLE
350
97
  3
ACAD_VISUALSTYLE
350
E6
  3
ACDB_RECOMPOSE_DATA
350
3091
  3
AcDbVariableDictionary
350
67
  0
DICTIONARY
  5
1F6
330
2
100
AcDbDictionary
280
     1
281
     1
  3
ACAD_LAYERSTATES
360
1F7
  0
DICTIONARY
  5
133
330
10
100
AcDbDictionary
280
     1
281
     1
  0
DICTIONARY
  5
CEB
330
CEA
100
AcDbDictionary
280
     1
281
     1
  0
DICTIONARY
  5
1C5
330
1F
100
AcDbDictionary
280
     1
281
     1
  3
ACAD_SORTENTS
360
35E
  0
DICTIONARY
  5
2EFE
330
2EF1
100
AcDbDictionary
280
     1
281
     1
  3
ACAD_DIMASSOC
360
2F08
  0
DICTIONARY
  5
2F19
330
2F0C
100
AcDbDictionary
280
     1
281
     1
  3
ACAD_DIMASSOC
360
2F23
  0
DICTIONARY
  5
2F33
330
2F24
100
AcDbDictionary
280
     1
281
     1
  3
ACAD_DIMASSOC
360
2F3F
  0
DICTIONARY
  5
2F86
330
2F79
100
AcDbDictionary
280
     1
281
     1
  3
ACAD_DIMASSOC
360
2F90
  0
DICTIONARY
  5
2F9E
330
2F91
100
AcDbDictionary
280
     1
281
     1
  3
ACAD_DIMASSOC
360
2FA8
  0
DICTIONARY
  5
2FB7
330
2FA9
100
AcDbDictionary
280
     1
281
     1
  3
ACAD_DIMASSOC
360
2FC2
  0
DICTIONARY
  5
2FD0
330
2FC3
100
AcDbDictionary
280
     1
281
     1
  3
ACAD_DIMASSOC
360
2FDA
  0
DICTIONARY
  5
319
330
318
100
AcDbDictionary
280
     1
281
     1
  3
ASDK_XREC_ANNOTATION_SCALE_INFO
360
31A
  0
DICTIONARY
  5
31D
330
31C
100
AcDbDictionary
280
     1
281
     1
  3
ASDK_XREC_ANNOTATION_SCALE_INFO
360
31E
  0
XRECORD
  5
20D
102
{ACAD_REACTORS
330
C
102
}
330
C
100
AcDbXrecord
280
     1
300
ACDLT
300
2016
300
ACDLT_F_S
  0
DICTIONARY
  5
79
102
{ACAD_REACTORS
330
C
102
}
330
C
100
AcDbDictionary
281
     1
  0
DICTIONARY
  5
212
102
{ACAD_REACTORS
330
C
102
}
330
C
100
AcDbDictionary
281
     1
  3
Metric50
350
213
  0
DICTIONARY
  5
D
102
{ACAD_REACTORS
330
C
102
}
330
C
100
AcDbDictionary
281
     1
  0
DICTIONARY
  5
1A
102
{ACAD_REACTORS
330
C
102
}
330
C
100
AcDbDictionary
281
     1
  3
Model
350
22
  3
レイアウト1
350
D3
  3
レイアウト2
350
D7
  0
DICTIONARY
  5
78
102
{ACAD_REACTORS
330
C
102
}
330
C
100
AcDbDictionary
281
     1
  3
ByBlock
350
E4
  3
ByLayer
350
E3
  3
Global
350
E5
  0
DICTIONARY
  5
124
102
{ACAD_REACTORS
330
C
102
}
330
C
100
AcDbDictionary
281
     1
  3
Annotative
350
132
  3
Standard
350
125
  0
DICTIONARY
  5
17
102
{ACAD_REACTORS
330
C
102
}
330
C
100
AcDbDictionary
281
     1
  3
Standard
350
18
  0
DICTIONARY
  5
19
102
{ACAD_REACTORS
330
C
102
}
330
C
100
AcDbDictionary
281
     1
  0
ACDBDICTIONARYWDFLT
  5
E
102
{ACAD_REACTORS
330
C
102
}
330
C
100
AcDbDictionary
281
     1
  3
Normal
350
F
100
AcDbDictionaryWithDefault
340
F
  0
DICTIONARY
  5
103
102
{ACAD_REACTORS
330
C
102
}
330
C
100
AcDbDictionary
281
     1
  3
A0
350
104
  3
A1
350
1B5
  3
A2
350
1B6
  3
A3
350
1B7
  3
A4
350
1B8
  3
A5
350
1B9
  3
A6
350
1BA
  3
A7
350
1BB
  3
A8
350
1BC
  3
A9
350
1BD
  3
B0
350
1BE
  3
B1
350
1BF
  3
B2
350
1C0
  3
B3
350
1C1
  3
B4
350
1C2
  3
B5
350
1C3
  3
B6
350
1C4
  0
DICTIONARY
  5
210
102
{ACAD_REACTORS
330
C
102
}
330
C
100
AcDbDictionary
281
     1
  3
Metric50
350
211
  0
DICTIONARY
  5
97
102
{ACAD_REACTORS
330
C
102
}
330
C
100
AcDbDictionary
281
     1
  3
Standard
350
98
  0
DICTIONARY
  5
E6
102
{ACAD_REACTORS
330
C
102
}
330
C
100
AcDbDictionary
281
     1
  3
2dWireframe
350
EC
  3
Basic
350
EB
  3
Brighten
350
F2
  3
ColorChange
350
F6
  3
Conceptual
350
EF
  3
Dim
350
F1
  3
EdgeColorOff
350
1DD
  3
Facepattern
350
F5
  3
Flat
350
E7
  3
FlatWithEdges
350
E8
  3
Gouraud
350
E9
  3
GouraudWithEdges
350
EA
  3
Hidden
350
EE
  3
JitterOff
350
1DB
  3
Linepattern
350
F4
  3
OverhangOff
350
1DC
  3
Realistic
350
F0
  3
Shaded
350
1EA
  3
Shaded with edges
350
1E9
  3
Shades of Gray
350
1E6
  3
Sketchy
350
1E7
  3
Thicken
350
F3
  3
Wireframe
350
ED
  3
X-Ray
350
1E8
  0
XRECORD
  5
3091
102
{ACAD_REACTORS
330
C
102
}
330
C
100
AcDbXrecord
280
     1
 90
        1
330
98
330
211
330
213
330
1A69
330
1A6B
330
1A6D
330
1A6F
330
1A71
330
1A73
330
1A81
330
1AA9
330
2697
330
2698
330
2699
330
269A
330
269B
330
269C
330
269D
330
269E
330
269F
330
26A0
330
26A1
330
26A2
330
26A3
330
26A4
330
26A5
330
26A6
330
26A7
330
26A8
330
26AB
330
26AC
330
26AD
330
26AE
330
26AF
330
26B0
330
26B1
330
26B2
330
26B3
330
26B4
330
26B5
330
26C0
330
26C1
330
26C2
330
26C3
330
26C4
330
26C5
330
26C6
330
26C7
330
26C8
330
26C9
330
2722
330
2723
330
2A05
330
2A07
330
2A08
330
2A09
330
2AC3
  0
DICTIONARY
  5
67
102
{ACAD_REACTORS
330
C
102
}
330
C
100
AcDbDictionary
281
     1
  3
ANNOALLVISIBLE
350
1D65
  3
CANNOSCALE
350
13D
  3
CMLEADERSTYLE
350
13C
  3
CTABLESTYLE
350
C5
  3
CVIEWDETAILSTYLE
350
21E
  3
CVIEWSECTIONSTYLE
350
21F
  3
DIMASSOC
350
68
  3
EXPORTMODELSPACE
350
DA8
  3
HIDETEXT
350
6C
  3
LAYEREVAL
350
1A5
  3
LAYERNOTIFY
350
1A6
  0
DICTIONARY
  5
1F7
102
{ACAD_REACTORS
330
1F6
102
}
330
1F6
100
AcDbDictionary
281
     1
  0
SORTENTSTABLE
  5
35E
102
{ACAD_REACTORS
330
1C5
102
}
330
1C5
100
AcDbSortentsTable
330
1F
331
271A
  5
2A05
331
C17
  5
B52
331
2DCD
  5
2DDA
331
2D8E
  5
2D9B
331
C1F
  5
868
331
998
  5
911
331
139C
  5
840
331
2DD5
  5
2DE2
331
2D96
  5
2DA3
331
2DDD
  5
2DEA
331
2D9E
  5
2DAB
331
2DA6
  5
2DB3
331
1A60
  5
1A74
331
1A68
  5
1A7B
331
2EBA
  5
2EC1
331
2E40
  5
2E48
331
2E87
  5
2E8F
331
2EC2
  5
2EC9
331
2E48
  5
2E50
331
1A70
  5
1A83
331
26C9
  5
26D3
331
268A
  5
2694
331
2D53
  5
2D60
331
2D14
  5
2D21
331
2CDB
  5
2CE8
331
2C9C
  5
2CA9
331
2E50
  5
2E58
331
2E8F
  5
2E97
331
1A78
  5
1A8B
331
2667
  5
2671
331
2ECA
  5
2ED1
331
26D1
  5
26DB
331
2692
  5
269C
331
2D5B
  5
2D68
331
2D1C
  5
2D29
331
2CE3
  5
2CF0
331
2CA4
  5
2CB1
331
2E97
  5
2E9F
331
2ED2
  5
B26
331
2E58
  5
2E60
331
26D9
  5
26E3
331
269A
  5
26A4
331
2D63
  5
2D70
331
2D24
  5
2D31
331
2CEB
  5
2CF8
331
2CAC
  5
2CB9
331
2D2C
  5
2D39
331
2CB4
  5
2CC1
331
26A2
  5
26AC
331
26E3
  5
26ED
331
2722
  5
2C67
331
26EB
  5
26F5
331
9A0
  5
1A5C
331
26F3
  5
26FD
331
C25
  5
B54
331
26FB
  5
2705
331
1424
  5
90E
331
2DAE
  5
2DBB
331
2D6F
  5
2D7C
331
2DB6
  5
2DC3
331
2D77
  5
2D84
331
2D7F
  5
2D8C
331
2DBE
  5
2DCB
331
2D87
  5
2D94
331
2DC6
  5
2DD3
331
1A80
  5
1A93
331
2E60
  5
2E68
331
1AA8
  5
1C58
331
2E9B
  5
2EA3
331
2DE1
  5
2DEE
331
2E68
  5
2E70
331
2EA3
  5
2EAA
331
2DE9
  5
2E3B
331
1A51
  5
1A63
331
26AA
  5
26B4
331
2D34
  5
2D41
331
266B
  5
2675
331
2CF5
  5
2D02
331
2E70
  5
2E78
331
2C7D
  5
2C8A
331
2CBC
  5
2CC9
331
1A59
  5
1A6B
331
2EAB
  5
2EB2
331
26B2
  5
26BC
331
2673
  5
267D
331
2D3C
  5
2D49
331
2CC4
  5
2CD1
331
2CFD
  5
2D0A
331
2C85
  5
2C92
331
2E78
  5
2E80
331
2EB3
  5
2EBA
331
2E39
  5
908
331
26BA
  5
26C4
331
267B
  5
2685
331
2D44
  5
2D51
331
2CCC
  5
2CD9
331
2D05
  5
2D12
331
2C8D
  5
2C9A
331
26C2
  5
26CC
331
2D4C
  5
2D59
331
2CD4
  5
2CE1
331
2D0D
  5
2D1A
331
2C95
  5
2CA2
331
2683
  5
268D
331
2703
  5
270D
331
2C6A
  5
2C77
331
270B
  5
2715
331
2C72
  5
2C7F
331
2713
  5
271D
331
271B
  5
2A07
331
C18
  5
1A58
331
2DCE
  5
2DDB
331
2D8F
  5
2D9C
331
999
  5
910
331
139D
  5
83D
331
2DD6
  5
2DE3
331
2D97
  5
2DA4
331
2DDE
  5
2DEB
331
2D9F
  5
2DAC
331
2DA7
  5
2DB4
331
2128
  5
2664
331
1A61
  5
1A75
331
2E80
  5
2E88
331
1A69
  5
1A7C
331
2EBB
  5
2EC2
331
2E41
  5
2E49
331
2E88
  5
2E90
331
2EC3
  5
2ECA
331
2E49
  5
2E51
331
1A71
  5
1A84
331
26CA
  5
26D4
331
268B
  5
2695
331
2D54
  5
2D61
331
2D15
  5
2D22
331
2CDC
  5
2CE9
331
2C9D
  5
2CAA
331
2E51
  5
2E59
331
2E90
  5
2E98
331
1A79
  5
1A8C
331
2ECB
  5
2ED2
331
26D2
  5
26DC
331
2693
  5
269D
331
2D5C
  5
2D69
331
2D1D
  5
2D2A
331
2CE4
  5
2CF1
331
2CA5
  5
2CB2
331
2E59
  5
2E61
331
26DA
  5
26E4
331
269B
  5
26A5
331
2D64
  5
2D71
331
2D25
  5
2D32
331
2CEC
  5
2CF9
331
2CAD
  5
2CBA
331
2D2D
  5
2D3A
331
2CB5
  5
2CC2
331
26A3
  5
26AD
331
26E4
  5
26EE
331
2723
  5
2C68
331
26EC
  5
26F6
331
9A1
  5
1A5B
331
26F4
  5
26FE
331
2D68
  5
2D75
331
2AC3
  5
2C6D
331
26FC
  5
2706
331
2DAF
  5
2DBC
331
2D70
  5
2D7D
331
2DB7
  5
2DC4
331
2D78
  5
2D85
331
2D80
  5
2D8D
331
2DBF
  5
2DCC
331
2DC7
  5
2DD4
331
1A81
  5
1A94
331
2E61
  5
2E69
331
2EEB
  5
2EEB
331
1AA9
  5
1C59
331
1A4A
  5
B4E
331
2E9C
  5
2EA4
331
2DE2
  5
2E34
331
2E69
  5
2E71
331
2EA4
  5
2EAB
331
2DEA
  5
2E3C
331
1A52
  5
1A64
331
26AB
  5
26B5
331
2D35
  5
2D42
331
266C
  5
2676
331
2CF6
  5
2D03
331
2E71
  5
2E79
331
2C7E
  5
2C8B
331
2CBD
  5
2CCA
331
2109
  5
839
331
1A5A
  5
1A6E
331
2EAC
  5
2EB3
331
26B3
  5
26BD
331
2674
  5
267E
331
2D3D
  5
2D4A
331
2CC5
  5
2CD2
331
2CFE
  5
2D0B
331
2C86
  5
2C93
331
2E79
  5
2E81
331
2EB4
  5
2EBB
331
2E3A
  5
2E42
331
26BB
  5
26C5
331
267C
  5
2686
331
2D45
  5
2D52
331
2CCD
  5
2CDA
331
2D06
  5
2D13
331
2C8E
  5
2C9B
331
26C3
  5
26CD
331
2D4D
  5
2D5A
331
2CD5
  5
2CE2
331
2D0E
  5
2D1B
331
2C96
  5
2CA3
331
2684
  5
268E
331
2704
  5
270E
331
2C6B
  5
2C78
331
270C
  5
2716
331
2C73
  5
2C80
331
2714
  5
271E
331
2D88
  5
2D95
331
271C
  5
2A08
331
C19
  5
83C
331
2DCF
  5
2DDC
331
2D90
  5
2D9D
331
139E
  5
B25
331
2DD7
  5
2DE4
331
2D98
  5
2DA5
331
2DDF
  5
2DEC
331
2DA0
  5
2DAD
331
2129
  5
870
331
1A62
  5
1A76
331
2E81
  5
2E89
331
1A6A
  5
1A7D
331
2EBC
  5
2EC3
331
2E42
  5
2E4A
331
2E89
  5
2E91
331
2EC4
  5
2ECB
331
2E4A
  5
2E52
331
1A72
  5
1A85
331
26CB
  5
26D5
331
268C
  5
2696
331
2D55
  5
2D62
331
2D16
  5
2D23
331
2CDD
  5
2CEA
331
2C9E
  5
2CAB
331
2E52
  5
2E5A
331
2E91
  5
2E99
331
1A7A
  5
1A8D
331
2ECC
  5
2C74
331
26D3
  5
26DD
331
2694
  5
269E
331
2D5D
  5
2D6A
331
2D1E
  5
2D2B
331
2CE5
  5
2CF2
331
2CA6
  5
2CB3
331
2E5A
  5
2E62
331
26DB
  5
26E5
331
269C
  5
26A6
331
2D65
  5
2D72
331
2D26
  5
2D33
331
2CED
  5
2CFA
331
2CAE
  5
2CBB
331
2D2E
  5
2D3B
331
2CB6
  5
2CC3
331
26A4
  5
26AE
331
26E5
  5
26EF
331
26ED
  5
26F7
331
9A2
  5
1A5A
331
26F5
  5
26FF
331
C27
  5
1A54
331
2DA8
  5
2DB5
331
2D69
  5
2D76
331
26FD
  5
2707
331
2DB0
  5
2DBD
331
2D71
  5
2D7E
331
2DB8
  5
2DC5
331
2D79
  5
2D86
331
2D81
  5
2D8E
331
2DC0
  5
2DCD
331
1A82
  5
1A95
331
2E62
  5
2E6A
331
2EEC
  5
2EEC
331
1AAA
  5
1C5A
331
1A4B
  5
1A5D
331
2E9D
  5
2EA5
331
2DE3
  5
2E35
331
2E6A
  5
2E72
331
2EA5
  5
2EAC
331
2DEB
  5
2E3D
331
1A53
  5
1A65
331
26AC
  5
26B6
331
2D36
  5
2D43
331
266D
  5
2677
331
2CF7
  5
2D04
331
2E72
  5
2E7A
331
2C7F
  5
2C8C
331
2CBE
  5
2CCB
331
1A5B
  5
1A6F
331
2EAD
  5
2EB4
331
26B4
  5
26BE
331
2675
  5
267F
331
2D3E
  5
2D4B
331
2CC6
  5
2CD3
331
2CFF
  5
2D0C
331
2C87
  5
2C94
331
2E7A
  5
2E82
331
2EB5
  5
2EBC
331
2E3B
  5
2E43
331
26BC
  5
26C6
331
267D
  5
2687
331
2D46
  5
2D53
331
2CCE
  5
2CDB
331
2D07
  5
2D14
331
2C8F
  5
2C9C
331
26C4
  5
26CE
331
2D4E
  5
2D5B
331
2CD6
  5
2CE3
331
2D0F
  5
2D1C
331
2C97
  5
2CA4
331
2685
  5
268F
331
2C64
  5
2C6E
331
2705
  5
270F
331
2C6C
  5
2C79
331
270D
  5
2717
331
2C74
  5
2C81
331
2715
  5
271F
331
873
  5
B4F
331
2DC8
  5
2DD5
331
2D89
  5
2D96
331
271D
  5
2A09
331
C1A
  5
860
331
2DD0
  5
2DDD
331
2D91
  5
2D9E
331
196E
  5
86A
331
2DD8
  5
2DE5
331
2D99
  5
2DA6
331
2DA1
  5
2DAE
331
212A
  5
8C4
331
1A63
  5
1A77
331
2E82
  5
2E8A
331
2132
  5
B28
331
1A6B
  5
1A7E
331
2EBD
  5
2EC4
331
2E43
  5
2E4B
331
2E8A
  5
2E92
331
2EC5
  5
2ECC
331
2E4B
  5
2E53
331
1A73
  5
1A86
331
26CC
  5
26D6
331
268D
  5
2697
331
2D56
  5
2D63
331
2D17
  5
2D24
331
2CDE
  5
2CEB
331
2C9F
  5
2CAC
331
2E53
  5
2E5B
331
2E92
  5
2E9A
331
1A7B
  5
1A8E
331
2ECD
  5
2C73
331
26D4
  5
26DE
331
2695
  5
269F
331
2D5E
  5
2D6B
331
2D1F
  5
2D2C
331
2CE6
  5
2CF3
331
2CA7
  5
2CB4
331
2E5B
  5
2E63
331
26DC
  5
26E6
331
269D
  5
26A7
331
2D66
  5
2D73
331
2D27
  5
2D34
331
2CEE
  5
2CFB
331
2CAF
  5
2CBC
331
2D2F
  5
2D3C
331
2CB7
  5
2CC4
331
26A5
  5
26AF
331
26E6
  5
26F0
331
26EE
  5
26F8
331
2A05
  5
2C69
331
9A3
  5
1A59
331
26F6
  5
2700
331
2DA9
  5
2DB6
331
2D6A
  5
2D77
331
26FE
  5
2708
331
2DB1
  5
2DBE
331
7DC
  5
7DC
331
143F
  5
B23
331
2D72
  5
2D7F
331
2DB9
  5
2DC6
331
2D7A
  5
2D87
331
2D82
  5
2D8F
331
2DC1
  5
2DCE
331
1A83
  5
1A96
331
2E63
  5
2E6B
331
2EED
  5
2EED
331
1AAB
  5
1C5B
331
1A4C
  5
1A5E
331
2E9E
  5
2EA6
331
2DE4
  5
2E36
331
2CF0
  5
2CFD
331
2E6B
  5
2E73
331
2EA6
  5
2EAD
331
2DEC
  5
2E3E
331
2C78
  5
2C85
331
1A54
  5
1A66
331
26AD
  5
26B7
331
2D37
  5
2D44
331
266E
  5
2678
331
2CBF
  5
2CCC
331
2CF8
  5
2D05
331
2E73
  5
2E7B
331
2E34
  5
86B
331
1A5C
  5
1A70
331
2EAE
  5
2EB5
331
2C80
  5
2C8D
331
26B5
  5
26BF
331
2676
  5
2680
331
2D3F
  5
2D4C
331
2CC7
  5
2CD4
331
2D00
  5
2D0D
331
2C88
  5
2C95
331
2E7B
  5
2E83
331
2EB6
  5
2EBD
331
2E3C
  5
2E44
331
26BD
  5
26C7
331
267E
  5
2688
331
2D47
  5
2D54
331
2CCF
  5
2CDC
331
2D08
  5
2D15
331
2C90
  5
2C9D
331
26C5
  5
26CF
331
2D4F
  5
2D5C
331
2CD7
  5
2CE4
331
2686
  5
2690
331
2C65
  5
2C6F
331
2706
  5
2710
331
2C6D
  5
2C7A
331
270E
  5
2718
331
7E4
  5
B21
331
2C75
  5
2C82
331
2716
  5
2720
331
2DC9
  5
2DD6
331
2D8A
  5
2D97
331
271E
  5
2AC3
331
C1B
  5
861
331
1967
  5
869
331
2DD1
  5
2DDE
331
2D92
  5
2D9F
331
2DD9
  5
2DE6
331
2D9A
  5
2DA7
331
2DA2
  5
2DAF
331
212B
  5
909
331
2E83
  5
2E8B
331
2133
  5
B29
331
1A6C
  5
1A7F
331
2EBE
  5
2EC5
331
2E44
  5
2E4C
331
2D10
  5
2D1D
331
2E8B
  5
2E93
331
2EC6
  5
2ECD
331
2E4C
  5
2E54
331
1A74
  5
1A87
331
2C98
  5
2CA5
331
26CD
  5
26D7
331
268E
  5
2698
331
2D57
  5
2D64
331
2D18
  5
2D25
331
2CDF
  5
2CEC
331
2CA0
  5
2CAD
331
2E54
  5
2E5C
331
2E93
  5
2E9B
331
1A7C
  5
1A8F
331
2ECE
  5
2C72
331
26D5
  5
26DF
331
2696
  5
26A0
331
2D5F
  5
2D6C
331
2D20
  5
2D2D
331
2CE7
  5
2CF4
331
2CA8
  5
2CB5
331
2E5C
  5
2E64
331
269E
  5
26A8
331
2D67
  5
2D74
331
2D28
  5
2D35
331
2CEF
  5
2CFC
331
2CB0
  5
2CBD
331
26DD
  5
26E7
331
26A6
  5
26B0
331
26E7
  5
26F1
331
C21
  5
867
331
26EF
  5
26F9
331
26F7
  5
2701
331
2DAA
  5
2DB7
331
2D6B
  5
2D78
331
26FF
  5
2709
331
2DB2
  5
2DBF
331
1440
  5
B24
331
2D73
  5
2D80
331
2DBA
  5
2DC7
331
2D7B
  5
2D88
331
2D83
  5
2D90
331
2DC2
  5
2DCF
331
2E64
  5
2E6C
331
2EEE
  5
2EEE
331
1A4D
  5
1A5F
331
2E9F
  5
2EA7
331
2DE5
  5
2E37
331
2D30
  5
2D3D
331
2CF1
  5
2CFE
331
2E6C
  5
2E74
331
2EA7
  5
2EAE
331
2DED
  5
2E3F
331
2C79
  5
2C86
331
1A55
  5
1A67
331
2CB8
  5
2CC5
331
26AE
  5
26B8
331
2D38
  5
2D45
331
266F
  5
2679
331
2CC0
  5
2CCD
331
2CF9
  5
2D06
331
2E74
  5
2E7C
331
2E35
  5
2E41
331
1A5D
  5
1A71
331
2EAF
  5
2EB6
331
2C81
  5
2C8E
331
26B6
  5
26C0
331
2677
  5
2681
331
2D40
  5
2D4D
331
2CC8
  5
2CD5
331
2D01
  5
2D0E
331
2C89
  5
2C96
331
2E7C
  5
2E84
331
2EB7
  5
2EBE
331
2E3D
  5
2E45
331
267F
  5
2689
331
2D48
  5
2D55
331
2CD0
  5
2CDD
331
2D09
  5
2D16
331
2C91
  5
2C9E
331
26BE
  5
26C8
331
26C6
  5
26D0
331
2687
  5
2691
331
2C66
  5
2C70
331
2707
  5
2711
331
2C6E
  5
2C7B
331
270F
  5
2719
331
7E5
  5
90F
331
2C76
  5
2C83
331
2717
  5
2721
331
2DCA
  5
2DD7
331
2D8B
  5
2D98
331
C1C
  5
83E
331
271F
  5
2C64
331
93D
  5
90B
331
1968
  5
86F
331
2DD2
  5
2DDF
331
2D93
  5
2DA0
331
2D9B
  5
2DA8
331
2DDA
  5
2DE7
331
2DA3
  5
2DB0
331
212C
  5
90A
331
1A65
  5
1A78
331
2E84
  5
2E8C
331
1A6D
  5
1A80
331
2EBF
  5
2EC6
331
2E45
  5
2E4D
331
2D50
  5
2D5D
331
2D11
  5
2D1E
331
2CD8
  5
2CE5
331
2C99
  5
2CA6
331
2EC7
  5
2ECE
331
2E4D
  5
2E55
331
1A75
  5
1A88
331
2664
  5
266E
331
2E8C
  5
2E94
331
26CE
  5
26D8
331
268F
  5
2699
331
2D58
  5
2D65
331
2D19
  5
2D26
331
2CE0
  5
2CED
331
2CA1
  5
2CAE
331
2E55
  5
2E5D
331
2E94
  5
2E9C
331
1A7D
  5
1A90
331
2ECF
  5
86C
331
26D6
  5
26E0
331
2697
  5
26A1
331
2D60
  5
2D6D
331
2D21
  5
2D2E
331
2CE8
  5
2CF5
331
2CA9
  5
2CB6
331
2E5D
  5
2E65
331
26DE
  5
26E8
331
2D29
  5
2D36
331
2CB1
  5
2CBE
331
269F
  5
26A9
331
26A7
  5
26B1
331
26E0
  5
26EA
331
26E8
  5
26F2
331
13A9
  5
865
331
C22
  5
B55
331
26F0
  5
26FA
331
2A07
  5
2C6A
331
26F8
  5
2702
331
C42
  5
1A57
331
2DAB
  5
2DB8
331
2D6C
  5
2D79
331
9C5
  5
7E5
331
2DB3
  5
2DC0
331
2D74
  5
2D81
331
2D7C
  5
2D89
331
2DBB
  5
2DC8
331
2D84
  5
2D91
331
2DC3
  5
2DD0
331
2E98
  5
2EA0
331
2E65
  5
2E6D
331
1A4E
  5
1A60
331
2EA0
  5
86E
331
2EEF
  5
2EEF
331
2DE6
  5
2E38
331
2D31
  5
2D3E
331
2668
  5
2672
331
2CF2
  5
2CFF
331
2E6D
  5
2E75
331
2EA8
  5
2EAF
331
2DEE
  5
2E40
331
2C7A
  5
2C87
331
1A56
  5
1A68
331
2CB9
  5
2CC6
331
26AF
  5
26B9
331
2670
  5
267A
331
2D39
  5
2D46
331
2CC1
  5
2CCE
331
2CFA
  5
2D07
331
2C82
  5
2C8F
331
2E36
  5
8C5
331
1A5E
  5
1A72
331
2EB0
  5
2EB7
331
2E75
  5
2E7D
331
26B7
  5
26C1
331
2678
  5
2682
331
2D41
  5
2D4E
331
2CC9
  5
2CD6
331
2D02
  5
2D0F
331
2C8A
  5
2C97
331
2E7D
  5
2E85
331
2E3E
  5
2E46
331
26BF
  5
26C9
331
2D49
  5
2D56
331
2CD1
  5
2CDE
331
2D0A
  5
2D17
331
2C92
  5
2C9F
331
2680
  5
268A
331
26C7
  5
26D1
331
2700
  5
270A
331
2C67
  5
2C71
331
2708
  5
2712
331
2C6F
  5
2C7C
331
2710
  5
271A
331
7E6
  5
83B
331
2C77
  5
2C84
331
2718
  5
2722
331
2DCB
  5
2DD8
331
2D8C
  5
2D99
331
139A
  5
83F
331
2DD3
  5
2DE0
331
2D94
  5
2DA1
331
13A2
  5
862
331
2DDB
  5
2DE8
331
2D9C
  5
2DA9
331
2DA4
  5
2DB1
331
1A66
  5
1A79
331
2EB8
  5
2EBF
331
2E85
  5
2E8D
331
2EC0
  5
2EC7
331
2E46
  5
2E4E
331
1A6E
  5
1A81
331
2688
  5
2692
331
2D51
  5
2D5E
331
2D12
  5
2D1F
331
2CD9
  5
2CE6
331
2C9A
  5
2CA7
331
2EC8
  5
2ECF
331
2E4E
  5
2E56
331
1A76
  5
1A89
331
2665
  5
266F
331
2E8D
  5
2E95
331
26CF
  5
26D9
331
2690
  5
269A
331
2D59
  5
2D66
331
2D1A
  5
2D27
331
2CE1
  5
2CEE
331
2CA2
  5
2CAF
331
2E95
  5
2E9D
331
1A7E
  5
1A91
331
2ED0
  5
86D
331
2E56
  5
2E5E
331
26D7
  5
26E1
331
2698
  5
26A2
331
2D61
  5
2D6E
331
2D22
  5
2D2F
331
2CE9
  5
2CF6
331
2CAA
  5
2CB7
331
2E5E
  5
2E66
331
26DF
  5
26E9
331
2D2A
  5
2D37
331
2CB2
  5
2CBF
331
26A0
  5
26AA
331
26E1
  5
26EB
331
2720
  5
2C65
331
26E9
  5
26F3
331
C23
  5
1A53
331
26F1
  5
26FB
331
2A08
  5
2C6B
331
9A6
  5
B51
331
13AA
  5
864
331
26F9
  5
2703
331
9BE
  5
831
331
C43
  5
1A56
331
2DAC
  5
2DB9
331
2D6D
  5
2D7A
331
2DB4
  5
2DC1
331
2D75
  5
2D82
331
2D7D
  5
2D8A
331
2DBC
  5
2DC9
331
2D85
  5
2D92
331
2DC4
  5
2DD1
331
1A0F
  5
B27
331
2E99
  5
2EA1
331
2E66
  5
2E6E
331
2EA1
  5
2EA8
331
2DE7
  5
2E39
331
1A4F
  5
1A61
331
26A8
  5
26B2
331
2D32
  5
2D3F
331
2669
  5
2673
331
2CF3
  5
2D00
331
2EA9
  5
2EB0
331
2E6E
  5
2E76
331
2C7B
  5
2C88
331
1A57
  5
1A69
331
2CBA
  5
2CC7
331
26B0
  5
26BA
331
2671
  5
267B
331
2D3A
  5
2D47
331
2CC2
  5
2CCF
331
2CFB
  5
2D08
331
2C83
  5
2C90
331
2E76
  5
2E7E
331
1A5F
  5
1A73
331
2EB1
  5
2EB8
331
2E37
  5
8C7
331
26B8
  5
26C2
331
2679
  5
2683
331
2D42
  5
2D4F
331
2CCA
  5
2CD7
331
2D03
  5
2D10
331
2C8B
  5
2C98
331
2E7E
  5
2E86
331
2E3F
  5
2E47
331
26C0
  5
26CA
331
2D4A
  5
2D57
331
2CD2
  5
2CDF
331
2D0B
  5
2D18
331
2C93
  5
2CA0
331
2681
  5
268B
331
2701
  5
270B
331
2C68
  5
2C75
331
2709
  5
2713
331
2C70
  5
2C7D
331
2711
  5
271B
331
2719
  5
2723
331
2DCC
  5
2DD9
331
2D8D
  5
2D9A
331
C1E
  5
866
331
139B
  5
B22
331
2DD4
  5
2DE1
331
2D95
  5
2DA2
331
99F
  5
830
331
13A3
  5
863
331
2DDC
  5
2DE9
331
2D9D
  5
2DAA
331
2DA5
  5
2DB2
331
212E
  5
8BA
331
2EB9
  5
2EC0
331
2E86
  5
2E8E
331
2EC1
  5
2EC8
331
2E47
  5
2E4F
331
1A6F
  5
1A82
331
26C8
  5
26D2
331
2689
  5
2693
331
2D52
  5
2D5F
331
2D13
  5
2D20
331
2CDA
  5
2CE7
331
2C9B
  5
2CA8
331
2EC9
  5
2ED0
331
2E4F
  5
2E57
331
1A77
  5
1A8A
331
2666
  5
2670
331
2E8E
  5
2E96
331
26D0
  5
26DA
331
2691
  5
269B
331
2D5A
  5
2D67
331
2D1B
  5
2D28
331
2CE2
  5
2CEF
331
2CA3
  5
2CB0
331
2E96
  5
2E9E
331
1A7F
  5
1A92
331
2ED1
  5
8C6
331
2E57
  5
2E5F
331
26D8
  5
26E2
331
2699
  5
26A3
331
2D62
  5
2D6F
331
2D23
  5
2D30
331
2CEA
  5
2CF7
331
2CAB
  5
2CB8
331
2E5F
  5
2E67
331
2D2B
  5
2D38
331
2CB3
  5
2CC0
331
26A1
  5
26AB
331
26E2
  5
26EC
331
2721
  5
2C66
331
26EA
  5
26F4
331
26F2
  5
26FC
331
2A09
  5
2C6C
331
9A7
  5
B50
331
C24
  5
B53
331
1423
  5
90C
331
26FA
  5
2704
331
C44
  5
1A55
331
2DAD
  5
2DBA
331
2D6E
  5
2D7B
331
2DB5
  5
2DC2
331
2D76
  5
2D83
331
2D7E
  5
2D8B
331
2DBD
  5
2DCA
331
2D86
  5
2D93
331
2DC5
  5
2DD2
331
2E9A
  5
2EA2
331
2DE0
  5
2DED
331
2EA2
  5
2EA9
331
2DE8
  5
2E3A
331
2E67
  5
2E6F
331
1A50
  5
1A62
331
26A9
  5
26B3
331
2D33
  5
2D40
331
266A
  5
2674
331
2CF4
  5
2D01
331
2EAA
  5
2EB1
331
2E6F
  5
2E77
331
2C7C
  5
2C89
331
1A58
  5
1A6A
331
2CBB
  5
2CC8
331
26B1
  5
26BB
331
2672
  5
267C
331
2D3B
  5
2D48
331
2CC3
  5
2CD0
331
2CFC
  5
2D09
331
2C84
  5
2C91
331
2E77
  5
2E7F
331
2EB2
  5
2EB9
331
2E38
  5
906
331
26B9
  5
26C3
331
267A
  5
2684
331
2D43
  5
2D50
331
2CCB
  5
2CD8
331
2D04
  5
2D11
331
2C8C
  5
2C99
331
2E7F
  5
2E87
331
26C1
  5
26CB
331
2D4B
  5
2D58
331
2CD3
  5
2CE0
331
2D0C
  5
2D19
331
2C94
  5
2CA1
331
2682
  5
268C
331
2702
  5
270C
331
2C69
  5
2C76
331
270A
  5
2714
331
2C71
  5
2C7E
331
2712
  5
271C
331
1933
  5
83A
  0
DIMASSOC
  5
2F08
102
{ACAD_REACTORS
330
2EFE
102
}
330
2EFE
100
AcDbDimAssoc
330
2EF1
 90
        3
 70
     0
 71
     0
  1
AcDbOsnapPointRef
 72
     2
331
2CB5
 73
     2
 91
        0
 40
0.5000000000000001
 10
36250.52572567998
 20
27947.56022196136
 30
0.0
 75
     0
  1
AcDbOsnapPointRef
 72
     2
331
2CCC
 73
     2
 91
        0
 40
0.5000000000000001
 10
36924.52572567998
 20
27947.56022196136
 30
0.0
 75
     0
  0
DIMASSOC
  5
2F23
102
{ACAD_REACTORS
330
2F19
102
}
330
2F19
100
AcDbDimAssoc
330
2F0C
 90
        3
 70
     0
 71
     0
  1
AcDbOsnapPointRef
 72
    13
331
2C66
 73
     2
 91
        0
 40
0.0
 10
36923.52572567997
 20
27657.43328338066
 30
0.0
 75
     0
  1
AcDbOsnapPointRef
 72
     1
331
2C84
 73
     2
 91
        0
 40
1.0
 10
36923.52572567997
 20
27709.43328338066
 30
0.0
 75
     0
  0
DIMASSOC
  5
2F3F
102
{ACAD_REACTORS
330
2F33
102
}
330
2F33
100
AcDbDimAssoc
330
2F24
 90
        3
 70
     0
 71
     0
  1
AcDbOsnapPointRef
 72
    13
331
2C66
 73
     2
 91
        0
 40
0.0
 10
36923.52572567997
 20
27657.43328338066
 30
0.0
 75
     0
  1
AcDbOsnapPointRef
 72
    13
331
2CA4
 73
     2
 91
        0
 40
4.712388980384689
 10
36884.52572567998
 20
27653.43328338066
 30
0.0
 75
     0
  0
DIMASSOC
  5
2F90
102
{ACAD_REACTORS
330
2F86
102
}
330
2F86
100
AcDbDimAssoc
330
2F79
 90
        3
 70
     0
 71
     0
  1
AcDbOsnapPointRef
 72
     2
331
2DB1
 73
     2
 91
        0
 40
7.853981633974482
 10
37143.36009793722
 20
27709.43328372968
 30
0.0
 75
     0
  1
AcDbOsnapPointRef
 72
     2
331
2DCF
 73
     2
 91
        0
 40
0.5
 10
37143.36009793722
 20
27653.43328372968
 30
0.0
 75
     0
  0
DIMASSOC
  5
2FA8
102
{ACAD_REACTORS
330
2F9E
102
}
330
2F9E
100
AcDbDimAssoc
330
2F91
 90
        3
 70
     0
 71
     0
  1
AcDbOsnapPointRef
 72
    13
331
2F5C
 73
     2
 91
        0
 40
0.0
 10
37074.56009793722
 20
27677.43328372968
 30
0.0
 75
     0
  1
AcDbOsnapPointRef
 72
     6
331
2F56
 73
     2
 91
        0
 40
0.1382675908030744
 10
37143.36009793722
 20
27709.43328372968
 30
0.0
332
2DB1
 74
     2
 92
        0
 75
     0
  0
DIMASSOC
  5
2FC2
102
{ACAD_REACTORS
330
2FB7
102
}
330
2FB7
100
AcDbDimAssoc
330
2FA9
 90
        3
 70
     0
 71
     0
  1
AcDbOsnapPointRef
 72
     2
331
2DB1
 73
     2
 91
        0
 40
7.853981633974482
 10
37143.36009793722
 20
27709.43328372968
 30
0.0
 75
     0
  1
AcDbOsnapPointRef
 72
     1
331
2DB0
 73
     2
 91
        0
 40
1.0
 10
37159.36009793722
 20
27693.18328373077
 30
0.0
 75
     0
  0
DIMASSOC
  5
2FDA
102
{ACAD_REACTORS
330
2FD0
102
}
330
2FD0
100
AcDbDimAssoc
330
2FC3
 90
        3
 70
     0
 71
     0
  1
AcDbOsnapPointRef
 72
    13
331
2DB1
 73
     2
 91
        0
 40
6.267681741756868
 10
37159.36009793721
 20
27693.18328372971
 30
0.0
 75
     0
  1
AcDbOsnapPointRef
 72
    13
331
2F5C
 73
     2
 91
        0
 40
0.0
 10
37074.56009793722
 20
27677.43328372968
 30
0.0
 75
     0
  0
XRECORD
  5
31A
102
{ACAD_REACTORS
330
319
102
}
330
319
100
AcDbXrecord
280
     1
 90
        1
340
104
  0
XRECORD
  5
31E
102
{ACAD_REACTORS
330
31D
102
}
330
31D
100
AcDbXrecord
280
     1
 90
        1
340
104
  0
ACDBDETAILVIEWSTYLE
  5
213
102
{ACAD_XDICTIONARY
360
22D
102
}
102
{ACAD_REACTORS
330
212
102
}
330
212
100
AcDbModelDocViewStyle
 70
     0
  3
Metric50
290
     0
100
AcDbDetailViewStyle
 70
     0
 71
     0
 90
        3
 71
     1
340
11
 62
   256
 40
5.0
340
0
 62
   256
 40
5.0
300

 40
0.0
280
     1
 71
     2
340
16
 90
       25
 62
   256
 71
     3
340
11
 62
   256
 40
5.0
 90
        0
 40
15.0
 90
        1
300
%<\AcVar ViewDetailId>% (%<\AcVar ViewScale \f "%sn">%)
 71
     4
340
16
 90
       25
 62
   256
340
16
 90
       25
 62
   256
280
     0
  0
LAYOUT
  5
22
102
{ACAD_XDICTIONARY
360
1FC
102
}
102
{ACAD_REACTORS
330
1A
102
}
330
1A
100
AcDbPlotSettings
  1

  2
Kyocera TASKalfa 3252ci(J) KX
  4
A3
  6

 40
4.984749794006347
 41
5.111724853515625
 42
5.154083251953125
 43
4.9847412109375
 44
297.0106506347656
 45
419.9889831542968
 46
0.0
 47
0.0
 48
0.0
 49
0.0
140
0.0
141
0.0
142
1.0
143
9.806410578662045
 70
 11952
 72
     1
 73
     1
 74
     0
  7
monochrome.stb
 75
     0
147
0.1019741109122964
 76
     0
 77
     2
 78
   300
148
-32876.12478992212
149
-27320.92452532269
100
AcDbLayout
  1
Model
 70
     1
 71
     0
 10
0.0
 20
0.0
 11
12.0
 21
9.0
 12
0.0
 22
0.0
 32
0.0
 14
0.0
 24
0.0
 34
0.0
 15
0.0
 25
0.0
 35
0.0
146
0.0
 13
0.0
 23
0.0
 33
0.0
 16
1.0
 26
0.0
 36
0.0
 17
0.0
 27
1.0
 37
0.0
 76
     0
330
1F
331
E1
1001
ACAD_PSEXT
1000
Kyocera TASKalfa 3252ci(J) KX
1000
Kyocera TASKalfa 3252ci(J) KX
1000
192.168.11.123
1000

1070
     0
  0
LAYOUT
  5
D3
102
{ACAD_REACTORS
330
1A
102
}
330
1A
100
AcDbPlotSettings
  1

  2
Kyocera TASKalfa 3050ci(J) KX
  4
A3
  6

 40
4.984749794006347
 41
5.111724853515625
 42
5.154083251953125
 43
4.9847412109375
 44
297.0106506347656
 45
419.9889831542968
 46
0.0
 47
0.0
 48
0.0
 49
0.0
140
0.0
141
0.0
142
1.0
143
1.0
 70
   688
 72
     1
 73
     1
 74
     5
  7
monochrome.stb
 75
    16
147
1.0
 76
     0
 77
     2
 78
   300
148
0.0
149
0.0
100
AcDbLayout
  1
レイアウト1
 70
     1
 71
     1
 10
-4.9847412109375
 20
-4.984749794006347
 11
415.0042419433593
 21
292.0259008407593
 12
0.0
 22
0.0
 32
0.0
 14
25.69999999999999
 24
19.5
 34
0.0
 15
231.3
 25
175.5
 35
0.0
146
0.0
 13
0.0
 23
0.0
 33
0.0
 16
1.0
 26
0.0
 36
0.0
 17
0.0
 27
1.0
 37
0.0
 76
     0
330
D2
331
318
1001
ACAD_PSEXT
1000
Kyocera TASKalfa 3050ci(J) KX
1000
Kyocera TASKalfa 3050ci(J) KX
1000
192.168.11.123
1000

1070
     0
  0
LAYOUT
  5
D7
102
{ACAD_REACTORS
330
1A
102
}
330
1A
100
AcDbPlotSettings
  1

  2
C:\Documents and Settings\basas\Application Data\Autodesk\AutoCAD 2005\R16.1\enu\plotters\Default Windows System Printer.pc3
  4

  6

 40
0.0
 41
0.0
 42
0.0
 43
0.0
 44
0.0
 45
0.0
 46
0.0
 47
0.0
 48
0.0
 49
0.0
140
0.0
141
0.0
142
1.0
143
1.0
 70
   688
 72
     0
 73
     0
 74
     5
  7
monochrome.stb
 75
    16
147
1.0
 76
     0
 77
     2
 78
   300
148
0.0
149
0.0
100
AcDbLayout
  1
レイアウト2
 70
     1
 71
     2
 10
0.0
 20
0.0
 11
12.0
 21
9.0
 12
0.0
 22
0.0
 32
0.0
 14
0.0
 24
0.0
 34
0.0
 15
0.0
 25
0.0
 35
0.0
146
0.0
 13
0.0
 23
0.0
 33
0.0
 16
1.0
 26
0.0
 36
0.0
 17
0.0
 27
1.0
 37
0.0
 76
     0
330
D6
  0
MATERIAL
  5
E4
102
{ACAD_XDICTIONARY
360
1F0
102
}
102
{ACAD_REACTORS
330
78
102
}
330
78
100
AcDbMaterial
  1
ByBlock
 94
       63
  0
MATERIAL
  5
E3
102
{ACAD_XDICTIONARY
360
1EE
102
}
102
{ACAD_REACTORS
330
78
102
}
330
78
100
AcDbMaterial
  1
ByLayer
 94
       63
  0
MATERIAL
  5
E5
102
{ACAD_XDICTIONARY
360
16A
102
}
102
{ACAD_REACTORS
330
78
102
}
330
78
100
AcDbMaterial
  1
Global
 43
0.0007999999797903
 43
0.0
 43
0.0
 43
0.0
 43
0.0
 43
0.0007999999797903
 43
0.0
 43
0.0
 43
0.0
 43
0.0
 43
1.0
 43
0.0
 43
0.0
 43
0.0
 43
0.0
 43
1.0
 49
0.0007999999797903
 49
0.0
 49
0.0
 49
0.0
 49
0.0
 49
0.0007999999797903
 49
0.0
 49
0.0
 49
0.0
 49
0.0
 49
1.0
 49
0.0
 49
0.0
 49
0.0
 49
0.0
 49
1.0
142
0.0007999999797903
142
0.0
142
0.0
142
0.0
142
0.0
142
0.0007999999797903
142
0.0
142
0.0
142
0.0
142
0.0
142
1.0
142
0.0
142
0.0
142
0.0
142
0.0
142
1.0
144
0.0007999999797903
144
0.0
144
0.0
144
0.0
144
0.0
144
0.0007999999797903
144
0.0
144
0.0
144
0.0
144
0.0
144
1.0
144
0.0
144
0.0
144
0.0
144
0.0
144
1.0
 94
       63
1001
ACAD
1070
    -1
1070
     3
1070
     0
1000

1071
        0
1070
     0
  0
MLEADERSTYLE
  5
132
102
{ACAD_REACTORS
330
124
102
}
330
124
100
AcDbMLeaderStyle
179
     2
170
     2
171
     1
172
     0
 90
        2
 40
0.0
 41
0.0
173
     1
 91
-1056964608
340
14
 92
       -2
290
     1
 42
2.0
291
     1
 43
8.0
  3
Standard
 44
4.0
300

342
11
174
     1
178
     1
175
     1
176
     0
 93
-1056964608
 45
4.0
292
     0
297
     0
 46
4.0
 94
-1056964608
 47
1.0
 49
1.0
140
1.0
293
     1
141
0.0
294
     1
177
     0
142
1.0
295
     0
296
     1
143
3.75
271
     0
272
     9
273
     9
298
     0
  0
MLEADERSTYLE
  5
125
102
{ACAD_REACTORS
330
124
102
}
330
124
100
AcDbMLeaderStyle
179
     2
170
     2
171
     1
172
     0
 90
        2
 40
0.0
 41
0.0
173
     1
 91
-1056964608
340
14
 92
       -2
290
     1
 42
2.0
291
     1
 43
8.0
  3
Standard
 44
4.0
300

342
11
174
     1
178
     1
175
     1
176
     0
 93
-1056964608
 45
4.0
292
     0
297
     0
 46
4.0
 94
-1056964608
 47
1.0
 49
1.0
140
1.0
293
     1
141
0.0
294
     1
177
     0
142
1.0
295
     0
296
     0
143
3.75
271
     0
272
     9
273
     9
298
     0
  0
MLINESTYLE
  5
18
102
{ACAD_REACTORS
330
17
102
}
330
17
100
AcDbMlineStyle
  2
STANDARD
 70
     0
  3

 62
   256
 51
90.0
 52
90.0
 71
     2
 49
0.5
 62
   256
  6
BYLAYER
 49
-0.5
 62
   256
  6
BYLAYER
  0
ACDBPLACEHOLDER
  5
F
102
{ACAD_REACTORS
330
E
102
}
330
E
  0
SCALE
  5
104
102
{ACAD_REACTORS
330
103
102
}
330
103
100
AcDbScale
 70
     0
300
1:1
140
1.0
141
1.0
290
     1
  0
SCALE
  5
1B5
102
{ACAD_REACTORS
330
103
102
}
330
103
100
AcDbScale
 70
     0
300
1:2
140
1.0
141
2.0
290
     0
  0
SCALE
  5
1B6
102
{ACAD_REACTORS
330
103
102
}
330
103
100
AcDbScale
 70
     0
300
1:4
140
1.0
141
4.0
290
     0
  0
SCALE
  5
1B7
102
{ACAD_REACTORS
330
103
102
}
330
103
100
AcDbScale
 70
     0
300
1:5
140
1.0
141
5.0
290
     0
  0
SCALE
  5
1B8
102
{ACAD_REACTORS
330
103
102
}
330
103
100
AcDbScale
 70
     0
300
1:8
140
1.0
141
8.0
290
     0
  0
SCALE
  5
1B9
102
{ACAD_REACTORS
330
103
102
}
330
103
100
AcDbScale
 70
     0
300
1:10
140
1.0
141
10.0
290
     0
  0
SCALE
  5
1BA
102
{ACAD_REACTORS
330
103
102
}
330
103
100
AcDbScale
 70
     0
300
1:16
140
1.0
141
16.0
290
     0
  0
SCALE
  5
1BB
102
{ACAD_REACTORS
330
103
102
}
330
103
100
AcDbScale
 70
     0
300
1:20
140
1.0
141
20.0
290
     0
  0
SCALE
  5
1BC
102
{ACAD_REACTORS
330
103
102
}
330
103
100
AcDbScale
 70
     0
300
1:30
140
1.0
141
30.0
290
     0
  0
SCALE
  5
1BD
102
{ACAD_REACTORS
330
103
102
}
330
103
100
AcDbScale
 70
     0
300
1:40
140
1.0
141
40.0
290
     0
  0
SCALE
  5
1BE
102
{ACAD_REACTORS
330
103
102
}
330
103
100
AcDbScale
 70
     0
300
1:50
140
1.0
141
50.0
290
     0
  0
SCALE
  5
1BF
102
{ACAD_REACTORS
330
103
102
}
330
103
100
AcDbScale
 70
     0
300
1:100
140
1.0
141
100.0
290
     0
  0
SCALE
  5
1C0
102
{ACAD_REACTORS
330
103
102
}
330
103
100
AcDbScale
 70
     0
300
2:1
140
2.0
141
1.0
290
     0
  0
SCALE
  5
1C1
102
{ACAD_REACTORS
330
103
102
}
330
103
100
AcDbScale
 70
     0
300
4:1
140
4.0
141
1.0
290
     0
  0
SCALE
  5
1C2
102
{ACAD_REACTORS
330
103
102
}
330
103
100
AcDbScale
 70
     0
300
8:1
140
8.0
141
1.0
290
     0
  0
SCALE
  5
1C3
102
{ACAD_REACTORS
330
103
102
}
330
103
100
AcDbScale
 70
     0
300
10:1
140
10.0
141
1.0
290
     0
  0
SCALE
  5
1C4
102
{ACAD_REACTORS
330
103
102
}
330
103
100
AcDbScale
 70
     0
300
100:1
140
100.0
141
1.0
290
     0
  0
ACDBSECTIONVIEWSTYLE
  5
211
102
{ACAD_XDICTIONARY
360
22B
102
}
102
{ACAD_REACTORS
330
210
102
}
330
210
100
AcDbModelDocViewStyle
 70
     0
  3
Metric50
290
     0
100
AcDbSectionViewStyle
 70
     0
 71
     0
 90
      102
 71
     1
340
11
 62
   256
 40
5.0
340
0
340
0
 62
   256
 40
5.0
300
I, O, Q, S, X, Z
 40
10.0
 90
        0
 40
2.5
 90
        0
 71
     2
340
16
 90
       25
 62
   256
340
16
 90
       50
 62
   256
 40
5.0
 40
2.5
 40
5.0
 71
     3
340
11
 62
   256
 40
5.0
 90
        0
 40
15.0
 90
        1
300
%<\AcVar ViewSectionStartId>%-%<\AcVar ViewSectionEndId>% (%<\AcVar ViewScale \f "%sn">%)
 71
     4
 62
   256
 62
   257
300
ANSI31
 40
1.0
 90
        0
290
     0
290
     0
 90
        6
 40
0.0
 40
1.570796326794896
 40
0.2617993877991494
 40
1.308996938995747
 40
-0.2617993877991494
 40
1.832595714594046
  0
TABLESTYLE
  5
98
102
{ACAD_XDICTIONARY
360
159
102
}
102
{ACAD_REACTORS
330
97
102
}
330
97
100
AcDbTableStyle
280
     0
  3
Standard
 70
     0
 71
     0
 40
1.5
 41
1.5
280
     0
281
     0
  7
Standard
140
4.5
170
     2
 62
     0
 63
     7
283
     0
 90
      512
 91
        0
  1

274
    -2
284
     1
 64
     0
275
    -2
285
     1
 65
     0
276
    -2
286
     1
 66
     0
277
    -2
287
     1
 67
     0
278
    -2
288
     1
 68
     0
279
    -2
289
     1
 69
     0
  7
Standard
140
6.0
170
     5
 62
     0
 63
     7
283
     0
 90
      512
 91
        0
  1

274
    -2
284
     1
 64
     0
275
    -2
285
     1
 65
     0
276
    -2
286
     1
 66
     0
277
    -2
287
     1
 67
     0
278
    -2
288
     1
 68
     0
279
    -2
289
     1
 69
     0
  7
Standard
140
4.5
170
     5
 62
     0
 63
     7
283
     0
 90
      512
 91
        0
  1

274
    -2
284
     1
 64
     0
275
    -2
285
     1
 65
     0
276
    -2
286
     1
 66
     0
277
    -2
287
     1
 67
     0
278
    -2
288
     1
 68
     0
279
    -2
289
     1
 69
     0
  0
VISUALSTYLE
  5
EC
102
{ACAD_REACTORS
330
E6
102
}
330
E6
100
AcDbVisualStyle
  2
2dWireframe
 70
     4
177
     3
291
     0
 70
    58
 90
        0
176
     1
 90
        2
176
     1
 90
        1
176
     1
 90
        0
176
     1
 40
0.6
176
     1
 40
30.0
176
     1
 62
     7
420
 16777215
176
     1
 90
        1
176
     1
 90
        4
176
     1
 62
     7
176
     1
 62
   257
176
     1
 90
        1
176
     1
 90
        1
176
     1
 40
1.0
176
     1
 90
        0
176
     1
 62
   257
176
     1
 40
1.0
176
     1
 90
        1
176
     1
 90
        6
176
     1
 90
        2
176
     1
 62
     7
176
     1
 90
        5
176
     1
 90
        0
176
     1
 90
        0
176
     1
290
     0
176
     1
 90
        1
176
     1
 40
0.0
176
     1
 90
        0
176
     1
290
     1
176
     1
290
     1
176
     1
290
     0
176
     1
290
     0
176
     1
290
     0
176
     1
290
     0
176
     1
290
     0
176
     1
290
     0
176
     1
290
     0
176
     1
 90
       50
176
     1
 40
0.0
176
     1
 40
1.0
176
     1
 90
        0
176
     1
 62
    18
420
        0
176
     1
 90
       50
176
     1
 90
        3
176
     1
 62
     5
420
      255
176
     1
290
     0
176
     1
 90
       50
176
     1
 90
       50
176
     1
 90
       50
176
     1
290
     0
176
     1
 90
       50
176
     1
 62
   256
176
     0
 40
1.0
176
     0
 90
        2
176
     1
  1
strokes_ogs.tif
176
     1
290
     0
176
     1
 40
1.0
176
     1
 40
1.0
176
     1
  0
VISUALSTYLE
  5
EB
102
{ACAD_REACTORS
330
E6
102
}
330
E6
100
AcDbVisualStyle
  2
Basic
 70
     7
177
     3
291
     1
 70
    58
 90
        1
176
     1
 90
        0
176
     1
 90
        1
176
     1
 90
        0
176
     1
 40
0.6
176
     1
 40
30.0
176
     1
 62
     7
420
 16777215
176
     1
 90
        0
176
     1
 90
        4
176
     1
 62
     7
176
     1
 62
   257
176
     1
 90
        1
176
     1
 90
        1
176
     1
 40
1.0
176
     1
 90
        8
176
     1
 62
     7
176
     1
 40
1.0
176
     1
 90
        1
176
     1
 90
        6
176
     1
 90
        2
176
     1
 62
     7
176
     1
 90
        5
176
     1
 90
        0
176
     1
 90
        0
176
     1
290
     0
176
     1
 90
        1
176
     1
 40
0.0
176
     1
 90
        0
176
     1
290
     0
176
     1
290
     1
176
     1
290
     1
176
     1
290
     0
176
     1
290
     0
176
     1
290
     0
176
     1
290
     0
176
     1
290
     0
176
     1
290
     0
176
     1
 90
       50
176
     1
 40
0.0
176
     1
 40
1.0
176
     1
 90
        0
176
     1
 62
    18
420
        0
176
     1
 90
       50
176
     1
 90
        3
176
     1
 62
     5
420
      255
176
     1
290
     0
176
     1
 90
       50
176
     1
 90
       50
176
     1
 90
       50
176
     1
290
     0
176
     1
 90
       50
176
     1
 62
   256
176
     0
 40
1.0
176
     0
 90
        2
176
     1
  1
strokes_ogs.tif
176
     1
290
     0
176
     1
 40
1.0
176
     1
 40
1.0
176
     1
  0
VISUALSTYLE
  5
F2
102
{ACAD_REACTORS
330
E6
102
}
330
E6
100
AcDbVisualStyle
  2
Brighten
 70
    12
177
     3
291
     1
 70
    58
 90
        2
176
     1
 90
        2
176
     1
 90
        1
176
     1
 90
        0
176
     1
 40
0.6
176
     1
 40
30.0
176
     1
 62
     7
420
 16777215
176
     1
 90
        1
176
     1
 90
        4
176
     1
 62
     7
176
     1
 62
   257
176
     1
 90
        1
176
     1
 90
        1
176
     1
 40
1.0
176
     1
 90
        8
176
     1
 62
     7
176
     1
 40
1.0
176
     1
 90
        1
176
     1
 90
        6
176
     1
 90
        2
176
     1
 62
     7
176
     1
 90
        5
176
     1
 90
        0
176
     1
 90
        0
176
     1
290
     0
176
     1
 90
        1
176
     1
 40
50.0
176
     1
 90
        0
176
     1
290
     0
176
     1
290
     1
176
     1
290
     1
176
     1
290
     0
176
     1
290
     0
176
     1
290
     0
176
     1
290
     0
176
     1
290
     0
176
     1
290
     0
176
     1
 90
       50
176
     1
 40
0.0
176
     1
 40
1.0
176
     1
 90
        0
176
     1
 62
    18
420
        0
176
     1
 90
       50
176
     1
 90
        3
176
     1
 62
     5
420
      255
176
     1
290
     0
176
     1
 90
       50
176
     1
 90
       50
176
     1
 90
       50
176
     1
290
     0
176
     1
 90
       50
176
     1
 62
   256
176
     0
 40
1.0
176
     0
 90
        2
176
     1
  1
strokes_ogs.tif
176
     1
290
     0
176
     1
 40
1.0
176
     1
 40
1.0
176
     1
  0
VISUALSTYLE
  5
F6
102
{ACAD_REACTORS
330
E6
102
}
330
E6
100
AcDbVisualStyle
  2
ColorChange
 70
    16
177
     3
291
     1
 70
    58
 90
        2
176
     1
 90
        2
176
     1
 90
        3
176
     1
 90
        0
176
     1
 40
0.6
176
     1
 40
30.0
176
     1
 62
     8
420
  8421504
176
     1
 90
        1
176
     1
 90
        4
176
     1
 62
     7
176
     1
 62
   257
176
     1
 90
        1
176
     1
 90
        1
176
     1
 40
1.0
176
     1
 90
        8
176
     1
 62
     8
420
  8421504
176
     1
 40
1.0
176
     1
 90
        1
176
     1
 90
        6
176
     1
 90
        2
176
     1
 62
     7
176
     1
 90
        5
176
     1
 90
        0
176
     1
 90
        0
176
     1
290
     0
176
     1
 90
        1
176
     1
 40
0.0
176
     1
 90
        0
176
     1
290
     0
176
     1
290
     1
176
     1
290
     1
176
     1
290
     0
176
     1
290
     0
176
     1
290
     0
176
     1
290
     0
176
     1
290
     0
176
     1
290
     0
176
     1
 90
       50
176
     1
 40
0.0
176
     1
 40
1.0
176
     1
 90
        0
176
     1
 62
    18
420
        0
176
     1
 90
       50
176
     1
 90
        3
176
     1
 62
     5
420
      255
176
     1
290
     0
176
     1
 90
       50
176
     1
 90
       50
176
     1
 90
       50
176
     1
290
     0
176
     1
 90
       50
176
     1
 62
   256
176
     0
 40
1.0
176
     0
 90
        2
176
     1
  1
strokes_ogs.tif
176
     1
290
     0
176
     1
 40
1.0
176
     1
 40
1.0
176
     1
  0
VISUALSTYLE
  5
EF
102
{ACAD_REACTORS
330
E6
102
}
330
E6
100
AcDbVisualStyle
  2
Conceptual
 70
     9
177
     3
291
     0
 70
    58
 90
        3
176
     1
 90
        2
176
     1
 90
        1
176
     1
 90
        0
176
     1
 40
0.6
176
     1
 40
30.0
176
     1
 62
     7
420
 16777215
176
     1
 90
        2
176
     1
 90
        2
176
     1
 62
     7
176
     1
 62
   257
176
     1
 90
        1
176
     1
 90
        1
176
     1
 40
40.0
176
     1
 90
        8
176
     1
 62
     7
176
     1
 40
1.0
176
     1
 90
        1
176
     1
 90
        6
176
     1
 90
        2
176
     1
 62
     7
176
     1
 90
        3
176
     1
 90
        0
176
     1
 90
        0
176
     1
290
     0
176
     1
 90
        1
176
     1
 40
0.0
176
     1
 90
        0
176
     1
290
     0
176
     1
290
     1
176
     1
290
     1
176
     1
290
     0
176
     1
290
     0
176
     1
290
     0
176
     1
290
     0
176
     1
290
     0
176
     1
290
     0
176
     1
 90
       50
176
     1
 40
0.0
176
     1
 40
1.0
176
     1
 90
        0
176
     1
 62
    18
420
        0
176
     1
 90
       50
176
     1
 90
        3
176
     1
 62
     5
420
      255
176
     1
290
     0
176
     1
 90
       50
176
     1
 90
       50
176
     1
 90
       50
176
     1
290
     0
176
     1
 90
       50
176
     1
 62
   256
176
     0
 40
1.0
176
     0
 90
        2
176
     1
  1
strokes_ogs.tif
176
     1
290
     0
176
     1
 40
1.0
176
     1
 40
1.0
176
     1
  0
VISUALSTYLE
  5
F1
102
{ACAD_REACTORS
330
E6
102
}
330
E6
100
AcDbVisualStyle
  2
Dim
 70
    11
177
     3
291
     1
 70
    58
 90
        2
176
     1
 90
        2
176
     1
 90
        1
176
     1
 90
        0
176
     1
 40
0.6
176
     1
 40
30.0
176
     1
 62
     7
420
 16777215
176
     1
 90
        1
176
     1
 90
        4
176
     1
 62
     7
176
     1
 62
   257
176
     1
 90
        1
176
     1
 90
        1
176
     1
 40
1.0
176
     1
 90
        8
176
     1
 62
     7
176
     1
 40
1.0
176
     1
 90
        1
176
     1
 90
        6
176
     1
 90
        2
176
     1
 62
     7
176
     1
 90
        5
176
     1
 90
        0
176
     1
 90
        0
176
     1
290
     0
176
     1
 90
        1
176
     1
 40
-50.0
176
     1
 90
        0
176
     1
290
     0
176
     1
290
     1
176
     1
290
     1
176
     1
290
     0
176
     1
290
     0
176
     1
290
     0
176
     1
290
     0
176
     1
290
     0
176
     1
290
     0
176
     1
 90
       50
176
     1
 40
0.0
176
     1
 40
1.0
176
     1
 90
        0
176
     1
 62
    18
420
        0
176
     1
 90
       50
176
     1
 90
        3
176
     1
 62
     5
420
      255
176
     1
290
     0
176
     1
 90
       50
176
     1
 90
       50
176
     1
 90
       50
176
     1
290
     0
176
     1
 90
       50
176
     1
 62
   256
176
     0
 40
1.0
176
     0
 90
        2
176
     1
  1
strokes_ogs.tif
176
     1
290
     0
176
     1
 40
1.0
176
     1
 40
1.0
176
     1
  0
VISUALSTYLE
  5
1DD
102
{ACAD_REACTORS
330
E6
102
}
330
E6
100
AcDbVisualStyle
  2
EdgeColorOff
 70
    22
177
     3
291
     1
 70
    58
 90
        2
176
     0
 90
        2
176
     0
 90
        0
176
     0
 90
        0
176
     0
 40
0.6
176
     0
 40
30.0
176
     0
 62
     7
420
 16777215
176
     0
 90
        1
176
     0
 90
        4
176
     0
 62
     7
176
     0
 62
   257
176
     0
 90
        1
176
     0
 90
        1
176
     0
 40
1.0
176
     0
 90
        8
176
     2
 62
     7
176
     0
 40
1.0
176
     0
 90
        1
176
     0
 90
        6
176
     0
 90
        2
176
     0
 62
     7
176
     0
 90
        5
176
     0
 90
        0
176
     0
 90
        0
176
     0
290
     0
176
     0
 90
        1
176
     0
 40
0.0
176
     0
 90
        0
176
     0
290
     0
176
     1
290
     1
176
     1
290
     1
176
     1
290
     0
176
     1
290
     0
176
     1
290
     0
176
     1
290
     0
176
     1
290
     0
176
     1
290
     0
176
     1
 90
       50
176
     1
 40
0.0
176
     1
 40
1.0
176
     1
 90
        0
176
     1
 62
    18
420
        0
176
     1
 90
       50
176
     1
 90
        3
176
     1
 62
     5
420
      255
176
     1
290
     0
176
     1
 90
       50
176
     1
 90
       50
176
     1
 90
       50
176
     1
290
     0
176
     1
 90
       50
176
     1
 62
   256
176
     0
 40
1.0
176
     0
 90
        2
176
     1
  1
strokes_ogs.tif
176
     1
290
     0
176
     1
 40
1.0
176
     1
 40
1.0
176
     1
  0
VISUALSTYLE
  5
F5
102
{ACAD_REACTORS
330
E6
102
}
330
E6
100
AcDbVisualStyle
  2
Facepattern
 70
    15
177
     3
291
     1
 70
    58
 90
        2
176
     1
 90
        2
176
     1
 90
        1
176
     1
 90
        0
176
     1
 40
0.6
176
     1
 40
30.0
176
     1
 62
     7
420
 16777215
176
     1
 90
        1
176
     1
 90
        4
176
     1
 62
     7
176
     1
 62
   257
176
     1
 90
        1
176
     1
 90
        1
176
     1
 40
1.0
176
     1
 90
        8
176
     1
 62
     7
176
     1
 40
1.0
176
     1
 90
        1
176
     1
 90
        6
176
     1
 90
        2
176
     1
 62
     7
176
     1
 90
        5
176
     1
 90
        0
176
     1
 90
        0
176
     1
290
     0
176
     1
 90
        1
176
     1
 40
0.0
176
     1
 90
        0
176
     1
290
     0
176
     1
290
     1
176
     1
290
     1
176
     1
290
     0
176
     1
290
     0
176
     1
290
     0
176
     1
290
     0
176
     1
290
     0
176
     1
290
     0
176
     1
 90
       50
176
     1
 40
0.0
176
     1
 40
1.0
176
     1
 90
        0
176
     1
 62
    18
420
        0
176
     1
 90
       50
176
     1
 90
        3
176
     1
 62
     5
420
      255
176
     1
290
     0
176
     1
 90
       50
176
     1
 90
       50
176
     1
 90
       50
176
     1
290
     0
176
     1
 90
       50
176
     1
 62
   256
176
     0
 40
1.0
176
     0
 90
        2
176
     1
  1
strokes_ogs.tif
176
     1
290
     0
176
     1
 40
1.0
176
     1
 40
1.0
176
     1
  0
VISUALSTYLE
  5
E7
102
{ACAD_REACTORS
330
E6
102
}
330
E6
100
AcDbVisualStyle
  2
Flat
 70
     0
177
     3
291
     1
 70
    58
 90
        2
176
     1
 90
        1
176
     1
 90
        1
176
     1
 90
        2
176
     1
 40
0.6
176
     1
 40
30.0
176
     1
 62
     7
420
 16777215
176
     1
 90
        0
176
     1
 90
        0
176
     1
 62
     7
176
     1
 62
   257
176
     1
 90
        1
176
     1
 90
        1
176
     1
 40
1.0
176
     1
 90
        8
176
     1
 62
     7
176
     1
 40
1.0
176
     1
 90
        1
176
     1
 90
        6
176
     1
 90
        2
176
     1
 62
     7
176
     1
 90
        5
176
     1
 90
        0
176
     1
 90
        0
176
     1
290
     0
176
     1
 90
       13
176
     1
 40
0.0
176
     1
 90
        0
176
     1
290
     0
176
     1
290
     1
176
     1
290
     1
176
     1
290
     0
176
     1
290
     0
176
     1
290
     0
176
     1
290
     0
176
     1
290
     0
176
     1
290
     0
176
     1
 90
       50
176
     1
 40
0.0
176
     1
 40
1.0
176
     1
 90
        0
176
     1
 62
    18
420
        0
176
     1
 90
       50
176
     1
 90
        3
176
     1
 62
     5
420
      255
176
     1
290
     0
176
     1
 90
       50
176
     1
 90
       50
176
     1
 90
       50
176
     1
290
     0
176
     1
 90
       50
176
     1
 62
   256
176
     0
 40
1.0
176
     0
 90
        2
176
     1
  1
strokes_ogs.tif
176
     1
290
     0
176
     1
 40
1.0
176
     1
 40
1.0
176
     1
  0
VISUALSTYLE
  5
E8
102
{ACAD_REACTORS
330
E6
102
}
330
E6
100
AcDbVisualStyle
  2
FlatWithEdges
 70
     1
177
     3
291
     1
 70
    58
 90
        2
176
     1
 90
        1
176
     1
 90
        1
176
     1
 90
        2
176
     1
 40
0.6
176
     1
 40
30.0
176
     1
 62
     7
420
 16777215
176
     1
 90
        1
176
     1
 90
        0
176
     1
 62
     7
176
     1
 62
   257
176
     1
 90
        1
176
     1
 90
        1
176
     1
 40
1.0
176
     1
 90
        0
176
     1
 62
   257
176
     1
 40
1.0
176
     1
 90
        1
176
     1
 90
        6
176
     1
 90
        2
176
     1
 62
     7
176
     1
 90
        5
176
     1
 90
        0
176
     1
 90
        0
176
     1
290
     0
176
     1
 90
       13
176
     1
 40
0.0
176
     1
 90
        0
176
     1
290
     0
176
     1
290
     1
176
     1
290
     1
176
     1
290
     0
176
     1
290
     0
176
     1
290
     0
176
     1
290
     0
176
     1
290
     0
176
     1
290
     0
176
     1
 90
       50
176
     1
 40
0.0
176
     1
 40
1.0
176
     1
 90
        0
176
     1
 62
    18
420
        0
176
     1
 90
       50
176
     1
 90
        3
176
     1
 62
     5
420
      255
176
     1
290
     0
176
     1
 90
       50
176
     1
 90
       50
176
     1
 90
       50
176
     1
290
     0
176
     1
 90
       50
176
     1
 62
   256
176
     0
 40
1.0
176
     0
 90
        2
176
     1
  1
strokes_ogs.tif
176
     1
290
     0
176
     1
 40
1.0
176
     1
 40
1.0
176
     1
  0
VISUALSTYLE
  5
E9
102
{ACAD_REACTORS
330
E6
102
}
330
E6
100
AcDbVisualStyle
  2
Gouraud
 70
     2
177
     3
291
     1
 70
    58
 90
        2
176
     1
 90
        2
176
     1
 90
        1
176
     1
 90
        2
176
     1
 40
0.6
176
     1
 40
30.0
176
     1
 62
     7
420
 16777215
176
     1
 90
        0
176
     1
 90
        0
176
     1
 62
     7
176
     1
 62
   257
176
     1
 90
        1
176
     1
 90
        1
176
     1
 40
1.0
176
     1
 90
        0
176
     1
 62
     7
176
     1
 40
1.0
176
     1
 90
        1
176
     1
 90
        6
176
     1
 90
        2
176
     1
 62
     7
176
     1
 90
        5
176
     1
 90
        0
176
     1
 90
        0
176
     1
290
     0
176
     1
 90
       13
176
     1
 40
0.0
176
     1
 90
        0
176
     1
290
     0
176
     1
290
     1
176
     1
290
     1
176
     1
290
     0
176
     1
290
     0
176
     1
290
     0
176
     1
290
     0
176
     1
290
     0
176
     1
290
     0
176
     1
 90
       50
176
     1
 40
0.0
176
     1
 40
1.0
176
     1
 90
        0
176
     1
 62
    18
420
        0
176
     1
 90
       50
176
     1
 90
        3
176
     1
 62
     5
420
      255
176
     1
290
     0
176
     1
 90
       50
176
     1
 90
       50
176
     1
 90
       50
176
     1
290
     0
176
     1
 90
       50
176
     1
 62
   256
176
     0
 40
1.0
176
     0
 90
        2
176
     1
  1
strokes_ogs.tif
176
     1
290
     0
176
     1
 40
1.0
176
     1
 40
1.0
176
     1
  0
VISUALSTYLE
  5
EA
102
{ACAD_REACTORS
330
E6
102
}
330
E6
100
AcDbVisualStyle
  2
GouraudWithEdges
 70
     3
177
     3
291
     1
 70
    58
 90
        2
176
     1
 90
        2
176
     1
 90
        1
176
     1
 90
        2
176
     1
 40
0.6
176
     1
 40
30.0
176
     1
 62
     7
420
 16777215
176
     1
 90
        1
176
     1
 90
        0
176
     1
 62
     7
176
     1
 62
   257
176
     1
 90
        1
176
     1
 90
        1
176
     1
 40
1.0
176
     1
 90
        0
176
     1
 62
   257
176
     1
 40
1.0
176
     1
 90
        1
176
     1
 90
        6
176
     1
 90
        2
176
     1
 62
     7
176
     1
 90
        5
176
     1
 90
        0
176
     1
 90
        0
176
     1
290
     0
176
     1
 90
       13
176
     1
 40
0.0
176
     1
 90
        0
176
     1
290
     0
176
     1
290
     1
176
     1
290
     1
176
     1
290
     0
176
     1
290
     0
176
     1
290
     0
176
     1
290
     0
176
     1
290
     0
176
     1
290
     0
176
     1
 90
       50
176
     1
 40
0.0
176
     1
 40
1.0
176
     1
 90
        0
176
     1
 62
    18
420
        0
176
     1
 90
       50
176
     1
 90
        3
176
     1
 62
     5
420
      255
176
     1
290
     0
176
     1
 90
       50
176
     1
 90
       50
176
     1
 90
       50
176
     1
290
     0
176
     1
 90
       50
176
     1
 62
   256
176
     0
 40
1.0
176
     0
 90
        2
176
     1
  1
strokes_ogs.tif
176
     1
290
     0
176
     1
 40
1.0
176
     1
 40
1.0
176
     1
  0
VISUALSTYLE
  5
EE
102
{ACAD_REACTORS
330
E6
102
}
330
E6
100
AcDbVisualStyle
  2
Hidden
 70
     6
177
     3
291
     0
 70
    58
 90
        1
176
     1
 90
        2
176
     1
 90
        2
176
     1
 90
        0
176
     1
 40
0.6
176
     1
 40
30.0
176
     1
 62
     7
420
 16777215
176
     1
 90
        2
176
     1
 90
        2
176
     1
 62
     7
176
     1
 62
   257
176
     1
 90
        2
176
     1
 90
        1
176
     1
 40
40.0
176
     1
 90
        0
176
     1
 62
   257
176
     1
 40
1.0
176
     1
 90
        1
176
     1
 90
        6
176
     1
 90
        2
176
     1
 62
     7
176
     1
 90
        3
176
     1
 90
        0
176
     1
 90
        0
176
     1
290
     0
176
     1
 90
        1
176
     1
 40
0.0
176
     1
 90
        0
176
     1
290
     0
176
     1
290
     1
176
     1
290
     1
176
     1
290
     0
176
     1
290
     0
176
     1
290
     0
176
     1
290
     0
176
     1
290
     0
176
     1
290
     0
176
     1
 90
       50
176
     1
 40
0.0
176
     1
 40
1.0
176
     1
 90
        0
176
     1
 62
    18
420
        0
176
     1
 90
       50
176
     1
 90
        3
176
     1
 62
     5
420
      255
176
     1
290
     0
176
     1
 90
       50
176
     1
 90
       50
176
     1
 90
       50
176
     1
290
     0
176
     1
 90
       50
176
     1
 62
   256
176
     0
 40
1.0
176
     0
 90
        2
176
     1
  1
strokes_ogs.tif
176
     1
290
     0
176
     1
 40
1.0
176
     1
 40
1.0
176
     1
  0
VISUALSTYLE
  5
1DB
102
{ACAD_REACTORS
330
E6
102
}
330
E6
100
AcDbVisualStyle
  2
JitterOff
 70
    20
177
     3
291
     1
 70
    58
 90
        2
176
     0
 90
        2
176
     0
 90
        0
176
     0
 90
        0
176
     0
 40
0.6
176
     0
 40
30.0
176
     0
 62
     7
420
 16777215
176
     0
 90
        1
176
     0
 90
        4
176
     0
 62
     7
176
     0
 62
   257
176
     0
 90
        1
176
     0
 90
        1
176
     0
 40
1.0
176
     0
 90
       10
176
     2
 62
     7
176
     0
 40
1.0
176
     0
 90
        1
176
     0
 90
        6
176
     0
 90
        2
176
     0
 62
     7
176
     0
 90
        5
176
     0
 90
        0
176
     0
 90
        0
176
     0
290
     0
176
     0
 90
        1
176
     0
 40
0.0
176
     0
 90
        0
176
     0
290
     0
176
     1
290
     1
176
     1
290
     1
176
     1
290
     0
176
     1
290
     0
176
     1
290
     0
176
     1
290
     0
176
     1
290
     0
176
     1
290
     0
176
     1
 90
       50
176
     1
 40
0.0
176
     1
 40
1.0
176
     1
 90
        0
176
     1
 62
    18
420
        0
176
     1
 90
       50
176
     1
 90
        3
176
     1
 62
     5
420
      255
176
     1
290
     0
176
     1
 90
       50
176
     1
 90
       50
176
     1
 90
       50
176
     1
290
     0
176
     1
 90
       50
176
     1
 62
   256
176
     0
 40
1.0
176
     0
 90
        2
176
     1
  1
strokes_ogs.tif
176
     1
290
     0
176
     1
 40
1.0
176
     1
 40
1.0
176
     1
  0
VISUALSTYLE
  5
F4
102
{ACAD_REACTORS
330
E6
102
}
330
E6
100
AcDbVisualStyle
  2
Linepattern
 70
    14
177
     3
291
     1
 70
    58
 90
        2
176
     1
 90
        2
176
     1
 90
        1
176
     1
 90
        0
176
     1
 40
0.6
176
     1
 40
30.0
176
     1
 62
     7
420
 16777215
176
     1
 90
        1
176
     1
 90
        4
176
     1
 62
     7
176
     1
 62
   257
176
     1
 90
        7
176
     1
 90
        7
176
     1
 40
1.0
176
     1
 90
        8
176
     1
 62
     7
176
     1
 40
1.0
176
     1
 90
        1
176
     1
 90
        6
176
     1
 90
        2
176
     1
 62
     7
176
     1
 90
        5
176
     1
 90
        0
176
     1
 90
        0
176
     1
290
     0
176
     1
 90
        1
176
     1
 40
0.0
176
     1
 90
        0
176
     1
290
     0
176
     1
290
     1
176
     1
290
     1
176
     1
290
     0
176
     1
290
     0
176
     1
290
     0
176
     1
290
     0
176
     1
290
     0
176
     1
290
     0
176
     1
 90
       50
176
     1
 40
0.0
176
     1
 40
1.0
176
     1
 90
        0
176
     1
 62
    18
420
        0
176
     1
 90
       50
176
     1
 90
        3
176
     1
 62
     5
420
      255
176
     1
290
     0
176
     1
 90
       50
176
     1
 90
       50
176
     1
 90
       50
176
     1
290
     0
176
     1
 90
       50
176
     1
 62
   256
176
     0
 40
1.0
176
     0
 90
        2
176
     1
  1
strokes_ogs.tif
176
     1
290
     0
176
     1
 40
1.0
176
     1
 40
1.0
176
     1
  0
VISUALSTYLE
  5
1DC
102
{ACAD_REACTORS
330
E6
102
}
330
E6
100
AcDbVisualStyle
  2
OverhangOff
 70
    21
177
     3
291
     1
 70
    58
 90
        2
176
     0
 90
        2
176
     0
 90
        0
176
     0
 90
        0
176
     0
 40
0.6
176
     0
 40
30.0
176
     0
 62
     7
420
 16777215
176
     0
 90
        1
176
     0
 90
        4
176
     0
 62
     7
176
     0
 62
   257
176
     0
 90
        1
176
     0
 90
        1
176
     0
 40
1.0
176
     0
 90
        9
176
     2
 62
     7
176
     0
 40
1.0
176
     0
 90
        1
176
     0
 90
        6
176
     0
 90
        2
176
     0
 62
     7
176
     0
 90
        5
176
     0
 90
        0
176
     0
 90
        0
176
     0
290
     0
176
     0
 90
        1
176
     0
 40
0.0
176
     0
 90
        0
176
     0
290
     0
176
     1
290
     1
176
     1
290
     1
176
     1
290
     0
176
     1
290
     0
176
     1
290
     0
176
     1
290
     0
176
     1
290
     0
176
     1
290
     0
176
     1
 90
       50
176
     1
 40
0.0
176
     1
 40
1.0
176
     1
 90
        0
176
     1
 62
    18
420
        0
176
     1
 90
       50
176
     1
 90
        3
176
     1
 62
     5
420
      255
176
     1
290
     0
176
     1
 90
       50
176
     1
 90
       50
176
     1
 90
       50
176
     1
290
     0
176
     1
 90
       50
176
     1
 62
   256
176
     0
 40
1.0
176
     0
 90
        2
176
     1
  1
strokes_ogs.tif
176
     1
290
     0
176
     1
 40
1.0
176
     1
 40
1.0
176
     1
  0
VISUALSTYLE
  5
F0
102
{ACAD_REACTORS
330
E6
102
}
330
E6
100
AcDbVisualStyle
  2
Realistic
 70
     8
177
     3
291
     0
 70
    58
 90
        2
176
     1
 90
        3
176
     1
 90
        0
176
     1
 90
        2
176
     1
 40
0.6
176
     1
 40
30.0
176
     1
 62
     7
420
 16777215
176
     1
 90
        0
176
     1
 90
        0
176
     1
 62
     7
176
     1
 62
   257
176
     1
 90
        1
176
     1
 90
        1
176
     1
 40
1.0
176
     1
 90
        8
176
     1
 62
   257
176
     1
 40
1.0
176
     1
 90
        1
176
     1
 90
        6
176
     1
 90
        2
176
     1
 62
     7
176
     1
 90
        3
176
     1
 90
        0
176
     1
 90
        0
176
     1
290
     0
176
     1
 90
       13
176
     1
 40
0.0
176
     1
 90
        0
176
     1
290
     0
176
     1
290
     1
176
     1
290
     1
176
     1
290
     0
176
     1
290
     0
176
     1
290
     0
176
     1
290
     0
176
     1
290
     0
176
     1
290
     0
176
     1
 90
       50
176
     1
 40
0.0
176
     1
 40
1.0
176
     1
 90
        0
176
     1
 62
    18
420
        0
176
     1
 90
       50
176
     1
 90
        3
176
     1
 62
     5
420
      255
176
     1
290
     0
176
     1
 90
       50
176
     1
 90
       50
176
     1
 90
       50
176
     1
290
     0
176
     1
 90
       50
176
     1
 62
   256
176
     0
 40
1.0
176
     0
 90
        2
176
     1
  1
strokes_ogs.tif
176
     1
290
     0
176
     1
 40
1.0
176
     1
 40
1.0
176
     1
  0
VISUALSTYLE
  5
1EA
102
{ACAD_REACTORS
330
E6
102
}
330
E6
100
AcDbVisualStyle
  2
Shaded
 70
    27
177
     3
291
     0
 70
    58
 90
        2
176
     1
 90
        2
176
     1
 90
        1
176
     1
 90
        2
176
     1
 40
0.6
176
     1
 40
30.0
176
     1
 62
     7
420
 16777215
176
     1
 90
        0
176
     1
 90
        4
176
     1
 62
     7
176
     1
 62
   257
176
     1
 90
        1
176
     1
 90
        1
176
     1
 40
1.0
176
     1
 90
        8
176
     1
 62
   257
176
     1
 40
1.0
176
     1
 90
        1
176
     1
 90
        6
176
     1
 90
        2
176
     1
 62
     8
420
  7895160
176
     1
 90
        3
176
     1
 90
        0
176
     1
 90
        0
176
     1
290
     0
176
     1
 90
        5
176
     1
 40
0.0
176
     1
 90
        0
176
     1
290
     0
176
     1
290
     1
176
     1
290
     1
176
     1
290
     0
176
     1
290
     0
176
     1
290
     0
176
     1
290
     0
176
     1
290
     0
176
     1
290
     0
176
     1
 90
       50
176
     1
 40
0.0
176
     1
 40
1.0
176
     1
 90
        0
176
     1
 62
    18
420
        0
176
     1
 90
       50
176
     1
 90
        3
176
     1
 62
     5
420
      255
176
     1
290
     0
176
     1
 90
       50
176
     1
 90
       50
176
     1
 90
       50
176
     1
290
     0
176
     1
 90
       50
176
     1
 62
   256
176
     0
 40
1.0
176
     0
 90
        2
176
     1
  1
strokes_ogs.tif
176
     1
290
     0
176
     1
 40
1.0
176
     1
 40
1.0
176
     1
  0
VISUALSTYLE
  5
1E9
102
{ACAD_REACTORS
330
E6
102
}
330
E6
100
AcDbVisualStyle
  2
Shaded with edges
 70
    26
177
     3
291
     0
 70
    58
 90
        2
176
     1
 90
        2
176
     1
 90
        1
176
     1
 90
        2
176
     1
 40
0.6
176
     1
 40
30.0
176
     1
 62
     7
420
 16777215
176
     1
 90
        1
176
     1
 90
       10
176
     1
 62
     7
176
     1
 62
   257
176
     1
 90
        2
176
     1
 90
        1
176
     1
 40
1.0
176
     1
 90
        8
176
     1
 62
   257
176
     1
 40
1.0
176
     1
 90
        1
176
     1
 90
        6
176
     1
 90
        2
176
     1
 62
     7
176
     1
 90
        3
176
     1
 90
        0
176
     1
 90
        0
176
     1
290
     0
176
     1
 90
        5
176
     1
 40
0.0
176
     1
 90
        0
176
     1
290
     0
176
     1
290
     1
176
     1
290
     1
176
     1
290
     0
176
     1
290
     0
176
     1
290
     0
176
     1
290
     0
176
     1
290
     0
176
     1
290
     0
176
     1
 90
       50
176
     1
 40
0.0
176
     1
 40
1.0
176
     1
 90
        0
176
     1
 62
    18
420
        0
176
     1
 90
       50
176
     1
 90
        3
176
     1
 62
     5
420
      255
176
     1
290
     0
176
     1
 90
       50
176
     1
 90
       50
176
     1
 90
       50
176
     1
290
     0
176
     1
 90
       50
176
     1
 62
   256
176
     0
 40
1.0
176
     0
 90
        2
176
     1
  1
strokes_ogs.tif
176
     1
290
     0
176
     1
 40
1.0
176
     1
 40
1.0
176
     1
  0
VISUALSTYLE
  5
1E6
102
{ACAD_REACTORS
330
E6
102
}
330
E6
100
AcDbVisualStyle
  2
Shades of Gray
 70
    23
177
     3
291
     0
 70
    58
 90
        2
176
     1
 90
        2
176
     1
 90
        3
176
     1
 90
        0
176
     1
 40
0.6
176
     1
 40
30.0
176
     1
 62
     7
420
 16777215
176
     1
 90
        2
176
     1
 90
        2
176
     1
 62
     7
176
     1
 62
     7
176
     1
 90
        1
176
     1
 90
        1
176
     1
 40
40.0
176
     1
 90
        8
176
     1
 62
     7
176
     1
 40
1.0
176
     1
 90
        1
176
     1
 90
        6
176
     1
 90
        2
176
     1
 62
     7
176
     1
 90
        3
176
     1
 90
        0
176
     1
 90
        0
176
     1
290
     0
176
     1
 90
        1
176
     1
 40
0.0
176
     1
 90
        0
176
     1
290
     0
176
     1
290
     1
176
     1
290
     1
176
     1
290
     0
176
     1
290
     0
176
     1
290
     0
176
     1
290
     0
176
     1
290
     0
176
     1
290
     0
176
     1
 90
       50
176
     1
 40
0.0
176
     1
 40
1.0
176
     1
 90
        0
176
     1
 62
    18
420
        0
176
     1
 90
       50
176
     1
 90
        3
176
     1
 62
     5
420
      255
176
     1
290
     0
176
     1
 90
       50
176
     1
 90
       50
176
     1
 90
       50
176
     1
290
     0
176
     1
 90
       50
176
     1
 62
   256
176
     0
 40
1.0
176
     0
 90
        2
176
     1
  1
strokes_ogs.tif
176
     1
290
     0
176
     1
 40
1.0
176
     1
 40
1.0
176
     1
  0
VISUALSTYLE
  5
1E7
102
{ACAD_REACTORS
330
E6
102
}
330
E6
100
AcDbVisualStyle
  2
Sketchy
 70
    24
177
     3
291
     0
 70
    58
 90
        1
176
     1
 90
        2
176
     1
 90
        2
176
     1
 90
        0
176
     1
 40
0.6
176
     1
 40
30.0
176
     1
 62
     7
420
 16777215
176
     1
 90
        2
176
     1
 90
        2
176
     1
 62
     7
176
     1
 62
     7
176
     1
 90
        1
176
     1
 90
        1
176
     1
 40
40.0
176
     1
 90
       11
176
     1
 62
     7
176
     1
 40
1.0
176
     1
 90
        1
176
     1
 90
        6
176
     1
 90
        2
176
     1
 62
     7
176
     1
 90
        6
176
     1
 90
        0
176
     1
 90
        0
176
     1
290
     0
176
     1
 90
        1
176
     1
 40
0.0
176
     1
 90
        0
176
     1
290
     0
176
     1
290
     1
176
     1
290
     1
176
     1
290
     0
176
     1
290
     0
176
     1
290
     0
176
     1
290
     0
176
     1
290
     0
176
     1
290
     0
176
     1
 90
       50
176
     1
 40
0.0
176
     1
 40
1.0
176
     1
 90
        0
176
     1
 62
    18
420
        0
176
     1
 90
       50
176
     1
 90
        3
176
     1
 62
     5
420
      255
176
     1
290
     0
176
     1
 90
       50
176
     1
 90
       50
176
     1
 90
       50
176
     1
290
     0
176
     1
 90
       50
176
     1
 62
   256
176
     0
 40
1.0
176
     0
 90
        2
176
     1
  1
strokes_ogs.tif
176
     1
290
     0
176
     1
 40
1.0
176
     1
 40
1.0
176
     1
  0
VISUALSTYLE
  5
F3
102
{ACAD_REACTORS
330
E6
102
}
330
E6
100
AcDbVisualStyle
  2
Thicken
 70
    13
177
     3
291
     1
 70
    58
 90
        2
176
     1
 90
        2
176
     1
 90
        1
176
     1
 90
        0
176
     1
 40
0.6
176
     1
 40
30.0
176
     1
 62
     7
420
 16777215
176
     1
 90
        1
176
     1
 90
        4
176
     1
 62
     7
176
     1
 62
   257
176
     1
 90
        1
176
     1
 90
        1
176
     1
 40
1.0
176
     1
 90
       12
176
     1
 62
     7
176
     1
 40
1.0
176
     1
 90
        1
176
     1
 90
        6
176
     1
 90
        2
176
     1
 62
     7
176
     1
 90
        5
176
     1
 90
        0
176
     1
 90
        0
176
     1
290
     0
176
     1
 90
        1
176
     1
 40
0.0
176
     1
 90
        0
176
     1
290
     0
176
     1
290
     1
176
     1
290
     1
176
     1
290
     0
176
     1
290
     0
176
     1
290
     0
176
     1
290
     0
176
     1
290
     0
176
     1
290
     0
176
     1
 90
       50
176
     1
 40
0.0
176
     1
 40
1.0
176
     1
 90
        0
176
     1
 62
    18
420
        0
176
     1
 90
       50
176
     1
 90
        3
176
     1
 62
     5
420
      255
176
     1
290
     0
176
     1
 90
       50
176
     1
 90
       50
176
     1
 90
       50
176
     1
290
     0
176
     1
 90
       50
176
     1
 62
   256
176
     0
 40
1.0
176
     0
 90
        2
176
     1
  1
strokes_ogs.tif
176
     1
290
     0
176
     1
 40
1.0
176
     1
 40
1.0
176
     1
  0
VISUALSTYLE
  5
ED
102
{ACAD_REACTORS
330
E6
102
}
330
E6
100
AcDbVisualStyle
  2
Wireframe
 70
     5
177
     3
291
     0
 70
    58
 90
        0
176
     1
 90
        2
176
     1
 90
        0
176
     1
 90
        0
176
     1
 40
0.6
176
     1
 40
30.0
176
     1
 62
     7
420
 16777215
176
     1
 90
        1
176
     1
 90
        4
176
     1
 62
     7
176
     1
 62
   257
176
     1
 90
        1
176
     1
 90
        1
176
     1
 40
1.0
176
     1
 90
        0
176
     1
 62
   257
176
     1
 40
1.0
176
     1
 90
        1
176
     1
 90
        6
176
     1
 90
        2
176
     1
 62
     7
176
     1
 90
        3
176
     1
 90
        0
176
     1
 90
        0
176
     1
290
     0
176
     1
 90
        1
176
     1
 40
0.0
176
     1
 90
        0
176
     1
290
     0
176
     1
290
     1
176
     1
290
     1
176
     1
290
     0
176
     1
290
     0
176
     1
290
     0
176
     1
290
     0
176
     1
290
     0
176
     1
290
     0
176
     1
 90
       50
176
     1
 40
0.0
176
     1
 40
1.0
176
     1
 90
        0
176
     1
 62
    18
420
        0
176
     1
 90
       50
176
     1
 90
        3
176
     1
 62
     5
420
      255
176
     1
290
     0
176
     1
 90
       50
176
     1
 90
       50
176
     1
 90
       50
176
     1
290
     0
176
     1
 90
       50
176
     1
 62
   256
176
     0
 40
1.0
176
     0
 90
        2
176
     1
  1
strokes_ogs.tif
176
     1
290
     0
176
     1
 40
1.0
176
     1
 40
1.0
176
     1
  0
VISUALSTYLE
  5
1E8
102
{ACAD_REACTORS
330
E6
102
}
330
E6
100
AcDbVisualStyle
  2
X-Ray
 70
    25
177
     3
291
     0
 70
    58
 90
        2
176
     1
 90
        2
176
     1
 90
        1
176
     1
 90
        1
176
     1
 40
0.5
176
     1
 40
30.0
176
     1
 62
     7
420
 16777215
176
     1
 90
        1
176
     1
 90
        0
176
     1
 62
     7
176
     1
 62
   257
176
     1
 90
        1
176
     1
 90
        1
176
     1
 40
1.0
176
     1
 90
        8
176
     1
 62
     7
176
     1
 40
1.0
176
     1
 90
        1
176
     1
 90
        6
176
     1
 90
        2
176
     1
 62
     7
176
     1
 90
        3
176
     1
 90
        0
176
     1
 90
        0
176
     1
290
     0
176
     1
 90
       13
176
     1
 40
0.0
176
     1
 90
        0
176
     1
290
     0
176
     1
290
     1
176
     1
290
     1
176
     1
290
     0
176
     1
290
     0
176
     1
290
     0
176
     1
290
     0
176
     1
290
     0
176
     1
290
     0
176
     1
 90
       50
176
     1
 40
0.0
176
     1
 40
1.0
176
     1
 90
        0
176
     1
 62
    18
420
        0
176
     1
 90
       50
176
     1
 90
        3
176
     1
 62
     5
420
      255
176
     1
290
     0
176
     1
 90
       50
176
     1
 90
       50
176
     1
 90
       50
176
     1
290
     0
176
     1
 90
       50
176
     1
 62
   256
176
     0
 40
1.0
176
     0
 90
        2
176
     1
  1
strokes_ogs.tif
176
     1
290
     0
176
     1
 40
1.0
176
     1
 40
1.0
176
     1
  0
DICTIONARYVAR
  5
1D65
102
{ACAD_REACTORS
330
67
102
}
330
67
100
DictionaryVariables
280
     0
  1
0
  0
DICTIONARYVAR
  5
13D
102
{ACAD_REACTORS
330
67
102
}
330
67
100
DictionaryVariables
280
     0
  1
1:1
  0
DICTIONARYVAR
  5
13C
102
{ACAD_REACTORS
330
67
102
}
330
67
100
DictionaryVariables
280
     0
  1
STANDARD
  0
DICTIONARYVAR
  5
C5
102
{ACAD_REACTORS
330
67
102
}
330
67
100
DictionaryVariables
280
     0
  1
STANDARD
  0
DICTIONARYVAR
  5
21E
102
{ACAD_REACTORS
330
67
102
}
330
67
100
DictionaryVariables
280
     0
  1
Metric50
  0
DICTIONARYVAR
  5
21F
102
{ACAD_REACTORS
330
67
102
}
330
67
100
DictionaryVariables
280
     0
  1
Metric50
  0
DICTIONARYVAR
  5
68
102
{ACAD_REACTORS
330
67
102
}
330
67
100
DictionaryVariables
280
     0
  1
2
  0
DICTIONARYVAR
  5
DA8
102
{ACAD_REACTORS
330
67
102
}
330
67
100
DictionaryVariables
280
     0
  1
2
  0
DICTIONARYVAR
  5
6C
102
{ACAD_REACTORS
330
67
102
}
330
67
100
DictionaryVariables
280
     0
  1
1
  0
DICTIONARYVAR
  5
1A5
102
{ACAD_REACTORS
330
67
102
}
330
67
100
DictionaryVariables
280
     0
  1
0
  0
DICTIONARYVAR
  5
1A6
102
{ACAD_REACTORS
330
67
102
}
330
67
100
DictionaryVariables
280
     0
  1
0
  0
DICTIONARY
  5
22D
330
213
100
AcDbDictionary
280
     1
281
     1
  3
ACAD_XREC_ROUNDTRIP
360
3090
  0
DICTIONARY
  5
1FC
330
22
100
AcDbDictionary
280
     1
281
     1
  3
AcPublish_PlotSettingsOverride
360
DA7
  0
DICTIONARY
  5
1F0
330
E4
100
AcDbDictionary
280
     1
281
     1
  3
FBXASSET
360
1F1
  0
DICTIONARY
  5
1EE
330
E3
100
AcDbDictionary
280
     1
281
     1
  3
FBXASSET
360
1EF
  0
DICTIONARY
  5
16A
330
E5
100
AcDbDictionary
280
     1
281
     1
  3
BUMPTILE
360
16C
  3
DIFFUSETILE
360
16B
  3
FBXASSET
360
1F2
  3
OPACITYTILE
360
16D
  3
REFLECTIONTILE
360
16E
  0
DICTIONARY
  5
22B
330
211
100
AcDbDictionary
280
     1
281
     1
  3
ACAD_XREC_ROUNDTRIP
360
308F
  0
DICTIONARY
  5
159
330
98
100
AcDbDictionary
280
     1
281
     1
  3
ACAD_ROUNDTRIP_2008_TABLESTYLE_CELLSTYLEMAP
360
308E
  0
XRECORD
  5
3090
102
{ACAD_REACTORS
330
22D
102
}
330
22D
100
AcDbXrecord
280
     1
102
DISPLAYNAME
  1
Metric50
102
FLAGS
 90
        0
  0
PLOTSETTINGS
  5
DA7
102
{ACAD_REACTORS
330
1FC
102
}
330
1FC
100
AcDbPlotSettings
  1

  2
Kyocera TASKalfa 3050ci(J) KX
  4
ANSI_A_(8.50_x_11.00_Inches)
  6

 40
4.984749794006347
 41
5.111724853515625
 42
5.154083251953125
 43
4.9847412109375
 44
297.0106506347656
 45
419.9889831542968
 46
0.0
 47
0.0
 48
35785.82830891649
 49
28277.30141662591
140
37465.82830891649
141
29465.30141662591
142
1.0
143
1.0
 70
 11952
 72
     1
 73
     1
 74
     4
  7

 75
    16
147
1.0
 76
     0
 77
     2
 78
   300
148
-35785.82830891649
149
-28277.30141662591
1001
ACAD_PSEXT
1000
Kyocera TASKalfa 3050ci(J) KX
1000
Kyocera TASKalfa 3050ci(J) KX
1000
192.168.11.123
1000

1070
     0
  0
XRECORD
  5
1F1
102
{ACAD_REACTORS
330
1F0
102
}
330
1F0
100
AcDbXrecord
280
     1
 70
     1
 90
429727718
  1
F226E010-5D7B-4EF0-9E0F-00A2E58668EA
310
504B03040A0000080000C270623B3DEE336E79000000790000001B0000006175746F6465736B2D64657369676E2D7061636B6167652E786D6C3C3F786D6C2076657273696F6E3D22312E302220656E636F64696E673D227574662D3822203F3E3C666F726D6174733E3C666F726D61743E687474703A2F2F736368656D612E
310
6175746F6465736B2E636F6D2F64657369676E2D7061636B6167652F323030393C2F666F726D61743E3C2F666F726D6174733E504B0304140006080800C270623BD486FD9CA0000000F4000000130000005B436F6E74656E745F54797065735D2E786D6C7D8EC10E82300C865F65E91D8A1E8C310C0EEA1BF002731658846E
310
D98AC1B77784ABF1D8FE5FBFBF75BBCE937A534CCEB38643598122B6FEE978D0B0485F9C41B54DDD7D022595594E1A469170414C76A4D9A4D207E29CF43ECE46F218070CC6BECC4078ACAA135ACF422C856C0E68EA1BF5669944DDD7BCDE7B1F8E415D77AECB980613C2E4AC91FC167A2B244592486606FC29C8FD7F045B9A
310
EF7053A7E60B504B0304140006080800C270623B132FA9F8EA0000007C01000008000000636F72652E786D6C8D90DD6EC3200C855F05F976223169D2D18850ADDDF6047B010434436D200A30EDF147FA236D77BBB2757C3EDB3A62FF3D5DC8975DA20B7E00562110EB7530CE8F03E474A21CC85E8A2584F4CB06C4ABC90EB0
310
CA20C5B8843CDF251D7CB23E15D50763EFA28AD12620FA529A01A2FEB493AA544EC511CFD5ACF4598DB6628FAEC0393B436E479C29FBDCC9D905E486BFBF1D5ED8336D78D7D2961F90F2233FD2572C8316D9B6EB1A51AFB014C94D8FFB7AB12A5903B241DC51C628361FACED71DB63FB84BC4714F56AFF03E5D9FC13CACEA7
310
4D737FF7864590AC3C721D4851AF5994720DAAD43537F903504B0304140006080800C270623B55019EA25F0000007C00000007000000636E782E786D6C4DCB3B0E80201045D1AD90E915ED2CF8AC45050C11660C8261F98AB1B07AC9C97D42D718D865D3E909258CFD00CCE24AC6E326A164D74DC0B4128928FF326038472B
310
A13128B1252AC747C6BAB984FC68F0B87FE8960A5C09FE86CFB69FBA01504B0304140006080800C270623B0B97CEAB6F010000D40300000C0000006662782F636F72652E786D6CC553ED6E8320147D15C2DF05416B3BD720CDDA6D4FB017A04A1DA98241307DFC5D3F9AAE4BB774BFE60F25E7DCCB3DE7207C736A6AD42BD7
310
696B721C470C23650A5B6A53E538F803C930DA08EEACF55FCA3032B251391E602C78E56C6867A8B0C62BE30135B6543328BB4E798C8A1A1639EE8A0FD5C848060F15DD316A657194958AE20868A813BCF30E04A069C8F0C6E2B03F713AE18287A0CB99D5254CD307AD1C168BECED75FB1C3F92245BA624CDB68C64BB6C475E
310
1810298B57CB65C2E9D02CB8D7CD595DE194F4AAC42261EC89C43161C97B9CAED96ACDD20796AD19E37428BF6A0A6D796753D0C62F9259EED4D66111839091F8E61622F2A8933DE8A182D32144F88C095F070D8140C85EEEEBB38F2340BD2ABC752930A50D17AA9775503095456C7CD0CF0B4EA74E983A6E0EAE6FCE48EE9E
310
F1FB8E70D4D25460427A58EE831F74F249C31C5AAB1CE9FD0919EB1A59DF67E317877FA22EE26F4A2A6C6DDD7F29A2F301D1F9F7A0C37D149F504B0304140006080800C270623BD9317DDA7D0000009D0000000B0000006662782F636E782E786D6C4DCCD10AC2201886E15B91FFDC966B53037588D27D8CE686E4344CA3CB
310
6F8B1D74F4C1C3C72B86CF1AD0DBE5974F5102399D01B9784F938F8B845A66CC010D4AE494CADF0D501C572761675062C9A93E0F9ADC3CD650360D3E3E0E34BDE1DA901EDFAE96E18ED00E6BC65A6C29B78651DEB28B864689E657DA760FAB2F504B0304140006080800C270623B609261632A010000120200003100000066
310
62782F43354338414331352D463944372D343136342D413737322D4436384443373638323733412F636F72652E786D6C8D515B6EC32010BC0AE22B55850D0E7E24C24491A39EA0172086A42831583CAA1CBF503B52FB971F16CDCECC0E2C3B3CA63BF856CE6B6B7A480A0C8132A395DA5C7B18C30575101C3873D6863F3408
310
8C98540F330C39BB3A1BE7151AAD09CA84841A2BD50A0AEF558060BCA74B0FFDF8A52651881812C3DF8A598C3771550529523BF138F3C1A5006019924FC8877AE88E03A9D1C7EED4224A1A8A8E6D5BA153D39D86B6E9AA767B64E522E42C462D57B996298EBE68E55E35C962CE829E9EF147A7445012F20AE31D2204E1EA93
310
D03D6EF698BEE36E8F312B33FD9F28CEF24551D4266CAB35EE22F39013562E0DCEA48DE7FB338C7ACCD60590E76DBC1ADF20C705C635D951562EC4F4FCE4D8D0D5D107EBD2F76E6EE7C425F562DB50CECABCA1547ED7976ADE26FF01504B0304140006080800C270623BAB1CAE584E01000033030000300000006662782F43
310
354338414331352D463944372D343136342D413737322D4436384443373638323733412F636E782E786D6CD593CD6EC32010845F0571AD6CE3D48AD20813A9873E410FBD12D82434182C7EAAE6EDBB2424CD25871E7B41D6EC30B3FA84F9E67BB2E40B4234DE8DB46F1925E094D7C6ED479AD3AE5951B2113C789FEE6C9438
310
39C1488B4C05DF079FE72A69D8C96C13AAD6B8631503449F83828872B949AC57D26200B826A308D316B4064D6E46FCDA41C05550DC9E483A00797BFD207EFB092A45DE9514C1BBD22178396BD39D891265658C238DEA00936C654E5E433CB65A26D9F6EDB5EBC14EBF49A45CB856E66048291F6939A9A81BB5C8917738143C
310
A680F4AA299D66A042CEB3354A2684DC9D8D178FE0D9B8B41CAAD720F880EE7EF93C0C18769E099ECC04D5A102C8049A8A05632F4DDF376CF1DE0F6BB65CB3E189ADD68CF1AED805DF7A6FEB258C81E067A2BC4BE012153DEFCAF811BEEA23DA0464EDC3E90F2011406DBDD0B965FC673EDDF97D23AE807F81F801504B0304
310
140006080800C270623BCB23EE24670500003C100000340000006662782F43354338414331352D463944372D343136342D413737322D4436384443373638323733412F6F626A656374732E786D6CAD575B8F9B3818FD2B887DE69664A6332B866A72ABA26ADAAA51AB7D182932E030EC0046B69966F6D7EF31180224D3662F
310
7908D8D8DFF57CC79FFDF7873C335E2817292BEE4CCF764D8316118BD322B9332BB9B76E4CE37DE073C6646F99691424A777A69A36033FE1AC2AF5544CF7A4CAE468763DFFC310112DA869441911E2CE14D113CD894D2AC9622A9EED98486227FB83EDD9CDC2A1D88493F26924B4249C16129662BE8014A331CA1B0E5DD309
310
7C477D0F7CF5AF574DDF5EE5D4FE0CF5A78590A4884E948DC44CBDD97235B9BAB5AE66B3A935BB9E78D67C3D5F5ADEBBA9BBB85E2C6EEF57B7502C2487246D09A77B33F880D8F034F29DE65367B136FC9C49112B0A1AD5FEC3C3DA662D31A6252D62E431A502DA7A5EBBC3A1A762D3FB3C5563ADB23F7D9957FD1D3D41ADED
310
EDB36F290BFF840BE21254704115AA9AF868471BFCB9C7A8858C65FA5B2A8C9C48CA539219591A72C25FCD004BD592C01F8851E8E40AE1CA0333F08EF2FAB6A2347E8DDD7356EEAB2C53D034831AD93BE09F4A515B96FE45F9796DB009B9AAD242DE6887E46B49CDE0D677EAC9C0578FE9447F6C0269EC339220E570B3F93A
310
7274A16A6FB334838FEBF0B055F5785E79C95949B954F001B4DAC4B54F1525ADD6BB28736A039C19C4FC1894AF88FC2794EFD114E48DA787D961A6B5484E0AB1673C476E6CB7FE196EFB62756FA72FE0B3D1EAD335DDCCBF5AEC3B9DB143C2782B7F00974ACDCD7FCFDF30667DA4F6D217F82F2830C6A73A94DB8864A09E87
310
B4404214288D8C610A5CBE0F0F66B0015382D9B18B644117909317DF79C177FC37B2C156B5FADEB34042477C7B01F323967559C0B637C072C293B562EDDC5B31BFFA5F6AE67EB9FDB8ADF89E44F44113CB92EED32295383B8FE0ED1B3448C4C0A367FAFA83F1188E9E2661DB4F42AE5509445BC55C053E690F0B35386A1E28
310
88B02F618AF3FC5F6878484544B38C149455AD96EE185258ED4846F709A8C226A0D3C908C59CBEA4AA9318AC189885B33EE269A942D61D7A1D4FDB6FF8F26DF309A03483F9EB1C687D3EAE0A8F741FB18CF15DF8BA6B98D004F8B06788EEEF4378EB883A4A0A105F63B9A51C1DE25D9CEEF79500EF9E89E2F7CDA29FA98E48
310
4E5FDA026A35363539033BA3F608D7F06D75A221E004073B2B76298E7194E559E57DDD6305A296FB86FCB0CACB1DC95955C84BC2E4B6FEB4D677C2FB5D8CF84164F46406DBFA69CD41D9318D8FA91AA0401D41677C1AA4673D995CAF5CCFB5AE96EFE6D66CB576ADDB95BBB65CF77EB2BABAB9BEBE59DD7716D596047E7B42
310
F56B10D1C489E8573CD561FEB63996AD193C10299C0F4D413949F3FCB6B1D116FB0EF600E0DDC64D5E6634A785240ABE0FEA25FB4AD0550C6434F39B9C24F402299F3F6C473660E6827D5F54A9D11FA3BD7A76A16AE1AC10F954E56141D26CB4513B6E9745A2DD6E43D93D1B466F876AA4E3893E54B02C8D4138B191509653
310
09DAB980ED794E0510D3EFCA637D7BB860F74BD30F4A1266B4B5E489A025CE04500DB855911CCE1BBFA185535DD49D89C3CE7EC69F2E44D340AAEF4CF09B4C232AEC10C7A36A7C6AE18000BAB08E0401355224193AEB665337EE76A9D8807E70026AFDDD924BBA25EDD7807873529638B507B45ADBA61544FFC8F1D61C8348
310
BC8695EC7C394E74CED46A50598D53FA6E8016E259AB3EA0BE7EEE9667D76B0611B9E89EF4531034522D497852DF0B947DDAA4FBE51707AD80B1F96C9459952097974BB23805982B55E0401150A165964402AA8BDF1FBF7086BB686EAC5340E071C1F29C157A70AFEFB2C6F60937D3F811B440D5F5434C5CCF7BACBB7E7D11
310
D98544509BC4E219136DC1290F465803204F8E539D0247E560B47CB334F4813183D01AB4274D69730D37503CEAE6A84AA54F96E54F1B7FA75E0A3070B4ECC1DF504B0304140006080000C270623B000000000000000000000000350000006662782F43354338414331352D463944372D343136342D413737322D4436384443
310
373638323733412F76657274696365732E62696E504B0304140006080800C270623BF270F1330600000004000000360000006662782F43354338414331352D463944372D343136342D413737322D4436384443373638323733412F747269616E676C65732E62696E636660600000504B0304140006080000C270623B000000
310
000000000000000000370000006662782F43354338414331352D463944372D343136342D413737322D4436384443373638323733412F617474726962757465732E62696E504B0304140006080800C270623B08DA0BD19000000041010000360000006662782F43354338414331352D463944372D343136342D413737322D44
310
36384443373638323733412F6469726563746F72792E786D6C858F410AC3201045AF22B36F53E9A60B35CBEEBAE80D244E44489C6234F4F835464A48035D0DF398FF9F8AF63D0E6CC63039F212F8F9020C7D47C6792B21C5FE7403D62A1188E2E60C98D7234A5830286103A55745067B9D86B8A3CF9C7F90C11DE607FB1443
310
96D7B6A82D282E9A152AD114D5EF2CB866EEE831B8EEA07A7BB5A8D7D61A2BAAEB7FD5F70921FF497D00504B0304140006080800C270623B00848760FC000000A00100003B0000006662782F43354338414331352D463944372D343136342D413737322D4436384443373638323733412F7265736F75726365732F636F7265
310
2E786D6C8D504B6E833010BD0A9A6D65B009201719474DDA9EA017B0CC84580936F2A7EAF16B0295DA5D3733A3F7D13C3D71FC9AEFC527FA609C1D8095140AB4DA8DC64E03A478211C8AA314DEB9F84B068555330EB0C220C5E45D5A76483B1BD1C68C5A37E20EAA103042A1EFF91820E82BCEAA54296645B8958BD2373561
310
C9CA4C679D1421FA1CA0D89EAC13A4C7E092D71844B5B152A464C65D63C6FCD35C0C7A9007FEFE767A611DA979DB90869F28E1677E26AF34130D655DDBD6A25ACD524433FF64D41E55C411644DE933618CD0FA83353DED7ADA3C51DE532AAA55FEC79496F19FA6646C3CD47BDCCD1640B21CE4414851AD7DE5F52833EFB55B
310
F90D504B010214000A0000080000C270623B3DEE336E79000000790000001B00000000000000000000000000000000006175746F6465736B2D64657369676E2D7061636B6167652E786D6C504B01021400140006080800C270623BD486FD9CA0000000F40000001300000000000000000000000000B20000005B436F6E7465
310
6E745F54797065735D2E786D6C504B01021400140006080800C270623B132FA9F8EA0000007C010000080000000000000000000000000083010000636F72652E786D6C504B01021400140006080800C270623B55019EA25F0000007C000000070000000000000000000000000093020000636E782E786D6C504B0102140014
310
0006080800C270623B0B97CEAB6F010000D40300000C00000000000000000000000000170300006662782F636F72652E786D6C504B01021400140006080800C270623BD9317DDA7D0000009D0000000B00000000000000000000000000B00400006662782F636E782E786D6C504B01021400140006080800C270623B609261
310
632A010000120200003100000000000000000000000000560500006662782F43354338414331352D463944372D343136342D413737322D4436384443373638323733412F636F72652E786D6C504B01021400140006080800C270623BAB1CAE584E010000330300003000000000000000000000000000CF0600006662782F43
310
354338414331352D463944372D343136342D413737322D4436384443373638323733412F636E782E786D6C504B01021400140006080800C270623BCB23EE24670500003C10000034000000000000000000000000006B0800006662782F43354338414331352D463944372D343136342D413737322D44363844433736383237
310
33412F6F626A656374732E786D6C504B01021400140006080000C270623B0000000000000000000000003500000000000000000000000000240E00006662782F43354338414331352D463944372D343136342D413737322D4436384443373638323733412F76657274696365732E62696E504B01021400140006080800C270
310
623BF270F13306000000040000003600000000000000000000000000770E00006662782F43354338414331352D463944372D343136342D413737322D4436384443373638323733412F747269616E676C65732E62696E504B01021400140006080000C270623B00000000000000000000000037000000000000000000000000
310
00D10E00006662782F43354338414331352D463944372D343136342D413737322D4436384443373638323733412F617474726962757465732E62696E504B01021400140006080800C270623B08DA0BD190000000410100003600000000000000000000000000260F00006662782F43354338414331352D463944372D343136
310
342D413737322D4436384443373638323733412F6469726563746F72792E786D6C504B01021400140006080800C270623B00848760FC000000A00100003B000000000000000000000000000A1000006662782F43354338414331352D463944372D343136342D413737322D4436384443373638323733412F7265736F757263
310
65732F636F72652E786D6C504B0506000000000E000E00800400005F1100000000
  0
XRECORD
  5
1EF
102
{ACAD_REACTORS
330
1EE
102
}
330
1EE
100
AcDbXrecord
280
     1
 70
     1
 90
429727718
  1
E2304D28-6187-4406-84E4-1B0A0969D8AC
310
504B03040A0000080000C270623B3DEE336E79000000790000001B0000006175746F6465736B2D64657369676E2D7061636B6167652E786D6C3C3F786D6C2076657273696F6E3D22312E302220656E636F64696E673D227574662D3822203F3E3C666F726D6174733E3C666F726D61743E687474703A2F2F736368656D612E
310
6175746F6465736B2E636F6D2F64657369676E2D7061636B6167652F323030393C2F666F726D61743E3C2F666F726D6174733E504B0304140006080800C270623BD486FD9CA0000000F4000000130000005B436F6E74656E745F54797065735D2E786D6C7D8EC10E82300C865F65E91D8A1E8C310C0EEA1BF002731658846E
310
D98AC1B77784ABF1D8FE5FBFBF75BBCE937A534CCEB38643598122B6FEE978D0B0485F9C41B54DDD7D022595594E1A469170414C76A4D9A4D207E29CF43ECE46F218070CC6BECC4078ACAA135ACF422C856C0E68EA1BF5669944DDD7BCDE7B1F8E415D77AECB980613C2E4AC91FC167A2B244592486606FC29C8FD7F045B9A
310
EF7053A7E60B504B0304140006080800C270623B6C505844EA0000007C01000008000000636F72652E786D6C8D90416EC3201045AF82665B61834B1DC7C244B5EB1BF402088883128365A0EAF18B13476A775DCDE8CF7F33A3CF4FDFF30D7D993558EF3AA00501649CF2DABAA98314CFB80174127CF53EFEB2017272361D6C
310
32083EAD3E2DBBA4BC8BC6C5AC3AAFCD2ECA104C04A46EB9E920A88B99652153CC8E702D16A9AE7232057D76194EC96AF4386275DE67CFD6AC20081DC7633D50FCC1688F197BA3F8FD30F6781846D2B3C3D83475C5CB0D163CDAF9795FAD4646A34154841C31A598549F94B5A46E097B214D4B082F37FB1F282DFA9F50B22E
310
BE56FBBB0F2C80A0F991FB40F072CB22977B50B96EB9891F504B0304140006080800C270623B55019EA25F0000007C00000007000000636E782E786D6C4DCB3B0E80201045D1AD90E915ED2CF8AC45050C11660C8261F98AB1B07AC9C97D42D718D865D3E909258CFD00CCE24AC6E326A164D74DC0B4128928FF326038472B
310
A13128B1252AC747C6BAB984FC68F0B87FE8960A5C09FE86CFB69FBA01504B0304140006080800C270623B85AE40E170010000D40300000C0000006662782F636F72652E786D6CC553ED6E8320147D15C2DF4501E7FA15A4593BDF602F40913A53058360FAF8BB7E345D976EE97ECD1F4ACEB9977BCE41F8F6DCD4A8D7AEAB
310
ACC9308B2946DA285B54A6CC70F0C76885D1567067ADFF528691918DCEF00063C14B67433B43CA1AAF8D07D4D842CFA0EC3AED3152352C32DCA90FDDC858060F15DD296EA53AC952C72C061AEA04EFBC0301681A32BCB1381ECE9C4CB8E02154C5CC56054CAB8E9576585096E7EBC59E456F29DB4569FAC2A2D765BE8BF6FB
310
9CEED265BE5A2D124E8666C17DD55CD429A7A5D7051609A5EB88B18826EF2CDDD0C586A64F74B5A19493A1FCA629B4C5834DA132FE3999E54E6D1D160C848CC437B71091479DEC410F119C0C21C2674CF83668080442F6F2505F7C9C00EAB5F2D6A5C014365CA95ED641C3541AD3F1413F2F38993A61EAB839B8BE3B237978
310
C6EF3BC2514B538209E96179087ED0C9270D7368AD7651EFCFC858D7C8FA311BBF38FC1375157F5792B2B575FFA588CC0744E6DF830CF7517C02504B0304140006080800C270623BD959F09C7C0000009D0000000B0000006662782F636E782E786D6C4DCCD10A83201886E15B91FFDC4A2BF0400D0BBD8F581632D3E13476
310
F9ABD1C18E3E78F878F9F0D93D3A6C7ABB180490AA0164C3232E2E6C024A5E310334489E62CC7F374061DEAD808B41F22DC5F2BA69B1EB5C7C3ED5BBF0BCB11F29514A1BACD44471C74C8BC7C968CC28D13D316DC71A06B5E4F5AF74EE15965F504B0304140006080800C270623BD97BE6F829010000120200003100000066
310
62782F35423231414145462D414143322D343846332D424346452D3832314535314633343830382F636F72652E786D6C8D515B6EC32010BC0AE22B55850D0E8EDC081339517C825E8018E2A2C460F1A872FC42ED48ED5F7E58343B333BB0ECF098EEE05B39AFAD6921293004CA0C566A33B630862B6A203870E6AC0D7F6810
310
1831A916661872363A1BE7151AAC09CA84841A2BD50A0AEF558060B8A74B0BFDF0A52651881812C3DF8A590C3731AA8214A99D789CF9E05200B00CC927E4F5B1225D77EE51D79D2A449B7E8B8EA7FE8C9A8A9C6BD26F69831B562E42CE62D472956B99E2E8AB56EE55932CE62CE8E9197F704A042521AF30FE4084205C7D12
310
BAC7BB3DA6EFB8D963CCCA4CFF278AB37C5114B509DB6A8DBBC83CE484954B833369E3E5FE0CA31EB37501E4791BAF8637C87181714D680AB110D3F393E38EAE8E3E5897BE7773BB242EA917DB1DE5ACCC1B4AE5777DA9E66DF21F504B0304140006080800C270623BAB1CAE584E01000033030000300000006662782F3542
310
3231414145462D414143322D343846332D424346452D3832314535314633343830382F636E782E786D6CD593CD6EC32010845F0571AD6CE3D48AD20813A9873E410FBD12D82434182C7EAAE6EDBB2424CD25871E7B41D6EC30B3FA84F9E67BB2E40B4234DE8DB46F1925E094D7C6ED479AD3AE5951B2113C789FEE6C943839
310
C1488B4C05DF079FE72A69D8C96C13AAD6B8631503449F83828872B949AC57D26200B826A308D316B4064D6E46FCDA41C05550DC9E483A00797BFD207EFB092A45DE9514C1BBD22178396BD39D891265658C238DEA00936C654E5E433CB65A26D9F6EDB5EBC14EBF49A45CB856E66048291F6939A9A81BB5C8917738143CA6
310
80F4AA299D66A042CEB3354A2684DC9D8D178FE0D9B8B41CAAD720F880EE7EF93C0C18769E099ECC04D5A102C8049A8A05632F4DDF376CF1DE0F6BB65CB3E189ADD68CF1AED805DF7A6FEB258C81E067A2BC4BE012153DEFCAF811BEEA23DA0464EDC3E90F2011406DBDD0B965FC673EDDF97D23AE807F81F801504B030414
310
0006080800C270623B086A6785630500003C100000340000006662782F35423231414145462D414143322D343846332D424346452D3832314535314633343830382F6F626A656374732E786D6CAD575D739B3814FD2B0CFB0C189BA4CE0EA193D849C6D34DDBA9A79D7DC88C47804CD8006224913AFDF57B040203B65BEF87
310
1F0C12D2FD3CF7E8CA7FBFCB33E3957291B2E2DA74ED8969D02262715A24D76625B7D6DC34DE073E674CF696994641727A6DAA6933F013CEAA524FC5744BAA4C8E66EF6FFF3444440B6A1A514684B83645F44C7362934AB2988A173B2692D8C97667BB76B3702836E1A47C1E092D09A78584A5982F20C5688C7287C389E904
310
BEA3BE07BEFAD7AB66A75739B53F43FD69212429A20365233133D75BDE4D2FAEAC0BCF9B59DEE5D4B56EEF6F9796FB6E36595C2E1657377757502C2487246D09A75B3378406C781AF94EF3A9B3581B7ECCA48815058D6AFFE1616DB39618D3921631F29852016D3DAF27C3A1AB62D3FB3C5363ADB23F7D9E57FD1D3D41ADED
310
EDB36F290BFF820BE21C54704115AA9AF868471BFC4DF6510B19CBF4B75418399194A72433B234E484BF990196AA25813F10A3D0C915C2950766E0EEE5F56D4569FC1ABBC7ACDC5659A6A0690635B237C03F95A2B62CFD41F9716DB009B9AAD242CEB543F2ADA46670E53BF564E0ABC76CAA3F368134B619499072B8D97C1D
310
39BA50B5B75A9AC187FB70B756F5785C79C95949B954F001B4DAC4B54F1525ADD63D2B736A039C19C47C1F942F88FC4794EFDE14E48DA73B6FE7692D9293426C19CF911B7B52FF8C49FB62756F872FE0B3D1EAC335DDCCBF5AEC3B9DB143C238953F804BA566FEDFF3378C591FA9BDF405FE2B0A8CF1990EE53A2219A8E731
310
2D9010054A23639802976FC39D19ACC0946076EC2259D005E4E0C5775EF11DFF8D6CB055ADBEF72C90D011DF9EC1FC88655D16B0ED04580E78B256AC9D3B15F38BFFA5666E96EB0FEB8A6F49441F35B12CE9362D5289B3730FDEBE4183440C3C7AA16FDF198FE1E86112D6FD24E45A9540B455CC55E093F6B05083BDE68182
310
08FB12A638CFFF8586C7544434CB484159D56AE98E2185D58E64749F802A6C023A9B8E50CCE96BAA3A89C18A815938EB239E962A64DDA1D7F1B47DC297AFAB8F00A519DCBEFD41DEFA8419EEE93E6219E39BF06DD330A109F061CF10DDDF86F0D61175941420BEC6724B393AC49B38DD6E2B01DE3D12C56FAB453F531D911C
310
BEB405D46A6C6AD2033BA3F608D7F06D75A221E004073B2B36298E7194E551E57DDD6305A2967B427E58E5E586E4AC2AE439619AB4FEB4D677C2FB5D8CF84E64F46C06EBFA69DD82B2631A9F48A83A828EF83448CFDD7436F196D3B975E9CEDF599E37B9B4E6DE9D67B9B7939BC9D5E5D5727E83F00F2BA03DA1FA358868E2
310
44F42B9EEA307F5DEDCBD60C1E8914CE4353504ED23CBFAE6CB4C5BE833D0078B771959719CD69218982EFA37AC9BE1074150319CDFC2A27093D43CAA787F5C806CC9CB1EFB32A35FA7DB457CF2E542D1C15229FAB3C2C489A8D366AC7EDB248B4DB6D28BB67C3E8ED508D743CD1870A96A53108273612CA722A413B67B03D
310
CFA90062FA5D79AC6F0F67EC7E6DFA4149C28CB6963C13B4C49900AA413A552487F3C66F68E15417756DE2B0B35FF0A70BD13490EA6B13FC26D3880A3BC4F1A81A9F5A3820802EAC2341809E144986CEBAD9D48DBB5D2A36A01F9C805A7FB7E49C6E49FB3520DE9C94254EED01ADD6B66905D13F72BC35C72012AF61253B5F
310
F6139D33B59A005C0377BA075A8817AD7A87FAFAB95BAE5DAF1944E4AC7BD24F41D048B524E1497D2F5041D726DD2C3F3B68058CD527A3CCAA04B93C5F92C529C05CA902078A800A2DB32412505DFCFEF49933DC4573E33E05049E162CCF59A10737FA2E6BAC9F71338D9F400B545D3FC474E2BA4F75D7AF2F229B90086A93
310
58BC60A22D38E5C1086B00E4C171AAAF678ECAC168F96A69E803C383D01AB4074D69730D37503CEAE6A84AA54F96E54F1B7FA75E0A1470B4ECC1DF504B0304140006080000C270623B000000000000000000000000350000006662782F35423231414145462D414143322D343846332D424346452D38323145353146333438
310
30382F76657274696365732E62696E504B0304140006080800C270623BF270F1330600000004000000360000006662782F35423231414145462D414143322D343846332D424346452D3832314535314633343830382F747269616E676C65732E62696E636660600000504B0304140006080000C270623B0000000000000000
310
00000000370000006662782F35423231414145462D414143322D343846332D424346452D3832314535314633343830382F617474726962757465732E62696E504B0304140006080800C270623B08DA0BD19000000041010000360000006662782F35423231414145462D414143322D343846332D424346452D383231453531
310
4633343830382F6469726563746F72792E786D6C858F410AC3201045AF22B36F53E9A60B35CBEEBAE80D244E44489C6234F4F835464A48035D0DF398FF9F8AF63D0E6CC63039F212F8F9020C7D47C6792B21C5FE7403D62A1188E2E60C98D7234A5830286103A55745067B9D86B8A3CF9C7F90C11DE607FB144396D7B6A82D
310
282E9A152AD114D5EF2CB866EEE831B8EEA07A7BB5A8D7D61A2BAAEB7FD5F70921FF497D00504B0304140006080800C270623B7FFB76DCFC000000A00100003B0000006662782F35423231414145462D414143322D343846332D424346452D3832314535314633343830382F7265736F75726365732F636F72652E786D6C8D
310
504B6E833010BD0A9A6D65B029250419478572835EC032136A25D8C89FAAC7AF09546A77DDCC8CDE47F3F4F8E56BB9679FE8BCB6A6039653C8D0283B69337710C39534905D0477D6865F32C88C5CB0830D06C16767E37A40CA9A802624D4D8090F507A8F0132754F47075E7DE02273194352F85BBE4A759333E62C4F74D209
310
EE834B01B2FDC9364138F4363A859E173B2B788C7A3A347A4A3FF555A30341D9389EEB8192B78AF5A4AA5E18793D8D3D198691F6D5696C9ABAE4C566163CE8E527A37228034E204A4ACF843142CB7756B5B46E69F5449B96525E6CF23FA6B84EFF34456DC27379C4DD6D1E044B411E84E0C5D6575A8F32D3DEBA15DF504B01
310
0214000A0000080000C270623B3DEE336E79000000790000001B00000000000000000000000000000000006175746F6465736B2D64657369676E2D7061636B6167652E786D6C504B01021400140006080800C270623BD486FD9CA0000000F40000001300000000000000000000000000B20000005B436F6E74656E745F5479
310
7065735D2E786D6C504B01021400140006080800C270623B6C505844EA0000007C010000080000000000000000000000000083010000636F72652E786D6C504B01021400140006080800C270623B55019EA25F0000007C000000070000000000000000000000000093020000636E782E786D6C504B01021400140006080800
310
C270623B85AE40E170010000D40300000C00000000000000000000000000170300006662782F636F72652E786D6C504B01021400140006080800C270623BD959F09C7C0000009D0000000B00000000000000000000000000B10400006662782F636E782E786D6C504B01021400140006080800C270623BD97BE6F829010000
310
120200003100000000000000000000000000560500006662782F35423231414145462D414143322D343846332D424346452D3832314535314633343830382F636F72652E786D6C504B01021400140006080800C270623BAB1CAE584E010000330300003000000000000000000000000000CE0600006662782F354232314141
310
45462D414143322D343846332D424346452D3832314535314633343830382F636E782E786D6C504B01021400140006080800C270623B086A6785630500003C10000034000000000000000000000000006A0800006662782F35423231414145462D414143322D343846332D424346452D3832314535314633343830382F6F62
310
6A656374732E786D6C504B01021400140006080000C270623B00000000000000000000000035000000000000000000000000001F0E00006662782F35423231414145462D414143322D343846332D424346452D3832314535314633343830382F76657274696365732E62696E504B01021400140006080800C270623BF270F1
310
3306000000040000003600000000000000000000000000720E00006662782F35423231414145462D414143322D343846332D424346452D3832314535314633343830382F747269616E676C65732E62696E504B01021400140006080000C270623B0000000000000000000000003700000000000000000000000000CC0E0000
310
6662782F35423231414145462D414143322D343846332D424346452D3832314535314633343830382F617474726962757465732E62696E504B01021400140006080800C270623B08DA0BD190000000410100003600000000000000000000000000210F00006662782F35423231414145462D414143322D343846332D424346
310
452D3832314535314633343830382F6469726563746F72792E786D6C504B01021400140006080800C270623B7FFB76DCFC000000A00100003B00000000000000000000000000051000006662782F35423231414145462D414143322D343846332D424346452D3832314535314633343830382F7265736F75726365732F636F
310
72652E786D6C504B0506000000000E000E00800400005A1100000000
  0
XRECORD
  5
16C
102
{ACAD_REACTORS
330
16A
102
}
330
16A
100
AcDbXrecord
280
     1
270
     1
271
     1
  0
XRECORD
  5
16B
102
{ACAD_REACTORS
330
16A
102
}
330
16A
100
AcDbXrecord
280
     1
270
     1
271
     1
  0
XRECORD
  5
1F2
102
{ACAD_REACTORS
330
16A
102
}
330
16A
100
AcDbXrecord
280
     1
 70
     0
 90
1673772943
  1
AEB1D1DA-B7DF-4CBA-830A-738AA2653737
310
504B03040A0000080000C270623B3DEE336E79000000790000001B0000006175746F6465736B2D64657369676E2D7061636B6167652E786D6C3C3F786D6C2076657273696F6E3D22312E302220656E636F64696E673D227574662D3822203F3E3C666F726D6174733E3C666F726D61743E687474703A2F2F736368656D612E
310
6175746F6465736B2E636F6D2F64657369676E2D7061636B6167652F323030393C2F666F726D61743E3C2F666F726D6174733E504B0304140006080800C270623BD486FD9CA0000000F4000000130000005B436F6E74656E745F54797065735D2E786D6C7D8EC10E82300C865F65E91D8A1E8C310C0EEA1BF002731658846E
310
D98AC1B77784ABF1D8FE5FBFBF75BBCE937A534CCEB38643598122B6FEE978D0B0485F9C41B54DDD7D022595594E1A469170414C76A4D9A4D207E29CF43ECE46F218070CC6BECC4078ACAA135ACF422C856C0E68EA1BF5669944DDD7BCDE7B1F8E415D77AECB980613C2E4AC91FC167A2B244592486606FC29C8FD7F045B9A
310
EF7053A7E60B504B0304140006080800C270623BC5983BD0EB0000007C01000008000000636F72652E786D6C8D904D6EC3201085AF82665B6103F1BF3091AB2427E80510262E4A0C9681AAC72F4E1CA9DD7535A337EF9B193D7EFC9EEFE84BAFDE38DB03CD08206D951B8D9D7A88E18A1B4047C157E7C22F1B202B67DDC326
310
83E0D3EAE2B24BCAD9A06D48AA75A3DE45E9BD0E80D43D353D78F5A96799C91892C3DFB245AA9B9C74465F5D826334237A1E3163DA67AE46AF20CABAA887E1FD82D9401A5C9CCA136ED8E58CEBF650B2BAA8CE557BE6F9060B1ECCFCBAAF562D831E4130425A4C2926EC83161DA93A52BC91A62384E79BFD0F1497F19F5034
310
361CD8FEEE13F320687AE431103CDFB248E51154AA5B6EE207504B0304140006080800C270623B55019EA25F0000007C00000007000000636E782E786D6C4DCB3B0E80201045D1AD90E915ED2CF8AC45050C11660C8261F98AB1B07AC9C97D42D718D865D3E909258CFD00CCE24AC6E326A164D74DC0B4128928FF32603847
310
2BA13128B1252AC747C6BAB984FC68F0B87FE8960A5C09FE86CFB69FBA01504B0304140006080800C270623BEE35DAD072010000D40300000C0000006662782F636F72652E786D6CC553ED6E8230147D95A67F1768411435A5C6457D82BD4085CA1AA125A5253EFE2E1FC6B938E37E8D1FD09C736FEF39A7946D2E75853A69
310
5B657486A3906224756E0AA5CB0C7B770A96186D38B3C6B86F65186951CB0CF730E6ACB4C63713941BEDA476806A53C809146D2B1D4679058B0CB7F9A7AC4528BC838AF61C36223F8B5286510834D471D63A0B02D038A47F637E3A5E181971CEBC57C5C4AA02A6A9939216F3799AA4DBEDFB2188B7741924BBF92E58C6877D
310
90AE66F3384D16FBC56ACF48DFCC9953F5555D6EA570B2C03CA67415445140E38F2859D3C59A266F74B9A69491BEFCAEC937C58B4D5E69378B27B9635B8B79044206E2875B88C8A15674A0877046FA10E133247C1F340402213B71ACAE3ECE00753277C626C014C6DFA84E545EC2541AD2E141BF2F18193B61EAB039B87E38
310
237E79C6F31DE1A8852EC18470B03C7AD7EB64A38629B446DAA07317A48DAD45F59A8D270EFF44DDC43F94949BCAD8FF5244A60322D3EF41FAFBC8BF00504B0304140006080800C270623BD65DADFA7E0000009D0000000B0000006662782F636E782E786D6C4DCCD10A83201886E15B91FFDC651665A0C64C771FB12C62A6
310
C3E9D8E5AF46073BFAE0E1E3E5FD6773E86DE36B0D5E40792180ACBF8769F58B809C66CC00F592C710D2DF0D901F372BE060907C89213F4F9AEC3C66977675AB7F9C488DBA1A4309AE06D6E25ADD4ADCB5BAC2A4D1BAA135EBD440A190BCF895F63DC2F20B504B0304140006080800C270623B16D345222A01000012020000
310
310000006662782F32454241454532302D334338372D344246312D393744332D3036444436323438394243322F636F72652E786D6C8D515B6EC32010BC0AE2AB55850DC4719C0813358F9EA01720405294182C1E558E5FA81DA9FDCB0F8B66676607966DEFC30D7C6B1F8CB33D241586405BE994B1971EA678461D045BCEBC
310
73F10F0D022B06DDC30243CE2EDEA57186A4B351DB9851EB949E4111828E10C85BBEF430C82F3D884AA49819E15A8D425EC54557A4CAEDCCE32C449F038069483921A7C7DDFBF148315AECBB156A761F04AD578705C2EDE1D0D2A65BEFF694D59390B3948C9AE546E538E66CB47FD6A488398B6678C4975E8BA855D663BC46
310
84204C3F49B3C1ED06376FB8DB60CCEA42FF274AA37A52948C8D0B3AC79D640172C2EAA9C19972E9747B84D1F7D1F908CABC97A0E52BE4B8C2784968CBEA89989F9F1DDB66760CD1F9FCBD2FD753E692E564DB369CD56543B9FCAE2FD7B24DFE03504B0304140006080800C270623BAB1CAE584E0100003303000030000000
310
6662782F32454241454532302D334338372D344246312D393744332D3036444436323438394243322F636E782E786D6CD593CD6EC32010845F0571AD6CE3D48AD20813A9873E410FBD12D82434182C7EAAE6EDBB2424CD25871E7B41D6EC30B3FA84F9E67BB2E40B4234DE8DB46F1925E094D7C6ED479AD3AE5951B2113C78
310
9FEE6C943839C1488B4C05DF079FE72A69D8C96C13AAD6B8631503449F83828872B949AC57D26200B826A308D316B4064D6E46FCDA41C05550DC9E483A00797BFD207EFB092A45DE9514C1BBD22178396BD39D891265658C238DEA00936C654E5E433CB65A26D9F6EDB5EBC14EBF49A45CB856E66048291F6939A9A81BB5C8
310
917738143CA680F4AA299D66A042CEB3354A2684DC9D8D178FE0D9B8B41CAAD720F880EE7EF93C0C18769E099ECC04D5A102C8049A8A05632F4DDF376CF1DE0F6BB65CB3E189ADD68CF1AED805DF7A6FEB258C81E067A2BC4BE012153DEFCAF811BEEA23DA0464EDC3E90F2011406DBDD0B965FC673EDDF97D23AE807F81F8
310
01504B0304140006080800C270623B849BF81A650500003B100000340000006662782F32454241454532302D334338372D344246312D393744332D3036444436323438394243322F6F626A656374732E786D6CAD575B739B3814FE2B0CFB0C98D869921D42C797A6E3E9A4CDD4D3CE3E64C62340266C406224913AFBEBF713
310
080CD869BD173F18248ECEF53B1705EFF7456EBD502133CE6E6DDF9DD81665314F3296DEDA95DA39D7B6F53E0C04E7AA47665B8C14F4D6D6DB7618A48257A5D94AE88E54B91AEDDE2DFEB0644C19B5AD382752DEDA327EA2057149A57842E5B39B1045DC74B7777DB7211CB24D05299F464C4B222853D014FB0C5CAC46297F
310
B89CD85E1878FA7B18E87F43357D9BCAABED19CACF985484C547C2466CA6FE6CF5E1E2F2C6B99CCDA6CEECDD85EF2CEE162BC7BF9A4E96EF96CB9BF9871B08964A8093D144D09D1D7E846F4416075EF3A9D3D8287E4AA5983346E3DA7E5858EB6C3826B4A42C411C332A21AD67F564B8F4B56F7A9FA77A6D44F6B7CFB3AA7F
310
A2C7A8D5BD7DF635E5D19F30419E830A21A94655E31F636883BFC9C16B11E7B9F99649AB208A8A8CE4569E458288573B04A9260983011B8D4EA111AE2DB043FFC0AFAF2B52E3D7D83DA5E5AECA730D4D3BAC91BD05FEA992B566D95F549C96069D10AB2A63EADA18A45E4B6A873781576F86817E4C2FCCC7C691D62E272942
310
0E339BAF2343973AF7D62B3BFC7417ED373A1F4F0B2F052FA9501A3E80561BB8F6A9BD64C4FA67454E1F8031039F1F9CF2159EFF8CF43DA882B8896C3FDBCF8C142508933B2E0AC4C69DD43F6BD2BE38DDDBF10BEAD988FA98A6DBF957C481D7293B2C186FC50FE0D2A1B9FEEFF11BFAAC8FD45EF8C2E00509C6C5D4B87213
310
931CA5E73E63088806A595736CA196EFA2BD1DAE512951D9718AE461E790A397C07BC177FC37BC51AD6AF1BD27434047F5F68CCA0F5FD66901DDDE00CB519DAC051BE3DEF2F9E5FF9233F3D5E6D3A6123B12D37B5358567497B14CA1771EC0DB576810888145CFF4F50717090C3D0EC2A61F84C28892F0B6F6B9767CDA360B
310
BD38481E0888712EE5BAE605BF90709FC998E639619457AD94AE0D69AC7645C6CC09C8C2C6A1D38B118A057DC9F42431A018A8855E1F8BACD42EEB9A5E57A7DD376CF9B6FE0C50823EE711C90F44D1A1DAC73CE7621BBD6E9B4268037B383204F7F721BA8D433DCD0580AFA1DC561CE3E16D92ED769544D93DE1C4EFEB653F
310
505D1D397E69F3A795D8A4E40CC519A94784416F2B13F38020E8EB9C6D33747164E549E17DD96301B2E6FB06FFA82ACA2D2978C5D4396E9AB4F6B4DA77CCFB438CFC4154FC64879BFAE92C50B1139A1C42350081EE40276C1A8467FE61E1AFFCD5DC595CADEE9CD9723177AEA793B97335BD9ECF2FDE5D4EAFA6579D46B526
310
61D036A87E0AC29B6888412532E3E66FEB43D6DAE13D51D2FBD8E4939736CF6F6B175371E0E10CF0DD1D5C17654E0BCA14D1E8BDD72FF95782A162C0A3D95F1724A56770F9F27133D2013B679C7BD099467F8CCE9ADDA5CE85934CD45355448C64F9E8A031DC2D596ACC6E5DD93D9B82DE2EF5CAF81363A8E47996A0DE2456
310
4A794115AACE19C55E14540231FDA13C319787334EBF34E3A022514E5B4D9E0826E25C02D5805B15ABE1BEF51B26383D44DDDAE875EE33FE4C22DA16427D6BA3BCA92CA6D28DD01DF5DC53330704308475351050232CCD31583787BA75774AFB06E5070DD0C8EF48CE19968C5D83BA5B90B244D31E54D55A372320FE4786B7
310
EA5844E135AA5467CB61A333A61683CC6A8C3257034C10CF46F41EF9F573B37CB7A61978E4AC6BD24F41D070751411697D2DD0FA1995E6AB070F9380B5FE629579952296E773720405982B9DE04011506178964401AACBDF1F1F04C755B4B0EE3240E071C98B8233B3989BABACB579C2C534794459A0FAF6212F26BEFF580F
310
FDE61EB28D88A42E49E43336DA84D3168CB006401E755313024FC76044BE5E59A661CCC0B406EDD14CDADCC22D248FBE38EA54E917CBF2A773BF5793020C02137BF837504B0304140006080000C270623B000000000000000000000000350000006662782F32454241454532302D334338372D344246312D393744332D3036
310
444436323438394243322F76657274696365732E62696E504B0304140006080800C270623BF270F1330600000004000000360000006662782F32454241454532302D334338372D344246312D393744332D3036444436323438394243322F747269616E676C65732E62696E636660600000504B0304140006080000C270623B
310
000000000000000000000000370000006662782F32454241454532302D334338372D344246312D393744332D3036444436323438394243322F617474726962757465732E62696E504B0304140006080800C270623B08DA0BD19000000041010000360000006662782F32454241454532302D334338372D344246312D393744
310
332D3036444436323438394243322F6469726563746F72792E786D6C858F410AC3201045AF22B36F53E9A60B35CBEEBAE80D244E44489C6234F4F835464A48035D0DF398FF9F8AF63D0E6CC63039F212F8F9020C7D47C6792B21C5FE7403D62A1188E2E60C98D7234A5830286103A55745067B9D86B8A3CF9C7F90C11DE607
310
FB144396D7B6A82D282E9A152AD114D5EF2CB866EEE831B8EEA07A7BB5A8D7D61A2BAAEB7FD5F70921FF497D00504B0304140006080800C270623BAD7266E1FD000000A00100003B0000006662782F32454241454532302D334338372D344246312D393744332D3036444436323438394243322F7265736F75726365732F63
310
6F72652E786D6C8D50596E833010BD0A9ADFCA6008BB8C23AAD013F4029699502BC1465EAA1EBF26A152FBD79F99D15B344F8F9DBFD67BF289D629A307C8530A096A6966A5970182BF9216923367D618FF4B0689162B0EB0C3C0D9624DD80E481AED51FB886A33E3010AE7D04322EFF118C0C90F5C452A828F0A774B37216F
310
62C1344F231D759C396F6380E4F9649FC02D3A13AC44C7B227CB59086A3E346A8E3FD555A1055E3565338EAF132946DA92F2525D485BBC4DA4E94E55D194F5547713CB7633675EAD3F19A545E171065E50DA913C27B478CFCB9ED63D2D5F68DB53CAB25DFEC714B6F99FA6A0B43F1547DCA7CD01CF639007C159B6F715D7A3
310
CCB8F76EF937504B010214000A0000080000C270623B3DEE336E79000000790000001B00000000000000000000000000000000006175746F6465736B2D64657369676E2D7061636B6167652E786D6C504B01021400140006080800C270623BD486FD9CA0000000F40000001300000000000000000000000000B20000005B43
310
6F6E74656E745F54797065735D2E786D6C504B01021400140006080800C270623BC5983BD0EB0000007C010000080000000000000000000000000083010000636F72652E786D6C504B01021400140006080800C270623B55019EA25F0000007C000000070000000000000000000000000094020000636E782E786D6C504B01
310
021400140006080800C270623BEE35DAD072010000D40300000C00000000000000000000000000180300006662782F636F72652E786D6C504B01021400140006080800C270623BD65DADFA7E0000009D0000000B00000000000000000000000000B40400006662782F636E782E786D6C504B01021400140006080800C27062
310
3B16D345222A0100001202000031000000000000000000000000005B0500006662782F32454241454532302D334338372D344246312D393744332D3036444436323438394243322F636F72652E786D6C504B01021400140006080800C270623BAB1CAE584E010000330300003000000000000000000000000000D406000066
310
62782F32454241454532302D334338372D344246312D393744332D3036444436323438394243322F636E782E786D6C504B01021400140006080800C270623B849BF81A650500003B1000003400000000000000000000000000700800006662782F32454241454532302D334338372D344246312D393744332D303644443632
310
3438394243322F6F626A656374732E786D6C504B01021400140006080000C270623B0000000000000000000000003500000000000000000000000000270E00006662782F32454241454532302D334338372D344246312D393744332D3036444436323438394243322F76657274696365732E62696E504B0102140014000608
310
0800C270623BF270F133060000000400000036000000000000000000000000007A0E00006662782F32454241454532302D334338372D344246312D393744332D3036444436323438394243322F747269616E676C65732E62696E504B01021400140006080000C270623B000000000000000000000000370000000000000000
310
0000000000D40E00006662782F32454241454532302D334338372D344246312D393744332D3036444436323438394243322F617474726962757465732E62696E504B01021400140006080800C270623B08DA0BD190000000410100003600000000000000000000000000290F00006662782F32454241454532302D33433837
310
2D344246312D393744332D3036444436323438394243322F6469726563746F72792E786D6C504B01021400140006080800C270623BAD7266E1FD000000A00100003B000000000000000000000000000D1000006662782F32454241454532302D334338372D344246312D393744332D3036444436323438394243322F726573
310
6F75726365732F636F72652E786D6C504B0506000000000E000E0080040000631100000000
  0
XRECORD
  5
16D
102
{ACAD_REACTORS
330
16A
102
}
330
16A
100
AcDbXrecord
280
     1
270
     1
271
     1
  0
XRECORD
  5
16E
102
{ACAD_REACTORS
330
16A
102
}
330
16A
100
AcDbXrecord
280
     1
270
     1
271
     1
  0
XRECORD
  5
308F
102
{ACAD_REACTORS
330
22B
102
}
330
22B
100
AcDbXrecord
280
     1
102
DISPLAYNAME
  1
Metric50
102
FLAGS
 90
        0
  0
CELLSTYLEMAP
  5
308E
102
{ACAD_REACTORS
330
159
102
}
330
159
100
AcDbCellStyleMap
 90
        3
300
CELLSTYLE
  1
TABLEFORMAT_BEGIN
 90
        5
170
     1
 91
        0
 92
    32768
 62
   257
 93
        1
300
CONTENTFORMAT
  1
CONTENTFORMAT_BEGIN
 90
        0
 91
        0
 92
      512
 93
        0
300

 40
0.0
140
1.0
 94
        5
 62
     0
340
11
144
6.0
309
CONTENTFORMAT_END
171
     1
301
MARGIN
  1
CELLMARGIN_BEGIN
 40
1.5
 40
1.5
 40
1.5
 40
1.5
 40
4.5
 40
4.5
309
CELLMARGIN_END
 94
        6
 95
        1
302
GRIDFORMAT
  1
GRIDFORMAT_BEGIN
 90
        0
 91
        1
 62
     0
 92
       -2
340
14
 93
        0
 40
1.125
309
GRIDFORMAT_END
 95
        2
302
GRIDFORMAT
  1
GRIDFORMAT_BEGIN
 90
        0
 91
        1
 62
     0
 92
       -2
340
14
 93
        0
 40
1.125
309
GRIDFORMAT_END
 95
        4
302
GRIDFORMAT
  1
GRIDFORMAT_BEGIN
 90
        0
 91
        1
 62
     0
 92
       -2
340
14
 93
        0
 40
1.125
309
GRIDFORMAT_END
 95
        8
302
GRIDFORMAT
  1
GRIDFORMAT_BEGIN
 90
        0
 91
        1
 62
     0
 92
       -2
340
14
 93
        0
 40
1.125
309
GRIDFORMAT_END
 95
       16
302
GRIDFORMAT
  1
GRIDFORMAT_BEGIN
 90
        0
 91
        1
 62
     0
 92
       -2
340
14
 93
        0
 40
1.125
309
GRIDFORMAT_END
 95
       32
302
GRIDFORMAT
  1
GRIDFORMAT_BEGIN
 90
        0
 91
        1
 62
     0
 92
       -2
340
14
 93
        0
 40
1.125
309
GRIDFORMAT_END
309
TABLEFORMAT_END
  1
CELLSTYLE_BEGIN
 90
        1
 91
        1
300
_TITLE
309
CELLSTYLE_END
300
CELLSTYLE
  1
TABLEFORMAT_BEGIN
 90
        5
170
     1
 91
        0
 92
        0
 62
   257
 93
        1
300
CONTENTFORMAT
  1
CONTENTFORMAT_BEGIN
 90
        0
 91
        0
 92
      512
 93
        0
300

 40
0.0
140
1.0
 94
        5
 62
     0
340
11
144
4.5
309
CONTENTFORMAT_END
171
     1
301
MARGIN
  1
CELLMARGIN_BEGIN
 40
1.5
 40
1.5
 40
1.5
 40
1.5
 40
4.5
 40
4.5
309
CELLMARGIN_END
 94
        6
 95
        1
302
GRIDFORMAT
  1
GRIDFORMAT_BEGIN
 90
        0
 91
        1
 62
     0
 92
       -2
340
14
 93
        0
 40
1.125
309
GRIDFORMAT_END
 95
        2
302
GRIDFORMAT
  1
GRIDFORMAT_BEGIN
 90
        0
 91
        1
 62
     0
 92
       -2
340
14
 93
        0
 40
1.125
309
GRIDFORMAT_END
 95
        4
302
GRIDFORMAT
  1
GRIDFORMAT_BEGIN
 90
        0
 91
        1
 62
     0
 92
       -2
340
14
 93
        0
 40
1.125
309
GRIDFORMAT_END
 95
        8
302
GRIDFORMAT
  1
GRIDFORMAT_BEGIN
 90
        0
 91
        1
 62
     0
 92
       -2
340
14
 93
        0
 40
1.125
309
GRIDFORMAT_END
 95
       16
302
GRIDFORMAT
  1
GRIDFORMAT_BEGIN
 90
        0
 91
        1
 62
     0
 92
       -2
340
14
 93
        0
 40
1.125
309
GRIDFORMAT_END
 95
       32
302
GRIDFORMAT
  1
GRIDFORMAT_BEGIN
 90
        0
 91
        1
 62
     0
 92
       -2
340
14
 93
        0
 40
1.125
309
GRIDFORMAT_END
309
TABLEFORMAT_END
  1
CELLSTYLE_BEGIN
 90
        2
 91
        1
300
_HEADER
309
CELLSTYLE_END
300
CELLSTYLE
  1
TABLEFORMAT_BEGIN
 90
        5
170
     1
 91
        0
 92
        0
 62
   257
 93
        1
300
CONTENTFORMAT
  1
CONTENTFORMAT_BEGIN
 90
        0
 91
        0
 92
      512
 93
        0
300

 40
0.0
140
1.0
 94
        2
 62
     0
340
11
144
4.5
309
CONTENTFORMAT_END
171
     1
301
MARGIN
  1
CELLMARGIN_BEGIN
 40
1.5
 40
1.5
 40
1.5
 40
1.5
 40
4.5
 40
4.5
309
CELLMARGIN_END
 94
        6
 95
        1
302
GRIDFORMAT
  1
GRIDFORMAT_BEGIN
 90
        0
 91
        1
 62
     0
 92
       -2
340
14
 93
        0
 40
1.125
309
GRIDFORMAT_END
 95
        2
302
GRIDFORMAT
  1
GRIDFORMAT_BEGIN
 90
        0
 91
        1
 62
     0
 92
       -2
340
14
 93
        0
 40
1.125
309
GRIDFORMAT_END
 95
        4
302
GRIDFORMAT
  1
GRIDFORMAT_BEGIN
 90
        0
 91
        1
 62
     0
 92
       -2
340
14
 93
        0
 40
1.125
309
GRIDFORMAT_END
 95
        8
302
GRIDFORMAT
  1
GRIDFORMAT_BEGIN
 90
        0
 91
        1
 62
     0
 92
       -2
340
14
 93
        0
 40
1.125
309
GRIDFORMAT_END
 95
       16
302
GRIDFORMAT
  1
GRIDFORMAT_BEGIN
 90
        0
 91
        1
 62
     0
 92
       -2
340
14
 93
        0
 40
1.125
309
GRIDFORMAT_END
 95
       32
302
GRIDFORMAT
  1
GRIDFORMAT_BEGIN
 90
        0
 91
        1
 62
     0
 92
       -2
340
14
 93
        0
 40
1.125
309
GRIDFORMAT_END
309
TABLEFORMAT_END
  1
CELLSTYLE_BEGIN
 90
        3
 91
        2
300
_DATA
309
CELLSTYLE_END
  0
ENDSEC
  0
SECTION
  2
ACDSDATA
 70
     2
 71
     8
  0
ACDSSCHEMA
 90
        0
  1
AcDb_Thumbnail_Schema
  2
AcDbDs::ID
280
    10
 91
        8
  2
Thumbnail_Data
280
    15
 91
        0
101
ACDSRECORD
 95
        0
 90
        1
  2
AcDbDs::TreatedAsObjectData
280
     1
291
     1
101
ACDSRECORD
 95
        0
 90
        2
  2
AcDbDs::Legacy
280
     1
291
     1
101
ACDSRECORD
  1
AcDbDs::ID
 90
        3
  2
AcDs:Indexable
280
     1
291
     1
101
ACDSRECORD
  1
AcDbDs::ID
 90
        4
  2
AcDbDs::HandleAttribute
280
     7
282
     1
  0
ACDSSCHEMA
 90
        1
  1
AcDbDs::TreatedAsObjectDataSchema
  2
AcDbDs::TreatedAsObjectData
280
     1
 91
        0
  0
ACDSSCHEMA
 90
        2
  1
AcDbDs::LegacySchema
  2
AcDbDs::Legacy
280
     1
 91
        0
  0
ACDSSCHEMA
 90
        3
  1
AcDbDs::IndexedPropertySchema
  2
AcDs:Indexable
280
     1
 91
        0
  0
ACDSSCHEMA
 90
        4
  1
AcDbDs::HandleAttributeSchema
  2
AcDbDs::HandleAttribute
280
     7
 91
        1
284
     1
  0
ACDSRECORD
 90
        0
  2
AcDbDs::ID
280
    10
320
22
  2
Thumbnail_Data
280
    15
 94
     3869
310
89504E470D0A1A0A0000000D49484452000001340000010008030000000AB47A1600000300504C5445212830000000C8C8C80000000000000000000000000000000000000000000000000000330000660000990000CC0000FF0033000033330033660033990033CC0033FF0066000066330066660066990066CC0066FF0099
310
000099330099660099990099CC0099FF00CC0000CC3300CC6600CC9900CCCC00CCFF00FF0000FF3300FF6600FF9900FFCC00FFFF3300003300333300663300993300CC3300FF3333003333333333663333993333CC3333FF3366003366333366663366993366CC3366FF3399003399333399663399993399CC3399FF33CC00
310
33CC3333CC6633CC9933CCCC33CCFF33FF0033FF3333FF6633FF9933FFCC33FFFF6600006600336600666600996600CC6600FF6633006633336633666633996633CC6633FF6666006666336666666666996666CC6666FF6699006699336699666699996699CC6699FF66CC0066CC3366CC6666CC9966CCCC66CCFF66FF0066
310
FF3366FF6666FF9966FFCC66FFFF9900009900339900669900999900CC9900FF9933009933339933669933999933CC9933FF9966009966339966669966999966CC9966FF9999009999339999669999999999CC9999FF99CC0099CC3399CC6699CC9999CCCC99CCFF99FF0099FF3399FF6699FF9999FFCC99FFFFCC0000CC00
310
33CC0066CC0099CC00CCCC00FFCC3300CC3333CC3366CC3399CC33CCCC33FFCC6600CC6633CC6666CC6699CC66CCCC66FFCC9900CC9933CC9966CC9999CC99CCCC99FFCCCC00CCCC33CCCC66CCCC99CCCCCCCCCCFFCCFF00CCFF33CCFF66CCFF99CCFFCCCCFFFFFF0000FF0033FF0066FF0099FF00CCFF00FFFF3300FF3333
310
FF3366FF3399FF33CCFF33FFFF6600FF6633FF6666FF6699FF66CCFF66FFFF9900FF9933FF9966FF9999FF99CCFF99FFFFCC00FFCC33FFCC66FFCC99FFCCCCFFCCFFFFFF00FFFF33FFFF66FFFF99FFFFCCFFFFFF0000000D0D0D1A1A1A2828283535354343435050505D5D5D6B6B6B787878868686939393A1A1A1AEAEAEBB
310
BBBBC9C9C9D6D6D6E4E4E4F1F1F1FFFFFF000000000000000000000000000000000000000000000000000000000000B21171F6000007A34944415478DAED9D5BBAAB200C85339CBC74FE93711ABEEF6A01C3450404B6E05ADFD9A7AD555AFE061234201104411004411004411004411004411004411004414FD20AFD045328
310
301E585ABE91ADCD084F6C6480D601DAF26A95426BFE5B1E9FB02C69FB45362DE5A585CB7F2E34DEA5ABC9D6DB2CF723F3C7C72676A0FD0ACB2E6D21BFB461A0A93AFFFE3F1E8F6AB2DA5D1E6AB6B8D0D24B5BC82F6D206824AAB9BD72F63BCC612116504EA0A596767C8FF1A01933D20D8AE57E24EB448B6549216819A52D
310
E497368A23100DC402B49B15ED9622A0B1B3FB525E9AD3D6558B1DCAD2583725ABF9A8D7BEA5691B3AB1B494D284A599D2C6F19EAA2A64BA6EE9EF74AF7440D39B29D8A7A597B6905FDA48D0EEC5697E4B9D304E5B961FB45A617CC5C2C6B73466769C61DCD2D853B4B4614704A1EA45A0F94000ED0C9A793F0E2DFAD50387
310
0E3DF6BC6C9E917ABE061A1C014E0DFD5F9F16E8BE97406F5E354EF33FF885D04E3DE70BA1253B823BD0E03D0B9A27BC27BC27BC67BC4F0B379F4247E014FB226859A786000DE7D3701212DEF3C9DED36FB3F09E89230234CF2C68E8D30A8751800668F09E4FB4348623C870046E5A0AA0E54183F72C689E80064730A5000D
310
D0000DD0000DD0000DD05E09ED3CE711D0000DD06A42E38ED0781A683DF5624B2B6FD78006688006689DA0710758800668800668CDA1A945B39A43FB7ECE44D07E8BADF1B1F0D8E7F8FBEC4FBE8F5FADDBBF7DE3476FDF9F9857FAE0DFCB8FDCFA5BCF6C26681B900DDAF640DF57DB06FDB73D907AB26F22F9281E5471E6A0
310
DF7F0AFF5EF644D0BEB80CB4EF0B32AC7610921AD9CCC87ED00DD11CB46FB7A1ADF340739BA7DBAC024AD825B4DC60BF4EAD39B4DD119833105B03BD3EEA73FA7D387826457DD02CD058D46B3B7033A2D48F4886D63DE8680B8D9D6A7DBBA1144B8B7C1F8E41EB45AD2FB4F5C3C2D262EBEDAEE9C3F2C9A01966061AB30E77
310
3764DEA7EE6E230ECD0723A075A2D6129AE86A2C4BBB80F6C986D69B5A07687C3C5571FC2D4BF3B8D8AB5CF2D8D0A44F0B4053889C1E6D5587AC944C6D46682C9EE7C4ADC9D49CF55479646856F0941449B13566CD81D6995A336836264EAA4F722B6340BB498D43148784C6818EEDBA36E91D3A47A035A7D6081A5311B422
310
5363EA6D6A8DA1F169C5EA991A536F536B024D2C33289B504A55441ECB454A0BDB3F88BD73DB6C9806D0D8AC222EA1A5E5F5B80B3B26EDE8EDEC1D5A39AF08D0006D5868A67FB1A051D277E6D43ECD2EDBDDF974D5DB3AE01A413315E127401396F6586867715ACD90231AA7C5A2B607432B1C1124438B0EA3325E3D139A85
310
0BD00A06EC3963CFE8CED1B31C8193949340AB98FF7E09CD3AE6D1D042BD591F684C516815C28EAEA7BB9B418B36EBC1A111035A1AB5CED098CEA1D51A16F4BAEED9764E541C9ACDF7E196264CAD9BA5F155ECF76CEF6935CDB6D0E221F190D0C4576D0E8D697C68C6D4BC8BC56DA03101DA4BA1FD52AFF9C32AA79B3FA7E2
310
93E7E77B994DBC278870FC0652BBD631A06D09A34959B14983F570A2F29E6D4FAB6F71F668734F327F3AB43DED91D71ED3D7373B5B13763AECF1E1CD33CDD28A0D4D5B9ACECEF2AEEBD896B68ED23C3FCCA13E293CF322D6A505DF30D0E8049A999DB141A3511CC1318FC0CAD65B0336149DB3C727BD80FA014EA1E99F6F20
310
68729ACF96181A4C7664E7802285A1FDAC70FB6725E43FBA792A26EA53587CD61A2E3AD3D056F68BB3EE78AD9279C7B53439F1B3B642719A6FBC034033D6B0369B58E8E28A07B70341EB3287DD1AA035FD1AF3ADD4D761B126400334407BAC000DD0526A8CA5F58BCCC481084B2B80967D9E1DD0000DD0D0A70D6769800668
310
689E086E87B5349D25A907FDB034AFC676FCB0C84B0AE6A28C82C747360A9BAC1140538E40335213BAD87032F00EEF00689BA559E9C12A2195C56C68B6E75E029A6A9E2428B95988CCC6F2DEEB3D0F68C70D19E13D11A701DA73430ED9EDEB1883C293D000EDDBA391CEDBB7020CD2E1879D740F6806DA0E89548C66E2320A
310
DF49FA89D03894FC7DC44AF7733FFDE056D2616369743249B417B49C532F3634BABAEB7A8590E3A103F62C68F1DBD4DFB7B451BCA767339CCB582638F28DBBBF05BCE71C2147CB5BB9BD195AB1A94D0B8D98FD69D4D2B151F9123863424B3194A81BB837AD7A60689C034D9E56BDDFA70D798D402E5BA0C2CA60A846FE4CF5
310
A38DDE72048921877E8725F0E696567E43D38BCEBF8FF774A0EDC4FA4193B11AD97196192345C23ABD109B3D1CAC0DED986FCF125AE8D7ED008D2EE206FF2C428BD5F5D2A09107ADBBA5658C154EA1516D6A9796F6CF7D5AFA698D2B68DC1E5A8A23785270CB3DEF383B4B5A425F68C39CE508C514A7D0A2BEE3F698608C11
310
41D2E8BB30BC9B77C07E317E0CAD7F4CFE60C01E499039053E3334DB822E97B1AD3D4C1F71C0EE5FD489D7BDFAA947CB7B0E718D20BFB262F8E45C916A798DE078BA04DFFE8738AD6358F142681CBAF049B506A2913EED68B8A16DFF022DB7036CD1A1CD0CAD9D1B98169A179DC83ACA76CA5DA0FD6B9F56068D6A1BDDBCF3
310
08122E78B6BF46F0DFC1ED8304688006688006686F8786A98B352C2D7B81584003344003344043C85106EDD52A84F6761540835618CF1D73831A4243E3ACB810380441100441100441100441100441100441100441100441100441100441100441100441100415E90FB732C4E0D049A8AB0000000049454E44AE426082AC47
310
F87F64EE33E94285FCC5D495EF454E5A4E2FE0ACD8EA3C15CFA5CB00C8248DD7F7EBAC9EA7763A45E7E0AA631A5A6F413B244DF993BB9DC3F6AAA7EE766935F601EAE9AB0969D45ACE2D80704359658E13ECD98C3034EA3FA6B1C1DB95344F55AB547C912F69799D60D8ACC0311C6897660E82B61BE7B71BD0A8B4B8D7E768
310
BD98ED94AA53E9736E6D6837AAE784E5CF53017B748CE8098DE3336FC80485F683A88AB31CA690F6DC1475FA9D2F6A4FD9EEF5D3D020D04ACFA9FED1B75FDE87BDFA11E81FDFBC5EA0DDD6049A401368024DA009346999A88E26D02AE54BA009348126D0049A409326D0049A401368024D9A401368F340932C87489A401368
310
024DA009348176133408348126D0049A8451623D059A401368024DA00934695F040D9E7D9BD07977D32F8206B3DE1C2F3CA7CBCF5D35D558D9E575A1E9827AA42B91571C836C5ABAA8F1871C54A9B0964D0B9F8796F560659666922364171F327E67DC560DA35C65AA86C6ABF0436F57E85684BF4737874B1AB54A9A58CFCE
310
8A4E4CFE7419575D717ADC6D9A3F35E4E7C5867EF28E02CCA0D24F43230F3402DF6C81E3226D2B7E171A37A404171BDBEA01BA5EFF6F42339DFD6055C2861D92BF119ADF0C93AAA74CC44B2B6BEB30CE69BB0D9A7541F966CDD8C9952BAA45CAD825498F69F405D06A5C360B0FDBDAC67472CDA0816FFEB34844D0111A1BAD
310
CC8FB16AF1A4B7D8E2DB148C82F6A8738B9C4DAF55616BBB8E3E7953454C93A92A49702734BEC558DE463179E2A67CFF60F8AF1C0FADA69636CF09CD18A00DF5E0B10E8F6F5C1069C526C30933F24314CC0FCC0C4DED4165EF91C59D4E0BB0779F94D0B1895B46B05D2E9C7DDE0C53306250EB2869E49134CBA7A290A4514E
310
1DE9D8F5C397B7A4413E474749AB1BD38CDD046319602D5746DDC69F4C0D290209F5B446B547137313404336341695D393D4E64842A6A0B1F486DA4CF0C1D2767304EC5986609E36C7FAB4D5A0CDAF9E028DC21BB7517450E3316746FE69E89837081A10379799D0E0AE4B207B650282F32A2BCD46818C1D11BDF9D67A68DC
310
D7079F678F75981C9A67B22D164A27C228338A84B50C01C68A048FB0AD028D421BA827A785103C9817841EB7C0B748E7F1BACE162C012D34B664561CF7DA819CDDB1D6766E23635AF18D873BDBE9B309772D191A060DB1ED234B2FCC599E1612591A923CBBD74F0B295DBDA4B1413F6852EF90B5816114CA852A0A4D6D26CB
310
F2EA4C6975067C4549FBB6D568F78651DF496C7E68B04748B61DB69A1BD60E2CD687D6635854F39AA1C9B9C161E69D7E5A576105F91D647755B7481A991AE88D2B1C68ABFB699DB36FCE14A1F3D66DA3DA0A8BFAC8B3C8D178C0E76EB3BDC84AC874CCEFCF10D1DA2B219B8C81B506281A7B3A71EA5261544F41B363291790
310
3D91CC0CC4EF1902628F0D5CFE87BD045785BA2667B5B2F4F7A0FD581825D0A4093481F60CB43F75633860945C0BD20000000049454E44AE426082
  0
ACDSRECORD
 90
        0
  2
AcDbDs::ID
280
    10
320
D3
  2
Thumbnail_Data
280
    15
 94
     1153
310
89504E470D0A1A0A0000000D4948445200000100000000B5080300000087DCD12600000300504C5445FFFFFF000000C8C8C80000000000000000000000000000000000000000000000000000330000660000990000CC0000FF0033000033330033660033990033CC0033FF0066000066330066660066990066CC0066FF0099
310
000099330099660099990099CC0099FF00CC0000CC3300CC6600CC9900CCCC00CCFF00FF0000FF3300FF6600FF9900FFCC00FFFF3300003300333300663300993300CC3300FF3333003333333333663333993333CC3333FF3366003366333366663366993366CC3366FF3399003399333399663399993399CC3399FF33CC00
310
33CC3333CC6633CC9933CCCC33CCFF33FF0033FF3333FF6633FF9933FFCC33FFFF6600006600336600666600996600CC6600FF6633006633336633666633996633CC6633FF6666006666336666666666996666CC6666FF6699006699336699666699996699CC6699FF66CC0066CC3366CC6666CC9966CCCC66CCFF66FF0066
310
FF3366FF6666FF9966FFCC66FFFF9900009900339900669900999900CC9900FF9933009933339933669933999933CC9933FF9966009966339966669966999966CC9966FF9999009999339999669999999999CC9999FF99CC0099CC3399CC6699CC9999CCCC99CCFF99FF0099FF3399FF6699FF9999FFCC99FFFFCC0000CC00
310
33CC0066CC0099CC00CCCC00FFCC3300CC3333CC3366CC3399CC33CCCC33FFCC6600CC6633CC6666CC6699CC66CCCC66FFCC9900CC9933CC9966CC9999CC99CCCC99FFCCCC00CCCC33CCCC66CCCC99CCCCCCCCCCFFCCFF00CCFF33CCFF66CCFF99CCFFCCCCFFFFFF0000FF0033FF0066FF0099FF00CCFF00FFFF3300FF3333
310
FF3366FF3399FF33CCFF33FFFF6600FF6633FF6666FF6699FF66CCFF66FFFF9900FF9933FF9966FF9999FF99CCFF99FFFFCC00FFCC33FFCC66FFCC99FFCCCCFFCCFFFFFF00FFFF33FFFF66FFFF99FFFFCCFFFFFF0000000D0D0D1A1A1A2828283535354343435050505D5D5D6B6B6B787878868686939393A1A1A1AEAEAEBB
310
BBBBC9C9C9D6D6D6E4E4E4F1F1F1FFFFFF000000000000000000000000000000000000000000000000000000000000B0E2D2350000012D4944415478DAEDDDC19185300C4441E51FA6CE0441A1220719A67D2080DE7AE37F5AD7157E0A40251F0003D0DDF309FCBE0012001079E2130000C02DE016700BD8000000DC026E01
310
09000000C0080290000000008C200009000000C0080290000000008C200009000000C0080290000000008C200009000000C0080290000000008C2000090000F06B80DE3C278C60EFFE5500EC270000000023084002000000308200240000000023084002000000308200240000000023084002000000308200240000000023
310
0840020000003082002400000000230840020000003082002400000000230840020000003082002400000000230840020000003082002400000000230840021F0108F9EFF2DE17F0CA8C5766BC3263030000700BB805DC02F30B34F02B01000F40F88907B801D6BB095400FA5D890000000049454E44AE4260829429460000
310
000049454E44AE426082
  0
ENDSEC
  0
EOF
