  0
SECTION
  2
HEADER
  9
$ACADVER
  1
AC1027
  9
$ACADMAINTVER
 70
   106
  9
$DWGCODEPAGE
  3
ANSI_932
  9
$LASTSAVEDBY
  1
takamura205
  9
$REQUIREDVERSIONS
160
                 0
  9
$INSBASE
 10
0.0
 20
0.0
 30
0.0
  9
$EXTMIN
 10
33316.24093491148
 20
28289.23237812787
 30
0.0
  9
$EXTMAX
 10
35416.24093491148
 20
29774.23237812787
 30
0.0
  9
$LIMMIN
 10
0.0
 20
0.0
  9
$LIMMAX
 10
420.0
 20
297.0
  9
$ORTHOMODE
 70
     0
  9
$REGENMODE
 70
     1
  9
$FILLMODE
 70
     1
  9
$QTEXTMODE
 70
     0
  9
$MIRRTEXT
 70
     0
  9
$LTSCALE
 40
1.0
  9
$ATTMODE
 70
     1
  9
$TEXTSIZE
 40
2.5
  9
$TRACEWID
 40
1.0
  9
$TEXTSTYLE
  7
Standard
  9
$CLAYER
  8
寸法線
  9
$CELTYPE
  6
ByLayer
  9
$CECOLOR
 62
   256
  9
$CELTSCALE
 40
1.0
  9
$DISPSILH
 70
     0
  9
$DIMSCALE
 40
1.0
  9
$DIMASZ
 40
2.5
  9
$DIMEXO
 40
0.625
  9
$DIMDLI
 40
3.75
  9
$DIMRND
 40
0.0
  9
$DIMDLE
 40
0.0
  9
$DIMEXE
 40
1.25
  9
$DIMTP
 40
0.0
  9
$DIMTM
 40
0.0
  9
$DIMTXT
 40
20.0
  9
$DIMCEN
 40
2.5
  9
$DIMTSZ
 40
0.0
  9
$DIMTOL
 70
     0
  9
$DIMLIM
 70
     0
  9
$DIMTIH
 70
     0
  9
$DIMTOH
 70
     0
  9
$DIMSE1
 70
     0
  9
$DIMSE2
 70
     0
  9
$DIMTAD
 70
     1
  9
$DIMZIN
 70
     8
  9
$DIMBLK
  1

  9
$DIMASO
 70
     1
  9
$DIMSHO
 70
     1
  9
$DIMPOST
  1

  9
$DIMAPOST
  1

  9
$DIMALT
 70
     0
  9
$DIMALTD
 70
     3
  9
$DIMALTF
 40
0.03937007874016
  9
$DIMLFAC
 40
1.0
  9
$DIMTOFL
 70
     1
  9
$DIMTVP
 40
0.0
  9
$DIMTIX
 70
     0
  9
$DIMSOXD
 70
     0
  9
$DIMSAH
 70
     0
  9
$DIMBLK1
  1

  9
$DIMBLK2
  1

  9
$DIMSTYLE
  2
ISO-25
  9
$DIMCLRD
 70
     0
  9
$DIMCLRE
 70
     0
  9
$DIMCLRT
 70
     0
  9
$DIMTFAC
 40
1.0
  9
$DIMGAP
 40
0.625
  9
$DIMJUST
 70
     0
  9
$DIMSD1
 70
     0
  9
$DIMSD2
 70
     0
  9
$DIMTOLJ
 70
     0
  9
$DIMTZIN
 70
     8
  9
$DIMALTZ
 70
     0
  9
$DIMALTTZ
 70
     0
  9
$DIMUPT
 70
     0
  9
$DIMDEC
 70
     2
  9
$DIMTDEC
 70
     2
  9
$DIMALTU
 70
     2
  9
$DIMALTTD
 70
     3
  9
$DIMTXSTY
  7
Standard
  9
$DIMAUNIT
 70
     0
  9
$DIMADEC
 70
     0
  9
$DIMALTRND
 40
0.0
  9
$DIMAZIN
 70
     0
  9
$DIMDSEP
 70
    44
  9
$DIMATFIT
 70
     3
  9
$DIMFRAC
 70
     0
  9
$DIMLDRBLK
  1

  9
$DIMLUNIT
 70
     2
  9
$DIMLWD
 70
    -2
  9
$DIMLWE
 70
    -2
  9
$DIMTMOVE
 70
     0
  9
$DIMFXL
 40
1.0
  9
$DIMFXLON
 70
     0
  9
$DIMJOGANG
 40
0.7853981633974483
  9
$DIMTFILL
 70
     0
  9
$DIMTFILLCLR
 70
     0
  9
$DIMARCSYM
 70
     0
  9
$DIMLTYPE
  6

  9
$DIMLTEX1
  6

  9
$DIMLTEX2
  6

  9
$DIMTXTDIRECTION
 70
     0
  9
$LUNITS
 70
     2
  9
$LUPREC
 70
     4
  9
$SKETCHINC
 40
1.0
  9
$FILLETRAD
 40
1.0
  9
$AUNITS
 70
     0
  9
$AUPREC
 70
     0
  9
$MENU
  1
.
  9
$ELEVATION
 40
0.0
  9
$PELEVATION
 40
0.0
  9
$THICKNESS
 40
0.0
  9
$LIMCHECK
 70
     0
  9
$CHAMFERA
 40
0.0
  9
$CHAMFERB
 40
0.0
  9
$CHAMFERC
 40
0.0
  9
$CHAMFERD
 40
0.0
  9
$SKPOLY
 70
     0
  9
$TDCREATE
 40
2457175.672123785
  9
$TDUCREATE
 40
2457175.297123785
  9
$TDUPDATE
 40
2457871.504404294
  9
$TDUUPDATE
 40
2457871.129404294
  9
$TDINDWG
 40
0.7104220718
  9
$TDUSRTIMER
 40
0.7104219676
  9
$USRTIMER
 70
     1
  9
$ANGBASE
 50
0.0
  9
$ANGDIR
 70
     0
  9
$PDMODE
 70
     0
  9
$PDSIZE
 40
0.0
  9
$PLINEWID
 40
0.0
  9
$SPLFRAME
 70
     0
  9
$SPLINETYPE
 70
     6
  9
$SPLINESEGS
 70
     8
  9
$HANDSEED
  5
1D93
  9
$SURFTAB1
 70
     6
  9
$SURFTAB2
 70
     6
  9
$SURFTYPE
 70
     6
  9
$SURFU
 70
     6
  9
$SURFV
 70
     6
  9
$UCSBASE
  2

  9
$UCSNAME
  2

  9
$UCSORG
 10
0.0
 20
0.0
 30
0.0
  9
$UCSXDIR
 10
1.0
 20
0.0
 30
0.0
  9
$UCSYDIR
 10
0.0
 20
1.0
 30
0.0
  9
$UCSORTHOREF
  2

  9
$UCSORTHOVIEW
 70
     0
  9
$UCSORGTOP
 10
0.0
 20
0.0
 30
0.0
  9
$UCSORGBOTTOM
 10
0.0
 20
0.0
 30
0.0
  9
$UCSORGLEFT
 10
0.0
 20
0.0
 30
0.0
  9
$UCSORGRIGHT
 10
0.0
 20
0.0
 30
0.0
  9
$UCSORGFRONT
 10
0.0
 20
0.0
 30
0.0
  9
$UCSORGBACK
 10
0.0
 20
0.0
 30
0.0
  9
$PUCSBASE
  2

  9
$PUCSNAME
  2

  9
$PUCSORG
 10
0.0
 20
0.0
 30
0.0
  9
$PUCSXDIR
 10
1.0
 20
0.0
 30
0.0
  9
$PUCSYDIR
 10
0.0
 20
1.0
 30
0.0
  9
$PUCSORTHOREF
  2

  9
$PUCSORTHOVIEW
 70
     0
  9
$PUCSORGTOP
 10
0.0
 20
0.0
 30
0.0
  9
$PUCSORGBOTTOM
 10
0.0
 20
0.0
 30
0.0
  9
$PUCSORGLEFT
 10
0.0
 20
0.0
 30
0.0
  9
$PUCSORGRIGHT
 10
0.0
 20
0.0
 30
0.0
  9
$PUCSORGFRONT
 10
0.0
 20
0.0
 30
0.0
  9
$PUCSORGBACK
 10
0.0
 20
0.0
 30
0.0
  9
$USERI1
 70
     0
  9
$USERI2
 70
     0
  9
$USERI3
 70
     0
  9
$USERI4
 70
     0
  9
$USERI5
 70
     0
  9
$USERR1
 40
0.0
  9
$USERR2
 40
0.0
  9
$USERR3
 40
0.0
  9
$USERR4
 40
0.0
  9
$USERR5
 40
0.0
  9
$WORLDVIEW
 70
     1
  9
$SHADEDGE
 70
     3
  9
$SHADEDIF
 70
    70
  9
$TILEMODE
 70
     1
  9
$MAXACTVP
 70
    64
  9
$PINSBASE
 10
0.0
 20
0.0
 30
0.0
  9
$PLIMCHECK
 70
     0
  9
$PEXTMIN
 10
25.69999999999999
 20
19.5
 30
0.0
  9
$PEXTMAX
 10
231.3
 20
175.5
 30
0.0
  9
$PLIMMIN
 10
-4.9847412109375
 20
-4.984749794006347
  9
$PLIMMAX
 10
415.0042419433593
 20
292.0259008407593
  9
$UNITMODE
 70
     0
  9
$VISRETAIN
 70
     1
  9
$PLINEGEN
 70
     0
  9
$PSLTSCALE
 70
     1
  9
$TREEDEPTH
 70
  3020
  9
$CMLSTYLE
  2
Standard
  9
$CMLJUST
 70
     0
  9
$CMLSCALE
 40
20.0
  9
$PROXYGRAPHICS
 70
     1
  9
$MEASUREMENT
 70
     1
  9
$CELWEIGHT
370
    -1
  9
$ENDCAPS
280
     0
  9
$JOINSTYLE
280
     0
  9
$LWDISPLAY
290
     0
  9
$INSUNITS
 70
     4
  9
$HYPERLINKBASE
  1

  9
$STYLESHEET
  1
monochrome.stb
  9
$XEDIT
290
     1
  9
$CEPSNTYPE
380
     0
  9
$PSTYLEMODE
290
     0
  9
$FINGERPRINTGUID
  2
{083708C7-F509-4151-B42C-06F3721D7F80}
  9
$VERSIONGUID
  2
{A17B1135-F4E5-4E5C-842D-45DAF43C46EB}
  9
$EXTNAMES
290
     1
  9
$PSVPSCALE
 40
0.0
  9
$OLESTARTUP
290
     0
  9
$SORTENTS
280
   127
  9
$INDEXCTL
280
     0
  9
$HIDETEXT
280
     1
  9
$XCLIPFRAME
280
     2
  9
$HALOGAP
280
     0
  9
$OBSCOLOR
 70
   257
  9
$OBSLTYPE
280
     0
  9
$INTERSECTIONDISPLAY
280
     0
  9
$INTERSECTIONCOLOR
 70
   257
  9
$DIMASSOC
280
     2
  9
$PROJECTNAME
  1

  9
$CAMERADISPLAY
290
     0
  9
$LENSLENGTH
 40
50.0
  9
$CAMERAHEIGHT
 40
1524.0
  9
$STEPSPERSEC
 40
2.0
  9
$STEPSIZE
 40
6.0
  9
$3DDWFPREC
 40
2.0
  9
$PSOLWIDTH
 40
5.0
  9
$PSOLHEIGHT
 40
80.0
  9
$LOFTANG1
 40
1.570796326794896
  9
$LOFTANG2
 40
1.570796326794896
  9
$LOFTMAG1
 40
0.0
  9
$LOFTMAG2
 40
0.0
  9
$LOFTPARAM
 70
     7
  9
$LOFTNORMALS
280
     1
  9
$LATITUDE
 40
37.795
  9
$LONGITUDE
 40
-122.394
  9
$NORTHDIRECTION
 40
0.0
  9
$TIMEZONE
 70
 -8000
  9
$LIGHTGLYPHDISPLAY
280
     1
  9
$TILEMODELIGHTSYNCH
280
     1
  9
$CMATERIAL
347
E3
  9
$SOLIDHIST
280
     0
  9
$SHOWHIST
280
     1
  9
$DWFFRAME
280
     2
  9
$DGNFRAME
280
     0
  9
$REALWORLDSCALE
290
     1
  9
$INTERFERECOLOR
 62
     1
  9
$INTERFEREOBJVS
345
F0
  9
$INTERFEREVPVS
346
ED
  9
$CSHADOW
280
     0
  9
$SHADOWPLANELOCATION
 40
0.0
  0
ENDSEC
  0
SECTION
  2
CLASSES
  0
CLASS
  1
ACDBDICTIONARYWDFLT
  2
AcDbDictionaryWithDefault
  3
ObjectDBX Classes
 90
        0
 91
        1
280
     0
281
     0
  0
CLASS
  1
DICTIONARYVAR
  2
AcDbDictionaryVar
  3
ObjectDBX Classes
 90
        0
 91
       11
280
     0
281
     0
  0
CLASS
  1
TABLESTYLE
  2
AcDbTableStyle
  3
ObjectDBX Classes
 90
     4095
 91
        1
280
     0
281
     0
  0
CLASS
  1
MATERIAL
  2
AcDbMaterial
  3
ObjectDBX Classes
 90
     1153
 91
        3
280
     0
281
     0
  0
CLASS
  1
VISUALSTYLE
  2
AcDbVisualStyle
  3
ObjectDBX Classes
 90
     4095
 91
       24
280
     0
281
     0
  0
CLASS
  1
SCALE
  2
AcDbScale
  3
ObjectDBX Classes
 90
     1153
 91
       17
280
     0
281
     0
  0
CLASS
  1
MLEADERSTYLE
  2
AcDbMLeaderStyle
  3
ACDB_MLEADERSTYLE_CLASS
 90
     4095
 91
        2
280
     0
281
     0
  0
CLASS
  1
CELLSTYLEMAP
  2
AcDbCellStyleMap
  3
ObjectDBX Classes
 90
     1152
 91
        1
280
     0
281
     0
  0
CLASS
  1
EXACXREFPANELOBJECT
  2
ExAcXREFPanelObject
  3
EXAC_ESW
 90
     1025
 91
        0
280
     0
281
     0
  0
CLASS
  1
NPOCOLLECTION
  2
AcDbImpNonPersistentObjectsCollection
  3
ObjectDBX Classes
 90
     1153
 91
        0
280
     0
281
     0
  0
CLASS
  1
LAYER_INDEX
  2
AcDbLayerIndex
  3
ObjectDBX Classes
 90
        0
 91
        0
280
     0
281
     0
  0
CLASS
  1
SPATIAL_INDEX
  2
AcDbSpatialIndex
  3
ObjectDBX Classes
 90
        0
 91
        0
280
     0
281
     0
  0
CLASS
  1
IDBUFFER
  2
AcDbIdBuffer
  3
ObjectDBX Classes
 90
        0
 91
        0
280
     0
281
     0
  0
CLASS
  1
ACDBSECTIONVIEWSTYLE
  2
AcDbSectionViewStyle
  3
ObjectDBX Classes
 90
     1025
 91
        1
280
     0
281
     0
  0
CLASS
  1
ACDBDETAILVIEWSTYLE
  2
AcDbDetailViewStyle
  3
ObjectDBX Classes
 90
     1025
 91
        1
280
     0
281
     0
  0
CLASS
  1
DIMASSOC
  2
AcDbDimAssoc
  3
"AcDbDimAssoc|Product Desc:     AcDim ARX App For Dimension|Company:          Autodesk, Inc.|WEB Address:      www.autodesk.com"
 90
        0
 91
        7
280
     0
281
     0
  0
CLASS
  1
SORTENTSTABLE
  2
AcDbSortentsTable
  3
ObjectDBX Classes
 90
        0
 91
        1
280
     0
281
     0
  0
CLASS
  1
PLOTSETTINGS
  2
AcDbPlotSettings
  3
ObjectDBX Classes
 90
        0
 91
        1
280
     0
281
     0
  0
ENDSEC
  0
SECTION
  2
TABLES
  0
TABLE
  2
VPORT
  5
8
330
0
100
AcDbSymbolTable
 70
     1
  0
VPORT
  5
E1
330
8
100
AcDbSymbolTableRecord
100
AcDbViewportTableRecord
  2
*Active
 70
     0
 10
0.0
 20
0.0
 11
1.0
 21
1.0
 12
34628.89077739251
 22
28928.04556160537
 13
0.0
 23
0.0
 14
10.0
 24
10.0
 15
10.0
 25
10.0
 16
0.0
 26
0.0
 36
1.0
 17
0.0
 27
0.0
 37
0.0
 40
2644.618404704961
 41
1.203585147247119
 42
50.0
 43
0.0
 44
0.0
 50
0.0
 51
0.0
 71
     0
 72
  1000
 73
     1
 74
     3
 75
     0
 76
     1
 77
     0
 78
     0
281
     0
 65
     1
110
0.0
120
0.0
130
0.0
111
1.0
121
0.0
131
0.0
112
0.0
122
1.0
132
0.0
 79
     0
146
0.0
348
EC
 60
     3
 61
     5
292
     1
282
     1
141
0.0
142
0.0
 63
   250
421
  3355443
1001
ACAD_NAV_VCDISPLAY
1070
     3
  0
ENDTAB
  0
TABLE
  2
LTYPE
  5
5
330
0
100
AcDbSymbolTable
 70
     4
  0
LTYPE
  5
14
330
5
100
AcDbSymbolTableRecord
100
AcDbLinetypeTableRecord
  2
ByBlock
 70
     0
  3

 72
    65
 73
     0
 40
0.0
  0
LTYPE
  5
15
330
5
100
AcDbSymbolTableRecord
100
AcDbLinetypeTableRecord
  2
ByLayer
 70
     0
  3

 72
    65
 73
     0
 40
0.0
  0
LTYPE
  5
16
330
5
100
AcDbSymbolTableRecord
100
AcDbLinetypeTableRecord
  2
Continuous
 70
     0
  3
Solid line
 72
    65
 73
     0
 40
0.0
  0
LTYPE
  5
25A
330
5
100
AcDbSymbolTableRecord
100
AcDbLinetypeTableRecord
  2
ACAD_ISO04W100
 70
     0
  3
ISO long-dash dot ____ . ____ . ____ . ____ . _
 72
    65
 73
     4
 40
30.0
 49
24.0
 74
     0
 49
-3.0
 74
     0
 49
0.0
 74
     0
 49
-3.0
 74
     0
  0
LTYPE
  5
25E
330
5
100
AcDbSymbolTableRecord
100
AcDbLinetypeTableRecord
  2
ACAD_ISO02W100
 70
     0
  3
ISO dash __ __ __ __ __ __ __ __ __ __ __ __ __
 72
    65
 73
     2
 40
15.0
 49
12.0
 74
     0
 49
-3.0
 74
     0
  0
LTYPE
  5
260
330
5
100
AcDbSymbolTableRecord
100
AcDbLinetypeTableRecord
  2
ACAD_ISO07W100
 70
     0
  3
ISO dot . . . . . . . . . . . . . . . . . . . .
 72
    65
 73
     2
 40
3.0
 49
0.0
 74
     0
 49
-3.0
 74
     0
  0
ENDTAB
  0
TABLE
  2
LAYER
  5
2
102
{ACAD_XDICTIONARY
360
1F6
102
}
330
0
100
AcDbSymbolTable
 70
    14
  0
LAYER
  5
10
102
{ACAD_XDICTIONARY
360
133
102
}
330
2
100
AcDbSymbolTableRecord
100
AcDbLayerTableRecord
  2
0
 70
     0
 62
     7
  6
Continuous
370
    -3
390
F
347
E5
348
0
  0
LAYER
  5
255
330
2
100
AcDbSymbolTableRecord
100
AcDbLayerTableRecord
  2
中心線
 70
     0
 62
     3
  6
ACAD_ISO04W100
370
     9
390
F
347
E5
348
0
1001
AcAecLayerStandard
1000

1000

1001
AcCmTransparency
1071
        0
  0
LAYER
  5
25B
330
2
100
AcDbSymbolTableRecord
100
AcDbLayerTableRecord
  2
外形線②
 70
     0
 62
     7
  6
Continuous
370
    15
390
F
347
E5
348
0
1001
AcAecLayerStandard
1000

1000

1001
AcCmTransparency
1071
        0
  0
LAYER
  5
25C
330
2
100
AcDbSymbolTableRecord
100
AcDbLayerTableRecord
  2
寸法線
 70
     0
 62
     3
  6
Continuous
370
    13
390
F
347
E5
348
0
1001
AcAecLayerStandard
1000

1000

1001
AcCmTransparency
1071
        0
  0
LAYER
  5
25D
330
2
100
AcDbSymbolTableRecord
100
AcDbLayerTableRecord
  2
点線
 70
     0
 62
     4
  6
ACAD_ISO02W100
370
     9
390
F
347
E5
348
0
1001
AcAecLayerStandard
1000

1000

1001
AcCmTransparency
1071
        0
  0
LAYER
  5
25F
330
2
100
AcDbSymbolTableRecord
100
AcDbLayerTableRecord
  2
オフセット
 70
     0
 62
    -6
  6
Continuous
370
    13
390
F
347
E5
348
0
1001
AcAecLayerStandard
1000

1000

1001
AcCmTransparency
1071
        0
  0
LAYER
  5
271
330
2
100
AcDbSymbolTableRecord
100
AcDbLayerTableRecord
  2
Defpoints
 70
     0
 62
     7
  6
Continuous
290
     0
370
    -3
390
F
347
E5
348
0
  0
LAYER
  5
2F1
330
2
100
AcDbSymbolTableRecord
100
AcDbLayerTableRecord
  2
ビューポート
 70
     0
 62
     3
  6
Continuous
370
    15
390
F
347
E5
348
0
1001
AcAecLayerStandard
1000

1000

1001
AcCmTransparency
1071
        0
  0
LAYER
  5
382
330
2
100
AcDbSymbolTableRecord
100
AcDbLayerTableRecord
  2
外形線
 70
     0
 62
     7
  6
Continuous
370
    15
390
F
347
E5
348
0
1001
AcAecLayerStandard
1000

1000

1001
AcCmTransparency
1071
        0
  0
LAYER
  5
430
330
2
100
AcDbSymbolTableRecord
100
AcDbLayerTableRecord
  2
LED器具
 70
     0
 62
     4
  6
Continuous
370
    13
390
F
347
E5
348
0
1001
AcAecLayerStandard
1000

1000

1001
AcCmTransparency
1071
        0
  0
LAYER
  5
44D
330
2
100
AcDbSymbolTableRecord
100
AcDbLayerTableRecord
  2
孔
 70
     0
 62
     4
  6
Continuous
370
    15
390
F
347
E5
348
0
1001
AcAecLayerStandard
1000

1000

1001
AcCmTransparency
1071
        0
  0
LAYER
  5
AAC
330
2
100
AcDbSymbolTableRecord
100
AcDbLayerTableRecord
  2
枠線
 70
     0
 62
     2
  6
Continuous
370
     9
390
F
347
E5
348
0
1001
AcAecLayerStandard
1000

1000

1001
AcCmTransparency
1071
        0
  0
LAYER
  5
CEA
102
{ACAD_XDICTIONARY
360
CEB
102
}
330
2
100
AcDbSymbolTableRecord
100
AcDbLayerTableRecord
  2
1
 70
     0
 62
     7
  6
Continuous
370
    -3
390
F
347
E5
348
0
  0
LAYER
  5
DBB
330
2
100
AcDbSymbolTableRecord
100
AcDbLayerTableRecord
  2
○
 70
     0
 62
     3
  6
Continuous
370
     9
390
F
347
E5
348
0
1001
AcAecLayerStandard
1000

1000

1001
AcCmTransparency
1071
        0
  0
ENDTAB
  0
TABLE
  2
STYLE
  5
3
330
0
100
AcDbSymbolTable
 70
     4
  0
STYLE
  5
11
330
3
100
AcDbSymbolTableRecord
100
AcDbTextStyleTableRecord
  2
Standard
 70
     0
 40
0.0
 41
1.0
 50
0.0
 71
     0
 42
2.5
  3
arial.ttf
  4

1001
ACAD
1000
Arial
1071
       34
  0
STYLE
  5
129
330
3
100
AcDbSymbolTableRecord
100
AcDbTextStyleTableRecord
  2
Annotative
 70
     0
 40
0.0
 41
1.0
 50
0.0
 71
     0
 42
2.5
  3
arial.ttf
  4

1001
AcadAnnotative
1000
AnnotativeData
1002
{
1070
     1
1070
     1
1002
}
1001
ACAD
1000
Arial
1071
       34
  0
STYLE
  5
259
330
3
100
AcDbSymbolTableRecord
100
AcDbTextStyleTableRecord
  2

 70
     1
 40
0.0
 41
1.0
 50
0.0
 71
     0
 42
2.5
  3
ltypeshp.shx
  4

  0
STYLE
  5
CEC
330
3
100
AcDbSymbolTableRecord
100
AcDbTextStyleTableRecord
  2
BIGFONT
 70
     0
 40
1.0
 41
1.0
 50
0.0
 71
     0
 42
1.0
  3
TXT
  4
BIGFONT
  0
ENDTAB
  0
TABLE
  2
VIEW
  5
6
330
0
100
AcDbSymbolTable
 70
     0
  0
ENDTAB
  0
TABLE
  2
UCS
  5
7
330
0
100
AcDbSymbolTable
 70
     0
  0
ENDTAB
  0
TABLE
  2
APPID
  5
9
330
0
100
AcDbSymbolTable
 70
    13
  0
APPID
  5
12
330
9
100
AcDbSymbolTableRecord
100
AcDbRegAppTableRecord
  2
ACAD
 70
     0
  0
APPID
  5
A0
330
9
100
AcDbSymbolTableRecord
100
AcDbRegAppTableRecord
  2
ACAD_PSEXT
 70
     0
  0
APPID
  5
12A
330
9
100
AcDbSymbolTableRecord
100
AcDbRegAppTableRecord
  2
AcadAnnoPO
 70
     0
  0
APPID
  5
12B
330
9
100
AcDbSymbolTableRecord
100
AcDbRegAppTableRecord
  2
AcadAnnotative
 70
     0
  0
APPID
  5
12C
330
9
100
AcDbSymbolTableRecord
100
AcDbRegAppTableRecord
  2
ACAD_DSTYLE_DIMJAG
 70
     0
  0
APPID
  5
12D
330
9
100
AcDbSymbolTableRecord
100
AcDbRegAppTableRecord
  2
ACAD_DSTYLE_DIMTALN
 70
     0
  0
APPID
  5
15C
330
9
100
AcDbSymbolTableRecord
100
AcDbRegAppTableRecord
  2
ACAD_MLEADERVER
 70
     0
  0
APPID
  5
20E
330
9
100
AcDbSymbolTableRecord
100
AcDbRegAppTableRecord
  2
ACAD_NAV_VCDISPLAY
 70
     0
  0
APPID
  5
256
330
9
100
AcDbSymbolTableRecord
100
AcDbRegAppTableRecord
  2
AcAecLayerStandard
 70
     0
  0
APPID
  5
257
330
9
100
AcDbSymbolTableRecord
100
AcDbRegAppTableRecord
  2
AcCmTransparency
 70
     0
  0
APPID
  5
264
330
9
100
AcDbSymbolTableRecord
100
AcDbRegAppTableRecord
  2
ACAD_EXEMPT_FROM_CAD_STANDARDS
 70
     0
  0
APPID
  5
26F
330
9
100
AcDbSymbolTableRecord
100
AcDbRegAppTableRecord
  2
ACAD_DSTYLE_DIMRADIAL_EXTENSION
 70
     0
  0
APPID
  5
A2B
330
9
100
AcDbSymbolTableRecord
100
AcDbRegAppTableRecord
  2
AcadAnnoMonitorAlertIconDisabled
 70
     0
  0
ENDTAB
  0
TABLE
  2
DIMSTYLE
  5
A
330
0
100
AcDbSymbolTable
 70
     3
100
AcDbDimStyleTable
 71
     2
340
27
340
12E
  0
DIMSTYLE
105
1A7
330
A
100
AcDbSymbolTableRecord
100
AcDbDimStyleTableRecord
  2
Standard
 70
     0
340
11
  0
DIMSTYLE
105
12E
330
A
100
AcDbSymbolTableRecord
100
AcDbDimStyleTableRecord
  2
Annotative
 70
     0
 40
0.0
 41
2.5
 42
0.625
 43
3.75
 44
1.25
 73
     0
 74
     0
 77
     1
 78
     8
140
2.5
141
2.5
143
0.03937007874016
147
0.625
171
     3
172
     1
271
     2
272
     2
274
     3
278
    44
283
     0
284
     8
340
11
1001
AcadAnnotative
1000
AnnotativeData
1002
{
1070
     1
1070
     1
1002
}
1001
ACAD_DSTYLE_DIMJAG
1070
   388
1040
1.5
1001
ACAD_DSTYLE_DIMTALN
1070
   392
1070
     0
  0
DIMSTYLE
105
27
102
{ACAD_REACTORS
330
1CD8
330
1CDB
330
1CF0
330
1CDE
330
1CE1
330
1CE4
330
1CE7
102
}
330
A
100
AcDbSymbolTableRecord
100
AcDbDimStyleTableRecord
  2
ISO-25
 70
     0
 41
2.5
 42
0.625
 43
3.75
 44
1.25
 73
     0
 74
     0
 77
     1
 78
     8
140
20.0
141
2.5
143
0.03937007874016
147
0.625
171
     3
172
     1
271
     2
272
     2
274
     3
278
    44
283
     0
284
     8
340
11
1001
ACAD_DSTYLE_DIMJAG
1070
   388
1040
1.5
1001
ACAD_DSTYLE_DIMTALN
1070
   392
1070
     0
  0
ENDTAB
  0
TABLE
  2
BLOCK_RECORD
  5
1
330
0
100
AcDbSymbolTable
 70
     8
  0
BLOCK_RECORD
  5
1F
102
{ACAD_XDICTIONARY
360
1C5
102
}
330
1
100
AcDbSymbolTableRecord
100
AcDbBlockTableRecord
  2
*Model_Space
340
22
 70
     0
280
     1
281
     0
  0
BLOCK_RECORD
  5
D2
330
1
100
AcDbSymbolTableRecord
100
AcDbBlockTableRecord
  2
*Paper_Space
340
D3
 70
     0
280
     1
281
     0
  0
BLOCK_RECORD
  5
D6
330
1
100
AcDbSymbolTableRecord
100
AcDbBlockTableRecord
  2
*Paper_Space0
340
D7
 70
     0
280
     1
281
     0
  0
BLOCK_RECORD
  5
1CF3
330
1
100
AcDbSymbolTableRecord
100
AcDbBlockTableRecord
  2
*D1
340
0
 70
     0
280
     1
281
     0
  0
BLOCK_RECORD
  5
1CFF
330
1
100
AcDbSymbolTableRecord
100
AcDbBlockTableRecord
  2
*D2
340
0
 70
     0
280
     1
281
     0
  0
BLOCK_RECORD
  5
1D0D
330
1
100
AcDbSymbolTableRecord
100
AcDbBlockTableRecord
  2
*D3
340
0
 70
     0
280
     1
281
     0
  0
BLOCK_RECORD
  5
1D19
330
1
100
AcDbSymbolTableRecord
100
AcDbBlockTableRecord
  2
*D4
340
0
 70
     0
280
     1
281
     0
  0
BLOCK_RECORD
  5
1D25
330
1
100
AcDbSymbolTableRecord
100
AcDbBlockTableRecord
  2
*D5
340
0
 70
     0
280
     1
281
     0
  0
BLOCK_RECORD
  5
1D32
330
1
100
AcDbSymbolTableRecord
100
AcDbBlockTableRecord
  2
*D6
340
0
 70
     0
280
     1
281
     0
  0
BLOCK_RECORD
  5
1D3E
330
1
100
AcDbSymbolTableRecord
100
AcDbBlockTableRecord
  2
*D7
340
0
 70
     0
280
     1
281
     0
  0
ENDTAB
  0
ENDSEC
  0
SECTION
  2
BLOCKS
  0
BLOCK
  5
20
330
1F
100
AcDbEntity
  8
0
100
AcDbBlockBegin
  2
*Model_Space
 70
     0
 10
0.0
 20
0.0
 30
0.0
  3
*Model_Space
  1

  0
ENDBLK
  5
21
330
1F
100
AcDbEntity
  8
0
100
AcDbBlockEnd
  0
BLOCK
  5
D4
330
D2
100
AcDbEntity
 67
     1
  8
0
100
AcDbBlockBegin
  2
*Paper_Space
 70
     0
 10
0.0
 20
0.0
 30
0.0
  3
*Paper_Space
  1

  0
ENDBLK
  5
D5
330
D2
100
AcDbEntity
 67
     1
  8
0
100
AcDbBlockEnd
  0
BLOCK
  5
D8
330
D6
100
AcDbEntity
 67
     1
  8
0
100
AcDbBlockBegin
  2
*Paper_Space0
 70
     0
 10
0.0
 20
0.0
 30
0.0
  3
*Paper_Space0
  1

  0
ENDBLK
  5
D9
330
D6
100
AcDbEntity
 67
     1
  8
0
100
AcDbBlockEnd
  0
BLOCK
  5
1CF4
330
1CF3
100
AcDbEntity
  8
0
100
AcDbBlockBegin
  2
*D1
 70
     1
 10
0.0
 20
0.0
 30
0.0
  3
*D1
  1

  0
LINE
  5
1CF6
330
1CF3
100
AcDbEntity
  8
寸法線
 62
     0
440
 16777216
370
    -2
100
AcDbLine
 10
34703.67194415292
 20
28955.54469957604
 30
0.0
 11
34739.08575738412
 21
28955.54469957604
 31
0.0
  0
LINE
  5
1CF7
330
1CF3
100
AcDbEntity
  8
寸法線
 62
     0
440
 16777216
370
    -2
100
AcDbLine
 10
34703.67194415292
 20
29007.54469957604
 30
0.0
 11
34739.08575738412
 21
29007.54469957604
 31
0.0
  0
LINE
  5
1CF8
330
1CF3
100
AcDbEntity
  8
寸法線
 62
     0
440
 16777216
370
    -2
100
AcDbLine
 10
34737.83575738412
 20
28958.04469957603
 30
0.0
 11
34737.83575738412
 21
29005.04469957604
 31
0.0
  0
SOLID
  5
1CF9
330
1CF3
100
AcDbEntity
  8
寸法線
 62
     0
440
 16777216
100
AcDbTrace
 10
34737.41909071746
 20
28958.04469957603
 30
0.0
 11
34738.25242405079
 21
28958.04469957603
 31
0.0
 12
34737.83575738412
 22
28955.54469957604
 32
0.0
 13
34737.83575738412
 23
28955.54469957604
 33
0.0
  0
SOLID
  5
1CFA
330
1CF3
100
AcDbEntity
  8
寸法線
 62
     0
440
 16777216
100
AcDbTrace
 10
34737.41909071746
 20
29005.04469957604
 30
0.0
 11
34738.25242405079
 21
29005.04469957604
 31
0.0
 12
34737.83575738412
 22
29007.54469957604
 32
0.0
 13
34737.83575738412
 23
29007.54469957604
 33
0.0
  0
MTEXT
  5
1CFB
330
1CF3
100
AcDbEntity
  8
寸法線
 62
     0
440
 16777216
100
AcDbMText
 10
34726.99929762968
 20
28981.54469957604
 30
0.0
 40
20.0
 41
0.0
 46
0.0
 71
     5
 72
     1
  1
52
 11
0.0000000000000001
 21
1.0
 31
0.0
 73
     1
 44
1.0
  0
POINT
  5
1CFC
330
1CF3
100
AcDbEntity
  8
Defpoints
 62
     0
440
 16777216
100
AcDbPoint
 10
34703.04694415292
 20
28955.54469957604
 30
0.0
  0
POINT
  5
1CFD
330
1CF3
100
AcDbEntity
  8
Defpoints
 62
     0
440
 16777216
100
AcDbPoint
 10
34703.04694415292
 20
29007.54469957604
 30
0.0
  0
POINT
  5
1CFE
330
1CF3
100
AcDbEntity
  8
Defpoints
 62
     0
440
 16777216
100
AcDbPoint
 10
34737.83575738412
 20
29007.54469957604
 30
0.0
  0
ENDBLK
  5
1CF5
330
1CF3
100
AcDbEntity
  8
0
100
AcDbBlockEnd
  0
BLOCK
  5
1D00
330
1CFF
100
AcDbEntity
  8
0
100
AcDbBlockBegin
  2
*D2
 70
     1
 10
0.0
 20
0.0
 30
0.0
  3
*D2
  1

  0
LINE
  5
1D02
330
1CFF
100
AcDbEntity
  8
寸法線
 62
     0
440
 16777216
370
    -2
100
AcDbLine
 10
34703.67194415292
 20
28955.54469957604
 30
0.0
 11
34739.08575738412
 21
28955.54469957604
 31
0.0
  0
LINE
  5
1D03
330
1CFF
100
AcDbEntity
  8
寸法線
 62
     0
440
 16777216
370
    -2
100
AcDbLine
 10
34664.67194415292
 20
28951.54469957604
 30
0.0
 11
34739.08575738412
 21
28951.54469957604
 31
0.0
  0
LINE
  5
1D04
330
1CFF
100
AcDbEntity
  8
寸法線
 62
     0
440
 16777216
370
    -2
100
AcDbLine
 10
34737.83575738412
 20
28958.04469957603
 30
0.0
 11
34737.83575738412
 21
28960.54469957604
 31
0.0
  0
LINE
  5
1D05
330
1CFF
100
AcDbEntity
  8
寸法線
 62
     0
440
 16777216
370
    -2
100
AcDbLine
 10
34737.83575738412
 20
28949.04469957604
 30
0.0
 11
34737.83575738412
 21
28931.46113886663
 31
0.0
  0
LINE
  5
1D06
330
1CFF
100
AcDbEntity
  8
寸法線
 62
     0
440
 16777216
370
    -2
100
AcDbLine
 10
34737.83575738412
 20
28955.54469957604
 30
0.0
 11
34737.83575738412
 21
28951.54469957604
 31
0.0
  0
SOLID
  5
1D07
330
1CFF
100
AcDbEntity
  8
寸法線
 62
     0
440
 16777216
100
AcDbTrace
 10
34737.41909071746
 20
28958.04469957603
 30
0.0
 11
34738.25242405079
 21
28958.04469957603
 31
0.0
 12
34737.83575738412
 22
28955.54469957604
 32
0.0
 13
34737.83575738412
 23
28955.54469957604
 33
0.0
  0
SOLID
  5
1D08
330
1CFF
100
AcDbEntity
  8
寸法線
 62
     0
440
 16777216
100
AcDbTrace
 10
34737.41909071746
 20
28949.04469957604
 30
0.0
 11
34738.25242405079
 21
28949.04469957604
 31
0.0
 12
34737.83575738412
 22
28951.54469957604
 32
0.0
 13
34737.83575738412
 23
28951.54469957604
 33
0.0
  0
MTEXT
  5
1D09
330
1CFF
100
AcDbEntity
  8
寸法線
 62
     0
440
 16777216
100
AcDbMText
 10
34727.21075738411
 20
28939.00291922133
 30
0.0
 40
20.0
 41
0.0
 46
0.0
 71
     5
 72
     1
  1
4
 11
0.0000000000000001
 21
1.0
 31
0.0
 73
     1
 44
1.0
  0
POINT
  5
1D0A
330
1CFF
100
AcDbEntity
  8
Defpoints
 62
     0
440
 16777216
100
AcDbPoint
 10
34703.04694415292
 20
28955.54469957604
 30
0.0
  0
POINT
  5
1D0B
330
1CFF
100
AcDbEntity
  8
Defpoints
 62
     0
440
 16777216
100
AcDbPoint
 10
34664.04694415292
 20
28951.54469957604
 30
0.0
  0
POINT
  5
1D0C
330
1CFF
100
AcDbEntity
  8
Defpoints
 62
     0
440
 16777216
100
AcDbPoint
 10
34737.83575738412
 20
28951.54469957604
 30
0.0
  0
ENDBLK
  5
1D01
330
1CFF
100
AcDbEntity
  8
0
100
AcDbBlockEnd
  0
BLOCK
  5
1D0E
330
1D0D
100
AcDbEntity
  8
0
100
AcDbBlockBegin
  2
*D3
 70
     1
 10
0.0
 20
0.0
 30
0.0
  3
*D3
  1

  0
LINE
  5
1D10
330
1D0D
100
AcDbEntity
  8
寸法線
 62
     0
440
 16777216
370
    -2
100
AcDbLine
 10
33659.04694415292
 20
29250.89119691548
 30
0.0
 11
33659.04694415292
 21
29310.20603571815
 31
0.0
  0
LINE
  5
1D11
330
1D0D
100
AcDbEntity
  8
寸法線
 62
     0
440
 16777216
370
    -2
100
AcDbLine
 10
34704.04694415292
 20
29250.89119691548
 30
0.0
 11
34704.04694415292
 21
29310.20603571815
 31
0.0
  0
LINE
  5
1D12
330
1D0D
100
AcDbEntity
  8
寸法線
 62
     0
440
 16777216
370
    -2
100
AcDbLine
 10
33661.54694415292
 20
29308.95603571816
 30
0.0
 11
34701.54694415292
 21
29308.95603571816
 31
0.0
  0
SOLID
  5
1D13
330
1D0D
100
AcDbEntity
  8
寸法線
 62
     0
440
 16777216
100
AcDbTrace
 10
33661.54694415292
 20
29309.37270238482
 30
0.0
 11
33661.54694415292
 21
29308.53936905149
 31
0.0
 12
33659.04694415292
 22
29308.95603571816
 32
0.0
 13
33659.04694415292
 23
29308.95603571816
 33
0.0
  0
SOLID
  5
1D14
330
1D0D
100
AcDbEntity
  8
寸法線
 62
     0
440
 16777216
100
AcDbTrace
 10
34701.54694415292
 20
29309.37270238482
 30
0.0
 11
34701.54694415292
 21
29308.53936905149
 31
0.0
 12
34704.04694415292
 22
29308.95603571816
 32
0.0
 13
34704.04694415292
 23
29308.95603571816
 33
0.0
  0
MTEXT
  5
1D15
330
1D0D
100
AcDbEntity
  8
寸法線
 62
     0
440
 16777216
100
AcDbMText
 10
34181.54694415292
 20
29319.79249547259
 30
0.0
 40
20.0
 41
0.0
 46
0.0
 71
     5
 72
     1
  1
1045
 73
     1
 44
1.0
  0
POINT
  5
1D16
330
1D0D
100
AcDbEntity
  8
Defpoints
 62
     0
440
 16777216
100
AcDbPoint
 10
33659.04694415292
 20
29250.26619691548
 30
0.0
  0
POINT
  5
1D17
330
1D0D
100
AcDbEntity
  8
Defpoints
 62
     0
440
 16777216
100
AcDbPoint
 10
34704.04694415292
 20
29250.26619691548
 30
0.0
  0
POINT
  5
1D18
330
1D0D
100
AcDbEntity
  8
Defpoints
 62
     0
440
 16777216
100
AcDbPoint
 10
34704.04694415292
 20
29308.95603571816
 30
0.0
  0
ENDBLK
  5
1D0F
330
1D0D
100
AcDbEntity
  8
0
100
AcDbBlockEnd
  0
BLOCK
  5
1D1A
330
1D19
100
AcDbEntity
  8
0
100
AcDbBlockBegin
  2
*D4
 70
     1
 10
0.0
 20
0.0
 30
0.0
  3
*D4
  1

  0
LINE
  5
1D1C
330
1D19
100
AcDbEntity
  8
寸法線
 62
     0
440
 16777216
370
    -2
100
AcDbLine
 10
34870.0630541015
 20
29007.54469992505
 30
0.0
 11
34771.90862587009
 21
29007.54469992505
 31
0.0
  0
LINE
  5
1D1D
330
1D19
100
AcDbEntity
  8
寸法線
 62
     0
440
 16777216
370
    -2
100
AcDbLine
 10
34870.06305410151
 20
28951.54469992505
 30
0.0
 11
34771.90862587009
 21
28951.54469992505
 31
0.0
  0
LINE
  5
1D1E
330
1D19
100
AcDbEntity
  8
寸法線
 62
     0
440
 16777216
370
    -2
100
AcDbLine
 10
34773.15862587009
 20
29005.04469992505
 30
0.0
 11
34773.15862587009
 21
28954.04469992505
 31
0.0
  0
SOLID
  5
1D1F
330
1D19
100
AcDbEntity
  8
寸法線
 62
     0
440
 16777216
100
AcDbTrace
 10
34772.74195920343
 20
29005.04469992505
 30
0.0
 11
34773.57529253676
 21
29005.04469992505
 31
0.0
 12
34773.15862587009
 22
29007.54469992505
 32
0.0
 13
34773.15862587009
 23
29007.54469992505
 33
0.0
  0
SOLID
  5
1D20
330
1D19
100
AcDbEntity
  8
寸法線
 62
     0
440
 16777216
100
AcDbTrace
 10
34772.74195920343
 20
28954.04469992505
 30
0.0
 11
34773.57529253676
 21
28954.04469992505
 31
0.0
 12
34773.15862587009
 22
28951.54469992505
 32
0.0
 13
34773.15862587009
 23
28951.54469992505
 33
0.0
  0
MTEXT
  5
1D21
330
1D19
100
AcDbEntity
  8
寸法線
 62
     0
440
 16777216
100
AcDbMText
 10
34762.32216611565
 20
28979.54469992505
 30
0.0
 40
20.0
 41
0.0
 46
0.0
 71
     5
 72
     1
  1
56
 11
0.0000000000000001
 21
1.0
 31
0.0
 73
     1
 44
1.0
  0
POINT
  5
1D22
330
1D19
100
AcDbEntity
  8
Defpoints
 62
     0
440
 16777216
100
AcDbPoint
 10
34870.68805410151
 20
29007.54469992505
 30
0.0
  0
POINT
  5
1D23
330
1D19
100
AcDbEntity
  8
Defpoints
 62
     0
440
 16777216
100
AcDbPoint
 10
34870.68805410151
 20
28951.54469992505
 30
0.0
  0
POINT
  5
1D24
330
1D19
100
AcDbEntity
  8
Defpoints
 62
     0
440
 16777216
100
AcDbPoint
 10
34773.15862587009
 20
28951.54469992505
 30
0.0
  0
ENDBLK
  5
1D1B
330
1D19
100
AcDbEntity
  8
0
100
AcDbBlockEnd
  0
BLOCK
  5
1D26
330
1D25
100
AcDbEntity
  8
0
100
AcDbBlockBegin
  2
*D5
 70
     1
 10
0.0
 20
0.0
 30
0.0
  3
*D5
  1

  0
LINE
  5
1D28
330
1D25
100
AcDbEntity
  8
寸法線
 62
     0
440
 16777216
370
    -2
100
AcDbLine
 10
34870.68805410151
 20
29018.16970027406
 30
0.0
 11
34870.68805410151
 21
29045.50043455932
 31
0.0
  0
LINE
  5
1D29
330
1D25
100
AcDbEntity
  8
寸法線
 62
     0
440
 16777216
370
    -2
100
AcDbLine
 10
34886.68805410152
 20
28991.91969992615
 30
0.0
 11
34886.68805410152
 21
29045.50043455932
 31
0.0
  0
LINE
  5
1D2A
330
1D25
100
AcDbEntity
  8
寸法線
 62
     0
440
 16777216
370
    -2
100
AcDbLine
 10
34873.18805410152
 20
29044.25043455933
 30
0.0
 11
34884.18805410151
 21
29044.25043455933
 31
0.0
  0
LINE
  5
1D2B
330
1D25
100
AcDbEntity
  8
寸法線
 62
     0
440
 16777216
370
    -2
100
AcDbLine
 10
34886.68805410152
 20
29044.25043455933
 30
0.0
 11
34917.1911236786
 21
29044.25043455933
 31
0.0
  0
SOLID
  5
1D2C
330
1D25
100
AcDbEntity
  8
寸法線
 62
     0
440
 16777216
100
AcDbTrace
 10
34873.18805410152
 20
29044.667101226
 30
0.0
 11
34873.18805410152
 21
29043.83376789266
 31
0.0
 12
34870.68805410151
 22
29044.25043455933
 32
0.0
 13
34870.68805410151
 23
29044.25043455933
 33
0.0
  0
SOLID
  5
1D2D
330
1D25
100
AcDbEntity
  8
寸法線
 62
     0
440
 16777216
100
AcDbTrace
 10
34884.18805410151
 20
29044.667101226
 30
0.0
 11
34884.18805410151
 21
29043.83376789266
 31
0.0
 12
34886.68805410152
 22
29044.25043455933
 32
0.0
 13
34886.68805410152
 23
29044.25043455933
 33
0.0
  0
MTEXT
  5
1D2E
330
1D25
100
AcDbEntity
  8
寸法線
 62
     0
440
 16777216
100
AcDbMText
 10
34903.18958889006
 20
29055.08689431376
 30
0.0
 40
20.0
 41
0.0
 46
0.0
 71
     5
 72
     1
  1
16
 73
     1
 44
1.0
  0
POINT
  5
1D2F
330
1D25
100
AcDbEntity
  8
Defpoints
 62
     0
440
 16777216
100
AcDbPoint
 10
34870.68805410151
 20
29017.54470027406
 30
0.0
  0
POINT
  5
1D30
330
1D25
100
AcDbEntity
  8
Defpoints
 62
     0
440
 16777216
100
AcDbPoint
 10
34886.68805410152
 20
28991.29469992615
 30
0.0
  0
POINT
  5
1D31
330
1D25
100
AcDbEntity
  8
Defpoints
 62
     0
440
 16777216
100
AcDbPoint
 10
34886.68805410152
 20
29044.25043455933
 30
0.0
  0
ENDBLK
  5
1D27
330
1D25
100
AcDbEntity
  8
0
100
AcDbBlockEnd
  0
BLOCK
  5
1D33
330
1D32
100
AcDbEntity
  8
0
100
AcDbBlockBegin
  2
*D6
 70
     1
 10
0.0
 20
0.0
 30
0.0
  3
*D6
  1

  0
LINE
  5
1D35
330
1D32
100
AcDbEntity
  8
寸法線
 62
     0
440
 16777216
370
    -2
100
AcDbLine
 10
34870.68805410151
 20
29018.16970027406
 30
0.0
 11
34870.68805410151
 21
29045.50043455932
 31
0.0
  0
LINE
  5
1D36
330
1D32
100
AcDbEntity
  8
寸法線
 62
     0
440
 16777216
370
    -2
100
AcDbLine
 10
34801.88805410151
 20
28976.16969992505
 30
0.0
 11
34801.88805410151
 21
29045.50043455932
 31
0.0
  0
LINE
  5
1D37
330
1D32
100
AcDbEntity
  8
寸法線
 62
     0
440
 16777216
370
    -2
100
AcDbLine
 10
34868.18805410151
 20
29044.25043455933
 30
0.0
 11
34804.38805410151
 21
29044.25043455933
 31
0.0
  0
SOLID
  5
1D38
330
1D32
100
AcDbEntity
  8
寸法線
 62
     0
440
 16777216
100
AcDbTrace
 10
34868.18805410151
 20
29044.667101226
 30
0.0
 11
34868.18805410151
 21
29043.83376789266
 31
0.0
 12
34870.68805410151
 22
29044.25043455933
 32
0.0
 13
34870.68805410151
 23
29044.25043455933
 33
0.0
  0
SOLID
  5
1D39
330
1D32
100
AcDbEntity
  8
寸法線
 62
     0
440
 16777216
100
AcDbTrace
 10
34804.38805410151
 20
29044.667101226
 30
0.0
 11
34804.38805410151
 21
29043.83376789266
 31
0.0
 12
34801.88805410151
 22
29044.25043455933
 32
0.0
 13
34801.88805410151
 23
29044.25043455933
 33
0.0
  0
MTEXT
  5
1D3A
330
1D32
100
AcDbEntity
  8
寸法線
 62
     0
440
 16777216
100
AcDbMText
 10
34836.28805410151
 20
29056.89453415005
 30
0.0
 40
20.0
 41
0.0
 46
0.0
 71
     5
 72
     1
  1
68,8
 73
     1
 44
1.0
  0
POINT
  5
1D3B
330
1D32
100
AcDbEntity
  8
Defpoints
 62
     0
440
 16777216
100
AcDbPoint
 10
34870.68805410151
 20
29017.54470027406
 30
0.0
  0
POINT
  5
1D3C
330
1D32
100
AcDbEntity
  8
Defpoints
 62
     0
440
 16777216
100
AcDbPoint
 10
34801.88805410151
 20
28975.54469992505
 30
0.0
  0
POINT
  5
1D3D
330
1D32
100
AcDbEntity
  8
Defpoints
 62
     0
440
 16777216
100
AcDbPoint
 10
34801.88805410151
 20
29044.25043455933
 30
0.0
  0
ENDBLK
  5
1D34
330
1D32
100
AcDbEntity
  8
0
100
AcDbBlockEnd
  0
BLOCK
  5
1D3F
330
1D3E
100
AcDbEntity
  8
0
100
AcDbBlockBegin
  2
*D7
 70
     1
 10
0.0
 20
0.0
 30
0.0
  3
*D7
  1

  0
LINE
  5
1D41
330
1D3E
100
AcDbEntity
  8
寸法線
 62
     0
440
 16777216
370
    -2
100
AcDbLine
 10
34886.68805410152
 20
28991.91969992615
 30
0.0
 11
34886.68805410152
 21
29096.01730762198
 31
0.0
  0
LINE
  5
1D42
330
1D3E
100
AcDbEntity
  8
寸法線
 62
     0
440
 16777216
370
    -2
100
AcDbLine
 10
34801.88805410151
 20
28976.16969992505
 30
0.0
 11
34801.88805410151
 21
29096.01730762198
 31
0.0
  0
LINE
  5
1D43
330
1D3E
100
AcDbEntity
  8
寸法線
 62
     0
440
 16777216
370
    -2
100
AcDbLine
 10
34884.18805410151
 20
29094.76730762198
 30
0.0
 11
34804.38805410151
 21
29094.76730762198
 31
0.0
  0
SOLID
  5
1D44
330
1D3E
100
AcDbEntity
  8
寸法線
 62
     0
440
 16777216
100
AcDbTrace
 10
34884.18805410151
 20
29095.18397428865
 30
0.0
 11
34884.18805410151
 21
29094.35064095531
 31
0.0
 12
34886.68805410152
 22
29094.76730762198
 32
0.0
 13
34886.68805410152
 23
29094.76730762198
 33
0.0
  0
SOLID
  5
1D45
330
1D3E
100
AcDbEntity
  8
寸法線
 62
     0
440
 16777216
100
AcDbTrace
 10
34804.38805410151
 20
29095.18397428865
 30
0.0
 11
34804.38805410151
 21
29094.35064095531
 31
0.0
 12
34801.88805410151
 22
29094.76730762198
 32
0.0
 13
34801.88805410151
 23
29094.76730762198
 33
0.0
  0
MTEXT
  5
1D46
330
1D3E
100
AcDbEntity
  8
寸法線
 62
     0
440
 16777216
100
AcDbMText
 10
34844.28805410151
 20
29107.4114072127
 30
0.0
 40
20.0
 41
0.0
 46
0.0
 71
     5
 72
     1
  1
84,8
 73
     1
 44
1.0
  0
POINT
  5
1D47
330
1D3E
100
AcDbEntity
  8
Defpoints
 62
     0
440
 16777216
100
AcDbPoint
 10
34886.68805410152
 20
28991.29469992615
 30
0.0
  0
POINT
  5
1D48
330
1D3E
100
AcDbEntity
  8
Defpoints
 62
     0
440
 16777216
100
AcDbPoint
 10
34801.88805410151
 20
28975.54469992505
 30
0.0
  0
POINT
  5
1D49
330
1D3E
100
AcDbEntity
  8
Defpoints
 62
     0
440
 16777216
100
AcDbPoint
 10
34801.88805410151
 20
29094.76730762198
 30
0.0
  0
ENDBLK
  5
1D40
330
1D3E
100
AcDbEntity
  8
0
100
AcDbBlockEnd
  0
ENDSEC
  0
SECTION
  2
ENTITIES
  0
XLINE
  5
7DC
330
1F
100
AcDbEntity
  8
オフセット
100
AcDbXline
 10
32915.44093491146
 20
27902.11527306976
 30
0.0
 11
0.0
 21
-1.0
 31
0.0
  0
XLINE
  5
7E4
330
1F
100
AcDbEntity
  8
オフセット
100
AcDbXline
 10
32915.44093491146
 20
28102.11527306976
 30
0.0
 11
-1.0
 21
0.0
 31
0.0
  0
XLINE
  5
7E5
330
1F
100
AcDbEntity
  8
オフセット
100
AcDbXline
 10
34415.44093491146
 20
27902.11527306976
 30
0.0
 11
0.0
 21
-1.0
 31
0.0
  0
XLINE
  5
7E6
330
1F
100
AcDbEntity
  8
オフセット
100
AcDbXline
 10
33153.94093491146
 20
27902.11527306976
 30
0.0
 11
0.0
 21
-1.0
 31
0.0
  0
XLINE
  5
873
330
1F
100
AcDbEntity
  8
オフセット
100
AcDbXline
 10
32915.44093491146
 20
28273.73237812786
 30
0.0
 11
-1.0
 21
0.0
 31
0.0
  0
XLINE
  5
93D
330
1F
100
AcDbEntity
  8
オフセット
100
AcDbXline
 10
33316.24093491146
 20
27902.11527306976
 30
0.0
 11
0.0
 21
-1.0
 31
0.0
  0
XLINE
  5
998
330
1F
100
AcDbEntity
  8
オフセット
100
AcDbXline
 10
34410.44093491146
 20
27902.11527306976
 30
0.0
 11
0.0
 21
-1.0
 31
0.0
  0
XLINE
  5
999
330
1F
100
AcDbEntity
  8
オフセット
100
AcDbXline
 10
34420.44093491146
 20
27902.11527306976
 30
0.0
 11
0.0
 21
-1.0
 31
0.0
  0
XLINE
  5
99F
330
1F
100
AcDbEntity
  8
オフセット
100
AcDbXline
 10
34113.44093491146
 20
27902.11527306976
 30
0.0
 11
0.0
 21
-1.0
 31
0.0
  0
XLINE
  5
9A0
330
1F
100
AcDbEntity
  8
オフセット
100
AcDbXline
 10
32915.44093491146
 20
28288.23237812785
 30
0.0
 11
-1.0
 21
0.0
 31
0.0
  0
XLINE
  5
9A1
330
1F
100
AcDbEntity
  8
オフセット
100
AcDbXline
 10
32915.44093491146
 20
28259.23237812785
 30
0.0
 11
-1.0
 21
0.0
 31
0.0
  0
XLINE
  5
9A2
330
1F
100
AcDbEntity
  8
オフセット
100
AcDbXline
 10
32915.44093491146
 20
28288.73237812786
 30
0.0
 11
-1.0
 21
0.0
 31
0.0
  0
XLINE
  5
9A3
330
1F
100
AcDbEntity
  8
オフセット
100
AcDbXline
 10
32915.44093491146
 20
28258.73237812785
 30
0.0
 11
-1.0
 21
0.0
 31
0.0
  0
XLINE
  5
9A6
330
1F
100
AcDbEntity
  8
オフセット
100
AcDbXline
 10
32915.44093491146
 20
28289.23237812785
 30
0.0
 11
-1.0
 21
0.0
 31
0.0
  0
XLINE
  5
9A7
330
1F
100
AcDbEntity
  8
オフセット
100
AcDbXline
 10
32915.44093491146
 20
28258.23237812786
 30
0.0
 11
-1.0
 21
0.0
 31
0.0
  0
XLINE
  5
9BE
330
1F
100
AcDbEntity
  8
オフセット
100
AcDbXline
 10
34102.44093491146
 20
27902.11527306976
 30
0.0
 11
0.0
 21
-1.0
 31
0.0
  0
XLINE
  5
9C5
330
1F
100
AcDbEntity
  8
オフセット
100
AcDbXline
 10
32930.94093491146
 20
27902.11527306976
 30
0.0
 11
0.0
 21
-1.0
 31
0.0
  0
LINE
  5
B1F
330
1F
100
AcDbEntity
  8
枠線
100
AcDbLine
 10
34831.24093491148
 20
28330.48237812787
 30
0.0
 11
34831.24093491148
 21
28817.98237812787
 31
0.0
  0
LINE
  5
B20
330
1F
100
AcDbEntity
  8
枠線
100
AcDbLine
 10
34831.24093491148
 20
28817.98237812787
 30
0.0
 11
35356.24093491148
 21
28817.98237812787
 31
0.0
  0
LINE
  5
B21
330
1F
100
AcDbEntity
  8
枠線
100
AcDbLine
 10
34831.24093491148
 20
28382.98237812787
 30
0.0
 11
35356.24093491148
 21
28382.98237812787
 31
0.0
  0
LINE
  5
B22
330
1F
100
AcDbEntity
  8
枠線
100
AcDbLine
 10
34831.24093491148
 20
28435.48237812787
 30
0.0
 11
35356.24093491148
 21
28435.48237812787
 31
0.0
  0
LINE
  5
B23
330
1F
100
AcDbEntity
  8
枠線
100
AcDbLine
 10
34831.24093491148
 20
28487.98237812787
 30
0.0
 11
35356.24093491148
 21
28487.98237812787
 31
0.0
  0
LINE
  5
B24
330
1F
100
AcDbEntity
  8
枠線
100
AcDbLine
 10
34831.24093491148
 20
28540.48237812787
 30
0.0
 11
35356.24093491148
 21
28540.48237812787
 31
0.0
  0
LINE
  5
B25
330
1F
100
AcDbEntity
  8
枠線
100
AcDbLine
 10
34831.24093491148
 20
28592.98237812787
 30
0.0
 11
35356.24093491148
 21
28592.98237812787
 31
0.0
  0
LINE
  5
B26
330
1F
100
AcDbEntity
  8
枠線
100
AcDbLine
 10
34831.24093491148
 20
28645.48237812787
 30
0.0
 11
35356.24093491148
 21
28645.48237812787
 31
0.0
  0
LINE
  5
B27
330
1F
100
AcDbEntity
  8
枠線
100
AcDbLine
 10
34831.24093491148
 20
28697.98237812787
 30
0.0
 11
35356.24093491148
 21
28697.98237812787
 31
0.0
  0
LINE
  5
B28
330
1F
100
AcDbEntity
  8
枠線
100
AcDbLine
 10
34831.24093491148
 20
28750.48237812787
 30
0.0
 11
35356.24093491148
 21
28750.48237812787
 31
0.0
  0
LINE
  5
B29
330
1F
100
AcDbEntity
  8
枠線
100
AcDbLine
 10
34958.74093491148
 20
28817.98237812787
 30
0.0
 11
34958.74093491148
 21
28330.48237812787
 31
0.0
  0
LINE
  5
B2A
330
1F
100
AcDbEntity
  8
枠線
100
AcDbLine
 10
34966.24093491148
 20
28817.98237812787
 30
0.0
 11
34966.24093491148
 21
28330.48237812787
 31
0.0
  0
LINE
  5
B2B
330
1F
100
AcDbEntity
  8
枠線
100
AcDbLine
 10
35041.24093491148
 20
28487.98237812787
 30
0.0
 11
35041.24093491148
 21
28435.48237812787
 31
0.0
  0
LINE
  5
B2C
330
1F
100
AcDbEntity
  8
枠線
100
AcDbLine
 10
35048.74093491148
 20
28487.98237812787
 30
0.0
 11
35048.74093491148
 21
28435.48237812787
 31
0.0
  0
LINE
  5
B2D
330
1F
100
AcDbEntity
  8
枠線
100
AcDbLine
 10
35198.74093491148
 20
28487.98237812787
 30
0.0
 11
35198.74093491148
 21
28435.48237812787
 31
0.0
  0
LINE
  5
B2E
330
1F
100
AcDbEntity
  8
枠線
100
AcDbLine
 10
35206.24093491147
 20
28487.98237812787
 30
0.0
 11
35206.24093491147
 21
28435.48237812787
 31
0.0
  0
LINE
  5
B2F
330
1F
100
AcDbEntity
  8
枠線
100
AcDbLine
 10
35281.24093491148
 20
28487.98237812787
 30
0.0
 11
35281.24093491148
 21
28435.48237812787
 31
0.0
  0
LINE
  5
B30
330
1F
100
AcDbEntity
  8
枠線
100
AcDbLine
 10
35123.74093491148
 20
28487.98237812787
 30
0.0
 11
35123.74093491148
 21
28435.48237812787
 31
0.0
  0
LINE
  5
B31
330
1F
100
AcDbEntity
  8
枠線
100
AcDbLine
 10
34756.24093491147
 20
29732.98237812787
 30
0.0
 11
34756.24093491147
 21
29432.98237812787
 31
0.0
  0
LINE
  5
B32
330
1F
100
AcDbEntity
  8
枠線
100
AcDbLine
 10
34831.24093491148
 20
29732.98237812787
 30
0.0
 11
34831.24093491148
 21
29432.98237812787
 31
0.0
  0
LINE
  5
B33
330
1F
100
AcDbEntity
  8
枠線
100
AcDbLine
 10
34838.74093491148
 20
29432.98237812787
 30
0.0
 11
34838.74093491148
 21
29732.98237812787
 31
0.0
  0
LINE
  5
B34
330
1F
100
AcDbEntity
  8
枠線
100
AcDbLine
 10
34756.24093491147
 20
29657.98237812787
 30
0.0
 11
35356.24093491148
 21
29657.98237812787
 31
0.0
  0
LINE
  5
B35
330
1F
100
AcDbEntity
  8
枠線
100
AcDbLine
 10
34756.24093491147
 20
29612.98237812787
 30
0.0
 11
35356.24093491148
 21
29612.98237812787
 31
0.0
  0
LINE
  5
B36
330
1F
100
AcDbEntity
  8
枠線
100
AcDbLine
 10
34756.24093491147
 20
29567.98237812787
 30
0.0
 11
35356.24093491148
 21
29567.98237812787
 31
0.0
  0
LINE
  5
B37
330
1F
100
AcDbEntity
  8
枠線
100
AcDbLine
 10
34756.24093491147
 20
29522.98237812787
 30
0.0
 11
35356.24093491148
 21
29522.98237812787
 31
0.0
  0
LINE
  5
B38
330
1F
100
AcDbEntity
  8
枠線
100
AcDbLine
 10
34756.24093491147
 20
29477.98237812787
 30
0.0
 11
35356.24093491148
 21
29477.98237812787
 31
0.0
  0
LINE
  5
B39
330
1F
100
AcDbEntity
  8
枠線
100
AcDbLine
 10
34756.24093491147
 20
29432.98237812787
 30
0.0
 11
35356.24093491148
 21
29432.98237812787
 31
0.0
  0
LINE
  5
B3A
330
1F
100
AcDbEntity
  8
枠線
100
AcDbLine
 10
35063.74093491148
 20
29732.98237812787
 30
0.0
 11
35063.74093491148
 21
29432.98237812787
 31
0.0
  0
LINE
  5
B3B
330
1F
100
AcDbEntity
  8
枠線
100
AcDbLine
 10
35209.99093491147
 20
29732.98237812787
 30
0.0
 11
35209.99093491147
 21
29432.98237812787
 31
0.0
  0
LINE
  5
B3C
330
1F
100
AcDbEntity
  8
外形線
100
AcDbLine
 10
33353.74093491147
 20
29755.48237812787
 30
0.0
 11
33353.74093491147
 21
28307.98237812787
 31
0.0
  0
LINE
  5
B3D
330
1F
100
AcDbEntity
  8
外形線
100
AcDbLine
 10
35378.74093491148
 20
29755.48237812787
 30
0.0
 11
33353.74093491147
 21
29755.48237812787
 31
0.0
  0
LINE
  5
B3E
330
1F
100
AcDbEntity
  8
枠線
100
AcDbLine
 10
33376.24093491148
 20
29732.98237812787
 30
0.0
 11
33376.24093491148
 21
28330.48237812787
 31
0.0
  0
LINE
  5
B3F
330
1F
100
AcDbEntity
  8
枠線
100
AcDbLine
 10
33376.24093491148
 20
28330.48237812787
 30
0.0
 11
35356.24093491148
 21
28330.48237812787
 31
0.0
  0
LINE
  5
B40
330
1F
100
AcDbEntity
  8
枠線
100
AcDbLine
 10
35356.24093491148
 20
28330.48237812787
 30
0.0
 11
35356.24093491148
 21
29732.98237812787
 31
0.0
  0
LINE
  5
B41
330
1F
100
AcDbEntity
  8
枠線
100
AcDbLine
 10
35356.24093491148
 20
29732.98237812787
 30
0.0
 11
33376.24093491148
 21
29732.98237812787
 31
0.0
  0
LINE
  5
B42
330
1F
100
AcDbEntity
  8
枠線
100
AcDbLine
 10
34748.74093491147
 20
29732.98237812787
 30
0.0
 11
34748.74093491147
 21
29432.98237812787
 31
0.0
  0
LINE
  5
B43
330
1F
100
AcDbEntity
  8
枠線
100
AcDbLine
 10
34756.24093491147
 20
29432.98237812787
 30
0.0
 11
34756.24093491147
 21
29732.98237812787
 31
0.0
  0
LINE
  5
B44
330
1F
100
AcDbEntity
  8
枠線
100
AcDbLine
 10
34148.74093491147
 20
29732.98237812787
 30
0.0
 11
34148.74093491147
 21
29432.98237812787
 31
0.0
  0
LINE
  5
B45
330
1F
100
AcDbEntity
  8
枠線
100
AcDbLine
 10
34223.74093491148
 20
29732.98237812787
 30
0.0
 11
34223.74093491148
 21
29432.98237812787
 31
0.0
  0
LINE
  5
B46
330
1F
100
AcDbEntity
  8
枠線
100
AcDbLine
 10
34231.24093491148
 20
29432.98237812787
 30
0.0
 11
34231.24093491148
 21
29732.98237812787
 31
0.0
  0
LINE
  5
B47
330
1F
100
AcDbEntity
  8
枠線
100
AcDbLine
 10
34148.74093491147
 20
29657.98237812787
 30
0.0
 11
34748.74093491147
 21
29657.98237812787
 31
0.0
  0
LINE
  5
B48
330
1F
100
AcDbEntity
  8
枠線
100
AcDbLine
 10
34148.74093491147
 20
29612.98237812787
 30
0.0
 11
34748.74093491147
 21
29612.98237812787
 31
0.0
  0
LINE
  5
B49
330
1F
100
AcDbEntity
  8
枠線
100
AcDbLine
 10
34148.74093491147
 20
29567.98237812787
 30
0.0
 11
34748.74093491147
 21
29567.98237812787
 31
0.0
  0
LINE
  5
B4A
330
1F
100
AcDbEntity
  8
枠線
100
AcDbLine
 10
34148.74093491147
 20
29522.98237812787
 30
0.0
 11
34748.74093491147
 21
29522.98237812787
 31
0.0
  0
LINE
  5
B4B
330
1F
100
AcDbEntity
  8
枠線
100
AcDbLine
 10
34148.74093491147
 20
29477.98237812787
 30
0.0
 11
34748.74093491147
 21
29477.98237812787
 31
0.0
  0
LINE
  5
B4C
330
1F
100
AcDbEntity
  8
枠線
100
AcDbLine
 10
34148.74093491147
 20
29432.98237812787
 30
0.0
 11
34748.74093491147
 21
29432.98237812787
 31
0.0
  0
LINE
  5
B4D
330
1F
100
AcDbEntity
  8
枠線
100
AcDbLine
 10
34456.24093491148
 20
29732.98237812787
 30
0.0
 11
34456.24093491148
 21
29432.98237812787
 31
0.0
  0
LINE
  5
B4E
330
1F
100
AcDbEntity
  8
枠線
100
AcDbLine
 10
34602.49093491148
 20
29732.98237812787
 30
0.0
 11
34602.49093491148
 21
29432.98237812787
 31
0.0
  0
LINE
  5
B4F
330
1F
100
AcDbEntity
  8
枠線
100
AcDbLine
 10
34148.74093491147
 20
29432.98237812787
 30
0.0
 11
34148.74093491147
 21
29732.98237812787
 31
0.0
  0
LINE
  5
B50
330
1F
100
AcDbEntity
  8
外形線
100
AcDbLine
 10
35378.74093491148
 20
29755.48237812787
 30
0.0
 11
35378.74093491148
 21
28307.98237812787
 31
0.0
  0
LINE
  5
B51
330
1F
100
AcDbEntity
  8
外形線
100
AcDbLine
 10
35378.74093491148
 20
28307.98237812787
 30
0.0
 11
33353.74093491147
 21
28307.98237812787
 31
0.0
  0
MTEXT
  5
B52
330
1F
100
AcDbEntity
  8
寸法線
100
AcDbMText
 10
34342.33525250739
 20
29695.43420697478
 30
0.0
 40
37.50000000000001
 41
174.8674808517826
 46
0.0
 71
     5
 72
     5
  1
{\fMS PGothic|b0|i0|c128|p50;部品名}
 73
     1
 44
1.0
1001
ACAD
1000
ACAD_MTEXT_COLUMN_INFO_BEGIN
1070
    75
1070
     2
1070
    79
1070
     0
1070
    76
1070
     1
1070
    78
1070
     0
1070
    48
1040
174.8674808517826
1070
    49
1040
12.5
1070
    50
1070
     1
1040
0.0
1000
ACAD_MTEXT_COLUMN_INFO_END
  0
MTEXT
  5
B53
330
1F
100
AcDbEntity
  8
寸法線
100
AcDbMText
 10
34527.9602525073
 20
29695.54074106575
 30
0.0
 40
37.50000000000001
 41
109.1764692682045
 46
0.0
 71
     5
 72
     5
  1
{\fMS PGothic|b0|i0|c128|p50;材質}
 73
     1
 44
1.0
1001
ACAD
1000
ACAD_MTEXT_COLUMN_INFO_BEGIN
1070
    75
1070
     2
1070
    79
1070
     0
1070
    76
1070
     1
1070
    78
1070
     0
1070
    48
1040
109.1764692682045
1070
    49
1040
12.5
1070
    50
1070
     1
1040
0.0
1000
ACAD_MTEXT_COLUMN_INFO_END
  0
MTEXT
  5
B54
330
1F
100
AcDbEntity
  8
寸法線
100
AcDbMText
 10
34674.21025250742
 20
29695.3276728839
 30
0.0
 40
37.50000000000001
 41
115.2368875816973
 46
0.0
 71
     5
 72
     5
  1
{\fMS PGothic|b0|i0|c128|p50;摘要}
 73
     1
 44
1.0
1001
ACAD
1000
ACAD_MTEXT_COLUMN_INFO_BEGIN
1070
    75
1070
     2
1070
    79
1070
     0
1070
    76
1070
     1
1070
    78
1070
     0
1070
    48
1040
115.2368875816973
1070
    49
1040
12.5
1070
    50
1070
     1
1040
0.0
1000
ACAD_MTEXT_COLUMN_INFO_END
  0
MTEXT
  5
B55
330
1F
100
AcDbEntity
  8
寸法線
100
AcDbMText
 10
34187.64661731571
 20
29693.97555259668
 30
0.0
 40
22.5
 41
10.0
 46
0.0
 71
     5
 72
     5
  1
{\fMS PGothic|b0|i0|c128|p50;部番}
 73
     1
 44
1.0
1001
ACAD
1000
ACAD_MTEXT_COLUMN_INFO_BEGIN
1070
    75
1070
     2
1070
    79
1070
     0
1070
    76
1070
     1
1070
    78
1070
     0
1070
    48
1040
10.0
1070
    49
1040
12.5
1070
    50
1070
     1
1040
0.0
1000
ACAD_MTEXT_COLUMN_INFO_END
  0
MTEXT
  5
B56
330
1F
100
AcDbEntity
  8
寸法線
100
AcDbMText
 10
34186.24093491148
 20
29635.49772247873
 30
0.0
 40
26.25000000000001
 41
10.0
 46
0.0
 71
     5
 72
     5
  1
{\fMS PGothic|b0|i0|c128|p50;①}
 73
     1
 44
1.0
1001
ACAD
1000
ACAD_MTEXT_COLUMN_INFO_BEGIN
1070
    75
1070
     2
1070
    79
1070
     0
1070
    76
1070
     1
1070
    78
1070
     0
1070
    48
1040
10.0
1070
    49
1040
12.5
1070
    50
1070
     1
1040
0.0
1000
ACAD_MTEXT_COLUMN_INFO_END
  0
MTEXT
  5
B57
330
1F
100
AcDbEntity
  8
寸法線
100
AcDbMText
 10
34186.24093491148
 20
29590.49772247873
 30
0.0
 40
26.25000000000001
 41
10.0
 46
0.0
 71
     5
 72
     5
  1
{\fMS PGothic|b0|i0|c128|p50;②}
 73
     1
 44
1.0
1001
ACAD
1000
ACAD_MTEXT_COLUMN_INFO_BEGIN
1070
    75
1070
     2
1070
    79
1070
     0
1070
    76
1070
     1
1070
    78
1070
     0
1070
    48
1040
10.0
1070
    49
1040
12.5
1070
    50
1070
     1
1040
0.0
1000
ACAD_MTEXT_COLUMN_INFO_END
  0
MTEXT
  5
B58
330
1F
100
AcDbEntity
  8
寸法線
100
AcDbMText
 10
34186.24093491148
 20
29545.49772247876
 30
0.0
 40
26.25000000000001
 41
10.0
 46
0.0
 71
     5
 72
     5
  1
{\fMS PGothic|b0|i0|c128|p50;③}
 73
     1
 44
1.0
1001
ACAD
1000
ACAD_MTEXT_COLUMN_INFO_BEGIN
1070
    75
1070
     2
1070
    79
1070
     0
1070
    76
1070
     1
1070
    78
1070
     0
1070
    48
1040
10.0
1070
    49
1040
12.5
1070
    50
1070
     1
1040
0.0
1000
ACAD_MTEXT_COLUMN_INFO_END
  0
MTEXT
  5
B59
330
1F
100
AcDbEntity
  8
寸法線
100
AcDbMText
 10
34186.24093491148
 20
29500.49772247873
 30
0.0
 40
26.25000000000001
 41
10.0
 46
0.0
 71
     5
 72
     5
  1
{\fMS PGothic|b0|i0|c128|p50;④}
 73
     1
 44
1.0
1001
ACAD
1000
ACAD_MTEXT_COLUMN_INFO_BEGIN
1070
    75
1070
     2
1070
    79
1070
     0
1070
    76
1070
     1
1070
    78
1070
     0
1070
    48
1040
10.0
1070
    49
1040
12.5
1070
    50
1070
     1
1040
0.0
1000
ACAD_MTEXT_COLUMN_INFO_END
  0
MTEXT
  5
B5A
330
1F
100
AcDbEntity
  8
寸法線
100
AcDbMText
 10
34186.24093491148
 20
29455.49772247873
 30
0.0
 40
26.25000000000001
 41
10.0
 46
0.0
 71
     5
 72
     5
  1
{\fMS PGothic|b0|i0|c128|p50;⑤}
 73
     1
 44
1.0
1001
ACAD
1000
ACAD_MTEXT_COLUMN_INFO_BEGIN
1070
    75
1070
     2
1070
    79
1070
     0
1070
    76
1070
     1
1070
    78
1070
     0
1070
    48
1040
10.0
1070
    49
1040
12.5
1070
    50
1070
     1
1040
0.0
1000
ACAD_MTEXT_COLUMN_INFO_END
  0
MTEXT
  5
B5B
330
1F
100
AcDbEntity
  8
寸法線
100
AcDbMText
 10
34949.8352525073
 20
29695.43420697478
 30
0.0
 40
37.50000000000001
 41
208.789682174116
 46
0.0
 71
     5
 72
     5
  1
{\fMS PGothic|b0|i0|c128|p50;部品名}
 73
     1
 44
1.0
1001
ACAD
1000
ACAD_MTEXT_COLUMN_INFO_BEGIN
1070
    75
1070
     2
1070
    79
1070
     0
1070
    76
1070
     1
1070
    78
1070
     0
1070
    48
1040
208.789682174116
1070
    49
1040
12.5
1070
    50
1070
     1
1040
0.0
1000
ACAD_MTEXT_COLUMN_INFO_END
  0
MTEXT
  5
B5C
330
1F
100
AcDbEntity
  8
寸法線
100
AcDbMText
 10
35135.4602525073
 20
29695.54074106575
 30
0.0
 40
37.50000000000001
 41
121.2416595124814
 46
0.0
 71
     5
 72
     5
  1
{\fMS PGothic|b0|i0|c128|p50;材質}
 73
     1
 44
1.0
1001
ACAD
1000
ACAD_MTEXT_COLUMN_INFO_BEGIN
1070
    75
1070
     2
1070
    79
1070
     0
1070
    76
1070
     1
1070
    78
1070
     0
1070
    48
1040
121.2416595124814
1070
    49
1040
12.5
1070
    50
1070
     1
1040
0.0
1000
ACAD_MTEXT_COLUMN_INFO_END
  0
MTEXT
  5
B5D
330
1F
100
AcDbEntity
  8
寸法線
100
AcDbMText
 10
35281.7102525073
 20
29695.3276728839
 30
0.0
 40
37.50000000000001
 41
124.8927565777121
 46
0.0
 71
     5
 72
     5
  1
{\fMS PGothic|b0|i0|c128|p50;摘要}
 73
     1
 44
1.0
1001
ACAD
1000
ACAD_MTEXT_COLUMN_INFO_BEGIN
1070
    75
1070
     2
1070
    79
1070
     0
1070
    76
1070
     1
1070
    78
1070
     0
1070
    48
1040
124.8927565777121
1070
    49
1040
12.5
1070
    50
1070
     1
1040
0.0
1000
ACAD_MTEXT_COLUMN_INFO_END
  0
MTEXT
  5
B5E
330
1F
100
AcDbEntity
  8
寸法線
100
AcDbMText
 10
34795.14661731577
 20
29693.97555259668
 30
0.0
 40
22.5
 41
10.0
 46
0.0
 71
     5
 72
     5
  1
{\fMS PGothic|b0|i0|c128|p50;部番}
 73
     1
 44
1.0
1001
ACAD
1000
ACAD_MTEXT_COLUMN_INFO_BEGIN
1070
    75
1070
     2
1070
    79
1070
     0
1070
    76
1070
     1
1070
    78
1070
     0
1070
    48
1040
10.0
1070
    49
1040
12.5
1070
    50
1070
     1
1040
0.0
1000
ACAD_MTEXT_COLUMN_INFO_END
  0
MTEXT
  5
B5F
330
1F
100
AcDbEntity
  8
寸法線
100
AcDbMText
 10
34793.74093491153
 20
29635.49772247873
 30
0.0
 40
26.25000000000001
 41
10.0
 46
0.0
 71
     5
 72
     5
  1
{\fMS PGothic|b0|i0|c128|p50;⑥}
 73
     1
 44
1.0
1001
ACAD
1000
ACAD_MTEXT_COLUMN_INFO_BEGIN
1070
    75
1070
     2
1070
    79
1070
     0
1070
    76
1070
     1
1070
    78
1070
     0
1070
    48
1040
10.0
1070
    49
1040
12.5
1070
    50
1070
     1
1040
0.0
1000
ACAD_MTEXT_COLUMN_INFO_END
  0
MTEXT
  5
B60
330
1F
100
AcDbEntity
  8
寸法線
100
AcDbMText
 10
34793.74093491153
 20
29590.49772247873
 30
0.0
 40
26.25000000000001
 41
10.0
 46
0.0
 71
     5
 72
     5
  1
{\fMS PGothic|b0|i0|c128|p50;⑦}
 73
     1
 44
1.0
1001
ACAD
1000
ACAD_MTEXT_COLUMN_INFO_BEGIN
1070
    75
1070
     2
1070
    79
1070
     0
1070
    76
1070
     1
1070
    78
1070
     0
1070
    48
1040
10.0
1070
    49
1040
12.5
1070
    50
1070
     1
1040
0.0
1000
ACAD_MTEXT_COLUMN_INFO_END
  0
MTEXT
  5
B61
330
1F
100
AcDbEntity
  8
寸法線
100
AcDbMText
 10
34793.74093491153
 20
29545.49772247876
 30
0.0
 40
26.25000000000001
 41
10.0
 46
0.0
 71
     5
 72
     5
  1
{\fMS PGothic|b0|i0|c128|p50;⑧}
 73
     1
 44
1.0
1001
ACAD
1000
ACAD_MTEXT_COLUMN_INFO_BEGIN
1070
    75
1070
     2
1070
    79
1070
     0
1070
    76
1070
     1
1070
    78
1070
     0
1070
    48
1040
10.0
1070
    49
1040
12.5
1070
    50
1070
     1
1040
0.0
1000
ACAD_MTEXT_COLUMN_INFO_END
  0
MTEXT
  5
B62
330
1F
100
AcDbEntity
  8
寸法線
100
AcDbMText
 10
34793.74093491153
 20
29500.49772247873
 30
0.0
 40
26.25000000000001
 41
10.0
 46
0.0
 71
     5
 72
     5
  1
{\fMS PGothic|b0|i0|c128|p50;⑨}
 73
     1
 44
1.0
1001
ACAD
1000
ACAD_MTEXT_COLUMN_INFO_BEGIN
1070
    75
1070
     2
1070
    79
1070
     0
1070
    76
1070
     1
1070
    78
1070
     0
1070
    48
1040
10.0
1070
    49
1040
12.5
1070
    50
1070
     1
1040
0.0
1000
ACAD_MTEXT_COLUMN_INFO_END
  0
MTEXT
  5
B63
330
1F
100
AcDbEntity
  8
寸法線
100
AcDbMText
 10
34793.74093491153
 20
29455.49772247873
 30
0.0
 40
26.25000000000001
 41
10.0
 46
0.0
 71
     5
 72
     5
  1
{\fMS PGothic|b0|i0|c128|p50;⑩}
 73
     1
 44
1.0
1001
ACAD
1000
ACAD_MTEXT_COLUMN_INFO_BEGIN
1070
    75
1070
     2
1070
    79
1070
     0
1070
    76
1070
     1
1070
    78
1070
     0
1070
    48
1040
10.0
1070
    49
1040
12.5
1070
    50
1070
     1
1040
0.0
1000
ACAD_MTEXT_COLUMN_INFO_END
  0
TEXT
  5
B64
330
1F
100
AcDbEntity
  8
寸法線
100
AcDbText
 10
34973.80850170256
 20
28790.09250033819
 30
0.0
 40
16.125
  1
広告灯内用放電灯器具（LEDランプ用）
100
AcDbText
  0
TEXT
  5
B65
330
1F
100
AcDbEntity
  8
寸法線
100
AcDbText
 10
34974.49132900027
 20
28766.1981884437
 30
0.0
 40
11.25
  1
AC100/200V　　50/60Hz
100
AcDbText
  0
MTEXT
  5
B66
330
1F
100
AcDbEntity
  8
寸法線
100
AcDbMText
 10
34894.99093491148
 20
28721.94103785648
 30
0.0
 40
26.25000000000001
 41
134.5371276319638
 46
0.0
 71
     5
 72
     5
  1
{\fMS PGothic|b0|i0|c128|p50;品名}
 73
     1
 44
1.0
1001
ACAD
1000
ACAD_MTEXT_COLUMN_INFO_BEGIN
1070
    75
1070
     2
1070
    79
1070
     0
1070
    76
1070
     1
1070
    78
1070
     0
1070
    48
1040
134.5371276319638
1070
    49
1040
12.5
1070
    50
1070
     1
1040
0.0
1000
ACAD_MTEXT_COLUMN_INFO_END
  0
MTEXT
  5
B67
330
1F
100
AcDbEntity
  8
寸法線
100
AcDbMText
 10
34894.99093491148
 20
28669.36646399289
 30
0.0
 40
26.25000000000001
 41
107.3977478795059
 46
0.0
 71
     5
 72
     5
  1
{\fMS PGothic|b0|i0|c128|p50;型番}
 73
     1
 44
1.0
1001
ACAD
1000
ACAD_MTEXT_COLUMN_INFO_BEGIN
1070
    75
1070
     2
1070
    79
1070
     0
1070
    76
1070
     1
1070
    78
1070
     0
1070
    48
1040
107.3977478795059
1070
    49
1040
12.5
1070
    50
1070
     1
1040
0.0
1000
ACAD_MTEXT_COLUMN_INFO_END
  0
MTEXT
  5
B68
330
1F
100
AcDbEntity
  8
寸法線
100
AcDbMText
 10
34894.99093491148
 20
28616.86646399289
 30
0.0
 40
26.25000000000001
 41
111.0985654956457
 46
0.0
 71
     5
 72
     5
  1
{\fMS PGothic|b0|i0|c128|p50;図番}
 73
     1
 44
1.0
1001
ACAD
1000
ACAD_MTEXT_COLUMN_INFO_BEGIN
1070
    75
1070
     2
1070
    79
1070
     0
1070
    76
1070
     1
1070
    78
1070
     0
1070
    48
1040
111.0985654956457
1070
    49
1040
12.5
1070
    50
1070
     1
1040
0.0
1000
ACAD_MTEXT_COLUMN_INFO_END
  0
MTEXT
  5
B69
330
1F
100
AcDbEntity
  8
寸法線
100
AcDbMText
 10
34894.99093491148
 20
28564.06816853833
 30
0.0
 40
26.25000000000001
 41
79.75
 46
0.0
 71
     5
 72
     5
  1
{\fMS PGothic|b0|i0|c128|p50;尺度}
 73
     1
 44
1.0
1001
ACAD
1000
ACAD_MTEXT_COLUMN_INFO_BEGIN
1070
    75
1070
     2
1070
    79
1070
     0
1070
    76
1070
     1
1070
    78
1070
     0
1070
    48
1040
79.75
1070
    49
1040
12.5
1070
    50
1070
     1
1040
0.0
1000
ACAD_MTEXT_COLUMN_INFO_END
  0
MTEXT
  5
B6A
330
1F
100
AcDbEntity
  8
寸法線
100
AcDbMText
 10
34894.99093491148
 20
28512.38848103833
 30
0.0
 40
26.25000000000001
 41
79.75
 46
0.0
 71
     5
 72
     5
  1
{\fMS PGothic|b0|i0|c128|p50;日付}
 73
     1
 44
1.0
1001
ACAD
1000
ACAD_MTEXT_COLUMN_INFO_BEGIN
1070
    75
1070
     2
1070
    79
1070
     0
1070
    76
1070
     1
1070
    78
1070
     0
1070
    48
1040
79.75
1070
    49
1040
12.5
1070
    50
1070
     1
1040
0.0
1000
ACAD_MTEXT_COLUMN_INFO_END
  0
MTEXT
  5
B6B
330
1F
100
AcDbEntity
  8
寸法線
100
AcDbMText
 10
34894.99093491148
 20
28459.29189012924
 30
0.0
 40
26.25000000000001
 41
79.75
 46
0.0
 71
     5
 72
     5
  1
{\fMS PGothic|b0|i0|c128|p50;設計}
 73
     1
 44
1.0
1001
ACAD
1000
ACAD_MTEXT_COLUMN_INFO_BEGIN
1070
    75
1070
     2
1070
    79
1070
     0
1070
    76
1070
     1
1070
    78
1070
     0
1070
    48
1040
79.75
1070
    49
1040
12.5
1070
    50
1070
     1
1040
0.0
1000
ACAD_MTEXT_COLUMN_INFO_END
  0
MTEXT
  5
B6C
330
1F
100
AcDbEntity
  8
寸法線
100
AcDbMText
 10
35086.24093491154
 20
28462.21518558377
 30
0.0
 40
21.0
 41
77.95127031754964
 46
0.0
 71
     5
 72
     5
  1
{\fMS PGothic|b0|i0|c128|p50;製図}
 73
     1
 44
1.0
1001
ACAD
1000
ACAD_MTEXT_COLUMN_INFO_BEGIN
1070
    75
1070
     2
1070
    79
1070
     0
1070
    76
1070
     1
1070
    78
1070
     0
1070
    48
1040
77.95127031754964
1070
    49
1040
12.5
1070
    50
1070
     1
1040
0.0
1000
ACAD_MTEXT_COLUMN_INFO_END
  0
MTEXT
  5
B6D
330
1F
100
AcDbEntity
  8
寸法線
100
AcDbMText
 10
35243.74093491153
 20
28462.99075376565
 30
0.0
 40
21.0
 41
64.78344696047134
 46
0.0
 71
     5
 72
     5
  1
{\fMS PGothic|b0|i0|c128|p50;承認}
 73
     1
 44
1.0
1001
ACAD
1000
ACAD_MTEXT_COLUMN_INFO_BEGIN
1070
    75
1070
     2
1070
    79
1070
     0
1070
    76
1070
     1
1070
    78
1070
     0
1070
    48
1040
64.78344696047134
1070
    49
1040
12.5
1070
    50
1070
     1
1040
0.0
1000
ACAD_MTEXT_COLUMN_INFO_END
  0
MTEXT
  5
B6E
330
1F
100
AcDbEntity
  8
寸法線
100
AcDbMText
 10
35161.24093491153
 20
28358.97825559299
 30
0.0
 40
26.25000000000001
 41
479.1527611076308
 46
0.0
 71
     5
 72
     5
  1
{\fMS PGothic|b0|i0|c128|p50;高村電機工業株式会社}
 73
     1
 44
1.0
1001
ACAD
1000
ACAD_MTEXT_COLUMN_INFO_BEGIN
1070
    75
1070
     2
1070
    79
1070
     0
1070
    76
1070
     1
1070
    78
1070
     0
1070
    48
1040
479.1527611076308
1070
    49
1040
12.5
1070
    50
1070
     1
1040
0.0
1000
ACAD_MTEXT_COLUMN_INFO_END
  0
MTEXT
  5
B6F
330
1F
100
AcDbEntity
  8
寸法線
100
AcDbMText
 10
34976.77017264042
 20
28747.97637550353
 30
0.0
 40
30.00000000000002
 41
379.4707622710557
 46
0.0
 71
     1
 72
     5
  1
{\fMS PGothic|b0|i0|c128|p50;ゼブライト・V　}35W
 73
     1
 44
1.0
1001
ACAD
1000
ACAD_MTEXT_COLUMN_INFO_BEGIN
1070
    75
1070
     2
1070
    79
1070
     0
1070
    76
1070
     1
1070
    78
1070
     0
1070
    48
1040
379.4707622710557
1070
    49
1040
12.5
1070
    50
1070
     1
1040
0.0
1000
ACAD_MTEXT_COLUMN_INFO_END
  0
MTEXT
  5
B70
330
1F
100
AcDbEntity
  8
寸法線
100
AcDbMText
 10
34977.94011030515
 20
28689.02302503455
 30
0.0
 40
30.00000000000002
 41
326.790400944592
 46
0.0
 71
     1
 72
     5
  1
CSG{\fMS PGothic|b0|i0|c128|p50;‐}350KB-V
 73
     1
 44
1.0
1001
ACAD
1000
ACAD_MTEXT_COLUMN_INFO_BEGIN
1070
    75
1070
     2
1070
    79
1070
     0
1070
    76
1070
     1
1070
    78
1070
     0
1070
    48
1040
326.790400944592
1070
    49
1040
12.5
1070
    50
1070
     1
1040
0.0
1000
ACAD_MTEXT_COLUMN_INFO_END
  0
LINE
  5
B71
330
1F
100
AcDbEntity
  8
枠線
100
AcDbLine
 10
35157.49093491148
 20
28592.98237812787
 30
0.0
 11
35157.49093491148
 21
28540.48237812787
 31
0.0
  0
LINE
  5
B72
330
1F
100
AcDbEntity
  8
枠線
100
AcDbLine
 10
35164.99093491148
 20
28592.98237812787
 30
0.0
 11
35164.99093491148
 21
28540.48237812787
 31
0.0
  0
CIRCLE
  5
B73
330
1F
100
AcDbEntity
  8
枠線
100
AcDbCircle
 10
35221.24093491147
 20
28566.73237812787
 30
0.0
 40
15.0
  0
CIRCLE
  5
B74
330
1F
100
AcDbEntity
  8
枠線
100
AcDbCircle
 10
35221.24093491147
 20
28566.73237812787
 30
0.0
 40
7.5
  0
LINE
  5
B75
330
1F
100
AcDbEntity
  8
枠線
100
AcDbLine
 10
35277.49093491148
 20
28574.23237812787
 30
0.0
 11
35277.49093491148
 21
28559.23237812787
 31
0.0
  0
LINE
  5
B76
330
1F
100
AcDbEntity
  8
枠線
100
AcDbLine
 10
35277.49093491148
 20
28559.23237812787
 30
0.0
 11
35314.99093491148
 21
28551.73237812787
 31
0.0
  0
LINE
  5
B77
330
1F
100
AcDbEntity
  8
枠線
100
AcDbLine
 10
35314.99093491148
 20
28551.73237812787
 30
0.0
 11
35314.99093491148
 21
28581.73237812787
 31
0.0
  0
LINE
  5
B78
330
1F
100
AcDbEntity
  8
枠線
100
AcDbLine
 10
35314.99093491148
 20
28581.73237812787
 30
0.0
 11
35277.49093491148
 21
28574.23237812787
 31
0.0
  0
LINE
  5
B79
330
1F
100
AcDbEntity
  8
中心線
 48
0.5
100
AcDbLine
 10
35202.49093491147
 20
28566.73237812787
 30
0.0
 11
35318.74093491148
 21
28566.73237812787
 31
0.0
  0
LINE
  5
B7A
330
1F
100
AcDbEntity
  8
中心線
 48
0.5
100
AcDbLine
 10
35221.24093491147
 20
28585.48237812787
 30
0.0
 11
35221.24093491147
 21
28547.98237812787
 31
0.0
  0
MTEXT
  5
B7B
330
1F
100
AcDbEntity
  8
中心線
100
AcDbMText
 10
35062.10515516228
 20
28567.02177482419
 30
0.0
 40
30.00000000000002
 41
137.1373031534895
 46
0.0
 71
     5
 72
     5
  1
1  :  5
 73
     1
 44
1.0
1001
ACAD
1000
ACAD_MTEXT_COLUMN_INFO_BEGIN
1070
    75
1070
     2
1070
    79
1070
     0
1070
    76
1070
     1
1070
    78
1070
     0
1070
    48
1040
137.1373031534895
1070
    49
1040
12.5
1070
    50
1070
     1
1040
0.0
1000
ACAD_MTEXT_COLUMN_INFO_END
  0
MTEXT
  5
B7C
330
1F
100
AcDbEntity
  8
寸法線
100
AcDbMText
 10
34238.20906877174
 20
29649.15799909807
 30
0.0
 40
12.0
 41
151.6297294085016
 46
0.0
 71
     1
 72
     5
  1
{\fMS PGothic|b0|i0|c128|p50;器具本体}
 73
     1
 44
1.0
1001
ACAD
1000
ACAD_MTEXT_COLUMN_INFO_BEGIN
1070
    75
1070
     2
1070
    79
1070
     0
1070
    76
1070
     1
1070
    78
1070
     0
1070
    48
1040
151.6297294085016
1070
    49
1040
12.5
1070
    50
1070
     1
1040
0.0
1000
ACAD_MTEXT_COLUMN_INFO_END
  0
MTEXT
  5
B7D
330
1F
100
AcDbEntity
  8
寸法線
100
AcDbMText
 10
34464.31238690586
 20
29654.81214108685
 30
0.0
 40
10.0
 41
163.0743348696414
 46
0.0
 71
     1
 72
     5
  1
{\fMS PGothic|b0|i0|c128|p50;鋼鈑　}0.6{\fMS PGothic|b0|i0|c128|p50;ｔ}\P{\fMS PGothic|b0|i0|c128|p50;（亜鉛メッキ板）}
 73
     1
 44
1.0
1001
ACAD
1000
ACAD_MTEXT_COLUMN_INFO_BEGIN
1070
    75
1070
     2
1070
    79
1070
     0
1070
    76
1070
     1
1070
    78
1070
     0
1070
    48
1040
163.0743348696414
1070
    49
1040
12.5
1070
    50
1070
     1
1040
0.0
1000
ACAD_MTEXT_COLUMN_INFO_END
  0
MTEXT
  5
B7E
330
1F
100
AcDbEntity
  8
寸法線
100
AcDbMText
 10
34606.65688851665
 20
29644.09894835483
 30
0.0
 40
10.0
 41
127.6574633589698
 46
0.0
 71
     1
 72
     5
  1
{\fMS PGothic|b0|i0|c128|p50;ホーミング加工}
 73
     1
 44
1.0
1001
ACAD
1000
ACAD_MTEXT_COLUMN_INFO_BEGIN
1070
    75
1070
     2
1070
    79
1070
     0
1070
    76
1070
     1
1070
    78
1070
     0
1070
    48
1040
127.6574633589698
1070
    49
1040
12.5
1070
    50
1070
     1
1040
0.0
1000
ACAD_MTEXT_COLUMN_INFO_END
  0
MTEXT
  5
B7F
330
1F
100
AcDbEntity
  8
寸法線
100
AcDbMText
 10
34238.19917601458
 20
29557.16080846719
 30
0.0
 40
12.0
 41
177.2417588968819
 46
0.0
 71
     1
 72
     5
  1
{\fMS PGothic|b0|i0|c128|p50;絶縁ブッシング}
 73
     1
 44
1.0
1001
ACAD
1000
ACAD_MTEXT_COLUMN_INFO_BEGIN
1070
    75
1070
     2
1070
    79
1070
     0
1070
    76
1070
     1
1070
    78
1070
     0
1070
    48
1040
177.2417588968819
1070
    49
1040
12.5
1070
    50
1070
     1
1040
0.0
1000
ACAD_MTEXT_COLUMN_INFO_END
  0
MTEXT
  5
B80
330
1F
100
AcDbEntity
  8
寸法線
100
AcDbMText
 10
34467.06484389259
 20
29563.344556653
 30
0.0
 40
10.0
 41
112.0581813088574
 46
0.0
 71
     1
 72
     5
  1
P.P{\fMS PGothic|b0|i0|c128|p50;樹脂}
 73
     1
 44
1.0
1001
ACAD
1000
ACAD_MTEXT_COLUMN_INFO_BEGIN
1070
    75
1070
     2
1070
    79
1070
     0
1070
    76
1070
     1
1070
    78
1070
     0
1070
    48
1040
112.0581813088574
1070
    49
1040
12.5
1070
    50
1070
     1
1040
0.0
1000
ACAD_MTEXT_COLUMN_INFO_END
  0
MTEXT
  5
B81
330
1F
100
AcDbEntity
  8
寸法線
100
AcDbMText
 10
34235.8797623135
 20
29515.25266188939
 30
0.0
 40
12.0
 41
209.7639475286996
 46
0.0
 71
     1
 72
     5
  1
{\fMS PGothic|b0|i0|c128|p50;ランプソケット（固定側）}
 73
     1
 44
1.0
1001
ACAD
1000
ACAD_MTEXT_COLUMN_INFO_BEGIN
1070
    75
1070
     2
1070
    79
1070
     0
1070
    76
1070
     1
1070
    78
1070
     0
1070
    48
1040
209.7639475286996
1070
    49
1040
12.5
1070
    50
1070
     1
1040
0.0
1000
ACAD_MTEXT_COLUMN_INFO_END
  0
MTEXT
  5
B82
330
1F
100
AcDbEntity
  8
寸法線
100
AcDbMText
 10
34465.51858971544
 20
29518.34457732385
 30
0.0
 40
10.0
 41
114.358547341013
 46
0.0
 71
     1
 72
     5
  1
{\fMS PGothic|b0|i0|c128|p50;P.P樹脂\P黄銅}
 73
     1
 44
1.0
1001
ACAD
1000
ACAD_MTEXT_COLUMN_INFO_BEGIN
1070
    75
1070
     2
1070
    79
1070
     0
1070
    76
1070
     1
1070
    78
1070
     0
1070
    48
1040
114.358547341013
1070
    49
1040
12.5
1070
    50
1070
     1
1040
0.0
1000
ACAD_MTEXT_COLUMN_INFO_END
  0
MTEXT
  5
B83
330
1F
100
AcDbEntity
  8
寸法線
100
AcDbMText
 10
34238.19917601458
 20
29469.47971920457
 30
0.0
 40
12.0
 41
210.5417588968994
 46
0.0
 71
     1
 72
     5
  1
{\fMS PGothic|b0|i0|c128|p50;ランプソケット（スプリング側）}
 73
     1
 44
1.0
1001
ACAD
1000
ACAD_MTEXT_COLUMN_INFO_BEGIN
1070
    75
1070
     2
1070
    79
1070
     0
1070
    76
1070
     1
1070
    78
1070
     0
1070
    48
1040
210.5417588968994
1070
    49
1040
12.5
1070
    50
1070
     1
1040
0.0
1000
ACAD_MTEXT_COLUMN_INFO_END
  0
MTEXT
  5
B84
330
1F
100
AcDbEntity
  8
寸法線
100
AcDbMText
 10
34461.65288940209
 20
29474.11754067941
 30
0.0
 40
10.0
 41
140.8380455093865
 46
0.0
 71
     1
 72
     5
  1
P.P{\fMS PGothic|b0|i0|c128|p50;樹脂}\P{\fMS PGothic|b0|i0|c128|p50;黄銅}
 73
     1
 44
1.0
1001
ACAD
1000
ACAD_MTEXT_COLUMN_INFO_BEGIN
1070
    75
1070
     2
1070
    79
1070
     0
1070
    76
1070
     1
1070
    78
1070
     0
1070
    48
1040
140.8380455093865
1070
    49
1040
12.5
1070
    50
1070
     1
1040
0.0
1000
ACAD_MTEXT_COLUMN_INFO_END
  0
MTEXT
  5
B85
330
1F
100
AcDbEntity
  8
寸法線
100
AcDbMText
 10
34846.56983595912
 20
29649.37243782744
 30
0.0
 40
12.0
 41
181.3710989523388
 46
0.0
 71
     1
 72
     5
  1
{\fMS PGothic|b0|i0|c128|p50;電源装置取付鋼鈑}
 73
     1
 44
1.0
1001
ACAD
1000
ACAD_MTEXT_COLUMN_INFO_BEGIN
1070
    75
1070
     2
1070
    79
1070
     0
1070
    76
1070
     1
1070
    78
1070
     0
1070
    48
1040
181.3710989523388
1070
    49
1040
12.5
1070
    50
1070
     1
1040
0.0
1000
ACAD_MTEXT_COLUMN_INFO_END
  0
LINE
  5
B87
330
1F
100
AcDbEntity
  8
外形線
100
AcDbLine
 10
33316.24093491148
 20
29774.23237812787
 30
0.0
 11
33316.24093491148
 21
28289.23237812787
 31
0.0
  0
LINE
  5
B88
330
1F
100
AcDbEntity
  8
外形線
100
AcDbLine
 10
33316.24093491148
 20
28289.23237812787
 30
0.0
 11
35416.24093491148
 21
28289.23237812787
 31
0.0
  0
LINE
  5
B89
330
1F
100
AcDbEntity
  8
外形線
100
AcDbLine
 10
35416.24093491148
 20
28289.23237812787
 30
0.0
 11
35416.24093491148
 21
29774.23237812787
 31
0.0
  0
LINE
  5
B8A
330
1F
100
AcDbEntity
  8
外形線
100
AcDbLine
 10
35416.24093491148
 20
29774.23237812787
 30
0.0
 11
33316.24093491148
 21
29774.23237812787
 31
0.0
  0
XLINE
  5
C17
330
1F
100
AcDbEntity
  8
オフセット
100
AcDbXline
 10
32915.44093491146
 20
29033.35326060758
 30
0.0
 11
-1.0
 21
0.0
 31
0.0
  0
XLINE
  5
C18
330
1F
100
AcDbEntity
  8
オフセット
100
AcDbXline
 10
32915.44093491146
 20
29197.60326060758
 30
0.0
 11
-1.0
 21
0.0
 31
0.0
  0
XLINE
  5
C19
330
1F
100
AcDbEntity
  8
オフセット
100
AcDbXline
 10
33489.19848660889
 20
27902.11527306976
 30
0.0
 11
0.0
 21
-1.0
 31
0.0
  0
XLINE
  5
C1A
330
1F
100
AcDbEntity
  8
オフセット
100
AcDbXline
 10
34731.19848660889
 20
27902.11527306976
 30
0.0
 11
0.0
 21
-1.0
 31
0.0
  0
XLINE
  5
C1B
330
1F
100
AcDbEntity
  8
オフセット
100
AcDbXline
 10
34751.19848660889
 20
27902.11527306976
 30
0.0
 11
0.0
 21
-1.0
 31
0.0
  0
XLINE
  5
C1C
330
1F
100
AcDbEntity
  8
オフセット
100
AcDbXline
 10
33469.19848660889
 20
27902.11527306976
 30
0.0
 11
0.0
 21
-1.0
 31
0.0
  0
XLINE
  5
C1E
330
1F
100
AcDbEntity
  8
オフセット
100
AcDbXline
 10
35007.19848660889
 20
27902.11527306976
 30
0.0
 11
0.0
 21
-1.0
 31
0.0
  0
XLINE
  5
C1F
330
1F
100
AcDbEntity
  8
オフセット
100
AcDbXline
 10
35017.19848660889
 20
27902.11527306976
 30
0.0
 11
0.0
 21
-1.0
 31
0.0
  0
XLINE
  5
C21
330
1F
100
AcDbEntity
  8
オフセット
100
AcDbXline
 10
34990.19848660889
 20
27902.11527306976
 30
0.0
 11
0.0
 21
-1.0
 31
0.0
  0
XLINE
  5
C22
330
1F
100
AcDbEntity
  8
オフセット
100
AcDbXline
 10
32915.44093491146
 20
29049.60326060757
 30
0.0
 11
-1.0
 21
0.0
 31
0.0
  0
XLINE
  5
C23
330
1F
100
AcDbEntity
  8
オフセット
100
AcDbXline
 10
32915.44093491146
 20
29059.60326060758
 30
0.0
 11
-1.0
 21
0.0
 31
0.0
  0
XLINE
  5
C24
330
1F
100
AcDbEntity
  8
オフセット
100
AcDbXline
 10
32915.44093491146
 20
28972.60326060758
 30
0.0
 11
-1.0
 21
0.0
 31
0.0
  0
XLINE
  5
C25
330
1F
100
AcDbEntity
  8
オフセット
100
AcDbXline
 10
32915.44093491146
 20
28962.60326060758
 30
0.0
 11
-1.0
 21
0.0
 31
0.0
  0
XLINE
  5
C27
330
1F
100
AcDbEntity
  8
オフセット
100
AcDbXline
 10
32915.44093491146
 20
29144.60326060757
 30
0.0
 11
-1.0
 21
0.0
 31
0.0
  0
XLINE
  5
C28
330
1F
100
AcDbEntity
  8
オフセット
100
AcDbXline
 10
33841.62073169311
 20
27902.11527306976
 30
0.0
 11
0.0
 21
-1.0
 31
0.0
  0
MTEXT
  5
C3E
330
1F
100
AcDbEntity
  8
寸法線
100
AcDbMText
 10
34845.70906877174
 20
29559.15799909807
 30
0.0
 40
12.0
 41
199.244644231323
 46
0.0
 71
     1
 72
     5
  1
{\fMS PGothic|b0|i0|c128|p50;電源用　アース付端子台}
 73
     1
 44
1.0
1001
ACAD
1000
ACAD_MTEXT_COLUMN_INFO_BEGIN
1070
    75
1070
     2
1070
    79
1070
     0
1070
    76
1070
     1
1070
    78
1070
     0
1070
    48
1040
199.244644231323
1070
    49
1040
12.5
1070
    50
1070
     1
1040
0.0
1000
ACAD_MTEXT_COLUMN_INFO_END
  0
XLINE
  5
C42
330
1F
100
AcDbEntity
  8
オフセット
100
AcDbXline
 10
32915.44093491146
 20
29149.60326060758
 30
0.0
 11
-1.0
 21
0.0
 31
0.0
  0
XLINE
  5
C43
330
1F
100
AcDbEntity
  8
オフセット
100
AcDbXline
 10
32915.44093491146
 20
29134.60326060758
 30
0.0
 11
-1.0
 21
0.0
 31
0.0
  0
XLINE
  5
C44
330
1F
100
AcDbEntity
  8
オフセット
100
AcDbXline
 10
32915.44093491146
 20
29154.60326060757
 30
0.0
 11
-1.0
 21
0.0
 31
0.0
  0
TEXT
  5
D49
330
1F
100
AcDbEntity
  8
1
 62
     3
100
AcDbText
 10
33889.69303976168
 20
28708.4526913164
 30
0.0
 40
16.875
  1
１．左記の様にランプをセットしてください
 41
0.6666666666670002
  7
BIGFONT
100
AcDbText
  0
TEXT
  5
D4A
330
1F
100
AcDbEntity
  8
1
 62
     3
100
AcDbText
 10
33911.79142843355
 20
28683.4081559974
 30
0.0
 40
16.875
  1
器具側の電極はスプリングソケット側になっています。
 41
0.6666666666670002
  7
BIGFONT
100
AcDbText
  0
TEXT
  5
D4B
330
1F
100
AcDbEntity
  8
1
 62
     3
100
AcDbText
 10
33912.52751241792
 20
28659.83637865364
 30
0.0
 40
16.875
  1
ランプの電極はマーク（シール）側になっています。
 41
0.6666666666670002
  7
BIGFONT
100
AcDbText
  0
TEXT
  5
D4C
330
1F
100
AcDbEntity
  8
1
 62
     3
100
AcDbText
 10
33912.52751241792
 20
28637.00190599739
 30
0.0
 40
16.875
  1
セット方向はランプはマーク（シール）が正面方向を
 41
0.6666666666670002
  7
BIGFONT
100
AcDbText
  0
TEXT
  5
D4D
330
1F
100
AcDbEntity
  8
1
 62
     3
100
AcDbText
 10
33892.38509705334
 20
28577.51578132291
 30
0.0
 40
16.875
  1
２．精密部品を使用しておりますので衝撃等を与えますと
 41
0.6666666666670002
  7
BIGFONT
100
AcDbText
  0
TEXT
  5
D4E
330
1F
100
AcDbEntity
  8
1
 62
     3
100
AcDbText
 10
33915.95687439709
 20
28553.20726895312
 30
0.0
 40
16.875
  1
誤動作もしくは不点の恐れがあります。
 41
0.6666666666670002
  7
BIGFONT
100
AcDbText
  0
TEXT
  5
D4F
330
1F
100
AcDbEntity
  8
1
 62
     3
100
AcDbText
 10
33891.64901306897
 20
28520.06029629687
 30
0.0
 40
16.875
  1
３．この製品は定電流式２４Ｖ仕様です。
 41
0.6666666666670002
  7
BIGFONT
100
AcDbText
  0
TEXT
  5
D50
330
1F
100
AcDbEntity
  8
1
 62
     3
100
AcDbText
 10
33913.01009705334
 20
28495.01575080533
 30
0.0
 40
16.875
  1
必ず専用のランプと安定器のセットでご使用下さい。
 41
0.6666666666670002
  7
BIGFONT
100
AcDbText
  0
TEXT
  5
D51
330
1F
100
AcDbEntity
  8
1
 62
     3
100
AcDbText
 10
33913.55469340751
 20
28613.96569180468
 30
0.0
 40
16.875
  1
向く様にして下さい。
 41
0.6666666666670002
  7
BIGFONT
100
AcDbText
  0
TEXT
  5
D52
330
1F
100
AcDbEntity
  8
1
 62
     3
100
AcDbText
 10
33549.91667257417
 20
28701.39177823046
 30
0.0
 40
15.0
  1
取扱い説明及び注意事項
 41
0.6666666666670002
  7
BIGFONT
100
AcDbText
  0
LINE
  5
D53
330
1F
100
AcDbEntity
  8
1
  6
Continuous
 62
     3
100
AcDbLine
 10
33708.74409083302
 20
28648.11793598234
 30
0.0
 11
33708.74409083302
 21
28629.36793598234
 31
0.0
  0
LINE
  5
D54
330
1F
100
AcDbEntity
  8
1
  6
Continuous
 62
     3
100
AcDbLine
 10
33708.74409083302
 20
28629.36793598234
 30
0.0
 11
33525.08337654731
 21
28629.36793598234
 31
0.0
  0
LINE
  5
D55
330
1F
100
AcDbEntity
  8
1
  6
Continuous
 62
     3
100
AcDbLine
 10
33525.08337654731
 20
28629.36793598234
 30
0.0
 11
33521.24409083303
 21
28629.36793598234
 31
0.0
  0
LINE
  5
D56
330
1F
100
AcDbEntity
  8
1
  6
Continuous
 62
     3
100
AcDbLine
 10
33521.24409083303
 20
28629.36793598234
 30
0.0
 11
33521.24409083303
 21
28648.11793598234
 31
0.0
  0
LINE
  5
D57
330
1F
100
AcDbEntity
  8
1
  6
Continuous
 62
     3
100
AcDbLine
 10
33521.24409083303
 20
28648.11793598234
 30
0.0
 11
33708.74409083302
 21
28648.11793598234
 31
0.0
  0
LINE
  5
D58
330
1F
100
AcDbEntity
  8
1
  6
Continuous
 62
     3
100
AcDbLine
 10
33708.74409083302
 20
28648.11793598234
 30
0.0
 11
33714.36909083302
 21
28648.11793598234
 31
0.0
  0
LINE
  5
D59
330
1F
100
AcDbEntity
  8
1
  6
Continuous
 62
     3
100
AcDbLine
 10
33714.36909083302
 20
28648.11793598234
 30
0.0
 11
33714.36909083302
 21
28629.36793598234
 31
0.0
  0
LINE
  5
D5A
330
1F
100
AcDbEntity
  8
1
  6
Continuous
 62
     3
100
AcDbLine
 10
33714.36909083302
 20
28629.36793598234
 30
0.0
 11
33708.74409083302
 21
28629.36793598234
 31
0.0
  0
LINE
  5
D5B
330
1F
100
AcDbEntity
  8
1
  6
Continuous
 62
     3
100
AcDbLine
 10
33521.24409083303
 20
28648.11793598234
 30
0.0
 11
33515.61909083303
 21
28648.11793598234
 31
0.0
  0
LINE
  5
D5C
330
1F
100
AcDbEntity
  8
1
  6
Continuous
 62
     3
100
AcDbLine
 10
33515.61909083303
 20
28648.11793598234
 30
0.0
 11
33515.61909083303
 21
28629.36793598234
 31
0.0
  0
LINE
  5
D5D
330
1F
100
AcDbEntity
  8
1
  6
Continuous
 62
     3
100
AcDbLine
 10
33515.61909083303
 20
28629.36793598234
 30
0.0
 11
33521.24409083303
 21
28629.36793598234
 31
0.0
  0
LINE
  5
D5E
330
1F
100
AcDbEntity
  8
1
  6
Continuous
 62
     3
100
AcDbLine
 10
33515.61909083303
 20
28642.49293598234
 30
0.0
 11
33509.99409083303
 21
28642.49293598234
 31
0.0
  0
LINE
  5
D5F
330
1F
100
AcDbEntity
  8
1
  6
Continuous
 62
     3
100
AcDbLine
 10
33515.61909083303
 20
28634.99293598234
 30
0.0
 11
33509.99409083303
 21
28634.99293598234
 31
0.0
  0
LINE
  5
D60
330
1F
100
AcDbEntity
  8
1
  6
Continuous
 62
     3
100
AcDbLine
 10
33714.36909083302
 20
28642.49293598234
 30
0.0
 11
33719.99409083302
 21
28642.49293598234
 31
0.0
  0
LINE
  5
D61
330
1F
100
AcDbEntity
  8
1
  6
Continuous
 62
     3
100
AcDbLine
 10
33714.36909083302
 20
28634.99293598234
 30
0.0
 11
33719.99409083302
 21
28634.99293598234
 31
0.0
  0
LINE
  5
D62
330
1F
100
AcDbEntity
  8
1
  6
Continuous
 62
     3
100
AcDbLine
 10
33747.71730511874
 20
28642.49293598234
 30
0.0
 11
33794.59230511874
 21
28642.49293598234
 31
0.0
  0
LINE
  5
D63
330
1F
100
AcDbEntity
  8
1
  6
Continuous
 62
     3
100
AcDbLine
 10
33794.59230511874
 20
28642.49293598234
 30
0.0
 11
33794.59230511874
 21
28574.01079312519
 31
0.0
  0
LINE
  5
D64
330
1F
100
AcDbEntity
  8
1
  6
Continuous
 62
     3
100
AcDbLine
 10
33794.59230511874
 20
28574.01079312519
 30
0.0
 11
33659.14587654731
 21
28574.01079312519
 31
0.0
  0
LINE
  5
D65
330
1F
100
AcDbEntity
  8
1
  6
Continuous
 62
     3
100
AcDbLine
 10
33747.71730511874
 20
28634.99293598234
 30
0.0
 11
33775.84230511874
 21
28634.99293598234
 31
0.0
  0
LINE
  5
D66
330
1F
100
AcDbEntity
  8
1
  6
Continuous
 62
     3
100
AcDbLine
 10
33775.84230511874
 20
28634.99293598234
 30
0.0
 11
33775.84230511874
 21
28581.51079312519
 31
0.0
  0
LINE
  5
D67
330
1F
100
AcDbEntity
  8
1
  6
Continuous
 62
     3
100
AcDbLine
 10
33775.84230511874
 20
28581.51079312519
 30
0.0
 11
33659.14587654731
 21
28581.51079312519
 31
0.0
  0
LINE
  5
D68
330
1F
100
AcDbEntity
  8
1
  6
Continuous
 62
     3
100
AcDbLine
 10
33659.14587654731
 20
28587.13579312519
 30
0.0
 11
33659.14587654731
 21
28568.38579312519
 31
0.0
  0
LINE
  5
D69
330
1F
100
AcDbEntity
  8
1
  6
Continuous
 62
     3
100
AcDbLine
 10
33659.14587654731
 20
28568.38579312519
 30
0.0
 11
33584.14587654731
 21
28568.38579312519
 31
0.0
  0
LINE
  5
D6A
330
1F
100
AcDbEntity
  8
1
  6
Continuous
 62
     3
100
AcDbLine
 10
33584.14587654731
 20
28568.38579312519
 30
0.0
 11
33584.14587654731
 21
28587.13579312519
 31
0.0
  0
LINE
  5
D6B
330
1F
100
AcDbEntity
  8
1
  6
Continuous
 62
     3
100
AcDbLine
 10
33584.14587654731
 20
28587.13579312519
 30
0.0
 11
33659.14587654731
 21
28587.13579312519
 31
0.0
  0
LINE
  5
D6C
330
1F
100
AcDbEntity
  8
1
  6
Continuous
 62
     3
100
AcDbLine
 10
33587.61313845207
 20
28568.38579312519
 30
0.0
 11
33587.61313845207
 21
28549.63579312519
 31
0.0
  0
LINE
  5
D6D
330
1F
100
AcDbEntity
  8
1
  6
Continuous
 62
     3
100
AcDbLine
 10
33587.61313845207
 20
28549.63579312519
 30
0.0
 11
33528.05956702351
 21
28549.63579312519
 31
0.0
  0
TEXT
  5
D6E
330
1F
100
AcDbEntity
  8
1
 62
     3
100
AcDbText
 10
33677.75956808199
 20
28584.45173509895
 30
0.0
 40
9.333333333333332
  1
赤
 41
0.6666666666670002
  7
BIGFONT
100
AcDbText
  0
TEXT
  5
D6F
330
1F
100
AcDbEntity
  8
1
 62
     3
100
AcDbText
 10
33680.22870463798
 20
28557.29122281054
 30
0.0
 40
9.333333333333332
  1
白
 41
0.6666666666670002
  7
BIGFONT
100
AcDbText
  0
TEXT
  5
D70
330
1F
100
AcDbEntity
  8
1
 62
     3
100
AcDbText
 10
33750.59908631115
 20
28619.01960619271
 30
0.0
 40
9.333333333333332
  1
赤
 41
0.6666666666670002
  7
BIGFONT
100
AcDbText
  0
TEXT
  5
D71
330
1F
100
AcDbEntity
  8
1
 62
     3
100
AcDbText
 10
33750.59908631115
 20
28647.41466641406
 30
0.0
 40
9.333333333333332
  1
白
 41
0.6666666666670002
  7
BIGFONT
100
AcDbText
  0
LINE
  5
D72
330
1F
100
AcDbEntity
  8
1
  6
Continuous
 62
     3
100
AcDbLine
 10
33703.11909083302
 20
28642.49293598234
 30
0.0
 11
33703.11909083302
 21
28634.99293598234
 31
0.0
  0
LINE
  5
D73
330
1F
100
AcDbEntity
  8
1
  6
Continuous
 62
     3
100
AcDbLine
 10
33703.11909083302
 20
28634.99293598234
 30
0.0
 11
33684.36909083302
 21
28634.99293598234
 31
0.0
  0
LINE
  5
D74
330
1F
100
AcDbEntity
  8
1
  6
Continuous
 62
     3
100
AcDbLine
 10
33684.36909083302
 20
28634.99293598234
 30
0.0
 11
33684.36909083302
 21
28642.49293598234
 31
0.0
  0
LINE
  5
D75
330
1F
100
AcDbEntity
  8
1
  6
Continuous
 62
     3
100
AcDbLine
 10
33684.36909083302
 20
28642.49293598234
 30
0.0
 11
33703.11909083302
 21
28642.49293598234
 31
0.0
  0
TEXT
  5
D76
330
1F
100
AcDbEntity
  8
1
 62
     3
100
AcDbText
 10
33687.13690776298
 20
28635.2607764401
 30
0.0
 40
6.383917490641332
  1
マーク
 41
0.692308381786
  7
BIGFONT
100
AcDbText
  0
TEXT
  5
D77
330
1F
100
AcDbEntity
  8
1
 62
     3
100
AcDbText
 10
33543.44629497001
 20
28584.18940599739
 30
0.0
 40
9.333333333333332
  1
白
 41
0.6666666666670002
  7
BIGFONT
100
AcDbText
  0
TEXT
  5
D78
330
1F
100
AcDbEntity
  8
1
 62
     3
100
AcDbText
 10
33543.44629497001
 20
28561.27270881314
 30
0.0
 40
9.333333333333332
  1
黒
 41
0.6666666666670002
  7
BIGFONT
100
AcDbText
  0
TEXT
  5
D79
330
1F
100
AcDbEntity
  8
1
 62
     3
100
AcDbText
 10
33563.01335139494
 20
28550.84702246479
 30
0.0
 40
9.333333333333332
  1
アース
 41
0.6666666666670002
  7
BIGFONT
100
AcDbText
  0
TEXT
  5
D7A
330
1F
100
AcDbEntity
  8
1
 62
     3
100
AcDbText
 10
33568.98224467704
 20
28536.39173754036
 30
0.0
 40
9.333333333333332
  1
緑
 41
0.6666666666670002
  7
BIGFONT
100
AcDbText
  0
LINE
  5
D7B
330
1F
100
AcDbEntity
  8
1
  6
Continuous
 62
     3
100
AcDbLine
 10
33747.71730511874
 20
28648.11793598234
 30
0.0
 11
33747.71730511874
 21
28629.36793598234
 31
0.0
  0
LINE
  5
D7C
330
1F
100
AcDbEntity
  8
1
  6
Continuous
 62
     3
100
AcDbLine
 10
33747.71730511874
 20
28629.36793598234
 30
0.0
 11
33726.46730511874
 21
28629.36793598234
 31
0.0
  0
LINE
  5
D7D
330
1F
100
AcDbEntity
  8
1
  6
Continuous
 62
     3
100
AcDbLine
 10
33726.46730511874
 20
28629.36793598234
 30
0.0
 11
33726.46730511874
 21
28648.11793598234
 31
0.0
  0
LINE
  5
D7E
330
1F
100
AcDbEntity
  8
1
  6
Continuous
 62
     3
100
AcDbLine
 10
33726.46730511874
 20
28648.11793598234
 30
0.0
 11
33747.71730511874
 21
28648.11793598234
 31
0.0
  0
LINE
  5
D7F
330
1F
100
AcDbEntity
  8
1
  6
Continuous
 62
     3
100
AcDbLine
 10
33482.49776936666
 20
28629.36793598234
 30
0.0
 11
33482.49776936666
 21
28648.11793598234
 31
0.0
  0
TEXT
  5
D80
330
1F
100
AcDbEntity
  8
1
 62
     3
100
AcDbText
 10
33635.17283712496
 20
28657.52273933072
 30
0.0
 40
11.25
  1
防沫ソケット配線接続側
 41
0.6666666666670002
  7
BIGFONT
100
AcDbText
  0
LINE
  5
D81
330
1F
100
AcDbEntity
  8
1
  6
Continuous
 62
     3
100
AcDbLine
 10
33740.1726622616
 20
28648.11793598234
 30
0.0
 11
33735.76561097955
 21
28655.55841217281
 31
0.0
  0
LINE
  5
D82
330
1F
100
AcDbEntity
  8
1
  6
Continuous
 62
     3
100
AcDbLine
 10
33482.49776936666
 20
28642.49293598234
 30
0.0
 11
33468.70312650951
 21
28642.49293598234
 31
0.0
  0
LINE
  5
D83
330
1F
100
AcDbEntity
  8
1
  6
Continuous
 62
     3
100
AcDbLine
 10
33482.49776936666
 20
28634.99293598234
 30
0.0
 11
33468.70312650951
 21
28634.99293598234
 31
0.0
  0
LINE
  5
D84
330
1F
100
AcDbEntity
  8
1
  6
Continuous
 62
     3
100
AcDbLine
 10
33473.12276936666
 20
28646.55543598234
 30
0.0
 11
33465.75669793809
 21
28639.68043598234
 31
0.0
  0
LINE
  5
D85
330
1F
100
AcDbEntity
  8
1
  6
Continuous
 62
     3
100
AcDbLine
 10
33466.24776936666
 20
28647.04650741091
 30
0.0
 11
33473.12276936666
 21
28639.18936455377
 31
0.0
  0
LINE
  5
D86
330
1F
100
AcDbEntity
  8
1
  6
Continuous
 62
     3
100
AcDbLine
 10
33472.63169793809
 20
28638.20722169663
 30
0.0
 11
33465.75669793809
 21
28630.35007883948
 31
0.0
  0
LINE
  5
D87
330
1F
100
AcDbEntity
  8
1
  6
Continuous
 62
     3
100
AcDbLine
 10
33466.73884079523
 20
28637.71615026805
 30
0.0
 11
33471.15848365237
 21
28631.33222169663
 31
0.0
  0
TEXT
  5
D88
330
1F
100
AcDbEntity
  8
1
 62
     3
100
AcDbText
 10
33760.47563253511
 20
28617.78502774218
 30
0.0
 40
9.333333333333332
  1
＋
 41
0.6666666666670002
  7
BIGFONT
100
AcDbText
  0
TEXT
  5
D89
330
1F
100
AcDbEntity
  8
1
 62
     3
100
AcDbText
 10
33759.24105408459
 20
28647.41466641406
 30
0.0
 40
9.333333333333332
  1
－
 41
0.6666666666670002
  7
BIGFONT
100
AcDbText
  0
TEXT
  5
D8A
330
1F
100
AcDbEntity
  8
1
 62
     3
100
AcDbText
 10
33688.87065206636
 20
28556.05664436002
 30
0.0
 40
9.333333333333332
  1
－
 41
0.6666666666670002
  7
BIGFONT
100
AcDbText
  0
TEXT
  5
D8B
330
1F
100
AcDbEntity
  8
1
 62
     3
100
AcDbText
 10
33687.63611430595
 20
28584.45173509895
 30
0.0
 40
9.333333333333332
  1
＋
 41
0.6666666666670002
  7
BIGFONT
100
AcDbText
  0
TEXT
  5
D8C
330
1F
100
AcDbEntity
  8
1
 62
     3
100
AcDbText
 10
33575.23224467704
 20
28631.33214688281
 30
0.0
 40
15.0
  1
ＬＥＤ　ランプ
 41
0.6666666666670002
  7
BIGFONT
100
AcDbText
  0
TEXT
  5
D8D
330
1F
100
AcDbEntity
  8
1
 62
     3
100
AcDbText
 10
33594.38320458762
 20
28571.68491100751
 30
0.0
 40
12.0
  1
ＬＥＤ用電源
 41
0.6666666666670002
  7
BIGFONT
100
AcDbText
  0
LINE
  5
D8E
330
1F
100
AcDbEntity
  8
1
  6
Continuous
 62
     3
100
AcDbLine
 10
33584.14587654731
 20
28581.51079312519
 30
0.0
 11
33541.12504321398
 21
28581.57031693472
 31
0.0
  0
LINE
  5
D8F
330
1F
100
AcDbEntity
  8
1
  6
Continuous
 62
     3
100
AcDbLine
 10
33584.14587654731
 20
28574.01079312519
 30
0.0
 11
33542.4345670235
 21
28574.01079312519
 31
0.0
  0
TEXT
  5
D90
330
1F
100
AcDbEntity
  8
1
 62
     3
100
AcDbText
 10
33513.92288798759
 20
28569.78470222135
 30
0.0
 40
15.0
  1
電源
 41
0.6666666666670002
  7
BIGFONT
100
AcDbText
  0
LINE
  5
D91
330
1F
100
AcDbEntity
  8
1
  6
Continuous
 62
     3
100
AcDbLine
 10
33745.62747889919
 20
28645.17490768737
 30
0.0
 11
33738.96081223252
 21
28645.17490768737
 31
0.0
  0
LINE
  5
D92
330
1F
100
AcDbEntity
  8
1
  6
Continuous
 62
     3
100
AcDbLine
 10
33738.96081223252
 20
28645.17490768737
 30
0.0
 11
33738.96081223252
 21
28632.19396558021
 31
0.0
  0
LINE
  5
D93
330
1F
100
AcDbEntity
  8
1
  6
Continuous
 62
     3
100
AcDbLine
 10
33738.96081223252
 20
28632.19396558021
 30
0.0
 11
33745.62747889919
 21
28632.19396558021
 31
0.0
  0
LINE
  5
D94
330
1F
100
AcDbEntity
  8
1
  6
Continuous
 62
     3
100
AcDbLine
 10
33745.62747889919
 20
28645.17490768737
 30
0.0
 11
33745.62747889919
 21
28632.19396558021
 31
0.0
  0
LINE
  5
D95
330
1F
100
AcDbEntity
  8
1
  6
Continuous
 62
     3
100
AcDbLine
 10
33482.49776936666
 20
28629.36793598234
 30
0.0
 11
33482.49776936666
 21
28648.11793598234
 31
0.0
  0
LINE
  5
D96
330
1F
100
AcDbEntity
  8
1
  6
Continuous
 62
     3
100
AcDbLine
 10
33482.49776936666
 20
28648.11793598234
 30
0.0
 11
33503.74776936666
 21
28648.11793598234
 31
0.0
  0
LINE
  5
D97
330
1F
100
AcDbEntity
  8
1
  6
Continuous
 62
     3
100
AcDbLine
 10
33503.74776936666
 20
28648.11793598234
 30
0.0
 11
33503.74776936666
 21
28629.36793598234
 31
0.0
  0
LINE
  5
D98
330
1F
100
AcDbEntity
  8
1
  6
Continuous
 62
     3
100
AcDbLine
 10
33503.74776936666
 20
28629.36793598234
 30
0.0
 11
33482.49776936666
 21
28629.36793598234
 31
0.0
  0
LINE
  5
D99
330
1F
100
AcDbEntity
  8
1
  6
Continuous
 62
     3
100
AcDbLine
 10
33484.58759558621
 20
28632.31096427731
 30
0.0
 11
33491.25426225287
 21
28632.31096427731
 31
0.0
  0
LINE
  5
D9A
330
1F
100
AcDbEntity
  8
1
  6
Continuous
 62
     3
100
AcDbLine
 10
33491.25426225287
 20
28632.31096427731
 30
0.0
 11
33491.25426225287
 21
28645.29190638447
 31
0.0
  0
LINE
  5
D9B
330
1F
100
AcDbEntity
  8
1
  6
Continuous
 62
     3
100
AcDbLine
 10
33491.25426225287
 20
28645.29190638447
 30
0.0
 11
33484.58759558621
 21
28645.29190638447
 31
0.0
  0
LINE
  5
D9C
330
1F
100
AcDbEntity
  8
1
  6
Continuous
 62
     3
100
AcDbLine
 10
33484.58759558621
 20
28632.31096427731
 30
0.0
 11
33484.58759558621
 21
28645.29190638447
 31
0.0
  0
MTEXT
  5
DDC
330
1F
100
AcDbEntity
  8
寸法線
100
AcDbMText
 10
34238.20906877174
 20
29604.15799909807
 30
0.0
 40
12.0
 41
190.7763382050179
 46
0.0
 71
     1
 72
     5
  1
{\fMS PGothic|b0|i0|c128|p50;ランプソケット取付金具}
 73
     1
 44
1.0
1001
ACAD
1000
ACAD_MTEXT_COLUMN_INFO_BEGIN
1070
    75
1070
     2
1070
    79
1070
     0
1070
    76
1070
     1
1070
    78
1070
     0
1070
    48
1040
190.7763382050179
1070
    49
1040
12.5
1070
    50
1070
     1
1040
0.0
1000
ACAD_MTEXT_COLUMN_INFO_END
  0
MTEXT
  5
DDD
330
1F
100
AcDbEntity
  8
寸法線
100
AcDbMText
 10
34464.31238690586
 20
29609.81214108685
 30
0.0
 40
10.0
 41
163.0743348696414
 46
0.0
 71
     1
 72
     5
  1
{\fMS PGothic|b0|i0|c128|p50;鋼鈑　}1{\fMS PGothic|b0|i0|c128|p50;ｔ}\P{\fMS PGothic|b0|i0|c128|p50;（亜鉛メッキ板）}
 73
     1
 44
1.0
1001
ACAD
1000
ACAD_MTEXT_COLUMN_INFO_BEGIN
1070
    75
1070
     2
1070
    79
1070
     0
1070
    76
1070
     1
1070
    78
1070
     0
1070
    48
1040
163.0743348696414
1070
    49
1040
12.5
1070
    50
1070
     1
1040
0.0
1000
ACAD_MTEXT_COLUMN_INFO_END
  0
XLINE
  5
139A
330
1F
100
AcDbEntity
  8
オフセット
100
AcDbXline
 10
33476.72668080684
 20
27902.11527306976
 30
0.0
 11
0.0
 21
-1.0
 31
0.0
  0
XLINE
  5
139B
330
1F
100
AcDbEntity
  8
オフセット
100
AcDbXline
 10
32915.44093491146
 20
26742.6918408935
 30
0.0
 11
-1.0
 21
0.0
 31
0.0
  0
XLINE
  5
139C
330
1F
100
AcDbEntity
  8
オフセット
100
AcDbXline
 10
33473.72668080684
 20
27902.11527306976
 30
0.0
 11
0.0
 21
-1.0
 31
0.0
  0
XLINE
  5
139D
330
1F
100
AcDbEntity
  8
オフセット
100
AcDbXline
 10
33558.02668080684
 20
27902.11527306976
 30
0.0
 11
0.0
 21
-1.0
 31
0.0
  0
XLINE
  5
139E
330
1F
100
AcDbEntity
  8
オフセット
100
AcDbXline
 10
32915.44093491146
 20
27827.60024921857
 30
0.0
 11
-1.0
 21
0.0
 31
0.0
  0
XLINE
  5
13A2
330
1F
100
AcDbEntity
  8
オフセット
100
AcDbXline
 10
34881.72432892951
 20
27902.11527306976
 30
0.0
 11
0.0
 21
-1.0
 31
0.0
  0
XLINE
  5
13A3
330
1F
100
AcDbEntity
  8
オフセット
100
AcDbXline
 10
34825.72432892951
 20
27902.11527306976
 30
0.0
 11
0.0
 21
-1.0
 31
0.0
  0
XLINE
  5
13A9
330
1F
100
AcDbEntity
  8
オフセット
100
AcDbXline
 10
34827.72432892951
 20
27902.11527306976
 30
0.0
 11
0.0
 21
-1.0
 31
0.0
  0
XLINE
  5
13AA
330
1F
100
AcDbEntity
  8
オフセット
100
AcDbXline
 10
34824.72432892951
 20
27902.11527306976
 30
0.0
 11
0.0
 21
-1.0
 31
0.0
  0
XLINE
  5
1423
330
1F
100
AcDbEntity
  8
オフセット
100
AcDbXline
 10
33395.87668080683
 20
27902.11527306976
 30
0.0
 11
0.0
 21
-1.0
 31
0.0
  0
XLINE
  5
1424
330
1F
100
AcDbEntity
  8
オフセット
100
AcDbXline
 10
33396.87668080683
 20
27902.11527306976
 30
0.0
 11
0.0
 21
-1.0
 31
0.0
  0
MTEXT
  5
143B
330
1F
100
AcDbEntity
  8
寸法線
100
AcDbMText
 10
34846.56983595912
 20
29604.37243782743
 30
0.0
 40
12.0
 41
181.3710989523388
 46
0.0
 71
     1
 72
     5
  1
{\fMS PGothic|b0|i0|c128|p50;専用電源装置}
 73
     1
 44
1.0
1001
ACAD
1000
ACAD_MTEXT_COLUMN_INFO_BEGIN
1070
    75
1070
     2
1070
    79
1070
     0
1070
    76
1070
     1
1070
    78
1070
     0
1070
    48
1040
181.3710989523388
1070
    49
1040
12.5
1070
    50
1070
     1
1040
0.0
1000
ACAD_MTEXT_COLUMN_INFO_END
  0
MTEXT
  5
143C
330
1F
100
AcDbEntity
  8
寸法線
100
AcDbMText
 10
35215.80145399616
 20
29604.42136557688
 30
0.0
 40
8.0
 41
162.8281777420561
 46
0.0
 71
     1
 72
     5
  1
{\fMS PGothic|b0|i0|c128|p50;レシップ製定電流電源装置}\PK68-026C110-206
 73
     1
 44
1.0
1001
ACAD
1000
ACAD_MTEXT_COLUMN_INFO_BEGIN
1070
    75
1070
     2
1070
    79
1070
     0
1070
    76
1070
     1
1070
    78
1070
     0
1070
    48
1040
162.8281777420561
1070
    49
1040
12.5
1070
    50
1070
     1
1040
0.0
1000
ACAD_MTEXT_COLUMN_INFO_END
  0
MTEXT
  5
143E
330
1F
100
AcDbEntity
  8
寸法線
100
AcDbMText
 10
35071.81238690586
 20
29654.81214108685
 30
0.0
 40
10.0
 41
163.0743348696414
 46
0.0
 71
     1
 72
     5
  1
{\fMS PGothic|b0|i0|c128|p50;鋼鈑　}0.8{\fMS PGothic|b0|i0|c128|p50;ｔ}\P{\fMS PGothic|b0|i0|c128|p50;（亜鉛メッキ板）}
 73
     1
 44
1.0
1001
ACAD
1000
ACAD_MTEXT_COLUMN_INFO_BEGIN
1070
    75
1070
     2
1070
    79
1070
     0
1070
    76
1070
     1
1070
    78
1070
     0
1070
    48
1040
163.0743348696414
1070
    49
1040
12.5
1070
    50
1070
     1
1040
0.0
1000
ACAD_MTEXT_COLUMN_INFO_END
  0
XLINE
  5
143F
330
1F
100
AcDbEntity
  8
オフセット
100
AcDbXline
 10
32915.44093491146
 20
26985.22845980732
 30
0.0
 11
-1.0
 21
0.0
 31
0.0
  0
XLINE
  5
1440
330
1F
100
AcDbEntity
  8
オフセット
100
AcDbXline
 10
32915.44093491146
 20
26935.22845980732
 30
0.0
 11
-1.0
 21
0.0
 31
0.0
  0
XLINE
  5
1933
330
1F
100
AcDbEntity
  8
オフセット
100
AcDbXline
 10
33648.18243935384
 20
27902.11527306976
 30
0.0
 11
0.0
 21
-1.0
 31
0.0
  0
XLINE
  5
1967
330
1F
100
AcDbEntity
  8
オフセット
100
AcDbXline
 10
36005.25983477048
 20
27902.11527306976
 30
0.0
 11
0.0
 21
-1.0
 31
0.0
  0
XLINE
  5
1968
330
1F
100
AcDbEntity
  8
オフセット
100
AcDbXline
 10
37203.25983477048
 20
27902.11527306976
 30
0.0
 11
0.0
 21
-1.0
 31
0.0
  0
XLINE
  5
1969
330
1F
100
AcDbEntity
  8
オフセット
100
AcDbXline
 10
36604.25983477048
 20
27902.11527306976
 30
0.0
 11
0.0
 21
-1.0
 31
0.0
  0
XLINE
  5
196A
330
1F
100
AcDbEntity
  8
オフセット
100
AcDbXline
 10
36505.25983477048
 20
27902.11527306976
 30
0.0
 11
0.0
 21
-1.0
 31
0.0
  0
XLINE
  5
196B
330
1F
100
AcDbEntity
  8
オフセット
100
AcDbXline
 10
36703.25983477048
 20
27902.11527306976
 30
0.0
 11
0.0
 21
-1.0
 31
0.0
  0
XLINE
  5
196E
330
1F
100
AcDbEntity
  8
オフセット
100
AcDbXline
 10
36004.25983477048
 20
27902.11527306976
 30
0.0
 11
0.0
 21
-1.0
 31
0.0
  0
XLINE
  5
1A0F
330
1F
100
AcDbEntity
  8
オフセット
100
AcDbXline
 10
32915.44093491146
 20
27591.14148766218
 30
0.0
 11
-1.0
 21
0.0
 31
0.0
  0
XLINE
  5
1A4A
330
1F
100
AcDbEntity
  8
オフセット
100
AcDbXline
 10
32915.44093491146
 20
27666.14148766218
 30
0.0
 11
-1.0
 21
0.0
 31
0.0
  0
LINE
  5
1A4B
330
1F
100
AcDbEntity
  8
点線
100
AcDbLine
 10
33685.75808977092
 20
28976.18912676703
 30
0.0
 11
33686.54694415292
 21
28975.79469957604
 31
0.0
  0
ARC
  5
1A4C
330
1F
100
AcDbEntity
  8
点線
100
AcDbCircle
 10
33685.31087617542
 20
28975.29469957603
 30
0.0
 40
1.0
100
AcDbArc
 50
63.4349488229344
 51
90.0
  0
LINE
  5
1A4D
330
1F
100
AcDbEntity
  8
点線
100
AcDbLine
 10
33686.54694415292
 20
28975.79469957604
 30
0.0
 11
33686.54694415292
 21
29006.79469957604
 31
0.0
  0
LINE
  5
1A4E
330
1F
100
AcDbEntity
  8
点線
100
AcDbLine
 10
33686.54694415292
 20
29006.79469957604
 30
0.0
 11
33685.75808977092
 21
29006.40027238504
 31
0.0
  0
ARC
  5
1A4F
330
1F
100
AcDbEntity
  8
点線
100
AcDbCircle
 10
33685.31087617542
 20
29007.29469957603
 30
0.0
 40
1.0
100
AcDbArc
 50
270.0
 51
296.5650511770657
  0
LINE
  5
1A50
330
1F
100
AcDbEntity
  8
点線
100
AcDbLine
 10
33685.31087617542
 20
29006.29469957604
 30
0.0
 11
33676.54694415292
 21
29006.29469957604
 31
0.0
  0
LINE
  5
1A51
330
1F
100
AcDbEntity
  8
点線
100
AcDbLine
 10
33675.54694415292
 20
29005.29469957604
 30
0.0
 11
33675.54694415292
 21
28977.29469957603
 31
0.0
  0
ARC
  5
1A52
330
1F
100
AcDbEntity
  8
点線
100
AcDbCircle
 10
33676.54694415292
 20
29005.29469957604
 30
0.0
 40
1.0
100
AcDbArc
 50
90.0
 51
180.0
  0
LINE
  5
1A53
330
1F
100
AcDbEntity
  8
点線
100
AcDbLine
 10
33676.54694415292
 20
28976.29469957604
 30
0.0
 11
33685.31087617542
 21
28976.29469957604
 31
0.0
  0
ARC
  5
1A54
330
1F
100
AcDbEntity
  8
点線
100
AcDbCircle
 10
33676.54694415292
 20
28977.29469957603
 30
0.0
 40
1.0
100
AcDbArc
 50
180.0
 51
270.0
  0
LINE
  5
1A55
330
1F
100
AcDbEntity
  8
点線
100
AcDbLine
 10
34665.33579853492
 20
28976.18912676703
 30
0.0
 11
34664.54694415292
 21
28975.79469957604
 31
0.0
  0
ARC
  5
1A56
330
1F
100
AcDbEntity
  8
点線
100
AcDbCircle
 10
34665.78301213042
 20
28975.29469957603
 30
0.0
 40
1.0
100
AcDbArc
 50
90.0
 51
116.5650511770947
  0
LINE
  5
1A57
330
1F
100
AcDbEntity
  8
点線
100
AcDbLine
 10
34664.54694415292
 20
28975.79469957604
 30
0.0
 11
34664.54694415292
 21
29006.79469957604
 31
0.0
  0
LINE
  5
1A58
330
1F
100
AcDbEntity
  8
点線
100
AcDbLine
 10
34664.54694415292
 20
29006.79469957604
 30
0.0
 11
34665.33579853492
 21
29006.40027238504
 31
0.0
  0
ARC
  5
1A59
330
1F
100
AcDbEntity
  8
点線
100
AcDbCircle
 10
34665.78301213042
 20
29007.29469957603
 30
0.0
 40
1.0
100
AcDbArc
 50
243.4349488229052
 51
270.0
  0
LINE
  5
1A5A
330
1F
100
AcDbEntity
  8
点線
100
AcDbLine
 10
34665.78301213042
 20
29006.29469957604
 30
0.0
 11
34674.54694415292
 21
29006.29469957604
 31
0.0
  0
LINE
  5
1A5B
330
1F
100
AcDbEntity
  8
点線
100
AcDbLine
 10
34675.54694415292
 20
29005.29469957604
 30
0.0
 11
34675.54694415292
 21
28977.29469957603
 31
0.0
  0
ARC
  5
1A5C
330
1F
100
AcDbEntity
  8
点線
100
AcDbCircle
 10
34674.54694415292
 20
29005.29469957604
 30
0.0
 40
1.0
100
AcDbArc
 50
0.0
 51
90.0
  0
LINE
  5
1A5D
330
1F
100
AcDbEntity
  8
点線
100
AcDbLine
 10
34674.54694415292
 20
28976.29469957604
 30
0.0
 11
34665.78301213042
 21
28976.29469957604
 31
0.0
  0
ARC
  5
1A5E
330
1F
100
AcDbEntity
  8
点線
100
AcDbCircle
 10
34674.54694415292
 20
28977.29469957603
 30
0.0
 40
1.0
100
AcDbArc
 50
270.0
 51
0.0
  0
LINE
  5
1A5F
330
1F
100
AcDbEntity
  8
点線
100
AcDbLine
 10
33686.54694415292
 20
29005.79469957603
 30
0.0
 11
34175.54694415292
 21
29005.79469957603
 31
0.0
  0
LINE
  5
1A60
330
1F
100
AcDbEntity
  8
点線
100
AcDbLine
 10
34175.54694415292
 20
29005.79469957603
 30
0.0
 11
34664.54694415292
 21
29005.79469957603
 31
0.0
  0
LINE
  5
1A61
330
1F
100
AcDbEntity
  8
点線
100
AcDbLine
 10
34664.54694415292
 20
28976.79469957603
 30
0.0
 11
34175.54694415292
 21
28976.79469957603
 31
0.0
  0
LINE
  5
1A62
330
1F
100
AcDbEntity
  8
点線
100
AcDbLine
 10
34175.54694415292
 20
28976.79469957603
 30
0.0
 11
33963.69694415293
 21
28976.79469957603
 31
0.0
  0
LINE
  5
1A63
330
1F
100
AcDbEntity
  8
点線
100
AcDbLine
 10
33836.69694415293
 20
28976.79469957603
 30
0.0
 11
33686.54694415292
 21
28976.79469957603
 31
0.0
  0
LINE
  5
1A64
330
1F
100
AcDbEntity
  8
中心線
100
AcDbLine
 10
34654.54694415292
 20
29284.46792773294
 30
0.0
 11
34654.54694415292
 21
28940.90651548024
 31
0.0
  0
MTEXT
  5
1A65
330
1F
100
AcDbEntity
  8
寸法線
100
AcDbMText
 10
34209.65543971054
 20
29059.60326060758
 30
0.0
 40
20.0
 41
0.0
 46
0.0
 71
     5
 72
     1
  1
{\fMS PGothic|b0|i0|c128|p50;灯具取付寸法　　最内ピッチ　}910\P{\fMS PGothic|b0|i0|c128|p50;　　　　　　　　　　　最外ピッチ　}984
 73
     1
 44
1.0
  0
LINE
  5
1A66
330
1F
100
AcDbEntity
  8
中心線
100
AcDbLine
 10
33639.04694415292
 20
28991.29469957604
 30
0.0
 11
34904.8135914306
 21
28991.29469957604
 31
0.0
  0
LINE
  5
1A67
102
{ACAD_REACTORS
330
1CE3
330
1CE6
102
}
330
1F
100
AcDbEntity
  8
中心線
100
AcDbLine
 10
34870.68805410151
 20
29017.54470027406
 30
0.0
 11
34870.68805410151
 21
28945.22116956863
 31
0.0
  0
CIRCLE
  5
1A68
330
1F
100
AcDbEntity
  8
○
100
AcDbCircle
 10
33596.41299140798
 20
29134.60326060758
 30
0.0
 40
15.0
  0
MTEXT
  5
1A69
330
1F
100
AcDbEntity
  8
寸法線
100
AcDbMText
 10
33589.92016294626
 20
29144.34711109858
 30
0.0
 40
20.0
 41
35.534113038535
 46
0.0
 71
     1
 72
     5
  1
4
 73
     1
 44
1.0
1001
ACAD
1000
ACAD_MTEXT_COLUMN_INFO_BEGIN
1070
    75
1070
     2
1070
    79
1070
     0
1070
    76
1070
     1
1070
    78
1070
     0
1070
    48
1040
35.534113038535
1070
    49
1040
12.5
1070
    50
1070
     1
1040
0.0
1000
ACAD_MTEXT_COLUMN_INFO_END
  0
CIRCLE
  5
1A6A
330
1F
100
AcDbEntity
  8
○
100
AcDbCircle
 10
33645.17529165006
 20
29134.60326060758
 30
0.0
 40
15.0
  0
MTEXT
  5
1A6B
330
1F
100
AcDbEntity
  8
寸法線
100
AcDbMText
 10
33638.68246318834
 20
29144.34711109858
 30
0.0
 40
20.0
 41
35.534113038535
 46
0.0
 71
     1
 72
     5
  1
3
 73
     1
 44
1.0
1001
ACAD
1000
ACAD_MTEXT_COLUMN_INFO_BEGIN
1070
    75
1070
     2
1070
    79
1070
     0
1070
    76
1070
     1
1070
    78
1070
     0
1070
    48
1040
35.534113038535
1070
    49
1040
12.5
1070
    50
1070
     1
1040
0.0
1000
ACAD_MTEXT_COLUMN_INFO_END
  0
CIRCLE
  5
1A6C
330
1F
100
AcDbEntity
  8
○
100
AcDbCircle
 10
34491.55330909135
 20
29134.60326060758
 30
0.0
 40
15.0
  0
MTEXT
  5
1A6D
330
1F
100
AcDbEntity
  8
寸法線
100
AcDbMText
 10
34485.06048062963
 20
29144.34711109858
 30
0.0
 40
20.0
 41
35.534113038535
 46
0.0
 71
     1
 72
     5
  1
1
 73
     1
 44
1.0
1001
ACAD
1000
ACAD_MTEXT_COLUMN_INFO_BEGIN
1070
    75
1070
     2
1070
    79
1070
     0
1070
    76
1070
     1
1070
    78
1070
     0
1070
    48
1040
35.534113038535
1070
    49
1040
12.5
1070
    50
1070
     1
1040
0.0
1000
ACAD_MTEXT_COLUMN_INFO_END
  0
CIRCLE
  5
1A6E
330
1F
100
AcDbEntity
  8
○
100
AcDbCircle
 10
33728.70862025829
 20
29134.60326060758
 30
0.0
 40
15.0
  0
MTEXT
  5
1A6F
330
1F
100
AcDbEntity
  8
寸法線
100
AcDbMText
 10
33722.21579179657
 20
29144.34711109858
 30
0.0
 40
20.0
 41
35.534113038535
 46
0.0
 71
     1
 72
     5
  1
8
 73
     1
 44
1.0
1001
ACAD
1000
ACAD_MTEXT_COLUMN_INFO_BEGIN
1070
    75
1070
     2
1070
    79
1070
     0
1070
    76
1070
     1
1070
    78
1070
     0
1070
    48
1040
35.534113038535
1070
    49
1040
12.5
1070
    50
1070
     1
1040
0.0
1000
ACAD_MTEXT_COLUMN_INFO_END
  0
CIRCLE
  5
1A70
330
1F
100
AcDbEntity
  8
○
100
AcDbCircle
 10
34032.61751380984
 20
29134.60326060758
 30
0.0
 40
15.0
  0
MTEXT
  5
1A71
330
1F
100
AcDbEntity
  8
寸法線
100
AcDbMText
 10
34026.12468534812
 20
29144.34711109858
 30
0.0
 40
20.0
 41
35.534113038535
 46
0.0
 71
     1
 72
     5
  1
6
 73
     1
 44
1.0
1001
ACAD
1000
ACAD_MTEXT_COLUMN_INFO_BEGIN
1070
    75
1070
     2
1070
    79
1070
     0
1070
    76
1070
     1
1070
    78
1070
     0
1070
    48
1040
35.534113038535
1070
    49
1040
12.5
1070
    50
1070
     1
1040
0.0
1000
ACAD_MTEXT_COLUMN_INFO_END
  0
CIRCLE
  5
1A72
330
1F
100
AcDbEntity
  8
○
100
AcDbCircle
 10
34711.93957562142
 20
29134.60326060758
 30
0.0
 40
15.0
  0
MTEXT
  5
1A73
330
1F
100
AcDbEntity
  8
寸法線
100
AcDbMText
 10
34705.4467471597
 20
29144.34711109858
 30
0.0
 40
20.0
 41
35.534113038535
 46
0.0
 71
     1
 72
     5
  1
5
 73
     1
 44
1.0
1001
ACAD
1000
ACAD_MTEXT_COLUMN_INFO_BEGIN
1070
    75
1070
     2
1070
    79
1070
     0
1070
    76
1070
     1
1070
    78
1070
     0
1070
    48
1040
35.534113038535
1070
    49
1040
12.5
1070
    50
1070
     1
1040
0.0
1000
ACAD_MTEXT_COLUMN_INFO_END
  0
LINE
  5
1A74
330
1F
100
AcDbEntity
  8
○
100
AcDbLine
 10
34487.94991399958
 20
29149.16401415307
 30
0.0
 11
34410.97954545715
 21
29250.37207066492
 31
0.0
  0
LINE
  5
1A75
330
1F
100
AcDbEntity
  8
○
100
AcDbLine
 10
34484.31868606071
 20
29121.46323665004
 30
0.0
 11
34406.05065854872
 21
28960.09198391418
 31
0.0
  0
LINE
  5
1A76
330
1F
100
AcDbEntity
  8
○
100
AcDbLine
 10
33734.81625126339
 20
29148.30351036827
 30
0.0
 11
33766.16209854953
 21
29197.12217594987
 31
0.0
  0
LINE
  5
1A77
330
1F
100
AcDbEntity
  8
○
100
AcDbLine
 10
33732.83039946477
 20
29120.18067636712
 30
0.0
 11
33764.09710674372
 21
28965.98285710059
 31
0.0
  0
LINE
  5
1A78
330
1F
100
AcDbEntity
  8
○
100
AcDbLine
 10
34025.45219856698
 20
29147.78120648204
 30
0.0
 11
33996.24190222236
 21
29195.55158331891
 31
0.0
  0
LINE
  5
1A79
330
1F
100
AcDbEntity
  8
○
100
AcDbLine
 10
34028.18066420085
 20
29120.27446562868
 30
0.0
 11
33982.83579268061
 21
28955.11657256112
 31
0.0
  0
LINE
  5
1A7A
330
1F
100
AcDbEntity
  8
○
100
AcDbLine
 10
33656.35563153755
 20
29144.60326060757
 30
0.0
 11
33705.05962240177
 21
29249.46898819152
 31
0.0
  0
LINE
  5
1A7B
330
1F
100
AcDbEntity
  8
○
100
AcDbLine
 10
33656.35563153755
 20
29124.60326060758
 30
0.0
 11
33704.95798903792
 21
28953.66383966772
 31
0.0
  0
LINE
  5
1A7C
330
1F
100
AcDbEntity
  8
○
100
AcDbLine
 10
33603.11428069427
 20
29148.02312356893
 30
0.0
 11
33669.24820880021
 21
29253.04048543203
 31
0.0
  0
LINE
  5
1A7D
330
1F
100
AcDbEntity
  8
○
100
AcDbLine
 10
33600.98724255632
 20
29120.31773554085
 30
0.0
 11
33669.47393608143
 21
28982.18946173414
 31
0.0
  0
LINE
  5
1A7E
330
1F
100
AcDbEntity
  8
○
100
AcDbLine
 10
34705.11129375494
 20
29147.95895477718
 30
0.0
 11
34683.31356020013
 21
29250.60086448468
 31
0.0
  0
LINE
  5
1A7F
330
1F
100
AcDbEntity
  8
○
100
AcDbLine
 10
34707.58534514498
 20
29120.24914353414
 30
0.0
 11
34686.74460617273
 21
28991.29469957604
 31
0.0
  0
CIRCLE
  5
1A80
330
1F
100
AcDbEntity
  8
○
100
AcDbCircle
 10
34779.34804732333
 20
29134.60326060758
 30
0.0
 40
15.0
  0
MTEXT
  5
1A81
330
1F
100
AcDbEntity
  8
寸法線
100
AcDbMText
 10
34772.85521886161
 20
29144.34711109858
 30
0.0
 40
20.0
 41
35.534113038535
 46
0.0
 71
     1
 72
     5
  1
2
 73
     1
 44
1.0
1001
ACAD
1000
ACAD_MTEXT_COLUMN_INFO_BEGIN
1070
    75
1070
     2
1070
    79
1070
     0
1070
    76
1070
     1
1070
    78
1070
     0
1070
    48
1040
35.534113038535
1070
    49
1040
12.5
1070
    50
1070
     1
1040
0.0
1000
ACAD_MTEXT_COLUMN_INFO_END
  0
LINE
  5
1A82
330
1F
100
AcDbEntity
  8
○
100
AcDbLine
 10
34774.05719643188
 20
29148.63917514296
 30
0.0
 11
34704.11214915623
 21
29252.59563708438
 31
0.0
  0
LINE
  5
1A83
330
1F
100
AcDbEntity
  8
○
100
AcDbLine
 10
34775.305204062
 20
29120.15835083408
 30
0.0
 11
34700.45790200364
 21
28972.67894613061
 31
0.0
  0
LINE
  5
1A84
330
1F
100
AcDbEntity
  8
外形線
100
AcDbLine
 10
34802.88805410151
 20
28954.74469992505
 30
0.0
 11
34802.88805410151
 21
28955.54469992505
 31
0.0
  0
LINE
  5
1A85
330
1F
100
AcDbEntity
  8
外形線
100
AcDbLine
 10
34802.88805410151
 20
28955.54469992505
 30
0.0
 11
34879.88805410151
 21
28955.54469992505
 31
0.0
  0
LINE
  5
1A86
330
1F
100
AcDbEntity
  8
外形線
100
AcDbLine
 10
34862.43805410151
 20
28954.74469992505
 30
0.0
 11
34802.88805410151
 21
28954.74469992505
 31
0.0
  0
LINE
  5
1A87
330
1F
100
AcDbEntity
  8
外形線
100
AcDbLine
 10
34846.88805410151
 20
28975.54469992505
 30
0.0
 11
34838.88805410151
 21
28975.54469992505
 31
0.0
  0
LINE
  5
1A88
330
1F
100
AcDbEntity
  8
外形線
100
AcDbLine
 10
34804.88805410151
 20
28975.54469992505
 30
0.0
 11
34801.88805410151
 21
28975.54469992505
 31
0.0
  0
LINE
  5
1A89
102
{ACAD_REACTORS
330
1CE6
330
1CE9
102
}
330
1F
100
AcDbEntity
  8
外形線
100
AcDbLine
 10
34801.88805410151
 20
28975.54469992505
 30
0.0
 11
34801.88805410151
 21
28955.54469992505
 31
0.0
  0
LINE
  5
1A8A
330
1F
100
AcDbEntity
  8
外形線
100
AcDbLine
 10
34801.88805410151
 20
28955.54469992505
 30
0.0
 11
34846.88805410151
 21
28955.54469992505
 31
0.0
  0
LINE
  5
1A8B
330
1F
100
AcDbEntity
  8
外形線
100
AcDbLine
 10
34846.88805410151
 20
28955.54469992505
 30
0.0
 11
34846.88805410151
 21
28975.54469992505
 31
0.0
  0
LINE
  5
1A8C
330
1F
100
AcDbEntity
  8
外形線
100
AcDbLine
 10
34804.88805410151
 20
28966.54469992505
 30
0.0
 11
34801.88805410151
 21
28966.54469992505
 31
0.0
  0
LINE
  5
1A8D
330
1F
100
AcDbEntity
  8
外形線
100
AcDbLine
 10
34801.88805410151
 20
28966.54469992505
 30
0.0
 11
34801.88805410151
 21
28964.54469992505
 31
0.0
  0
LINE
  5
1A8E
330
1F
100
AcDbEntity
  8
外形線
100
AcDbLine
 10
34801.88805410151
 20
28964.54469992505
 30
0.0
 11
34804.88805410151
 21
28964.54469992505
 31
0.0
  0
LINE
  5
1A8F
330
1F
100
AcDbEntity
  8
外形線
100
AcDbLine
 10
34854.68805410151
 20
28991.29470027406
 30
0.0
 11
34854.68805410151
 21
28989.27913583699
 31
0.0
  0
ARC
  5
1A90
330
1F
100
AcDbEntity
  8
外形線
100
AcDbCircle
 10
34862.68805410151
 20
28989.27913583699
 30
0.0
 40
8.0
100
AcDbArc
 50
180.0
 51
194.1411102338193
  0
LINE
  5
1A91
330
1F
100
AcDbEntity
  8
外形線
100
AcDbLine
 10
34804.88805410151
 20
28955.54469992505
 30
0.0
 11
34804.88805410151
 21
28979.54469992505
 31
0.0
  0
LINE
  5
1A92
330
1F
100
AcDbEntity
  8
外形線
100
AcDbLine
 10
34805.88805410151
 20
28980.54469992505
 30
0.0
 11
34837.88805410151
 21
28980.54469992505
 31
0.0
  0
ARC
  5
1A93
330
1F
100
AcDbEntity
  8
外形線
100
AcDbCircle
 10
34837.88805410151
 20
28979.54469992505
 30
0.0
 40
1.0
100
AcDbArc
 50
0.0
 51
90.0
  0
ARC
  5
1A94
330
1F
100
AcDbEntity
  8
外形線
100
AcDbCircle
 10
34805.88805410151
 20
28979.54469992505
 30
0.0
 40
1.0
100
AcDbArc
 50
90.0
 51
180.0
  0
LINE
  5
1A95
330
1F
100
AcDbEntity
  8
外形線
100
AcDbLine
 10
34838.88805410151
 20
28979.54469992505
 30
0.0
 11
34838.88805410151
 21
28955.54469992505
 31
0.0
  0
LINE
  5
1A96
330
1F
100
AcDbEntity
  8
外形線
100
AcDbLine
 10
34838.88805410151
 20
28955.54469992505
 30
0.0
 11
34804.88805410151
 21
28955.54469992505
 31
0.0
  0
LINE
  5
1A97
330
1F
100
AcDbEntity
  8
外形線
100
AcDbLine
 10
34827.88805410151
 20
28955.54469992505
 30
0.0
 11
34827.88805410151
 21
28957.54469992505
 31
0.0
  0
LINE
  5
1A98
330
1F
100
AcDbEntity
  8
外形線
100
AcDbLine
 10
34827.88805410151
 20
28957.54469992505
 30
0.0
 11
34824.68805410151
 21
28957.54469992505
 31
0.0
  0
ARC
  5
1A99
330
1F
100
AcDbEntity
  8
外形線
100
AcDbCircle
 10
34824.68805410151
 20
28957.04469992505
 30
0.0
 40
0.5
100
AcDbArc
 50
90.0
 51
180.0
  0
LINE
  5
1A9A
330
1F
100
AcDbEntity
  8
外形線
100
AcDbLine
 10
34815.88805410151
 20
28957.54469992505
 30
0.0
 11
34815.88805410151
 21
28955.54469992505
 31
0.0
  0
LINE
  5
1A9B
330
1F
100
AcDbEntity
  8
外形線
100
AcDbLine
 10
34819.58805410151
 20
28955.54469992505
 30
0.0
 11
34819.58805410151
 21
28957.04469992505
 31
0.0
  0
LINE
  5
1A9C
330
1F
100
AcDbEntity
  8
外形線
100
AcDbLine
 10
34824.18805410151
 20
28955.54469992505
 30
0.0
 11
34824.18805410151
 21
28957.04469992505
 31
0.0
  0
ARC
  5
1A9D
330
1F
100
AcDbEntity
  8
外形線
100
AcDbCircle
 10
34823.03150445019
 20
28959.60412486694
 30
0.0
 40
6.479445445243836
100
AcDbArc
 50
142.5430267976128
 51
198.5323287863182
  0
LINE
  5
1A9E
330
1F
100
AcDbEntity
  8
外形線
100
AcDbLine
 10
34817.88805410151
 20
28963.54469992505
 30
0.0
 11
34815.88805410151
 21
28963.54469992505
 31
0.0
  0
LINE
  5
1A9F
330
1F
100
AcDbEntity
  8
外形線
100
AcDbLine
 10
34815.88805410151
 20
28963.54469992505
 30
0.0
 11
34815.88805410151
 21
28957.54469992505
 31
0.0
  0
LINE
  5
1AA0
330
1F
100
AcDbEntity
  8
外形線
100
AcDbLine
 10
34817.88805410151
 20
28957.54469992505
 30
0.0
 11
34817.88805410151
 21
28963.54469992505
 31
0.0
  0
ARC
  5
1AA1
330
1F
100
AcDbEntity
  8
外形線
100
AcDbCircle
 10
34820.74460375284
 20
28959.60412486694
 30
0.0
 40
6.479445445243836
100
AcDbArc
 50
341.4676712136818
 51
37.45697320235219
  0
LINE
  5
1AA2
330
1F
100
AcDbEntity
  8
外形線
100
AcDbLine
 10
34825.88805410151
 20
28963.54469992505
 30
0.0
 11
34827.88805410151
 21
28963.54469992505
 31
0.0
  0
LINE
  5
1AA3
330
1F
100
AcDbEntity
  8
外形線
100
AcDbLine
 10
34827.88805410151
 20
28963.54469992505
 30
0.0
 11
34827.88805410151
 21
28957.54469992505
 31
0.0
  0
LINE
  5
1AA4
330
1F
100
AcDbEntity
  8
外形線
100
AcDbLine
 10
34825.88805410151
 20
28957.54469992505
 30
0.0
 11
34825.88805410151
 21
28963.54469992505
 31
0.0
  0
LINE
  5
1AA5
330
1F
100
AcDbEntity
  8
外形線
100
AcDbLine
 10
34819.08805410151
 20
28957.54469992505
 30
0.0
 11
34815.88805410151
 21
28957.54469992505
 31
0.0
  0
ARC
  5
1AA6
330
1F
100
AcDbEntity
  8
外形線
100
AcDbCircle
 10
34819.08805410151
 20
28957.04469992505
 30
0.0
 40
0.5
100
AcDbArc
 50
0.0
 51
90.0
  0
LINE
  5
1AA7
330
1F
100
AcDbEntity
  8
外形線
100
AcDbLine
 10
34819.08805410151
 20
28957.54469992505
 30
0.0
 11
34824.68805410151
 21
28957.54469992505
 31
0.0
  0
CIRCLE
  5
1AA8
330
1F
100
AcDbEntity
  8
○
100
AcDbCircle
 10
33969.95084463432
 20
29134.60326060758
 30
0.0
 40
15.0
  0
MTEXT
  5
1AA9
330
1F
100
AcDbEntity
  8
寸法線
100
AcDbMText
 10
33963.4580161726
 20
29144.34711109858
 30
0.0
 40
20.0
 41
35.534113038535
 46
0.0
 71
     1
 72
     5
  1
7
 73
     1
 44
1.0
1001
ACAD
1000
ACAD_MTEXT_COLUMN_INFO_BEGIN
1070
    75
1070
     2
1070
    79
1070
     0
1070
    76
1070
     1
1070
    78
1070
     0
1070
    48
1040
35.534113038535
1070
    49
1040
12.5
1070
    50
1070
     1
1040
0.0
1000
ACAD_MTEXT_COLUMN_INFO_END
  0
LINE
  5
1AAA
330
1F
100
AcDbEntity
  8
○
100
AcDbLine
 10
33962.78552939146
 20
29147.78120648204
 30
0.0
 11
33933.57523304684
 21
29195.55158331891
 31
0.0
  0
LINE
  5
1AAB
330
1F
100
AcDbEntity
  8
○
100
AcDbLine
 10
33965.51399502532
 20
29120.27446562868
 30
0.0
 11
33923.49316355248
 21
28967.2235966257
 31
0.0
  0
LINE
  5
1AAC
330
1F
100
AcDbEntity
  8
外形線
100
AcDbLine
 10
33660.04694415292
 20
28965.54469957603
 30
0.0
 11
33660.04694415292
 21
28955.54469957604
 31
0.0
  0
LINE
  5
1AAD
330
1F
100
AcDbEntity
  8
外形線
100
AcDbLine
 10
33660.04694415292
 20
28955.54469957604
 30
0.0
 11
34703.04694415292
 21
28955.54469957604
 31
0.0
  0
LINE
  5
1AAE
102
{ACAD_REACTORS
330
1CDA
330
1CDD
102
}
330
1F
100
AcDbEntity
  8
外形線
100
AcDbLine
 10
34703.04694415292
 20
28955.54469957604
 30
0.0
 11
34703.04694415292
 21
28965.54469957603
 31
0.0
  0
LINE
  5
1AAF
330
1F
100
AcDbEntity
  8
外形線
100
AcDbLine
 10
34703.04694415292
 20
28965.54469957603
 30
0.0
 11
33963.69694415293
 21
28965.54469957603
 31
0.0
  0
LINE
  5
1AB0
330
1F
100
AcDbEntity
  8
外形線
100
AcDbLine
 10
33836.69694415293
 20
28965.54469957604
 30
0.0
 11
33786.39694415293
 21
28965.54469957604
 31
0.0
  0
LINE
  5
1AB1
330
1F
100
AcDbEntity
  8
外形線
100
AcDbLine
 10
33774.89694415293
 20
28965.54469957604
 30
0.0
 11
33774.39694415293
 21
28965.54469957604
 31
0.0
  0
LINE
  5
1AB2
330
1F
100
AcDbEntity
  8
外形線
100
AcDbLine
 10
33752.39694415293
 20
28965.54469957603
 30
0.0
 11
33660.04694415292
 21
28965.54469957603
 31
0.0
  0
LINE
  5
1AB3
330
1F
100
AcDbEntity
  8
外形線
100
AcDbLine
 10
33660.04694415292
 20
28962.54469957604
 30
0.0
 11
33659.36366257992
 21
28963.91126272204
 31
0.0
  0
ARC
  5
1AB4
330
1F
100
AcDbEntity
  8
外形線
100
AcDbCircle
 10
33662.04694415292
 20
28965.25290350854
 30
0.0
 40
3.0
100
AcDbArc
 50
180.0
 51
206.5650511770794
  0
LINE
  5
1AB5
330
1F
100
AcDbEntity
  8
外形線
100
AcDbLine
 10
33659.04694415292
 20
28965.25290350854
 30
0.0
 11
33659.04694415292
 21
28969.33759279484
 31
0.0
  0
ARC
  5
1AB6
330
1F
100
AcDbEntity
  8
外形線
100
AcDbCircle
 10
33659.54694415292
 20
28969.33759279484
 30
0.0
 40
0.5
100
AcDbArc
 50
135.000000000004
 51
180.0
  0
LINE
  5
1AB7
330
1F
100
AcDbEntity
  8
外形線
100
AcDbLine
 10
33659.19339076233
 20
28969.69114618544
 30
0.0
 11
33659.90049754352
 21
28970.39825296663
 31
0.0
  0
ARC
  5
1AB8
330
1F
100
AcDbEntity
  8
外形線
100
AcDbCircle
 10
33659.54694415292
 20
28970.75180635723
 30
0.0
 40
0.5
100
AcDbArc
 50
315.000000000004
 51
0.0
  0
LINE
  5
1AB9
330
1F
100
AcDbEntity
  8
外形線
100
AcDbLine
 10
33660.04694415292
 20
28970.75180635723
 30
0.0
 11
33660.04694415292
 21
29007.54469957604
 31
0.0
  0
LINE
  5
1ABA
330
1F
100
AcDbEntity
  8
外形線
100
AcDbLine
 10
33661.04694415292
 20
28987.54469957604
 30
0.0
 11
33663.32284607347
 21
28987.08951919193
 31
0.0
  0
LINE
  5
1ABB
330
1F
100
AcDbEntity
  8
外形線
100
AcDbLine
 10
33661.04694415292
 20
28987.54469957604
 30
0.0
 11
33661.04694415292
 21
29007.54469957604
 31
0.0
  0
LINE
  5
1ABC
330
1F
100
AcDbEntity
  8
外形線
100
AcDbLine
 10
33661.04694415292
 20
29007.54469957604
 30
0.0
 11
33660.04694415292
 21
29007.54469957604
 31
0.0
  0
ELLIPSE
  5
1ABD
330
1F
100
AcDbEntity
  8
外形線
100
AcDbEllipse
 10
33663.40408701006
 20
28985.04469957604
 30
0.0
 11
-2.35714285713766
 21
1.5
 31
0.0
210
0.0
220
0.0
230
1.0
 40
0.6753514169109462
 41
3.682438273673346
 42
4.822127997503216
  0
ARC
  5
1ABE
330
1F
100
AcDbEntity
  8
外形線
100
AcDbCircle
 10
33662.73449766798
 20
28984.14777716475
 30
0.0
 40
3.0
100
AcDbArc
 50
61.78442072581224
 51
78.69006752528486
  0
LINE
  5
1ABF
330
1F
100
AcDbEntity
  8
外形線
100
AcDbLine
 10
33661.04694415292
 20
29007.04469957604
 30
0.0
 11
33661.54694415292
 21
29007.04469957604
 31
0.0
  0
LINE
  5
1AC0
330
1F
100
AcDbEntity
  8
外形線
100
AcDbLine
 10
33661.54694415292
 20
29007.04469957604
 30
0.0
 11
33661.54694415292
 21
28987.44469957604
 31
0.0
  0
LINE
  5
1AC1
330
1F
100
AcDbEntity
  8
外形線
100
AcDbLine
 10
33661.54694415292
 20
29007.04469957604
 30
0.0
 11
33673.54694415292
 21
29007.04469957604
 31
0.0
  0
LINE
  5
1AC2
330
1F
100
AcDbEntity
  8
外形線
100
AcDbLine
 10
33674.54694415292
 20
29006.04469957604
 30
0.0
 11
33674.54694415292
 21
28976.54469957604
 31
0.0
  0
ARC
  5
1AC3
330
1F
100
AcDbEntity
  8
外形線
100
AcDbCircle
 10
33673.54694415292
 20
29006.04469957604
 30
0.0
 40
1.0
100
AcDbArc
 50
0.0
 51
90.0
  0
ARC
  5
1AC4
330
1F
100
AcDbEntity
  8
外形線
100
AcDbCircle
 10
33673.54694415292
 20
28976.54469957604
 30
0.0
 40
1.0
100
AcDbArc
 50
270.0
 51
0.0
  0
LINE
  5
1AC5
330
1F
100
AcDbEntity
  8
外形線
100
AcDbLine
 10
33673.54694415292
 20
28975.54469957604
 30
0.0
 11
33665.94637164249
 21
28975.54469957604
 31
0.0
  0
LINE
  5
1AC6
330
1F
100
AcDbEntity
  8
外形線
100
AcDbLine
 10
33665.94637164249
 20
28984.57839643081
 30
0.0
 11
33665.94637164249
 21
28975.54469957604
 31
0.0
  0
LINE
  5
1AC7
330
1F
100
AcDbEntity
  8
外形線
100
AcDbLine
 10
33665.94637164249
 20
28975.54469957604
 30
0.0
 11
33665.94637164249
 21
28970.58357146413
 31
0.0
  0
ARC
  5
1AC8
330
1F
100
AcDbEntity
  8
外形線
100
AcDbCircle
 10
33656.49896029118
 20
28972.00265004858
 30
0.0
 40
9.559246875214904
100
AcDbArc
 50
323.1356689796041
 51
350.9878324004474
  0
ARC
  5
1AC9
330
1F
100
AcDbEntity
  8
外形線
100
AcDbCircle
 10
33664.54694415291
 20
28965.9678837968
 30
0.0
 40
0.5
100
AcDbArc
 50
143.1356689792651
 51
180.0000000008337
  0
ARC
  5
1ACA
330
1F
100
AcDbEntity
  8
外形線
100
AcDbCircle
 10
33665.4463716425
 20
28970.58357146413
 30
0.0
 40
0.5
100
AcDbArc
 50
350.9878324008564
 51
0.0
  0
LINE
  5
1ACB
330
1F
100
AcDbEntity
  8
外形線
100
AcDbLine
 10
33664.04694415292
 20
28965.54469957603
 30
0.0
 11
33664.04694415292
 21
28965.9678837968
 31
0.0
  0
LINE
  5
1ACC
330
1F
100
AcDbEntity
  8
外形線
100
AcDbLine
 10
34703.04694415292
 20
28962.54469957604
 30
0.0
 11
34703.73022572592
 21
28963.91126272204
 31
0.0
  0
ARC
  5
1ACD
330
1F
100
AcDbEntity
  8
外形線
100
AcDbCircle
 10
34701.04694415292
 20
28965.25290350854
 30
0.0
 40
3.0
100
AcDbArc
 50
333.4349488229205
 51
0.0
  0
LINE
  5
1ACE
330
1F
100
AcDbEntity
  8
外形線
100
AcDbLine
 10
34704.04694415292
 20
28965.25290350854
 30
0.0
 11
34704.04694415292
 21
28969.33759279484
 31
0.0
  0
ARC
  5
1ACF
330
1F
100
AcDbEntity
  8
外形線
100
AcDbCircle
 10
34703.54694415292
 20
28969.33759279484
 30
0.0
 40
0.5
100
AcDbArc
 50
0.0
 51
44.9999999995538
  0
LINE
  5
1AD0
330
1F
100
AcDbEntity
  8
外形線
100
AcDbLine
 10
34703.90049754352
 20
28969.69114618544
 30
0.0
 11
34703.19339076233
 21
28970.39825296663
 31
0.0
  0
ARC
  5
1AD1
330
1F
100
AcDbEntity
  8
外形線
100
AcDbCircle
 10
34703.54694415292
 20
28970.75180635723
 30
0.0
 40
0.5
100
AcDbArc
 50
180.0
 51
224.9999999995538
  0
LINE
  5
1AD2
330
1F
100
AcDbEntity
  8
外形線
100
AcDbLine
 10
34703.04694415292
 20
28970.75180635723
 30
0.0
 11
34703.04694415292
 21
29007.54469957604
 31
0.0
  0
LINE
  5
1AD3
330
1F
100
AcDbEntity
  8
外形線
100
AcDbLine
 10
34702.04694415292
 20
28987.54469957604
 30
0.0
 11
34699.77104223237
 21
28987.08951919193
 31
0.0
  0
LINE
  5
1AD4
330
1F
100
AcDbEntity
  8
外形線
100
AcDbLine
 10
34702.04694415292
 20
28987.54469957604
 30
0.0
 11
34702.04694415292
 21
29007.54469957604
 31
0.0
  0
LINE
  5
1AD5
102
{ACAD_REACTORS
330
1CDA
102
}
330
1F
100
AcDbEntity
  8
外形線
100
AcDbLine
 10
34702.04694415292
 20
29007.54469957604
 30
0.0
 11
34703.04694415292
 21
29007.54469957604
 31
0.0
  0
ELLIPSE
  5
1AD6
330
1F
100
AcDbEntity
  8
外形線
100
AcDbEllipse
 10
34699.68980129578
 20
28985.04469957604
 30
0.0
 11
2.35714285713766
 21
1.5
 31
0.0
210
0.0
220
0.0
230
-1.0
 40
0.6753514169109462
 41
3.682438273673346
 42
4.822127997503216
  0
ARC
  5
1AD7
330
1F
100
AcDbEntity
  8
外形線
100
AcDbCircle
 10
34700.35939063787
 20
28984.14777716475
 30
0.0
 40
3.0
100
AcDbArc
 50
101.3099324747151
 51
118.2155792741877
  0
LINE
  5
1AD8
330
1F
100
AcDbEntity
  8
外形線
100
AcDbLine
 10
34702.04694415292
 20
29007.04469957604
 30
0.0
 11
34701.54694415292
 21
29007.04469957604
 31
0.0
  0
LINE
  5
1AD9
330
1F
100
AcDbEntity
  8
外形線
100
AcDbLine
 10
34701.54694415292
 20
29007.04469957604
 30
0.0
 11
34701.54694415292
 21
28987.44469957604
 31
0.0
  0
LINE
  5
1ADA
330
1F
100
AcDbEntity
  8
外形線
100
AcDbLine
 10
34701.54694415292
 20
29007.04469957604
 30
0.0
 11
34687.54694415292
 21
29007.04469957604
 31
0.0
  0
LINE
  5
1ADB
330
1F
100
AcDbEntity
  8
外形線
100
AcDbLine
 10
34686.54694415292
 20
29006.04469957604
 30
0.0
 11
34686.54694415292
 21
28976.54469957604
 31
0.0
  0
ARC
  5
1ADC
330
1F
100
AcDbEntity
  8
外形線
100
AcDbCircle
 10
34687.54694415292
 20
29006.04469957604
 30
0.0
 40
1.0
100
AcDbArc
 50
90.0
 51
180.0
  0
ARC
  5
1ADD
330
1F
100
AcDbEntity
  8
外形線
100
AcDbCircle
 10
34687.54694415292
 20
28976.54469957604
 30
0.0
 40
1.0
100
AcDbArc
 50
180.0
 51
270.0
  0
LINE
  5
1ADE
330
1F
100
AcDbEntity
  8
外形線
100
AcDbLine
 10
34687.54694415292
 20
28975.54469957604
 30
0.0
 11
34697.14751666334
 21
28975.54469957604
 31
0.0
  0
LINE
  5
1ADF
330
1F
100
AcDbEntity
  8
外形線
100
AcDbLine
 10
34697.14751666335
 20
28984.57839643081
 30
0.0
 11
34697.14751666335
 21
28975.54469957604
 31
0.0
  0
LINE
  5
1AE0
330
1F
100
AcDbEntity
  8
外形線
100
AcDbLine
 10
34697.14751666335
 20
28975.54469957604
 30
0.0
 11
34697.14751666336
 21
28970.58357146413
 31
0.0
  0
ARC
  5
1AE1
330
1F
100
AcDbEntity
  8
外形線
100
AcDbCircle
 10
34706.59492801466
 20
28972.00265004858
 30
0.0
 40
9.559246875214904
100
AcDbArc
 50
189.0121675995525
 51
216.8643310199848
  0
ARC
  5
1AE2
330
1F
100
AcDbEntity
  8
外形線
100
AcDbCircle
 10
34698.54694415293
 20
28965.9678837968
 30
0.0
 40
0.5
100
AcDbArc
 50
359.9999999991662
 51
36.86433102115585
  0
ARC
  5
1AE3
330
1F
100
AcDbEntity
  8
外形線
100
AcDbCircle
 10
34697.64751666335
 20
28970.58357146413
 30
0.0
 40
0.5
100
AcDbArc
 50
180.0
 51
189.0121675991436
  0
LINE
  5
1AE4
330
1F
100
AcDbEntity
  8
外形線
100
AcDbLine
 10
34699.04694415292
 20
28965.54469957603
 30
0.0
 11
34699.04694415292
 21
28965.9678837968
 31
0.0
  0
LINE
  5
1AE5
330
1F
100
AcDbEntity
  8
外形線
100
AcDbLine
 10
34686.54694415292
 20
29002.59469957604
 30
0.0
 11
34678.04694415292
 21
29002.59469957604
 31
0.0
  0
ARC
  5
1AE6
330
1F
100
AcDbEntity
  8
外形線
100
AcDbCircle
 10
34678.04694415292
 20
29002.09469957604
 30
0.0
 40
0.5
100
AcDbArc
 50
90.0
 51
180.0
  0
LINE
  5
1AE7
330
1F
100
AcDbEntity
  8
外形線
100
AcDbLine
 10
34677.54694415292
 20
29002.09469957604
 30
0.0
 11
34677.54694415292
 21
28980.49469957603
 31
0.0
  0
LINE
  5
1AE8
330
1F
100
AcDbEntity
  8
外形線
100
AcDbLine
 10
34678.04694415292
 20
28979.99469957603
 30
0.0
 11
34686.54694415292
 21
28979.99469957603
 31
0.0
  0
ARC
  5
1AE9
330
1F
100
AcDbEntity
  8
外形線
100
AcDbCircle
 10
34678.04694415292
 20
28980.49469957603
 30
0.0
 40
0.5
100
AcDbArc
 50
180.0
 51
270.0
  0
LINE
  5
1AEA
330
1F
100
AcDbEntity
  8
外形線
100
AcDbLine
 10
33698.54694415292
 20
28955.54469957604
 30
0.0
 11
33698.54694415292
 21
28952.04469957604
 31
0.0
  0
LINE
  5
1AEB
330
1F
100
AcDbEntity
  8
外形線
100
AcDbLine
 10
33699.04694415292
 20
28951.54469957604
 30
0.0
 11
33718.04694415292
 21
28951.54469957604
 31
0.0
  0
ARC
  5
1AEC
330
1F
100
AcDbEntity
  8
外形線
100
AcDbCircle
 10
33699.04694415292
 20
28952.04469957604
 30
0.0
 40
0.5
100
AcDbArc
 50
180.0
 51
270.0
  0
LINE
  5
1AED
330
1F
100
AcDbEntity
  8
外形線
100
AcDbLine
 10
33718.54694415292
 20
28952.04469957604
 30
0.0
 11
33718.54694415292
 21
28955.54469957604
 31
0.0
  0
ARC
  5
1AEE
330
1F
100
AcDbEntity
  8
外形線
100
AcDbCircle
 10
33718.04694415292
 20
28952.04469957604
 30
0.0
 40
0.5
100
AcDbArc
 50
270.0
 51
0.0
  0
LINE
  5
1AEF
330
1F
100
AcDbEntity
  8
外形線
100
AcDbLine
 10
33718.54694415292
 20
28953.54469957604
 30
0.0
 11
33719.04694415292
 21
28953.54469957604
 31
0.0
  0
ARC
  5
1AF0
330
1F
100
AcDbEntity
  8
外形線
100
AcDbCircle
 10
33719.51616774651
 20
28955.52067008404
 30
0.0
 40
2.030918567864959
100
AcDbArc
 50
256.6416865202825
 51
0.6779299878933172
  0
ARC
  5
1AF1
330
1F
100
AcDbEntity
  8
外形線
100
AcDbCircle
 10
33719.55656038894
 20
28955.50154971191
 30
0.0
 40
1.617898346868975
100
AcDbArc
 50
251.6399975157823
 51
1.371947721248656
  0
LINE
  5
1AF2
330
1F
100
AcDbEntity
  8
外形線
100
AcDbLine
 10
33719.04694415292
 20
28955.54469957604
 30
0.0
 11
33719.04694415292
 21
28953.96600865001
 31
0.0
  0
LINE
  5
1AF3
330
1F
100
AcDbEntity
  8
外形線
100
AcDbLine
 10
34664.54694415292
 20
28955.54469957604
 30
0.0
 11
34664.54694415292
 21
28952.04469957604
 31
0.0
  0
LINE
  5
1AF4
330
1F
100
AcDbEntity
  8
外形線
100
AcDbLine
 10
34664.04694415292
 20
28951.54469957604
 30
0.0
 11
34645.04694415292
 21
28951.54469957604
 31
0.0
  0
ARC
  5
1AF5
102
{ACAD_REACTORS
330
1CDD
102
}
330
1F
100
AcDbEntity
  8
外形線
100
AcDbCircle
 10
34664.04694415292
 20
28952.04469957604
 30
0.0
 40
0.5
100
AcDbArc
 50
270.0
 51
0.0
  0
LINE
  5
1AF6
330
1F
100
AcDbEntity
  8
外形線
100
AcDbLine
 10
34644.54694415292
 20
28952.04469957604
 30
0.0
 11
34644.54694415292
 21
28955.54469957604
 31
0.0
  0
ARC
  5
1AF7
330
1F
100
AcDbEntity
  8
外形線
100
AcDbCircle
 10
34645.04694415292
 20
28952.04469957604
 30
0.0
 40
0.5
100
AcDbArc
 50
180.0
 51
270.0
  0
LINE
  5
1AF8
330
1F
100
AcDbEntity
  8
外形線
100
AcDbLine
 10
34644.54694415292
 20
28953.54469957604
 30
0.0
 11
34644.04694415292
 21
28953.54469957604
 31
0.0
  0
ARC
  5
1AF9
330
1F
100
AcDbEntity
  8
外形線
100
AcDbCircle
 10
34643.57772055933
 20
28955.52067008404
 30
0.0
 40
2.030918567864959
100
AcDbArc
 50
179.3220700121067
 51
283.3583134801251
  0
ARC
  5
1AFA
330
1F
100
AcDbEntity
  8
外形線
100
AcDbCircle
 10
34643.53732791691
 20
28955.50154971191
 30
0.0
 40
1.617898346868975
100
AcDbArc
 50
178.6280522787514
 51
288.3600024838205
  0
LINE
  5
1AFB
330
1F
100
AcDbEntity
  8
外形線
100
AcDbLine
 10
34644.04694415292
 20
28955.54469957604
 30
0.0
 11
34644.04694415292
 21
28953.96600865001
 31
0.0
  0
LINE
  5
1AFC
330
1F
100
AcDbEntity
  8
外形線
100
AcDbLine
 10
34703.04694415292
 20
29238.26619691548
 30
0.0
 11
34703.04694415292
 21
29262.26619691548
 31
0.0
  0
LINE
  5
1AFD
330
1F
100
AcDbEntity
  8
外形線
100
AcDbLine
 10
34686.54694415292
 20
29262.26619691548
 30
0.0
 11
34678.04694415292
 21
29262.26619691548
 31
0.0
  0
ARC
  5
1AFE
330
1F
100
AcDbEntity
  8
外形線
100
AcDbCircle
 10
34678.04694415292
 20
29261.76619691548
 30
0.0
 40
0.5
100
AcDbArc
 50
90.0
 51
180.0
  0
LINE
  5
1AFF
330
1F
100
AcDbEntity
  8
外形線
100
AcDbLine
 10
33660.04694415292
 20
29262.26619691548
 30
0.0
 11
33660.04694415292
 21
29238.26619691548
 31
0.0
  0
LINE
  5
1B00
330
1F
100
AcDbEntity
  8
外形線
100
AcDbLine
 10
34678.04694415292
 20
29238.26619691548
 30
0.0
 11
34686.54694415292
 21
29238.26619691548
 31
0.0
  0
LINE
  5
1B01
330
1F
100
AcDbEntity
  8
外形線
100
AcDbLine
 10
34677.54694415292
 20
29261.26619691548
 30
0.0
 11
33674.54694415292
 21
29261.26619691548
 31
0.0
  0
LINE
  5
1B02
330
1F
100
AcDbEntity
  8
外形線
100
AcDbLine
 10
33674.54694415292
 20
29239.26619691548
 30
0.0
 11
34677.54694415292
 21
29239.26619691548
 31
0.0
  0
LINE
  5
1B03
330
1F
100
AcDbEntity
  8
外形線
100
AcDbLine
 10
33660.04694415292
 20
29259.26619691548
 30
0.0
 11
33659.04988548421
 21
29253.45001747856
 31
0.0
  0
ARC
  5
1B04
330
1F
100
AcDbEntity
  8
外形線
100
AcDbCircle
 10
33659.29648396517
 20
29253.40891773173
 30
0.0
 40
0.25
100
AcDbArc
 50
170.537677792045
 51
176.5230231830233
  0
ARC
  5
1B05
330
1F
100
AcDbEntity
  8
外形線
100
AcDbCircle
 10
33659.29648396517
 20
29253.40891773173
 30
0.0
 40
0.25
100
AcDbArc
 50
183.4769768169767
 51
243.4349488229235
  0
LINE
  5
1B06
102
{ACAD_REACTORS
330
1CF2
102
}
330
1F
100
AcDbEntity
  8
外形線
100
AcDbLine
 10
33659.04694415292
 20
29253.42407959517
 30
0.0
 11
33659.04694415292
 21
29247.10831423579
 31
0.0
  0
LINE
  5
1B07
330
1F
100
AcDbEntity
  8
外形線
100
AcDbLine
 10
33659.1846805663
 20
29253.18531093398
 30
0.0
 11
33660.04694415292
 21
29252.76619691548
 31
0.0
  0
LINE
  5
1B08
330
1F
100
AcDbEntity
  8
外形線
100
AcDbLine
 10
33660.04694415292
 20
29241.26619691548
 30
0.0
 11
33659.04988548421
 21
29247.0823763524
 31
0.0
  0
ARC
  5
1B09
330
1F
100
AcDbEntity
  8
外形線
100
AcDbCircle
 10
33659.29648396517
 20
29247.12347609923
 30
0.0
 40
0.25
100
AcDbArc
 50
183.4769768169767
 51
189.4623222084305
  0
ARC
  5
1B0A
330
1F
100
AcDbEntity
  8
外形線
100
AcDbCircle
 10
33659.29648396517
 20
29247.12347609923
 30
0.0
 40
0.25
100
AcDbArc
 50
116.5650511770765
 51
176.5230231830233
  0
LINE
  5
1B0B
330
1F
100
AcDbEntity
  8
外形線
100
AcDbLine
 10
33659.1846805663
 20
29247.34708289698
 30
0.0
 11
33660.04694415292
 21
29247.76619691548
 31
0.0
  0
LINE
  5
1B0C
330
1F
100
AcDbEntity
  8
外形線
100
AcDbLine
 10
33660.04694415292
 20
29262.26619691548
 30
0.0
 11
33660.04694415292
 21
29266.26619691548
 31
0.0
  0
LINE
  5
1B0D
330
1F
100
AcDbEntity
  8
外形線
100
AcDbLine
 10
33660.04694415292
 20
29266.26619691548
 30
0.0
 11
33661.04694415292
 21
29266.26619691548
 31
0.0
  0
LINE
  5
1B0E
330
1F
100
AcDbEntity
  8
外形線
100
AcDbLine
 10
33661.04694415292
 20
29266.26619691548
 30
0.0
 11
33661.04694415292
 21
29234.26619691548
 31
0.0
  0
LINE
  5
1B0F
330
1F
100
AcDbEntity
  8
外形線
100
AcDbLine
 10
33661.04694415292
 20
29234.26619691548
 30
0.0
 11
33660.04694415292
 21
29234.26619691548
 31
0.0
  0
LINE
  5
1B10
330
1F
100
AcDbEntity
  8
外形線
100
AcDbLine
 10
33660.04694415292
 20
29234.26619691548
 30
0.0
 11
33660.04694415292
 21
29241.26619691548
 31
0.0
  0
LINE
  5
1B11
330
1F
100
AcDbEntity
  8
外形線
100
AcDbLine
 10
33661.04694415292
 20
29234.26619691548
 30
0.0
 11
33661.54694415292
 21
29234.26619691548
 31
0.0
  0
LINE
  5
1B12
330
1F
100
AcDbEntity
  8
外形線
100
AcDbLine
 10
33661.54694415292
 20
29234.26619691548
 30
0.0
 11
33661.54694415292
 21
29266.26619691548
 31
0.0
  0
LINE
  5
1B13
330
1F
100
AcDbEntity
  8
外形線
100
AcDbLine
 10
33661.54694415292
 20
29266.26619691548
 30
0.0
 11
33661.04694415292
 21
29266.26619691548
 31
0.0
  0
LINE
  5
1B14
330
1F
100
AcDbEntity
  8
外形線
100
AcDbLine
 10
33661.54694415292
 20
29234.26619691548
 30
0.0
 11
33673.54694415292
 21
29234.26619691548
 31
0.0
  0
LINE
  5
1B15
330
1F
100
AcDbEntity
  8
外形線
100
AcDbLine
 10
33674.54694415292
 20
29235.26619691548
 30
0.0
 11
33674.54694415292
 21
29265.26619691548
 31
0.0
  0
ARC
  5
1B16
330
1F
100
AcDbEntity
  8
外形線
100
AcDbCircle
 10
33673.54694415292
 20
29235.26619691548
 30
0.0
 40
1.0
100
AcDbArc
 50
270.0
 51
0.0
  0
LINE
  5
1B17
330
1F
100
AcDbEntity
  8
外形線
100
AcDbLine
 10
33673.54694415292
 20
29266.26619691548
 30
0.0
 11
33661.54694415292
 21
29266.26619691548
 31
0.0
  0
ARC
  5
1B18
330
1F
100
AcDbEntity
  8
外形線
100
AcDbCircle
 10
33673.54694415292
 20
29265.26619691548
 30
0.0
 40
1.0
100
AcDbArc
 50
0.0
 51
90.0
  0
LINE
  5
1B19
330
1F
100
AcDbEntity
  8
外形線
100
AcDbLine
 10
34703.04694415292
 20
29262.26619691548
 30
0.0
 11
34703.04694415292
 21
29238.26619691548
 31
0.0
  0
LINE
  5
1B1A
330
1F
100
AcDbEntity
  8
外形線
100
AcDbLine
 10
34703.04694415292
 20
29259.26619691548
 30
0.0
 11
34704.04400282163
 21
29253.45001747856
 31
0.0
  0
ARC
  5
1B1B
330
1F
100
AcDbEntity
  8
外形線
100
AcDbCircle
 10
34703.79740434067
 20
29253.40891773173
 30
0.0
 40
0.25
100
AcDbArc
 50
3.476976816976713
 51
9.46232220795494
  0
ARC
  5
1B1C
330
1F
100
AcDbEntity
  8
外形線
100
AcDbCircle
 10
34703.79740434067
 20
29253.40891773173
 30
0.0
 40
0.25
100
AcDbArc
 50
296.5650511770765
 51
356.5230231830233
  0
LINE
  5
1B1D
102
{ACAD_REACTORS
330
1CF2
102
}
330
1F
100
AcDbEntity
  8
外形線
100
AcDbLine
 10
34704.04694415292
 20
29253.42407959517
 30
0.0
 11
34704.04694415292
 21
29247.10831423579
 31
0.0
  0
LINE
  5
1B1E
330
1F
100
AcDbEntity
  8
外形線
100
AcDbLine
 10
34703.90920773955
 20
29253.18531093398
 30
0.0
 11
34703.04694415292
 21
29252.76619691548
 31
0.0
  0
LINE
  5
1B1F
330
1F
100
AcDbEntity
  8
外形線
100
AcDbLine
 10
34703.04694415292
 20
29241.26619691548
 30
0.0
 11
34704.04400282163
 21
29247.0823763524
 31
0.0
  0
ARC
  5
1B20
330
1F
100
AcDbEntity
  8
外形線
100
AcDbCircle
 10
34703.79740434067
 20
29247.12347609923
 30
0.0
 40
0.25
100
AcDbArc
 50
350.5376777915695
 51
356.5230231830233
  0
ARC
  5
1B21
330
1F
100
AcDbEntity
  8
外形線
100
AcDbCircle
 10
34703.79740434067
 20
29247.12347609923
 30
0.0
 40
0.25
100
AcDbArc
 50
3.476976816976713
 51
63.43494882292347
  0
LINE
  5
1B22
330
1F
100
AcDbEntity
  8
外形線
100
AcDbLine
 10
34703.90920773955
 20
29247.34708289698
 30
0.0
 11
34703.04694415292
 21
29247.76619691548
 31
0.0
  0
LINE
  5
1B23
330
1F
100
AcDbEntity
  8
外形線
100
AcDbLine
 10
34703.04694415292
 20
29262.26619691548
 30
0.0
 11
34703.04694415292
 21
29266.26619691548
 31
0.0
  0
LINE
  5
1B24
330
1F
100
AcDbEntity
  8
外形線
100
AcDbLine
 10
34703.04694415292
 20
29266.26619691548
 30
0.0
 11
34702.04694415292
 21
29266.26619691548
 31
0.0
  0
LINE
  5
1B25
330
1F
100
AcDbEntity
  8
外形線
100
AcDbLine
 10
34702.04694415292
 20
29266.26619691548
 30
0.0
 11
34702.04694415292
 21
29234.26619691548
 31
0.0
  0
LINE
  5
1B26
330
1F
100
AcDbEntity
  8
外形線
100
AcDbLine
 10
34702.04694415292
 20
29234.26619691548
 30
0.0
 11
34703.04694415292
 21
29234.26619691548
 31
0.0
  0
LINE
  5
1B27
330
1F
100
AcDbEntity
  8
外形線
100
AcDbLine
 10
34703.04694415292
 20
29234.26619691548
 30
0.0
 11
34703.04694415292
 21
29241.26619691548
 31
0.0
  0
LINE
  5
1B28
330
1F
100
AcDbEntity
  8
外形線
100
AcDbLine
 10
34702.04694415292
 20
29234.26619691548
 30
0.0
 11
34701.54694415292
 21
29234.26619691548
 31
0.0
  0
LINE
  5
1B29
330
1F
100
AcDbEntity
  8
外形線
100
AcDbLine
 10
34701.54694415292
 20
29234.26619691548
 30
0.0
 11
34701.54694415292
 21
29266.26619691548
 31
0.0
  0
LINE
  5
1B2A
330
1F
100
AcDbEntity
  8
外形線
100
AcDbLine
 10
34701.54694415292
 20
29266.26619691548
 30
0.0
 11
34702.04694415292
 21
29266.26619691548
 31
0.0
  0
LINE
  5
1B2B
330
1F
100
AcDbEntity
  8
外形線
100
AcDbLine
 10
34701.54694415292
 20
29266.26619691548
 30
0.0
 11
34687.54694415292
 21
29266.26619691548
 31
0.0
  0
LINE
  5
1B2C
330
1F
100
AcDbEntity
  8
外形線
100
AcDbLine
 10
34686.54694415292
 20
29265.26619691548
 30
0.0
 11
34686.54694415292
 21
29235.26619691548
 31
0.0
  0
ARC
  5
1B2D
330
1F
100
AcDbEntity
  8
外形線
100
AcDbCircle
 10
34687.54694415292
 20
29265.26619691548
 30
0.0
 40
1.0
100
AcDbArc
 50
90.0
 51
180.0
  0
ARC
  5
1B2E
330
1F
100
AcDbEntity
  8
外形線
100
AcDbCircle
 10
34687.54694415292
 20
29235.26619691548
 30
0.0
 40
1.0
100
AcDbArc
 50
180.0
 51
270.0
  0
LINE
  5
1B2F
330
1F
100
AcDbEntity
  8
外形線
100
AcDbLine
 10
34687.54694415292
 20
29234.26619691548
 30
0.0
 11
34701.54694415292
 21
29234.26619691548
 31
0.0
  0
LINE
  5
1B30
330
1F
100
AcDbEntity
  8
外形線
100
AcDbLine
 10
34677.54694415292
 20
29261.76619691548
 30
0.0
 11
34677.54694415292
 21
29253.51619691548
 31
0.0
  0
ARC
  5
1B31
330
1F
100
AcDbEntity
  8
外形線
100
AcDbCircle
 10
34678.04694415292
 20
29253.51619691548
 30
0.0
 40
0.5
100
AcDbArc
 50
180.0
 51
270.0
  0
ARC
  5
1B32
330
1F
100
AcDbEntity
  8
外形線
100
AcDbCircle
 10
34678.04694415292
 20
29238.76619691548
 30
0.0
 40
0.5
100
AcDbArc
 50
180.0
 51
270.0
  0
LINE
  5
1B33
330
1F
100
AcDbEntity
  8
外形線
100
AcDbLine
 10
34678.04694415292
 20
29262.26619691548
 30
0.0
 11
33674.54694415292
 21
29262.26619691548
 31
0.0
  0
LINE
  5
1B34
330
1F
100
AcDbEntity
  8
外形線
100
AcDbLine
 10
33674.54694415292
 20
29238.26619691548
 30
0.0
 11
34678.04694415292
 21
29238.26619691548
 31
0.0
  0
LINE
  5
1B35
330
1F
100
AcDbEntity
  8
外形線
100
AcDbLine
 10
34686.54694415292
 20
29253.01619691548
 30
0.0
 11
34678.04694415292
 21
29253.01619691548
 31
0.0
  0
LINE
  5
1B36
330
1F
100
AcDbEntity
  8
外形線
100
AcDbLine
 10
34686.54694415292
 20
29247.51619691548
 30
0.0
 11
34678.04694415292
 21
29247.51619691548
 31
0.0
  0
LINE
  5
1B37
330
1F
100
AcDbEntity
  8
外形線
100
AcDbLine
 10
34679.04694415292
 20
29253.01619691548
 30
0.0
 11
34679.04694415292
 21
29247.51619691548
 31
0.0
  0
LINE
  5
1B38
330
1F
100
AcDbEntity
  8
外形線
100
AcDbLine
 10
34677.54694415292
 20
29247.01619691548
 30
0.0
 11
34677.54694415292
 21
29238.76619691548
 31
0.0
  0
ARC
  5
1B39
330
1F
100
AcDbEntity
  8
外形線
100
AcDbCircle
 10
34678.04694415292
 20
29247.01619691548
 30
0.0
 40
0.5
100
AcDbArc
 50
90.0
 51
180.0
  0
ARC
  5
1B3A
330
1F
100
AcDbEntity
  8
孔
100
AcDbCircle
 10
33728.04694415292
 20
29250.26619691548
 30
0.0
 40
5.0
100
AcDbArc
 50
270.0
 51
90.0
  0
ARC
  5
1B3B
330
1F
100
AcDbEntity
  8
孔
100
AcDbCircle
 10
33684.04694415292
 20
29250.26619691548
 30
0.0
 40
5.0
100
AcDbArc
 50
90.0
 51
143.1301023543243
  0
ARC
  5
1B3C
330
1F
100
AcDbEntity
  8
孔
100
AcDbCircle
 10
33684.04694415292
 20
29250.26619691548
 30
0.0
 40
5.0
100
AcDbArc
 50
216.8698976456756
 51
270.0
  0
LINE
  5
1B3D
330
1F
100
AcDbEntity
  8
孔
100
AcDbLine
 10
33674.54694415292
 20
29253.26619691548
 30
0.0
 11
33680.04694415292
 21
29253.26619691548
 31
0.0
  0
LINE
  5
1B3E
330
1F
100
AcDbEntity
  8
孔
100
AcDbLine
 10
33674.54694415292
 20
29247.26619691548
 30
0.0
 11
33680.04694415292
 21
29247.26619691548
 31
0.0
  0
LINE
  5
1B3F
330
1F
100
AcDbEntity
  8
孔
100
AcDbLine
 10
33684.04694415292
 20
29255.26619691548
 30
0.0
 11
33698.54694415292
 21
29255.26619691548
 31
0.0
  0
LINE
  5
1B40
330
1F
100
AcDbEntity
  8
孔
100
AcDbLine
 10
33718.54694415292
 20
29255.26619691548
 30
0.0
 11
33728.04694415292
 21
29255.26619691548
 31
0.0
  0
LINE
  5
1B41
330
1F
100
AcDbEntity
  8
孔
100
AcDbLine
 10
33684.04694415292
 20
29245.26619691548
 30
0.0
 11
33698.54694415292
 21
29245.26619691548
 31
0.0
  0
LINE
  5
1B42
330
1F
100
AcDbEntity
  8
孔
100
AcDbLine
 10
33718.54694415292
 20
29245.26619691548
 30
0.0
 11
33728.04694415292
 21
29245.26619691548
 31
0.0
  0
LINE
  5
1B43
330
1F
100
AcDbEntity
  8
外形線
100
AcDbLine
 10
33698.54694415292
 20
29254.26619691548
 30
0.0
 11
33698.54694415292
 21
29246.26619691548
 31
0.0
  0
LINE
  5
1B44
330
1F
100
AcDbEntity
  8
外形線
100
AcDbLine
 10
33702.04694415292
 20
29242.76619691548
 30
0.0
 11
33711.04694415292
 21
29242.76619691548
 31
0.0
  0
ARC
  5
1B45
330
1F
100
AcDbEntity
  8
外形線
100
AcDbCircle
 10
33715.04694415292
 20
29246.26619691548
 30
0.0
 40
3.5
100
AcDbArc
 50
270.0
 51
0.0
  0
ARC
  5
1B46
330
1F
100
AcDbEntity
  8
外形線
100
AcDbCircle
 10
33702.04694415292
 20
29246.26619691548
 30
0.0
 40
3.5
100
AcDbArc
 50
180.0
 51
270.0
  0
LINE
  5
1B47
330
1F
100
AcDbEntity
  8
外形線
100
AcDbLine
 10
33718.54694415292
 20
29246.26619691548
 30
0.0
 11
33718.54694415292
 21
29254.26619691548
 31
0.0
  0
ARC
  5
1B48
330
1F
100
AcDbEntity
  8
外形線
100
AcDbCircle
 10
33715.04694415292
 20
29254.26619691548
 30
0.0
 40
3.5
100
AcDbArc
 50
0.0
 51
90.0
  0
LINE
  5
1B49
330
1F
100
AcDbEntity
  8
外形線
100
AcDbLine
 10
33711.04694415292
 20
29257.76619691548
 30
0.0
 11
33702.04694415292
 21
29257.76619691548
 31
0.0
  0
ARC
  5
1B4A
330
1F
100
AcDbEntity
  8
外形線
100
AcDbCircle
 10
33702.04694415292
 20
29254.26619691548
 30
0.0
 40
3.5
100
AcDbArc
 50
90.0
 51
180.0
  0
LINE
  5
1B4B
330
1F
100
AcDbEntity
  8
外形線
100
AcDbLine
 10
33698.54694415292
 20
29254.26619691548
 30
0.0
 11
33700.54694415292
 21
29254.26619691548
 31
0.0
  0
LINE
  5
1B4C
330
1F
100
AcDbEntity
  8
外形線
100
AcDbLine
 10
33700.54694415292
 20
29254.26619691548
 30
0.0
 11
33700.54694415292
 21
29246.26619691548
 31
0.0
  0
LINE
  5
1B4D
330
1F
100
AcDbEntity
  8
外形線
100
AcDbLine
 10
33700.54694415292
 20
29246.26619691548
 30
0.0
 11
33698.54694415292
 21
29246.26619691548
 31
0.0
  0
LINE
  5
1B4E
330
1F
100
AcDbEntity
  8
外形線
100
AcDbLine
 10
33711.04694415292
 20
29243.76619691548
 30
0.0
 11
33711.04694415292
 21
29241.26619691548
 31
0.0
  0
LINE
  5
1B4F
330
1F
100
AcDbEntity
  8
外形線
100
AcDbLine
 10
33711.04694415292
 20
29241.26619691548
 30
0.0
 11
33715.04694415292
 21
29241.26619691548
 31
0.0
  0
LINE
  5
1B50
330
1F
100
AcDbEntity
  8
外形線
100
AcDbLine
 10
33715.04694415292
 20
29241.26619691548
 30
0.0
 11
33715.04694415292
 21
29243.76619691548
 31
0.0
  0
LINE
  5
1B51
330
1F
100
AcDbEntity
  8
外形線
100
AcDbLine
 10
33715.04694415292
 20
29243.76619691548
 30
0.0
 11
33711.04694415292
 21
29243.76619691548
 31
0.0
  0
LINE
  5
1B52
330
1F
100
AcDbEntity
  8
外形線
100
AcDbLine
 10
33711.04694415292
 20
29256.76619691548
 30
0.0
 11
33711.04694415292
 21
29259.26619691548
 31
0.0
  0
LINE
  5
1B53
330
1F
100
AcDbEntity
  8
外形線
100
AcDbLine
 10
33711.04694415292
 20
29259.26619691548
 30
0.0
 11
33715.04694415292
 21
29259.26619691548
 31
0.0
  0
LINE
  5
1B54
330
1F
100
AcDbEntity
  8
外形線
100
AcDbLine
 10
33715.04694415292
 20
29259.26619691548
 30
0.0
 11
33715.04694415292
 21
29256.76619691548
 31
0.0
  0
LINE
  5
1B55
330
1F
100
AcDbEntity
  8
外形線
100
AcDbLine
 10
33715.04694415292
 20
29256.76619691548
 30
0.0
 11
33711.04694415292
 21
29256.76619691548
 31
0.0
  0
LINE
  5
1B56
330
1F
100
AcDbEntity
  8
外形線
100
AcDbLine
 10
33718.54694415292
 20
29253.26619691548
 30
0.0
 11
33721.54694415292
 21
29253.26619691548
 31
0.0
  0
LINE
  5
1B57
330
1F
100
AcDbEntity
  8
外形線
100
AcDbLine
 10
33721.54694415292
 20
29253.26619691548
 30
0.0
 11
33721.54694415292
 21
29247.26619691548
 31
0.0
  0
LINE
  5
1B58
330
1F
100
AcDbEntity
  8
外形線
100
AcDbLine
 10
33721.54694415292
 20
29247.26619691548
 30
0.0
 11
33718.54694415292
 21
29247.26619691548
 31
0.0
  0
LINE
  5
1B59
330
1F
100
AcDbEntity
  8
外形線
100
AcDbLine
 10
33714.54694415292
 20
29252.26619691548
 30
0.0
 11
33703.54694415292
 21
29252.26619691548
 31
0.0
  0
LINE
  5
1B5A
330
1F
100
AcDbEntity
  8
外形線
100
AcDbLine
 10
33703.54694415292
 20
29252.26619691548
 30
0.0
 11
33703.54694415292
 21
29248.26619691548
 31
0.0
  0
LINE
  5
1B5B
330
1F
100
AcDbEntity
  8
外形線
100
AcDbLine
 10
33703.54694415292
 20
29248.26619691548
 30
0.0
 11
33714.54694415292
 21
29248.26619691548
 31
0.0
  0
ARC
  5
1B5C
330
1F
100
AcDbEntity
  8
外形線
100
AcDbCircle
 10
33714.54694415292
 20
29250.26619691548
 30
0.0
 40
2.0
100
AcDbArc
 50
270.0
 51
90.0
  0
LINE
  5
1B5D
330
1F
100
AcDbEntity
  8
外形線
100
AcDbLine
 10
33698.54694415292
 20
29247.01619691548
 30
0.0
 11
33699.54694415292
 21
29247.01619691548
 31
0.0
  0
LINE
  5
1B5E
330
1F
100
AcDbEntity
  8
外形線
100
AcDbLine
 10
33699.54694415292
 20
29247.01619691548
 30
0.0
 11
33699.54694415292
 21
29253.51619691548
 31
0.0
  0
LINE
  5
1B5F
330
1F
100
AcDbEntity
  8
外形線
100
AcDbLine
 10
33699.54694415292
 20
29253.51619691548
 30
0.0
 11
33698.54694415292
 21
29253.51619691548
 31
0.0
  0
LINE
  5
1B60
330
1F
100
AcDbEntity
  8
外形線
100
AcDbLine
 10
33674.54694415292
 20
29259.76619691548
 30
0.0
 11
33744.04694415292
 21
29259.76619691548
 31
0.0
  0
LINE
  5
1B61
330
1F
100
AcDbEntity
  8
外形線
100
AcDbLine
 10
33744.04694415292
 20
29259.76619691548
 30
0.0
 11
33744.04694415292
 21
29252.56879053872
 31
0.0
  0
LINE
  5
1B62
330
1F
100
AcDbEntity
  8
外形線
100
AcDbLine
 10
33744.04694415292
 20
29247.96360329223
 30
0.0
 11
33744.04694415292
 21
29240.76619691548
 31
0.0
  0
LINE
  5
1B63
330
1F
100
AcDbEntity
  8
外形線
100
AcDbLine
 10
33744.04694415292
 20
29240.76619691548
 30
0.0
 11
33674.54694415292
 21
29240.76619691548
 31
0.0
  0
LINE
  5
1B64
330
1F
100
AcDbEntity
  8
外形線
100
AcDbLine
 10
33674.54694415292
 20
29241.76619691548
 30
0.0
 11
33711.04694415292
 21
29241.76619691548
 31
0.0
  0
LINE
  5
1B65
330
1F
100
AcDbEntity
  8
外形線
100
AcDbLine
 10
33715.04694415292
 20
29241.76619691548
 30
0.0
 11
33744.04694415292
 21
29241.76619691548
 31
0.0
  0
LINE
  5
1B66
330
1F
100
AcDbEntity
  8
外形線
100
AcDbLine
 10
33744.04694415292
 20
29258.76619691548
 30
0.0
 11
33715.04694415292
 21
29258.76619691548
 31
0.0
  0
LINE
  5
1B67
330
1F
100
AcDbEntity
  8
外形線
100
AcDbLine
 10
33674.54694415292
 20
29258.76619691548
 30
0.0
 11
33711.04694415292
 21
29258.76619691548
 31
0.0
  0
LINE
  5
1B68
330
1F
100
AcDbEntity
  8
外形線
100
AcDbLine
 10
33740.04694415292
 20
29253.76619691548
 30
0.0
 11
33736.04694415292
 21
29253.76619691548
 31
0.0
  0
LINE
  5
1B69
330
1F
100
AcDbEntity
  8
外形線
100
AcDbLine
 10
33736.04694415292
 20
29253.76619691548
 30
0.0
 11
33736.04694415292
 21
29246.76619691548
 31
0.0
  0
LINE
  5
1B6A
330
1F
100
AcDbEntity
  8
外形線
100
AcDbLine
 10
33736.04694415292
 20
29246.76619691548
 30
0.0
 11
33740.04694415292
 21
29246.76619691548
 31
0.0
  0
LINE
  5
1B6B
330
1F
100
AcDbEntity
  8
外形線
100
AcDbLine
 10
33739.54694415292
 20
29246.76619691548
 30
0.0
 11
33739.54694415292
 21
29253.76619691548
 31
0.0
  0
LINE
  5
1B6C
330
1F
100
AcDbEntity
  8
外形線
100
AcDbLine
 10
33739.54694415292
 20
29253.76619691548
 30
0.0
 11
33747.14817240395
 21
29251.64043291784
 31
0.0
  0
LINE
  5
1B6D
330
1F
100
AcDbEntity
  8
外形線
100
AcDbLine
 10
33747.14817240395
 20
29248.89196091313
 30
0.0
 11
33739.54694415292
 21
29246.76619691548
 31
0.0
  0
ARC
  5
1B6E
330
1F
100
AcDbEntity
  8
外形線
100
AcDbCircle
 10
33746.54694415292
 20
29250.26619691548
 30
0.0
 40
1.5
100
AcDbArc
 50
293.6293777308583
 51
66.37062226914178
  0
LINE
  5
1B6F
330
1F
100
AcDbEntity
  8
外形線
100
AcDbLine
 10
33740.04694415292
 20
29253.76619691548
 30
0.0
 11
33740.04694415292
 21
29253.62636661915
 31
0.0
  0
LINE
  5
1B70
330
1F
100
AcDbEntity
  8
外形線
100
AcDbLine
 10
33740.04694415292
 20
29246.76619691548
 30
0.0
 11
33740.04694415292
 21
29246.90602721181
 31
0.0
  0
LINE
  5
1B71
330
1F
100
AcDbEntity
  8
孔
100
AcDbLine
 10
33761.04694415292
 20
29245.76619691548
 30
0.0
 11
33762.07113928777
 21
29253.89927015716
 31
0.0
  0
LINE
  5
1B72
330
1F
100
AcDbEntity
  8
孔
100
AcDbLine
 10
33765.02274901807
 20
29253.89927015716
 30
0.0
 11
33766.04694415292
 21
29245.76619691548
 31
0.0
  0
ARC
  5
1B73
330
1F
100
AcDbEntity
  8
孔
100
AcDbCircle
 10
33763.54694415292
 20
29253.63094199986
 30
0.0
 40
1.5
100
AcDbArc
 50
10.30484646891503
 51
169.695153531085
  0
LINE
  5
1B74
330
1F
100
AcDbEntity
  8
孔
100
AcDbLine
 10
33761.04694415292
 20
29245.76619691548
 30
0.0
 11
33766.04694415292
 21
29245.76619691548
 31
0.0
  0
LINE
  5
1B75
330
1F
100
AcDbEntity
  8
孔
100
AcDbLine
 10
33761.04694415292
 20
29245.76619691548
 30
0.0
 11
33761.04694415292
 21
29245.26619691548
 31
0.0
  0
LINE
  5
1B76
330
1F
100
AcDbEntity
  8
孔
100
AcDbLine
 10
33761.04694415292
 20
29245.26619691548
 30
0.0
 11
33766.04694415292
 21
29245.26619691548
 31
0.0
  0
LINE
  5
1B77
330
1F
100
AcDbEntity
  8
孔
100
AcDbLine
 10
33766.04694415292
 20
29245.26619691548
 30
0.0
 11
33766.04694415292
 21
29245.76619691548
 31
0.0
  0
CIRCLE
  5
1B78
330
1F
100
AcDbEntity
  8
孔
100
AcDbCircle
 10
33773.54694415292
 20
29250.26619691548
 30
0.0
 40
2.1
  0
CIRCLE
  5
1B79
330
1F
100
AcDbEntity
  8
孔
100
AcDbCircle
 10
33801.54694415292
 20
29250.26619691548
 30
0.0
 40
2.1
  0
LINE
  5
1B7A
330
1F
100
AcDbEntity
  8
孔
100
AcDbLine
 10
33780.54694415292
 20
29253.76619691548
 30
0.0
 11
33780.54694415292
 21
29246.76619691548
 31
0.0
  0
LINE
  5
1B7B
330
1F
100
AcDbEntity
  8
孔
100
AcDbLine
 10
33780.54694415292
 20
29246.76619691548
 30
0.0
 11
33794.54694415292
 21
29246.76619691548
 31
0.0
  0
LINE
  5
1B7C
330
1F
100
AcDbEntity
  8
孔
100
AcDbLine
 10
33794.54694415292
 20
29246.76619691548
 30
0.0
 11
33794.54694415292
 21
29253.76619691548
 31
0.0
  0
LINE
  5
1B7D
330
1F
100
AcDbEntity
  8
孔
100
AcDbLine
 10
33794.54694415292
 20
29253.76619691548
 30
0.0
 11
33780.54694415292
 21
29253.76619691548
 31
0.0
  0
LINE
  5
1B7E
330
1F
100
AcDbEntity
  8
孔
100
AcDbLine
 10
33810.54694415292
 20
29245.76619691548
 30
0.0
 11
33811.57113928777
 21
29253.89927015716
 31
0.0
  0
LINE
  5
1B7F
330
1F
100
AcDbEntity
  8
孔
100
AcDbLine
 10
33814.52274901807
 20
29253.89927015716
 30
0.0
 11
33815.54694415292
 21
29245.76619691548
 31
0.0
  0
ARC
  5
1B80
330
1F
100
AcDbEntity
  8
孔
100
AcDbCircle
 10
33813.04694415292
 20
29253.63094199986
 30
0.0
 40
1.5
100
AcDbArc
 50
10.30484646891503
 51
169.695153531085
  0
LINE
  5
1B81
330
1F
100
AcDbEntity
  8
孔
100
AcDbLine
 10
33810.54694415292
 20
29245.76619691548
 30
0.0
 11
33815.54694415292
 21
29245.76619691548
 31
0.0
  0
LINE
  5
1B82
330
1F
100
AcDbEntity
  8
孔
100
AcDbLine
 10
33810.54694415292
 20
29245.76619691548
 30
0.0
 11
33810.54694415292
 21
29245.26619691548
 31
0.0
  0
LINE
  5
1B83
330
1F
100
AcDbEntity
  8
孔
100
AcDbLine
 10
33810.54694415292
 20
29245.26619691548
 30
0.0
 11
33815.54694415292
 21
29245.26619691548
 31
0.0
  0
LINE
  5
1B84
330
1F
100
AcDbEntity
  8
孔
100
AcDbLine
 10
33815.54694415292
 20
29245.26619691548
 30
0.0
 11
33815.54694415292
 21
29245.76619691548
 31
0.0
  0
LINE
  5
1B85
330
1F
100
AcDbEntity
  8
孔
100
AcDbLine
 10
34564.04694415292
 20
29245.76619691548
 30
0.0
 11
34565.07113928777
 21
29253.89927015716
 31
0.0
  0
LINE
  5
1B86
330
1F
100
AcDbEntity
  8
孔
100
AcDbLine
 10
34568.02274901807
 20
29253.89927015716
 30
0.0
 11
34569.04694415292
 21
29245.76619691548
 31
0.0
  0
ARC
  5
1B87
330
1F
100
AcDbEntity
  8
孔
100
AcDbCircle
 10
34566.54694415292
 20
29253.63094199986
 30
0.0
 40
1.5
100
AcDbArc
 50
10.30484646891503
 51
169.695153531085
  0
LINE
  5
1B88
330
1F
100
AcDbEntity
  8
孔
100
AcDbLine
 10
34564.04694415292
 20
29245.76619691548
 30
0.0
 11
34569.04694415292
 21
29245.76619691548
 31
0.0
  0
LINE
  5
1B89
330
1F
100
AcDbEntity
  8
孔
100
AcDbLine
 10
34564.04694415292
 20
29245.76619691548
 30
0.0
 11
34564.04694415292
 21
29245.26619691548
 31
0.0
  0
LINE
  5
1B8A
330
1F
100
AcDbEntity
  8
孔
100
AcDbLine
 10
34564.04694415292
 20
29245.26619691548
 30
0.0
 11
34569.04694415292
 21
29245.26619691548
 31
0.0
  0
LINE
  5
1B8B
330
1F
100
AcDbEntity
  8
孔
100
AcDbLine
 10
34569.04694415292
 20
29245.26619691548
 30
0.0
 11
34569.04694415292
 21
29245.76619691548
 31
0.0
  0
CIRCLE
  5
1B8C
330
1F
100
AcDbEntity
  8
孔
100
AcDbCircle
 10
33832.54694415292
 20
29250.26619691548
 30
0.0
 40
4.0
  0
CIRCLE
  5
1B8D
330
1F
100
AcDbEntity
  8
孔
100
AcDbCircle
 10
33832.54694415292
 20
29250.26619691548
 30
0.0
 40
5.0
  0
LINE
  5
1B8E
330
1F
100
AcDbEntity
  8
孔
100
AcDbLine
 10
33849.64694415296
 20
29252.36619691549
 30
0.0
 11
33859.44694415296
 21
29252.36619691549
 31
0.0
  0
LINE
  5
1B8F
330
1F
100
AcDbEntity
  8
孔
100
AcDbLine
 10
33849.64694415296
 20
29248.16619691549
 30
0.0
 11
33859.44694415296
 21
29248.16619691549
 31
0.0
  0
ARC
  5
1B90
330
1F
100
AcDbEntity
  8
孔
100
AcDbCircle
 10
33849.64694415293
 20
29250.26619691548
 30
0.0
 40
2.100000000013096
100
AcDbArc
 50
89.99999999958312
 51
270.0000000004169
  0
ARC
  5
1B91
330
1F
100
AcDbEntity
  8
孔
100
AcDbCircle
 10
33859.44694415297
 20
29250.2661969155
 30
0.0
 40
2.099999999998544
100
AcDbArc
 50
270.0
 51
90.0
  0
CIRCLE
  5
1B92
330
1F
100
AcDbEntity
  8
孔
100
AcDbCircle
 10
34024.54694415292
 20
29250.26619691548
 30
0.0
 40
4.0
  0
CIRCLE
  5
1B93
330
1F
100
AcDbEntity
  8
孔
100
AcDbCircle
 10
34024.54694415292
 20
29250.26619691548
 30
0.0
 40
5.0
  0
CIRCLE
  5
1B94
330
1F
100
AcDbEntity
  8
孔
100
AcDbCircle
 10
34529.0469441529
 20
29254.26619691548
 30
0.0
 40
2.1
  0
CIRCLE
  5
1B95
330
1F
100
AcDbEntity
  8
孔
100
AcDbCircle
 10
34529.0469441529
 20
29245.26619691548
 30
0.0
 40
1.5
  0
LINE
  5
1B96
330
1F
100
AcDbEntity
  8
孔
100
AcDbLine
 10
34547.14694415292
 20
29252.36619691548
 30
0.0
 11
34556.94694415292
 21
29252.36619691548
 31
0.0
  0
LINE
  5
1B97
330
1F
100
AcDbEntity
  8
孔
100
AcDbLine
 10
34547.14694415292
 20
29248.16619691548
 30
0.0
 11
34556.94694415292
 21
29248.16619691548
 31
0.0
  0
ARC
  5
1B98
330
1F
100
AcDbEntity
  8
孔
100
AcDbCircle
 10
34547.14694415291
 20
29250.26619691548
 30
0.0
 40
2.099999999998544
100
AcDbArc
 50
89.99999999958312
 51
270.0000000004169
  0
ARC
  5
1B99
330
1F
100
AcDbEntity
  8
孔
100
AcDbCircle
 10
34556.94694415292
 20
29250.26619691547
 30
0.0
 40
2.100000000013096
100
AcDbArc
 50
270.0
 51
90.0
  0
LINE
  5
1B9A
330
1F
100
AcDbEntity
  8
孔
100
AcDbLine
 10
34584.54694415292
 20
29253.76619691548
 30
0.0
 11
34590.54694415292
 21
29253.76619691548
 31
0.0
  0
LINE
  5
1B9B
330
1F
100
AcDbEntity
  8
孔
100
AcDbLine
 10
34584.54694415292
 20
29246.76619691548
 30
0.0
 11
34590.54694415292
 21
29246.76619691548
 31
0.0
  0
ARC
  5
1B9C
330
1F
100
AcDbEntity
  8
孔
100
AcDbCircle
 10
34590.54694415294
 20
29250.26619691548
 30
0.0
 40
3.5
100
AcDbArc
 50
269.9999999995831
 51
90.00000000041687
  0
ARC
  5
1B9D
330
1F
100
AcDbEntity
  8
孔
100
AcDbCircle
 10
34584.54694415294
 20
29250.26619691548
 30
0.0
 40
3.5
100
AcDbArc
 50
90.00000000041687
 51
269.9999999995831
  0
CIRCLE
  5
1B9E
330
1F
100
AcDbEntity
  8
孔
100
AcDbCircle
 10
34604.04694415292
 20
29250.26619691548
 30
0.0
 40
2.75
  0
ARC
  5
1B9F
330
1F
100
AcDbEntity
  8
孔
100
AcDbCircle
 10
34635.04694415292
 20
29250.26619691548
 30
0.0
 40
5.0
100
AcDbArc
 50
90.0
 51
270.0
  0
LINE
  5
1BA0
330
1F
100
AcDbEntity
  8
孔
100
AcDbLine
 10
34677.54694415292
 20
29255.26619691548
 30
0.0
 11
34664.54694415292
 21
29255.26619691548
 31
0.0
  0
LINE
  5
1BA1
330
1F
100
AcDbEntity
  8
孔
100
AcDbLine
 10
34644.54694415292
 20
29255.26619691548
 30
0.0
 11
34635.04694415292
 21
29255.26619691548
 31
0.0
  0
LINE
  5
1BA2
330
1F
100
AcDbEntity
  8
孔
100
AcDbLine
 10
34677.54694415292
 20
29245.26619691548
 30
0.0
 11
34664.54694415292
 21
29245.26619691548
 31
0.0
  0
LINE
  5
1BA3
330
1F
100
AcDbEntity
  8
孔
100
AcDbLine
 10
34644.54694415292
 20
29245.26619691548
 30
0.0
 11
34635.04694415292
 21
29245.26619691548
 31
0.0
  0
LINE
  5
1BA4
330
1F
100
AcDbEntity
  8
外形線
100
AcDbLine
 10
34664.54694415292
 20
29254.26619691548
 30
0.0
 11
34664.54694415292
 21
29246.26619691548
 31
0.0
  0
LINE
  5
1BA5
330
1F
100
AcDbEntity
  8
外形線
100
AcDbLine
 10
34661.04694415292
 20
29242.76619691548
 30
0.0
 11
34652.04694415292
 21
29242.76619691548
 31
0.0
  0
ARC
  5
1BA6
330
1F
100
AcDbEntity
  8
外形線
100
AcDbCircle
 10
34648.04694415292
 20
29246.26619691548
 30
0.0
 40
3.5
100
AcDbArc
 50
180.0
 51
270.0
  0
ARC
  5
1BA7
330
1F
100
AcDbEntity
  8
外形線
100
AcDbCircle
 10
34661.04694415292
 20
29246.26619691548
 30
0.0
 40
3.5
100
AcDbArc
 50
270.0
 51
0.0
  0
LINE
  5
1BA8
330
1F
100
AcDbEntity
  8
外形線
100
AcDbLine
 10
34644.54694415292
 20
29246.26619691548
 30
0.0
 11
34644.54694415292
 21
29254.26619691548
 31
0.0
  0
ARC
  5
1BA9
330
1F
100
AcDbEntity
  8
外形線
100
AcDbCircle
 10
34648.04694415292
 20
29254.26619691548
 30
0.0
 40
3.5
100
AcDbArc
 50
90.0
 51
180.0
  0
LINE
  5
1BAA
330
1F
100
AcDbEntity
  8
外形線
100
AcDbLine
 10
34652.04694415292
 20
29257.76619691548
 30
0.0
 11
34661.04694415292
 21
29257.76619691548
 31
0.0
  0
ARC
  5
1BAB
330
1F
100
AcDbEntity
  8
外形線
100
AcDbCircle
 10
34661.04694415292
 20
29254.26619691548
 30
0.0
 40
3.5
100
AcDbArc
 50
0.0
 51
90.0
  0
LINE
  5
1BAC
330
1F
100
AcDbEntity
  8
外形線
100
AcDbLine
 10
34664.54694415292
 20
29254.26619691548
 30
0.0
 11
34662.54694415292
 21
29254.26619691548
 31
0.0
  0
LINE
  5
1BAD
330
1F
100
AcDbEntity
  8
外形線
100
AcDbLine
 10
34662.54694415292
 20
29254.26619691548
 30
0.0
 11
34662.54694415292
 21
29246.26619691548
 31
0.0
  0
LINE
  5
1BAE
330
1F
100
AcDbEntity
  8
外形線
100
AcDbLine
 10
34662.54694415292
 20
29246.26619691548
 30
0.0
 11
34664.54694415292
 21
29246.26619691548
 31
0.0
  0
LINE
  5
1BAF
330
1F
100
AcDbEntity
  8
外形線
100
AcDbLine
 10
34652.04694415292
 20
29243.76619691548
 30
0.0
 11
34652.04694415292
 21
29241.26619691548
 31
0.0
  0
LINE
  5
1BB0
330
1F
100
AcDbEntity
  8
外形線
100
AcDbLine
 10
34652.04694415292
 20
29241.26619691548
 30
0.0
 11
34648.04694415292
 21
29241.26619691548
 31
0.0
  0
LINE
  5
1BB1
330
1F
100
AcDbEntity
  8
外形線
100
AcDbLine
 10
34648.04694415292
 20
29241.26619691548
 30
0.0
 11
34648.04694415292
 21
29243.76619691548
 31
0.0
  0
LINE
  5
1BB2
330
1F
100
AcDbEntity
  8
外形線
100
AcDbLine
 10
34648.04694415292
 20
29243.76619691548
 30
0.0
 11
34652.04694415292
 21
29243.76619691548
 31
0.0
  0
LINE
  5
1BB3
330
1F
100
AcDbEntity
  8
外形線
100
AcDbLine
 10
34652.04694415292
 20
29256.76619691548
 30
0.0
 11
34652.04694415292
 21
29259.26619691548
 31
0.0
  0
LINE
  5
1BB4
330
1F
100
AcDbEntity
  8
外形線
100
AcDbLine
 10
34652.04694415292
 20
29259.26619691548
 30
0.0
 11
34648.04694415292
 21
29259.26619691548
 31
0.0
  0
LINE
  5
1BB5
330
1F
100
AcDbEntity
  8
外形線
100
AcDbLine
 10
34648.04694415292
 20
29259.26619691548
 30
0.0
 11
34648.04694415292
 21
29256.76619691548
 31
0.0
  0
LINE
  5
1BB6
330
1F
100
AcDbEntity
  8
外形線
100
AcDbLine
 10
34648.04694415292
 20
29256.76619691548
 30
0.0
 11
34652.04694415292
 21
29256.76619691548
 31
0.0
  0
LINE
  5
1BB7
330
1F
100
AcDbEntity
  8
外形線
100
AcDbLine
 10
34644.54694415292
 20
29253.26619691548
 30
0.0
 11
34641.54694415292
 21
29253.26619691548
 31
0.0
  0
LINE
  5
1BB8
330
1F
100
AcDbEntity
  8
外形線
100
AcDbLine
 10
34641.54694415292
 20
29253.26619691548
 30
0.0
 11
34641.54694415292
 21
29247.26619691548
 31
0.0
  0
LINE
  5
1BB9
330
1F
100
AcDbEntity
  8
外形線
100
AcDbLine
 10
34641.54694415292
 20
29247.26619691548
 30
0.0
 11
34644.54694415292
 21
29247.26619691548
 31
0.0
  0
LINE
  5
1BBA
330
1F
100
AcDbEntity
  8
外形線
100
AcDbLine
 10
34648.54694415292
 20
29252.26619691548
 30
0.0
 11
34659.54694415292
 21
29252.26619691548
 31
0.0
  0
LINE
  5
1BBB
330
1F
100
AcDbEntity
  8
外形線
100
AcDbLine
 10
34659.54694415292
 20
29252.26619691548
 30
0.0
 11
34659.54694415292
 21
29248.26619691548
 31
0.0
  0
LINE
  5
1BBC
330
1F
100
AcDbEntity
  8
外形線
100
AcDbLine
 10
34659.54694415292
 20
29248.26619691548
 30
0.0
 11
34648.54694415292
 21
29248.26619691548
 31
0.0
  0
ARC
  5
1BBD
330
1F
100
AcDbEntity
  8
外形線
100
AcDbCircle
 10
34648.54694415292
 20
29250.26619691548
 30
0.0
 40
2.0
100
AcDbArc
 50
90.0
 51
270.0
  0
LINE
  5
1BBE
330
1F
100
AcDbEntity
  8
外形線
100
AcDbLine
 10
34664.54694415292
 20
29247.01619691548
 30
0.0
 11
34663.54694415292
 21
29247.01619691548
 31
0.0
  0
LINE
  5
1BBF
330
1F
100
AcDbEntity
  8
外形線
100
AcDbLine
 10
34663.54694415292
 20
29247.01619691548
 30
0.0
 11
34663.54694415292
 21
29253.51619691548
 31
0.0
  0
LINE
  5
1BC0
330
1F
100
AcDbEntity
  8
外形線
100
AcDbLine
 10
34663.54694415292
 20
29253.51619691548
 30
0.0
 11
34664.54694415292
 21
29253.51619691548
 31
0.0
  0
LINE
  5
1BC1
330
1F
100
AcDbEntity
  8
外形線
100
AcDbLine
 10
34677.54694415292
 20
29259.76619691548
 30
0.0
 11
34619.04694415292
 21
29259.76619691548
 31
0.0
  0
LINE
  5
1BC2
330
1F
100
AcDbEntity
  8
外形線
100
AcDbLine
 10
34619.04694415292
 20
29259.76619691548
 30
0.0
 11
34619.04694415292
 21
29252.56879053872
 31
0.0
  0
LINE
  5
1BC3
330
1F
100
AcDbEntity
  8
外形線
100
AcDbLine
 10
34619.04694415292
 20
29247.96360329223
 30
0.0
 11
34619.04694415292
 21
29240.76619691548
 31
0.0
  0
LINE
  5
1BC4
330
1F
100
AcDbEntity
  8
外形線
100
AcDbLine
 10
34619.04694415292
 20
29240.76619691548
 30
0.0
 11
34677.54694415292
 21
29240.76619691548
 31
0.0
  0
LINE
  5
1BC5
330
1F
100
AcDbEntity
  8
外形線
100
AcDbLine
 10
34677.54694415292
 20
29241.76619691548
 30
0.0
 11
34652.04694415292
 21
29241.76619691548
 31
0.0
  0
LINE
  5
1BC6
330
1F
100
AcDbEntity
  8
外形線
100
AcDbLine
 10
34648.04694415292
 20
29241.76619691548
 30
0.0
 11
34619.04694415292
 21
29241.76619691548
 31
0.0
  0
LINE
  5
1BC7
330
1F
100
AcDbEntity
  8
外形線
100
AcDbLine
 10
34619.04694415292
 20
29258.76619691548
 30
0.0
 11
34648.04694415292
 21
29258.76619691548
 31
0.0
  0
LINE
  5
1BC8
330
1F
100
AcDbEntity
  8
外形線
100
AcDbLine
 10
34677.54694415292
 20
29258.76619691548
 30
0.0
 11
34652.04694415292
 21
29258.76619691548
 31
0.0
  0
LINE
  5
1BC9
330
1F
100
AcDbEntity
  8
外形線
100
AcDbLine
 10
34623.04694415292
 20
29253.76619691548
 30
0.0
 11
34627.04694415292
 21
29253.76619691548
 31
0.0
  0
LINE
  5
1BCA
330
1F
100
AcDbEntity
  8
外形線
100
AcDbLine
 10
34627.04694415292
 20
29253.76619691548
 30
0.0
 11
34627.04694415292
 21
29246.76619691548
 31
0.0
  0
LINE
  5
1BCB
330
1F
100
AcDbEntity
  8
外形線
100
AcDbLine
 10
34627.04694415292
 20
29246.76619691548
 30
0.0
 11
34623.04694415292
 21
29246.76619691548
 31
0.0
  0
LINE
  5
1BCC
330
1F
100
AcDbEntity
  8
外形線
100
AcDbLine
 10
34623.54694415292
 20
29246.76619691548
 30
0.0
 11
34623.54694415292
 21
29253.76619691548
 31
0.0
  0
LINE
  5
1BCD
330
1F
100
AcDbEntity
  8
外形線
100
AcDbLine
 10
34623.54694415292
 20
29253.76619691548
 30
0.0
 11
34615.9457159019
 21
29251.64043291784
 31
0.0
  0
LINE
  5
1BCE
330
1F
100
AcDbEntity
  8
外形線
100
AcDbLine
 10
34615.9457159019
 20
29248.89196091313
 30
0.0
 11
34623.54694415292
 21
29246.76619691548
 31
0.0
  0
ARC
  5
1BCF
330
1F
100
AcDbEntity
  8
外形線
100
AcDbCircle
 10
34616.54694415292
 20
29250.26619691548
 30
0.0
 40
1.5
100
AcDbArc
 50
113.6293777308582
 51
246.3706222691417
  0
LINE
  5
1BD0
330
1F
100
AcDbEntity
  8
外形線
100
AcDbLine
 10
34623.04694415292
 20
29253.76619691548
 30
0.0
 11
34623.04694415292
 21
29253.62636661915
 31
0.0
  0
LINE
  5
1BD1
330
1F
100
AcDbEntity
  8
外形線
100
AcDbLine
 10
34623.04694415292
 20
29246.76619691548
 30
0.0
 11
34623.04694415292
 21
29246.90602721181
 31
0.0
  0
CIRCLE
  5
1BD2
330
1F
100
AcDbEntity
  8
孔
100
AcDbCircle
 10
33878.54694415292
 20
29250.26619691548
 30
0.0
 40
2.1
  0
CIRCLE
  5
1BD3
330
1F
100
AcDbEntity
  8
孔
100
AcDbCircle
 10
33935.54694415292
 20
29250.26619691548
 30
0.0
 40
2.1
  0
CIRCLE
  5
1BD4
330
1F
100
AcDbEntity
  8
孔
100
AcDbCircle
 10
33948.54694415292
 20
29250.26619691548
 30
0.0
 40
2.1
  0
CIRCLE
  5
1BD5
330
1F
100
AcDbEntity
  8
孔
100
AcDbCircle
 10
33963.54694415292
 20
29250.26619691548
 30
0.0
 40
2.1
  0
CIRCLE
  5
1BD6
330
1F
100
AcDbEntity
  8
孔
100
AcDbCircle
 10
33993.54694415292
 20
29250.26619691548
 30
0.0
 40
2.1
  0
CIRCLE
  5
1BD7
330
1F
100
AcDbEntity
  8
孔
100
AcDbCircle
 10
34008.54694415292
 20
29250.26619691548
 30
0.0
 40
2.1
  0
CIRCLE
  5
1BD8
330
1F
100
AcDbEntity
  8
孔
100
AcDbCircle
 10
34054.54694415292
 20
29250.26619691548
 30
0.0
 40
2.1
  0
CIRCLE
  5
1BD9
330
1F
100
AcDbEntity
  8
孔
100
AcDbCircle
 10
34066.54694415292
 20
29250.26619691548
 30
0.0
 40
2.1
  0
CIRCLE
  5
1BDA
330
1F
100
AcDbEntity
  8
孔
100
AcDbCircle
 10
34080.54694415292
 20
29250.26619691548
 30
0.0
 40
2.1
  0
CIRCLE
  5
1BDB
330
1F
100
AcDbEntity
  8
孔
100
AcDbCircle
 10
34116.54694415292
 20
29250.26619691548
 30
0.0
 40
2.1
  0
CIRCLE
  5
1BDC
330
1F
100
AcDbEntity
  8
孔
100
AcDbCircle
 10
34185.54694415292
 20
29250.26619691548
 30
0.0
 40
2.1
  0
CIRCLE
  5
1BDD
330
1F
100
AcDbEntity
  8
孔
100
AcDbCircle
 10
34195.54694415292
 20
29250.26619691548
 30
0.0
 40
2.1
  0
CIRCLE
  5
1BDE
330
1F
100
AcDbEntity
  8
孔
100
AcDbCircle
 10
34210.54694415292
 20
29250.26619691548
 30
0.0
 40
2.1
  0
CIRCLE
  5
1BDF
330
1F
100
AcDbEntity
  8
孔
100
AcDbCircle
 10
34270.54694415292
 20
29250.26619691548
 30
0.0
 40
2.1
  0
LINE
  5
1BE0
330
1F
100
AcDbEntity
  8
孔
100
AcDbLine
 10
33866.54694415292
 20
29245.76619691548
 30
0.0
 11
33867.57113928777
 21
29253.89927015716
 31
0.0
  0
LINE
  5
1BE1
330
1F
100
AcDbEntity
  8
孔
100
AcDbLine
 10
33870.52274901807
 20
29253.89927015716
 30
0.0
 11
33871.54694415292
 21
29245.76619691548
 31
0.0
  0
ARC
  5
1BE2
330
1F
100
AcDbEntity
  8
孔
100
AcDbCircle
 10
33869.04694415292
 20
29253.63094199986
 30
0.0
 40
1.5
100
AcDbArc
 50
10.30484646891503
 51
169.695153531085
  0
LINE
  5
1BE3
330
1F
100
AcDbEntity
  8
孔
100
AcDbLine
 10
33866.54694415292
 20
29245.76619691548
 30
0.0
 11
33871.54694415292
 21
29245.76619691548
 31
0.0
  0
LINE
  5
1BE4
330
1F
100
AcDbEntity
  8
孔
100
AcDbLine
 10
33866.54694415292
 20
29245.76619691548
 30
0.0
 11
33866.54694415292
 21
29245.26619691548
 31
0.0
  0
LINE
  5
1BE5
330
1F
100
AcDbEntity
  8
孔
100
AcDbLine
 10
33866.54694415292
 20
29245.26619691548
 30
0.0
 11
33871.54694415292
 21
29245.26619691548
 31
0.0
  0
LINE
  5
1BE6
330
1F
100
AcDbEntity
  8
孔
100
AcDbLine
 10
33871.54694415292
 20
29245.26619691548
 30
0.0
 11
33871.54694415292
 21
29245.76619691548
 31
0.0
  0
LINE
  5
1BE7
330
1F
100
AcDbEntity
  8
孔
100
AcDbLine
 10
33998.54694415292
 20
29245.76619691548
 30
0.0
 11
33999.57113928777
 21
29253.89927015716
 31
0.0
  0
LINE
  5
1BE8
330
1F
100
AcDbEntity
  8
孔
100
AcDbLine
 10
34002.52274901807
 20
29253.89927015716
 30
0.0
 11
34003.54694415292
 21
29245.76619691548
 31
0.0
  0
ARC
  5
1BE9
330
1F
100
AcDbEntity
  8
孔
100
AcDbCircle
 10
34001.04694415292
 20
29253.63094199986
 30
0.0
 40
1.5
100
AcDbArc
 50
10.30484646891503
 51
169.695153531085
  0
LINE
  5
1BEA
330
1F
100
AcDbEntity
  8
孔
100
AcDbLine
 10
33998.54694415292
 20
29245.76619691548
 30
0.0
 11
34003.54694415292
 21
29245.76619691548
 31
0.0
  0
LINE
  5
1BEB
330
1F
100
AcDbEntity
  8
孔
100
AcDbLine
 10
33998.54694415292
 20
29245.76619691548
 30
0.0
 11
33998.54694415292
 21
29245.26619691548
 31
0.0
  0
LINE
  5
1BEC
330
1F
100
AcDbEntity
  8
孔
100
AcDbLine
 10
33998.54694415292
 20
29245.26619691548
 30
0.0
 11
34003.54694415292
 21
29245.26619691548
 31
0.0
  0
LINE
  5
1BED
330
1F
100
AcDbEntity
  8
孔
100
AcDbLine
 10
34003.54694415292
 20
29245.26619691548
 30
0.0
 11
34003.54694415292
 21
29245.76619691548
 31
0.0
  0
LINE
  5
1BEE
330
1F
100
AcDbEntity
  8
孔
100
AcDbLine
 10
34039.54694415292
 20
29245.76619691548
 30
0.0
 11
34040.57113928777
 21
29253.89927015716
 31
0.0
  0
LINE
  5
1BEF
330
1F
100
AcDbEntity
  8
孔
100
AcDbLine
 10
34043.52274901807
 20
29253.89927015716
 30
0.0
 11
34044.54694415292
 21
29245.76619691548
 31
0.0
  0
ARC
  5
1BF0
330
1F
100
AcDbEntity
  8
孔
100
AcDbCircle
 10
34042.04694415292
 20
29253.63094199986
 30
0.0
 40
1.5
100
AcDbArc
 50
10.30484646891503
 51
169.695153531085
  0
LINE
  5
1BF1
330
1F
100
AcDbEntity
  8
孔
100
AcDbLine
 10
34039.54694415292
 20
29245.76619691548
 30
0.0
 11
34044.54694415292
 21
29245.76619691548
 31
0.0
  0
LINE
  5
1BF2
330
1F
100
AcDbEntity
  8
孔
100
AcDbLine
 10
34039.54694415292
 20
29245.76619691548
 30
0.0
 11
34039.54694415292
 21
29245.26619691548
 31
0.0
  0
LINE
  5
1BF3
330
1F
100
AcDbEntity
  8
孔
100
AcDbLine
 10
34039.54694415292
 20
29245.26619691548
 30
0.0
 11
34044.54694415292
 21
29245.26619691548
 31
0.0
  0
LINE
  5
1BF4
330
1F
100
AcDbEntity
  8
孔
100
AcDbLine
 10
34044.54694415292
 20
29245.26619691548
 30
0.0
 11
34044.54694415292
 21
29245.76619691548
 31
0.0
  0
LINE
  5
1BF5
330
1F
100
AcDbEntity
  8
孔
100
AcDbLine
 10
34135.54694415292
 20
29245.76619691548
 30
0.0
 11
34136.57113928777
 21
29253.89927015716
 31
0.0
  0
LINE
  5
1BF6
330
1F
100
AcDbEntity
  8
孔
100
AcDbLine
 10
34139.52274901807
 20
29253.89927015716
 30
0.0
 11
34140.54694415292
 21
29245.76619691548
 31
0.0
  0
ARC
  5
1BF7
330
1F
100
AcDbEntity
  8
孔
100
AcDbCircle
 10
34138.04694415292
 20
29253.63094199986
 30
0.0
 40
1.5
100
AcDbArc
 50
10.30484646891503
 51
169.695153531085
  0
LINE
  5
1BF8
330
1F
100
AcDbEntity
  8
孔
100
AcDbLine
 10
34135.54694415292
 20
29245.76619691548
 30
0.0
 11
34140.54694415292
 21
29245.76619691548
 31
0.0
  0
LINE
  5
1BF9
330
1F
100
AcDbEntity
  8
孔
100
AcDbLine
 10
34135.54694415292
 20
29245.76619691548
 30
0.0
 11
34135.54694415292
 21
29245.26619691548
 31
0.0
  0
LINE
  5
1BFA
330
1F
100
AcDbEntity
  8
孔
100
AcDbLine
 10
34135.54694415292
 20
29245.26619691548
 30
0.0
 11
34140.54694415292
 21
29245.26619691548
 31
0.0
  0
LINE
  5
1BFB
330
1F
100
AcDbEntity
  8
孔
100
AcDbLine
 10
34140.54694415292
 20
29245.26619691548
 30
0.0
 11
34140.54694415292
 21
29245.76619691548
 31
0.0
  0
LINE
  5
1BFC
330
1F
100
AcDbEntity
  8
孔
100
AcDbLine
 10
34280.54694415292
 20
29245.76619691548
 30
0.0
 11
34281.57113928777
 21
29253.89927015716
 31
0.0
  0
LINE
  5
1BFD
330
1F
100
AcDbEntity
  8
孔
100
AcDbLine
 10
34284.52274901807
 20
29253.89927015716
 30
0.0
 11
34285.54694415292
 21
29245.76619691548
 31
0.0
  0
ARC
  5
1BFE
330
1F
100
AcDbEntity
  8
孔
100
AcDbCircle
 10
34283.04694415292
 20
29253.63094199986
 30
0.0
 40
1.5
100
AcDbArc
 50
10.30484646891503
 51
169.695153531085
  0
LINE
  5
1BFF
330
1F
100
AcDbEntity
  8
孔
100
AcDbLine
 10
34280.54694415292
 20
29245.76619691548
 30
0.0
 11
34285.54694415292
 21
29245.76619691548
 31
0.0
  0
LINE
  5
1C00
330
1F
100
AcDbEntity
  8
孔
100
AcDbLine
 10
34280.54694415292
 20
29245.76619691548
 30
0.0
 11
34280.54694415292
 21
29245.26619691548
 31
0.0
  0
LINE
  5
1C01
330
1F
100
AcDbEntity
  8
孔
100
AcDbLine
 10
34280.54694415292
 20
29245.26619691548
 30
0.0
 11
34285.54694415292
 21
29245.26619691548
 31
0.0
  0
LINE
  5
1C02
330
1F
100
AcDbEntity
  8
孔
100
AcDbLine
 10
34285.54694415292
 20
29245.26619691548
 30
0.0
 11
34285.54694415292
 21
29245.76619691548
 31
0.0
  0
CIRCLE
  5
1C03
330
1F
100
AcDbEntity
  8
点線
100
AcDbCircle
 10
33898.54694415292
 20
29254.26619691548
 30
0.0
 40
2.0
  0
CIRCLE
  5
1C04
330
1F
100
AcDbEntity
  8
点線
100
AcDbCircle
 10
33898.54694415292
 20
29245.26619691548
 30
0.0
 40
1.149999999999999
  0
LINE
  5
1C05
330
1F
100
AcDbEntity
  8
孔
100
AcDbLine
 10
33978.64694415292
 20
29252.36619691548
 30
0.0
 11
33982.44694415292
 21
29252.36619691548
 31
0.0
  0
LINE
  5
1C06
330
1F
100
AcDbEntity
  8
孔
100
AcDbLine
 10
33978.64694415292
 20
29248.16619691548
 30
0.0
 11
33982.44694415292
 21
29248.16619691548
 31
0.0
  0
ARC
  5
1C07
330
1F
100
AcDbEntity
  8
孔
100
AcDbCircle
 10
33978.6469441529
 20
29250.26619691548
 30
0.0
 40
2.099999999998544
100
AcDbArc
 50
89.99999999958312
 51
270.0000000004169
  0
ARC
  5
1C08
330
1F
100
AcDbEntity
  8
孔
100
AcDbCircle
 10
33982.44694415292
 20
29250.26619691547
 30
0.0
 40
2.100000000013096
100
AcDbArc
 50
270.0
 51
90.0
  0
LINE
  5
1C09
330
1F
100
AcDbEntity
  8
孔
100
AcDbLine
 10
34162.64694415292
 20
29252.36619691548
 30
0.0
 11
34172.44694415292
 21
29252.36619691548
 31
0.0
  0
LINE
  5
1C0A
330
1F
100
AcDbEntity
  8
孔
100
AcDbLine
 10
34162.64694415292
 20
29248.16619691548
 30
0.0
 11
34172.44694415292
 21
29248.16619691548
 31
0.0
  0
ARC
  5
1C0B
330
1F
100
AcDbEntity
  8
孔
100
AcDbCircle
 10
34162.64694415291
 20
29250.26619691548
 30
0.0
 40
2.099999999998544
100
AcDbArc
 50
89.99999999958312
 51
270.0000000004169
  0
ARC
  5
1C0C
330
1F
100
AcDbEntity
  8
孔
100
AcDbCircle
 10
34172.44694415292
 20
29250.26619691548
 30
0.0
 40
2.099999999998544
100
AcDbArc
 50
270.0
 51
90.0
  0
LINE
  5
1C0D
330
1F
100
AcDbEntity
  8
孔
100
AcDbLine
 10
34226.54694415292
 20
29254.26619691548
 30
0.0
 11
34253.54694415292
 21
29254.26619691548
 31
0.0
  0
LINE
  5
1C0E
330
1F
100
AcDbEntity
  8
孔
100
AcDbLine
 10
34226.54694415292
 20
29246.26619691548
 30
0.0
 11
34253.54694415292
 21
29246.26619691548
 31
0.0
  0
ARC
  5
1C0F
330
1F
100
AcDbEntity
  8
孔
100
AcDbCircle
 10
34226.54694415292
 20
29250.26619691548
 30
0.0
 40
4.0
100
AcDbArc
 50
90.0
 51
270.0
  0
ARC
  5
1C10
330
1F
100
AcDbEntity
  8
孔
100
AcDbCircle
 10
34253.54694415292
 20
29250.26619691548
 30
0.0
 40
4.0
100
AcDbArc
 50
270.0
 51
90.0
  0
LINE
  5
1C11
330
1F
100
AcDbEntity
  8
外形線
100
AcDbLine
 10
34854.68805410151
 20
28991.29469992505
 30
0.0
 11
34854.68805410151
 21
28989.27913548797
 31
0.0
  0
LINE
  5
1C12
102
{ACAD_REACTORS
330
1CE3
330
1CE9
102
}
330
1F
100
AcDbEntity
  8
外形線
100
AcDbLine
 10
34886.68805410152
 20
28988.45524575215
 30
0.0
 11
34886.68805410152
 21
28991.29469992615
 31
0.0
  0
ARC
  5
1C13
102
{ACAD_REACTORS
330
1CE0
102
}
330
1F
100
AcDbEntity
  8
外形線
100
AcDbCircle
 10
34870.68805410151
 20
28991.54277684813
 30
0.0
 40
16.00192307691588
100
AcDbArc
 50
359.1117111338804
 51
180.8882888661196
  0
ARC
  5
1C14
330
1F
100
AcDbEntity
  8
外形線
100
AcDbCircle
 10
34870.68805410151
 20
28991.29469992505
 30
0.0
 40
16.24999999999987
100
AcDbArc
 50
194.1411102338063
 51
217.6271906288122
  0
ARC
  5
1C15
330
1F
100
AcDbEntity
  8
外形線
100
AcDbCircle
 10
34845.93805410151
 20
28972.21591589671
 30
0.0
 40
15.0
100
AcDbArc
 50
0.0
 51
37.62719062881219
  0
ARC
  5
1C16
330
1F
100
AcDbEntity
  8
外形線
100
AcDbCircle
 10
34862.68805410151
 20
28989.27913548797
 30
0.0
 40
8.0
100
AcDbArc
 50
180.0
 51
194.1411102338063
  0
ARC
  5
1C17
330
1F
100
AcDbEntity
  8
外形線
100
AcDbCircle
 10
34870.68805410151
 20
28991.29469992505
 30
0.0
 40
16.24999999999987
100
AcDbArc
 50
322.3728093711878
 51
349.9367255563703
  0
ARC
  5
1C18
330
1F
100
AcDbEntity
  8
外形線
100
AcDbCircle
 10
34895.43805410151
 20
28972.21591589671
 30
0.0
 40
15.0
100
AcDbArc
 50
142.3728093711878
 51
180.0
  0
LINE
  5
1C19
330
1F
100
AcDbEntity
  8
外形線
100
AcDbLine
 10
34860.93805410151
 20
28972.21591589671
 30
0.0
 11
34860.93805410151
 21
28957.54469992505
 31
0.0
  0
LINE
  5
1C1A
330
1F
100
AcDbEntity
  8
外形線
100
AcDbLine
 10
34860.93805410151
 20
28957.54469992505
 30
0.0
 11
34867.68805410151
 21
28957.54469992505
 31
0.0
  0
LINE
  5
1C1B
330
1F
100
AcDbEntity
  8
外形線
100
AcDbLine
 10
34873.68805410151
 20
28957.54469992505
 30
0.0
 11
34880.43805410151
 21
28957.54469992505
 31
0.0
  0
LINE
  5
1C1C
330
1F
100
AcDbEntity
  8
外形線
100
AcDbLine
 10
34880.43805410151
 20
28957.54469992505
 30
0.0
 11
34880.43805410151
 21
28972.21591589671
 31
0.0
  0
LINE
  5
1C1D
330
1F
100
AcDbEntity
  8
外形線
100
AcDbLine
 10
34858.88805410151
 20
28965.54469992505
 30
0.0
 11
34858.88805410151
 21
28955.54469992505
 31
0.0
  0
LINE
  5
1C1E
330
1F
100
AcDbEntity
  8
外形線
100
AcDbLine
 10
34858.88805410151
 20
28955.54469992505
 30
0.0
 11
34882.48805410152
 21
28955.54469992505
 31
0.0
  0
LINE
  5
1C1F
330
1F
100
AcDbEntity
  8
外形線
100
AcDbLine
 10
34882.48805410152
 20
28955.54469992505
 30
0.0
 11
34882.48805410152
 21
28965.54469992505
 31
0.0
  0
LINE
  5
1C20
330
1F
100
AcDbEntity
  8
外形線
100
AcDbLine
 10
34858.88805410151
 20
28965.54469992505
 30
0.0
 11
34860.93805410151
 21
28965.54469992505
 31
0.0
  0
LINE
  5
1C21
330
1F
100
AcDbEntity
  8
外形線
100
AcDbLine
 10
34860.93805410151
 20
28965.54469992505
 30
0.0
 11
34860.93805410151
 21
28961.24469992505
 31
0.0
  0
LINE
  5
1C22
330
1F
100
AcDbEntity
  8
外形線
100
AcDbLine
 10
34860.93805410151
 20
28961.24469992505
 30
0.0
 11
34860.33805410151
 21
28961.24469992505
 31
0.0
  0
LINE
  5
1C23
330
1F
100
AcDbEntity
  8
外形線
100
AcDbLine
 10
34860.33805410151
 20
28961.24469992505
 30
0.0
 11
34860.33805410151
 21
28964.94469992505
 31
0.0
  0
LINE
  5
1C24
330
1F
100
AcDbEntity
  8
外形線
100
AcDbLine
 10
34860.33805410151
 20
28964.94469992505
 30
0.0
 11
34859.48805410151
 21
28964.94469992505
 31
0.0
  0
LINE
  5
1C25
330
1F
100
AcDbEntity
  8
外形線
100
AcDbLine
 10
34859.48805410151
 20
28964.94469992505
 30
0.0
 11
34859.48805410151
 21
28956.14469992505
 31
0.0
  0
LINE
  5
1C26
330
1F
100
AcDbEntity
  8
外形線
100
AcDbLine
 10
34859.48805410151
 20
28956.14469992505
 30
0.0
 11
34867.68805410151
 21
28956.14469992505
 31
0.0
  0
LINE
  5
1C27
330
1F
100
AcDbEntity
  8
外形線
100
AcDbLine
 10
34873.68805410151
 20
28956.14469992505
 30
0.0
 11
34881.88805410152
 21
28956.14469992505
 31
0.0
  0
LINE
  5
1C28
330
1F
100
AcDbEntity
  8
外形線
100
AcDbLine
 10
34881.88805410152
 20
28956.14469992505
 30
0.0
 11
34881.88805410152
 21
28964.94469992505
 31
0.0
  0
LINE
  5
1C29
330
1F
100
AcDbEntity
  8
外形線
100
AcDbLine
 10
34881.88805410152
 20
28964.94469992505
 30
0.0
 11
34881.03805410151
 21
28964.94469992505
 31
0.0
  0
LINE
  5
1C2A
330
1F
100
AcDbEntity
  8
外形線
100
AcDbLine
 10
34881.03805410151
 20
28964.94469992505
 30
0.0
 11
34881.03805410151
 21
28961.24469992505
 31
0.0
  0
LINE
  5
1C2B
330
1F
100
AcDbEntity
  8
外形線
100
AcDbLine
 10
34881.03805410151
 20
28961.24469992505
 30
0.0
 11
34880.43805410151
 21
28961.24469992505
 31
0.0
  0
LINE
  5
1C2C
330
1F
100
AcDbEntity
  8
外形線
100
AcDbLine
 10
34880.43805410151
 20
28961.24469992505
 30
0.0
 11
34880.43805410151
 21
28965.54469992505
 31
0.0
  0
LINE
  5
1C2D
330
1F
100
AcDbEntity
  8
外形線
100
AcDbLine
 10
34880.43805410151
 20
28965.54469992505
 30
0.0
 11
34882.48805410152
 21
28965.54469992505
 31
0.0
  0
LINE
  5
1C2E
330
1F
100
AcDbEntity
  8
外形線
100
AcDbLine
 10
34867.68805410151
 20
28957.54469992505
 30
0.0
 11
34867.68805410151
 21
28955.54469992505
 31
0.0
  0
LINE
  5
1C2F
330
1F
100
AcDbEntity
  8
外形線
100
AcDbLine
 10
34873.68805410151
 20
28957.54469992505
 30
0.0
 11
34873.68805410151
 21
28955.54469992505
 31
0.0
  0
LINE
  5
1C30
330
1F
100
AcDbEntity
  8
外形線
100
AcDbLine
 10
34862.43805410151
 20
28955.54469992505
 30
0.0
 11
34862.43805410151
 21
28951.54469992505
 31
0.0
  0
LINE
  5
1C31
102
{ACAD_REACTORS
330
1CE0
102
}
330
1F
100
AcDbEntity
  8
外形線
100
AcDbLine
 10
34862.43805410151
 20
28951.54469992505
 30
0.0
 11
34878.93805410152
 21
28951.54469992505
 31
0.0
  0
LINE
  5
1C32
330
1F
100
AcDbEntity
  8
外形線
100
AcDbLine
 10
34878.93805410152
 20
28951.54469992505
 30
0.0
 11
34878.93805410152
 21
28955.54469992505
 31
0.0
  0
LINE
  5
1C33
330
1F
100
AcDbEntity
  8
孔
100
AcDbLine
 10
34869.03805410151
 20
29003.89469992505
 30
0.0
 11
34869.03805410151
 21
29002.19469992505
 31
0.0
  0
LINE
  5
1C34
330
1F
100
AcDbEntity
  8
孔
100
AcDbLine
 10
34872.33805410152
 20
29003.89469992505
 30
0.0
 11
34872.33805410152
 21
29002.19469992505
 31
0.0
  0
ARC
  5
1C35
330
1F
100
AcDbEntity
  8
孔
100
AcDbCircle
 10
34870.68805410151
 20
29003.89469992505
 30
0.0
 40
1.650000000001455
100
AcDbArc
 50
359.9999999995831
 51
180.0000000004169
  0
ARC
  5
1C36
330
1F
100
AcDbEntity
  8
孔
100
AcDbCircle
 10
34870.68805410151
 20
29002.19469992505
 30
0.0
 40
1.650000000001455
100
AcDbArc
 50
180.0
 51
0.0
  0
CIRCLE
  5
1C37
330
1F
100
AcDbEntity
  8
孔
100
AcDbCircle
 10
34870.68805410151
 20
28992.54469992505
 30
0.0
 40
1.6
  0
LINE
  5
1C38
330
1F
100
AcDbEntity
  8
孔
100
AcDbLine
 10
34869.03805410151
 20
28983.89469992505
 30
0.0
 11
34869.03805410151
 21
28980.19469992505
 31
0.0
  0
LINE
  5
1C39
330
1F
100
AcDbEntity
  8
孔
100
AcDbLine
 10
34872.33805410152
 20
28983.89469992505
 30
0.0
 11
34872.33805410152
 21
28980.19469992505
 31
0.0
  0
ARC
  5
1C3A
330
1F
100
AcDbEntity
  8
孔
100
AcDbCircle
 10
34870.68805410152
 20
28983.89469992506
 30
0.0
 40
1.650000000008731
100
AcDbArc
 50
359.9999999995831
 51
180.0000000004169
  0
ARC
  5
1C3B
330
1F
100
AcDbEntity
  8
孔
100
AcDbCircle
 10
34870.68805410151
 20
28980.19469992505
 30
0.0
 40
1.650000000001455
100
AcDbArc
 50
179.9999999995831
 51
0.0000000004168817
  0
LINE
  5
1C3C
330
1F
100
AcDbEntity
  8
孔
100
AcDbLine
 10
34868.18805410151
 20
28972.04469992505
 30
0.0
 11
34868.18805410151
 21
28965.04469992505
 31
0.0
  0
LINE
  5
1C3D
330
1F
100
AcDbEntity
  8
孔
100
AcDbLine
 10
34873.18805410152
 20
28972.04469992505
 30
0.0
 11
34873.18805410152
 21
28965.04469992505
 31
0.0
  0
ARC
  5
1C3E
330
1F
100
AcDbEntity
  8
孔
100
AcDbCircle
 10
34870.68805410152
 20
28972.04469992505
 30
0.0
 40
2.500000000007275
100
AcDbArc
 50
0.0
 51
180.0
  0
ARC
  5
1C3F
330
1F
100
AcDbEntity
  8
孔
100
AcDbCircle
 10
34870.68805410152
 20
28965.04469992505
 30
0.0
 40
2.499999999992724
100
AcDbArc
 50
180.0
 51
0.0
  0
LINE
  5
1C40
330
1F
100
AcDbEntity
  8
外形線
100
AcDbLine
 10
34860.93805410151
 20
28971.54469992505
 30
0.0
 11
34868.18805410151
 21
28971.54469992505
 31
0.0
  0
LINE
  5
1C41
330
1F
100
AcDbEntity
  8
外形線
100
AcDbLine
 10
34873.18805410152
 20
28971.54469992505
 30
0.0
 11
34880.43805410151
 21
28971.54469992505
 31
0.0
  0
LINE
  5
1C42
330
1F
100
AcDbEntity
  8
外形線
100
AcDbLine
 10
34860.93805410151
 20
28961.54469992505
 30
0.0
 11
34880.43805410151
 21
28961.54469992505
 31
0.0
  0
LINE
  5
1C43
330
1F
100
AcDbEntity
  8
外形線
100
AcDbLine
 10
34861.68805410152
 20
28997.29469992505
 30
0.0
 11
34861.68805410152
 21
28986.79469992505
 31
0.0
  0
LINE
  5
1C44
330
1F
100
AcDbEntity
  8
外形線
100
AcDbLine
 10
34866.18805410151
 20
28997.29469992505
 30
0.0
 11
34866.18805410151
 21
28986.79469992505
 31
0.0
  0
ARC
  5
1C45
330
1F
100
AcDbEntity
  8
外形線
100
AcDbCircle
 10
34863.93805410152
 20
28997.29469992505
 30
0.0
 40
2.250000000007275
100
AcDbArc
 50
0.0
 51
180.0
  0
ARC
  5
1C46
330
1F
100
AcDbEntity
  8
外形線
100
AcDbCircle
 10
34863.93805410152
 20
28986.79469992505
 30
0.0
 40
2.250000000007275
100
AcDbArc
 50
180.0
 51
0.0
  0
LINE
  5
1C47
330
1F
100
AcDbEntity
  8
外形線
100
AcDbLine
 10
34875.18805410151
 20
28997.29469992505
 30
0.0
 11
34875.18805410151
 21
28986.79469992505
 31
0.0
  0
LINE
  5
1C48
330
1F
100
AcDbEntity
  8
外形線
100
AcDbLine
 10
34879.6880541015
 20
28997.29469992505
 30
0.0
 11
34879.6880541015
 21
28986.79469992505
 31
0.0
  0
ARC
  5
1C49
330
1F
100
AcDbEntity
  8
外形線
100
AcDbCircle
 10
34877.43805410151
 20
28997.29469992505
 30
0.0
 40
2.250000000007275
100
AcDbArc
 50
0.0
 51
180.0
  0
ARC
  5
1C4A
330
1F
100
AcDbEntity
  8
外形線
100
AcDbCircle
 10
34877.43805410151
 20
28986.79469992505
 30
0.0
 40
2.250000000007275
100
AcDbArc
 50
180.0
 51
0.0
  0
LINE
  5
1C4B
330
1F
100
AcDbEntity
  8
外形線
100
AcDbLine
 10
33755.39694415293
 20
29238.26619691548
 30
0.0
 11
33755.39694415293
 21
29226.26619691548
 31
0.0
  0
LINE
  5
1C4C
330
1F
100
AcDbEntity
  8
外形線
100
AcDbLine
 10
33786.39694415293
 20
29182.26619691548
 30
0.0
 11
34012.39694415293
 21
29182.26619691548
 31
0.0
  0
LINE
  5
1C4D
330
1F
100
AcDbEntity
  8
外形線
100
AcDbLine
 10
34015.39694415293
 20
29185.26619691548
 30
0.0
 11
34015.39694415293
 21
29238.26619691548
 31
0.0
  0
ARC
  5
1C4E
330
1F
100
AcDbEntity
  8
外形線
100
AcDbCircle
 10
34012.39694415293
 20
29185.26619691548
 30
0.0
 40
3.0
100
AcDbArc
 50
270.0
 51
0.0
  0
LINE
  5
1C4F
330
1F
100
AcDbEntity
  8
孔
100
AcDbLine
 10
33773.54694415291
 20
29237.11619691549
 30
0.0
 11
33777.24694415291
 21
29237.11619691549
 31
0.0
  0
ARC
  5
1C50
330
1F
100
AcDbEntity
  8
孔
100
AcDbCircle
 10
33777.24694415291
 20
29239.26619691549
 30
0.0
 40
2.150000000001455
100
AcDbArc
 50
270.0
 51
332.2822523101922
  0
ARC
  5
1C51
330
1F
100
AcDbEntity
  8
孔
100
AcDbCircle
 10
33773.54694415292
 20
29239.26619691549
 30
0.0
 40
2.150000000001455
100
AcDbArc
 50
207.7177476898078
 51
270.0
  0
LINE
  5
1C52
330
1F
100
AcDbEntity
  8
孔
100
AcDbLine
 10
33993.54694415295
 20
29237.11619691549
 30
0.0
 11
33997.24694415295
 21
29237.11619691549
 31
0.0
  0
ARC
  5
1C53
330
1F
100
AcDbEntity
  8
孔
100
AcDbCircle
 10
33997.24694415295
 20
29239.26619691549
 30
0.0
 40
2.150000000001455
100
AcDbArc
 50
270.0
 51
332.2822523101922
  0
ARC
  5
1C54
330
1F
100
AcDbEntity
  8
孔
100
AcDbCircle
 10
33993.54694415296
 20
29239.26619691549
 30
0.0
 40
2.150000000001455
100
AcDbArc
 50
207.7177476898078
 51
270.0
  0
CIRCLE
  5
1C55
330
1F
100
AcDbEntity
  8
孔
100
AcDbCircle
 10
33830.39694415293
 20
29201.26619691548
 30
0.0
 40
2.149999999999999
  0
CIRCLE
  5
1C56
330
1F
100
AcDbEntity
  8
孔
100
AcDbCircle
 10
33973.39694415293
 20
29201.26619691548
 30
0.0
 40
2.149999999999999
  0
LINE
  5
1C57
330
1F
100
AcDbEntity
  8
外形線
100
AcDbLine
 10
33752.39694415293
 20
29225.76619691548
 30
0.0
 11
33752.39694415293
 21
29181.76619691548
 31
0.0
  0
ARC
  5
1C58
330
1F
100
AcDbEntity
  8
外形線
100
AcDbCircle
 10
33752.89694415293
 20
29225.76619691548
 30
0.0
 40
0.5
100
AcDbArc
 50
90.0
 51
180.0
  0
ARC
  5
1C59
330
1F
100
AcDbEntity
  8
外形線
100
AcDbCircle
 10
33752.89694415293
 20
29181.76619691548
 30
0.0
 40
0.5
100
AcDbArc
 50
180.0
 51
270.0
  0
LINE
  5
1C5A
330
1F
100
AcDbEntity
  8
外形線
100
AcDbLine
 10
33752.89694415293
 20
29181.26619691548
 30
0.0
 11
33773.89694415293
 21
29181.26619691548
 31
0.0
  0
LINE
  5
1C5B
330
1F
100
AcDbEntity
  8
外形線
100
AcDbLine
 10
33774.39694415293
 20
29181.76619691548
 30
0.0
 11
33774.39694415293
 21
29225.76619691548
 31
0.0
  0
ARC
  5
1C5C
330
1F
100
AcDbEntity
  8
外形線
100
AcDbCircle
 10
33773.89694415293
 20
29181.76619691548
 30
0.0
 40
0.5
100
AcDbArc
 50
270.0
 51
0.0
  0
ARC
  5
1C5D
330
1F
100
AcDbEntity
  8
外形線
100
AcDbCircle
 10
33773.89694415293
 20
29225.76619691548
 30
0.0
 40
0.5
100
AcDbArc
 50
0.0
 51
90.0
  0
LINE
  5
1C5E
330
1F
100
AcDbEntity
  8
外形線
100
AcDbLine
 10
33773.89694415293
 20
29226.26619691548
 30
0.0
 11
33752.89694415293
 21
29226.26619691548
 31
0.0
  0
LINE
  5
1C5F
330
1F
100
AcDbEntity
  8
外形線
100
AcDbLine
 10
33774.39694415293
 20
29209.26619691548
 30
0.0
 11
33785.89694415293
 21
29209.26619691548
 31
0.0
  0
ARC
  5
1C60
330
1F
100
AcDbEntity
  8
外形線
100
AcDbCircle
 10
33785.89694415293
 20
29208.76619691548
 30
0.0
 40
0.5
100
AcDbArc
 50
0.0
 51
90.0
  0
LINE
  5
1C61
330
1F
100
AcDbEntity
  8
外形線
100
AcDbLine
 10
33786.39694415293
 20
29208.76619691548
 30
0.0
 11
33786.39694415293
 21
29181.76619691548
 31
0.0
  0
ARC
  5
1C62
330
1F
100
AcDbEntity
  8
外形線
100
AcDbCircle
 10
33785.89694415293
 20
29181.76619691548
 30
0.0
 40
0.5
100
AcDbArc
 50
270.0
 51
0.0
  0
LINE
  5
1C63
330
1F
100
AcDbEntity
  8
外形線
100
AcDbLine
 10
33785.89694415293
 20
29181.26619691548
 30
0.0
 11
33773.89694415293
 21
29181.26619691548
 31
0.0
  0
CIRCLE
  5
1C64
330
1F
100
AcDbEntity
  8
孔
100
AcDbCircle
 10
33756.39694415293
 20
29218.76619691548
 30
0.0
 40
2.149999999999999
  0
CIRCLE
  5
1C65
330
1F
100
AcDbEntity
  8
孔
100
AcDbCircle
 10
33770.39694415293
 20
29218.76619691548
 30
0.0
 40
2.149999999999999
  0
CIRCLE
  5
1C66
330
1F
100
AcDbEntity
  8
孔
100
AcDbCircle
 10
33756.39694415293
 20
29199.76619691548
 30
0.0
 40
2.149999999999999
  0
CIRCLE
  5
1C67
330
1F
100
AcDbEntity
  8
孔
100
AcDbCircle
 10
33770.39694415293
 20
29199.76619691548
 30
0.0
 40
2.149999999999999
  0
CIRCLE
  5
1C68
330
1F
100
AcDbEntity
  8
孔
100
AcDbCircle
 10
33756.39694415293
 20
29189.76619691548
 30
0.0
 40
2.149999999999999
  0
CIRCLE
  5
1C69
330
1F
100
AcDbEntity
  8
孔
100
AcDbCircle
 10
33770.39694415293
 20
29189.76619691548
 30
0.0
 40
2.149999999999999
  0
LINE
  5
1C6A
330
1F
100
AcDbEntity
  8
外形線
100
AcDbLine
 10
33761.39694415293
 20
29222.26619691548
 30
0.0
 11
33761.39694415293
 21
29214.26619691548
 31
0.0
  0
LINE
  5
1C6B
330
1F
100
AcDbEntity
  8
外形線
100
AcDbLine
 10
33761.39694415293
 20
29214.26619691548
 30
0.0
 11
33765.39694415293
 21
29214.26619691548
 31
0.0
  0
LINE
  5
1C6C
330
1F
100
AcDbEntity
  8
外形線
100
AcDbLine
 10
33765.39694415293
 20
29214.26619691548
 30
0.0
 11
33765.39694415293
 21
29222.26619691548
 31
0.0
  0
LINE
  5
1C6D
330
1F
100
AcDbEntity
  8
外形線
100
AcDbLine
 10
33765.39694415293
 20
29222.26619691548
 30
0.0
 11
33761.39694415293
 21
29222.26619691548
 31
0.0
  0
LINE
  5
1C6E
330
1F
100
AcDbEntity
  8
外形線
100
AcDbLine
 10
33761.39694415293
 20
29199.26619691548
 30
0.0
 11
33761.39694415293
 21
29189.26619691548
 31
0.0
  0
LINE
  5
1C6F
330
1F
100
AcDbEntity
  8
外形線
100
AcDbLine
 10
33761.39694415293
 20
29189.26619691548
 30
0.0
 11
33765.39694415293
 21
29189.26619691548
 31
0.0
  0
LINE
  5
1C70
330
1F
100
AcDbEntity
  8
外形線
100
AcDbLine
 10
33765.39694415293
 20
29189.26619691548
 30
0.0
 11
33765.39694415293
 21
29199.26619691548
 31
0.0
  0
LINE
  5
1C71
330
1F
100
AcDbEntity
  8
外形線
100
AcDbLine
 10
33765.39694415293
 20
29199.26619691548
 30
0.0
 11
33761.39694415293
 21
29199.26619691548
 31
0.0
  0
LINE
  5
1C72
330
1F
100
AcDbEntity
  8
中心線
 48
0.05
100
AcDbLine
 10
33763.39694415293
 20
29210.26619691548
 30
0.0
 11
33768.39694415293
 21
29210.26619691548
 31
0.0
  0
LINE
  5
1C73
330
1F
100
AcDbEntity
  8
中心線
 48
0.05
100
AcDbLine
 10
33763.39694415293
 20
29210.26619691548
 30
0.0
 11
33763.39694415293
 21
29215.26619691548
 31
0.0
  0
LINE
  5
1C74
330
1F
100
AcDbEntity
  8
中心線
 48
0.05
100
AcDbLine
 10
33763.39694415293
 20
29210.26619691548
 30
0.0
 11
33758.39694415293
 21
29210.26619691548
 31
0.0
  0
LINE
  5
1C75
330
1F
100
AcDbEntity
  8
中心線
 48
0.05
100
AcDbLine
 10
33763.39694415293
 20
29210.26619691548
 30
0.0
 11
33763.39694415293
 21
29205.26619691548
 31
0.0
  0
LINE
  5
1C76
330
1F
100
AcDbEntity
  8
外形線
100
AcDbLine
 10
33774.89694415293
 20
29209.26619691548
 30
0.0
 11
33774.89694415293
 21
29199.26619691548
 31
0.0
  0
LINE
  5
1C77
330
1F
100
AcDbEntity
  8
外形線
100
AcDbLine
 10
33774.89694415293
 20
29199.26619691548
 30
0.0
 11
33776.39694415293
 21
29199.26619691548
 31
0.0
  0
LINE
  5
1C78
330
1F
100
AcDbEntity
  8
外形線
100
AcDbLine
 10
33776.39694415293
 20
29199.26619691548
 30
0.0
 11
33776.39694415293
 21
29191.26619691548
 31
0.0
  0
LINE
  5
1C79
330
1F
100
AcDbEntity
  8
外形線
100
AcDbLine
 10
33776.39694415293
 20
29191.26619691548
 30
0.0
 11
33774.89694415293
 21
29191.26619691548
 31
0.0
  0
LINE
  5
1C7A
330
1F
100
AcDbEntity
  8
外形線
100
AcDbLine
 10
33774.89694415293
 20
29191.26619691548
 30
0.0
 11
33774.89694415293
 21
29181.26619691548
 31
0.0
  0
LINE
  5
1C7B
330
1F
100
AcDbEntity
  8
外形線
100
AcDbLine
 10
33781.39694415293
 20
29197.76619691548
 30
0.0
 11
33781.39694415293
 21
29192.76619691548
 31
0.0
  0
LINE
  5
1C7C
330
1F
100
AcDbEntity
  8
外形線
100
AcDbLine
 10
33781.39694415293
 20
29192.76619691548
 30
0.0
 11
33783.89694415293
 21
29192.76619691548
 31
0.0
  0
LINE
  5
1C7D
330
1F
100
AcDbEntity
  8
外形線
100
AcDbLine
 10
33783.89694415293
 20
29192.76619691548
 30
0.0
 11
33783.89694415293
 21
29197.76619691548
 31
0.0
  0
LINE
  5
1C7E
330
1F
100
AcDbEntity
  8
外形線
100
AcDbLine
 10
33783.89694415293
 20
29197.76619691548
 30
0.0
 11
33781.39694415293
 21
29197.76619691548
 31
0.0
  0
LINE
  5
1C7F
330
1F
100
AcDbEntity
  8
外形線
100
AcDbLine
 10
33836.69694415293
 20
29217.26619691548
 30
0.0
 11
33836.69694415293
 21
29185.26619691548
 31
0.0
  0
ARC
  5
1C80
330
1F
100
AcDbEntity
  8
外形線
100
AcDbCircle
 10
33837.69694415293
 20
29217.26619691548
 30
0.0
 40
1.0
100
AcDbArc
 50
90.0
 51
180.0
  0
LINE
  5
1C81
330
1F
100
AcDbEntity
  8
外形線
100
AcDbLine
 10
33837.69694415293
 20
29184.26619691548
 30
0.0
 11
33962.69694415293
 21
29184.26619691548
 31
0.0
  0
ARC
  5
1C82
330
1F
100
AcDbEntity
  8
外形線
100
AcDbCircle
 10
33837.69694415293
 20
29185.26619691548
 30
0.0
 40
1.0
100
AcDbArc
 50
180.0
 51
270.0
  0
LINE
  5
1C83
330
1F
100
AcDbEntity
  8
外形線
100
AcDbLine
 10
33963.69694415293
 20
29185.26619691548
 30
0.0
 11
33963.69694415293
 21
29217.26619691548
 31
0.0
  0
ARC
  5
1C84
330
1F
100
AcDbEntity
  8
外形線
100
AcDbCircle
 10
33962.69694415293
 20
29185.26619691548
 30
0.0
 40
1.0
100
AcDbArc
 50
270.0
 51
0.0
  0
LINE
  5
1C85
330
1F
100
AcDbEntity
  8
外形線
100
AcDbLine
 10
33962.69694415293
 20
29218.26619691548
 30
0.0
 11
33837.69694415293
 21
29218.26619691548
 31
0.0
  0
ARC
  5
1C86
330
1F
100
AcDbEntity
  8
外形線
100
AcDbCircle
 10
33962.69694415293
 20
29217.26619691548
 30
0.0
 40
1.0
100
AcDbArc
 50
0.0
 51
90.0
  0
LINE
  5
1C87
330
1F
100
AcDbEntity
  8
外形線
100
AcDbLine
 10
33836.69694415293
 20
29207.26619691548
 30
0.0
 11
33824.99694415293
 21
29207.26619691548
 31
0.0
  0
LINE
  5
1C88
330
1F
100
AcDbEntity
  8
外形線
100
AcDbLine
 10
33824.69694415293
 20
29206.96619691548
 30
0.0
 11
33824.69694415293
 21
29203.86619691549
 31
0.0
  0
ARC
  5
1C89
330
1F
100
AcDbEntity
  8
外形線
100
AcDbCircle
 10
33824.99694415293
 20
29203.86619691549
 30
0.0
 40
0.3
100
AcDbArc
 50
180.0
 51
270.0
  0
ARC
  5
1C8A
330
1F
100
AcDbEntity
  8
外形線
100
AcDbCircle
 10
33824.99694415293
 20
29206.96619691548
 30
0.0
 40
0.3
100
AcDbArc
 50
90.0
 51
180.0
  0
LINE
  5
1C8B
330
1F
100
AcDbEntity
  8
外形線
100
AcDbLine
 10
33824.99694415293
 20
29203.56619691548
 30
0.0
 11
33830.39694415293
 21
29203.56619691548
 31
0.0
  0
LINE
  5
1C8C
330
1F
100
AcDbEntity
  8
外形線
100
AcDbLine
 10
33830.39694415293
 20
29198.96619691548
 30
0.0
 11
33824.99694415293
 21
29198.96619691548
 31
0.0
  0
ARC
  5
1C8D
330
1F
100
AcDbEntity
  8
外形線
100
AcDbCircle
 10
33824.99694415293
 20
29198.66619691548
 30
0.0
 40
0.3
100
AcDbArc
 50
90.0
 51
180.0
  0
LINE
  5
1C8E
330
1F
100
AcDbEntity
  8
外形線
100
AcDbLine
 10
33824.69694415293
 20
29198.66619691548
 30
0.0
 11
33824.69694415293
 21
29195.56619691548
 31
0.0
  0
LINE
  5
1C8F
330
1F
100
AcDbEntity
  8
外形線
100
AcDbLine
 10
33824.99694415293
 20
29195.26619691548
 30
0.0
 11
33836.69694415293
 21
29195.26619691548
 31
0.0
  0
ARC
  5
1C90
330
1F
100
AcDbEntity
  8
外形線
100
AcDbCircle
 10
33824.99694415293
 20
29195.56619691548
 30
0.0
 40
0.3
100
AcDbArc
 50
180.0
 51
270.0
  0
ARC
  5
1C91
330
1F
100
AcDbEntity
  8
外形線
100
AcDbCircle
 10
33830.39694415293
 20
29201.26619691548
 30
0.0
 40
2.30000000000291
100
AcDbArc
 50
270.0
 51
90.0
  0
ARC
  5
1C92
330
1F
100
AcDbEntity
  8
外形線
100
AcDbCircle
 10
33833.36238322902
 20
29200.24177758939
 30
0.0
 40
6.030264183238933
100
AcDbArc
 50
56.42892761935646
 51
91.07027083668739
  0
ARC
  5
1C93
330
1F
100
AcDbEntity
  8
外形線
100
AcDbCircle
 10
33833.24694415293
 20
29206.42096355352
 30
0.0
 40
0.15
100
AcDbArc
 50
180.0
 51
271.0702708366873
  0
LINE
  5
1C94
330
1F
100
AcDbEntity
  8
外形線
100
AcDbLine
 10
33833.09694415293
 20
29207.26619691548
 30
0.0
 11
33833.09694415293
 21
29206.42096355352
 31
0.0
  0
ARC
  5
1C95
330
1F
100
AcDbEntity
  8
外形線
100
AcDbCircle
 10
33833.36238322902
 20
29202.29061624157
 30
0.0
 40
6.030264183238933
100
AcDbArc
 50
268.9297291633126
 51
303.5710723806436
  0
ARC
  5
1C96
330
1F
100
AcDbEntity
  8
外形線
100
AcDbCircle
 10
33833.24694415293
 20
29196.11143027744
 30
0.0
 40
0.15
100
AcDbArc
 50
88.9297291633126
 51
180.0
  0
LINE
  5
1C97
330
1F
100
AcDbEntity
  8
外形線
100
AcDbLine
 10
33833.09694415293
 20
29195.26619691548
 30
0.0
 11
33833.09694415293
 21
29196.11143027744
 31
0.0
  0
LINE
  5
1C98
330
1F
100
AcDbEntity
  8
外形線
100
AcDbLine
 10
33963.69694415293
 20
29207.26619691548
 30
0.0
 11
33975.39694415293
 21
29207.26619691548
 31
0.0
  0
LINE
  5
1C99
330
1F
100
AcDbEntity
  8
外形線
100
AcDbLine
 10
33975.69694415293
 20
29206.96619691548
 30
0.0
 11
33975.69694415293
 21
29203.86619691549
 31
0.0
  0
ARC
  5
1C9A
330
1F
100
AcDbEntity
  8
外形線
100
AcDbCircle
 10
33975.39694415293
 20
29203.86619691549
 30
0.0
 40
0.3
100
AcDbArc
 50
270.0
 51
0.0
  0
ARC
  5
1C9B
330
1F
100
AcDbEntity
  8
外形線
100
AcDbCircle
 10
33975.39694415293
 20
29206.96619691548
 30
0.0
 40
0.3
100
AcDbArc
 50
0.0
 51
90.0
  0
LINE
  5
1C9C
330
1F
100
AcDbEntity
  8
外形線
100
AcDbLine
 10
33975.39694415293
 20
29203.56619691548
 30
0.0
 11
33969.99694415293
 21
29203.56619691548
 31
0.0
  0
LINE
  5
1C9D
330
1F
100
AcDbEntity
  8
外形線
100
AcDbLine
 10
33969.99694415293
 20
29198.96619691548
 30
0.0
 11
33975.39694415293
 21
29198.96619691548
 31
0.0
  0
LINE
  5
1C9E
330
1F
100
AcDbEntity
  8
外形線
100
AcDbLine
 10
33975.69694415293
 20
29198.66619691548
 30
0.0
 11
33975.69694415293
 21
29195.56619691548
 31
0.0
  0
ARC
  5
1C9F
330
1F
100
AcDbEntity
  8
外形線
100
AcDbCircle
 10
33975.39694415293
 20
29198.66619691548
 30
0.0
 40
0.3
100
AcDbArc
 50
0.0
 51
90.0
  0
ARC
  5
1CA0
330
1F
100
AcDbEntity
  8
外形線
100
AcDbCircle
 10
33975.39694415293
 20
29195.56619691548
 30
0.0
 40
0.3
100
AcDbArc
 50
270.0
 51
0.0
  0
LINE
  5
1CA1
330
1F
100
AcDbEntity
  8
外形線
100
AcDbLine
 10
33975.39694415293
 20
29195.26619691548
 30
0.0
 11
33963.69694415293
 21
29195.26619691548
 31
0.0
  0
ARC
  5
1CA2
330
1F
100
AcDbEntity
  8
外形線
100
AcDbCircle
 10
33969.99694415293
 20
29201.26619691548
 30
0.0
 40
2.30000000000291
100
AcDbArc
 50
90.0
 51
270.0
  0
ARC
  5
1CA3
330
1F
100
AcDbEntity
  8
外形線
100
AcDbCircle
 10
33967.03150507684
 20
29200.24177758939
 30
0.0
 40
6.030264183238933
100
AcDbArc
 50
88.9297291633126
 51
123.571072380181
  0
ARC
  5
1CA4
330
1F
100
AcDbEntity
  8
外形線
100
AcDbCircle
 10
33967.14694415293
 20
29206.42096355352
 30
0.0
 40
0.15
100
AcDbArc
 50
268.9297291633126
 51
0.0
  0
LINE
  5
1CA5
330
1F
100
AcDbEntity
  8
外形線
100
AcDbLine
 10
33967.29694415293
 20
29207.26619691548
 30
0.0
 11
33967.29694415293
 21
29206.42096355352
 31
0.0
  0
ARC
  5
1CA6
330
1F
100
AcDbEntity
  8
外形線
100
AcDbCircle
 10
33967.03150507684
 20
29202.29061624157
 30
0.0
 40
6.030264183238933
100
AcDbArc
 50
236.428927619819
 51
271.0702708366873
  0
ARC
  5
1CA7
330
1F
100
AcDbEntity
  8
外形線
100
AcDbCircle
 10
33967.14694415293
 20
29196.11143027744
 30
0.0
 40
0.15
100
AcDbArc
 50
0.0
 51
91.07027083668739
  0
LINE
  5
1CA8
330
1F
100
AcDbEntity
  8
外形線
100
AcDbLine
 10
33967.29694415293
 20
29195.26619691548
 30
0.0
 11
33967.29694415293
 21
29196.11143027744
 31
0.0
  0
LINE
  5
1CA9
330
1F
100
AcDbEntity
  8
外形線
100
AcDbLine
 10
33850.19694415293
 20
29212.76619691548
 30
0.0
 11
33850.19694415293
 21
29189.76619691548
 31
0.0
  0
LINE
  5
1CAA
330
1F
100
AcDbEntity
  8
外形線
100
AcDbLine
 10
33851.19694415293
 20
29188.76619691548
 30
0.0
 11
33949.19694415293
 21
29188.76619691548
 31
0.0
  0
ARC
  5
1CAB
330
1F
100
AcDbEntity
  8
外形線
100
AcDbCircle
 10
33851.19694415293
 20
29189.76619691548
 30
0.0
 40
1.0
100
AcDbArc
 50
180.0
 51
270.0
  0
LINE
  5
1CAC
330
1F
100
AcDbEntity
  8
外形線
100
AcDbLine
 10
33950.19694415293
 20
29189.76619691548
 30
0.0
 11
33950.19694415293
 21
29212.76619691548
 31
0.0
  0
ARC
  5
1CAD
330
1F
100
AcDbEntity
  8
外形線
100
AcDbCircle
 10
33949.19694415293
 20
29189.76619691548
 30
0.0
 40
1.0
100
AcDbArc
 50
270.0
 51
0.0
  0
ARC
  5
1CAE
330
1F
100
AcDbEntity
  8
外形線
100
AcDbCircle
 10
33949.19694415293
 20
29212.76619691548
 30
0.0
 40
1.0
100
AcDbArc
 50
0.0
 51
90.0
  0
LINE
  5
1CAF
330
1F
100
AcDbEntity
  8
外形線
100
AcDbLine
 10
33949.19694415293
 20
29213.76619691548
 30
0.0
 11
33851.19694415293
 21
29213.76619691548
 31
0.0
  0
ARC
  5
1CB0
330
1F
100
AcDbEntity
  8
外形線
100
AcDbCircle
 10
33851.19694415293
 20
29212.76619691548
 30
0.0
 40
1.0
100
AcDbArc
 50
90.0
 51
180.0
  0
LINE
  5
1CB1
330
1F
100
AcDbEntity
  8
外形線
100
AcDbLine
 10
33755.39694415293
 20
28955.54469957604
 30
0.0
 11
33755.39694415293
 21
28954.74469957603
 31
0.0
  0
LINE
  5
1CB2
330
1F
100
AcDbEntity
  8
外形線
100
AcDbLine
 10
33755.39694415293
 20
28954.74469957603
 30
0.0
 11
34015.39694415293
 21
28954.74469957603
 31
0.0
  0
LINE
  5
1CB3
330
1F
100
AcDbEntity
  8
外形線
100
AcDbLine
 10
34015.39694415293
 20
28954.74469957603
 30
0.0
 11
34015.39694415293
 21
28955.54469957604
 31
0.0
  0
LINE
  5
1CB4
330
1F
100
AcDbEntity
  8
外形線
100
AcDbLine
 10
34007.86874995498
 20
28955.54469957604
 30
0.0
 11
33747.86874995498
 21
28955.54469957604
 31
0.0
  0
LINE
  5
1CB5
330
1F
100
AcDbEntity
  8
外形線
100
AcDbLine
 10
33752.39694415293
 20
28975.04469957604
 30
0.0
 11
33752.39694415293
 21
28956.04469957604
 31
0.0
  0
LINE
  5
1CB6
330
1F
100
AcDbEntity
  8
外形線
100
AcDbLine
 10
33752.89694415293
 20
28955.54469957604
 30
0.0
 11
33774.39694415293
 21
28955.54469957604
 31
0.0
  0
ARC
  5
1CB7
330
1F
100
AcDbEntity
  8
外形線
100
AcDbCircle
 10
33752.89694415293
 20
28956.04469957604
 30
0.0
 40
0.5
100
AcDbArc
 50
180.0
 51
270.0
  0
LINE
  5
1CB8
330
1F
100
AcDbEntity
  8
外形線
100
AcDbLine
 10
33774.39694415293
 20
28964.54469957604
 30
0.0
 11
33774.39694415293
 21
28975.04469957604
 31
0.0
  0
ARC
  5
1CB9
330
1F
100
AcDbEntity
  8
外形線
100
AcDbCircle
 10
33773.89694415293
 20
28975.04469957604
 30
0.0
 40
0.5
100
AcDbArc
 50
0.0
 51
90.0
  0
LINE
  5
1CBA
330
1F
100
AcDbEntity
  8
外形線
100
AcDbLine
 10
33773.89694415293
 20
28975.54469957604
 30
0.0
 11
33752.89694415293
 21
28975.54469957604
 31
0.0
  0
ARC
  5
1CBB
330
1F
100
AcDbEntity
  8
外形線
100
AcDbCircle
 10
33752.89694415293
 20
28975.04469957604
 30
0.0
 40
0.5
100
AcDbArc
 50
90.0
 51
180.0
  0
LINE
  5
1CBC
330
1F
100
AcDbEntity
  8
外形線
100
AcDbLine
 10
33774.39694415293
 20
28955.54469957604
 30
0.0
 11
33785.89694415293
 21
28955.54469957604
 31
0.0
  0
LINE
  5
1CBD
330
1F
100
AcDbEntity
  8
外形線
100
AcDbLine
 10
33786.39694415293
 20
28956.04469957604
 30
0.0
 11
33786.39694415293
 21
28964.04469957604
 31
0.0
  0
ARC
  5
1CBE
330
1F
100
AcDbEntity
  8
外形線
100
AcDbCircle
 10
33785.89694415293
 20
28956.04469957604
 30
0.0
 40
0.5
100
AcDbArc
 50
270.0
 51
0.0
  0
ARC
  5
1CBF
330
1F
100
AcDbEntity
  8
外形線
100
AcDbCircle
 10
33785.89694415293
 20
28964.04469957604
 30
0.0
 40
0.5
100
AcDbArc
 50
0.0
 51
90.0
  0
LINE
  5
1CC0
330
1F
100
AcDbEntity
  8
外形線
100
AcDbLine
 10
33786.39694415293
 20
28964.54469957604
 30
0.0
 11
33774.39694415293
 21
28964.54469957604
 31
0.0
  0
LINE
  5
1CC1
330
1F
100
AcDbEntity
  8
外形線
100
AcDbLine
 10
33774.89694415293
 20
28964.54469957604
 30
0.0
 11
33774.89694415293
 21
28966.04469957604
 31
0.0
  0
LINE
  5
1CC2
330
1F
100
AcDbEntity
  8
外形線
100
AcDbLine
 10
33775.39694415293
 20
28966.54469957604
 30
0.0
 11
33785.89694415293
 21
28966.54469957604
 31
0.0
  0
ARC
  5
1CC3
330
1F
100
AcDbEntity
  8
外形線
100
AcDbCircle
 10
33775.39694415293
 20
28966.04469957604
 30
0.0
 40
0.5
100
AcDbArc
 50
90.0
 51
180.0
  0
LINE
  5
1CC4
330
1F
100
AcDbEntity
  8
外形線
100
AcDbLine
 10
33786.39694415293
 20
28966.04469957604
 30
0.0
 11
33786.39694415293
 21
28964.54469957604
 31
0.0
  0
ARC
  5
1CC5
330
1F
100
AcDbEntity
  8
外形線
100
AcDbCircle
 10
33785.89694415293
 20
28966.04469957604
 30
0.0
 40
0.5
100
AcDbArc
 50
0.0
 51
90.0
  0
LINE
  5
1CC6
330
1F
100
AcDbEntity
  8
中心線
 48
0.05
100
AcDbLine
 10
33763.39694415293
 20
28958.54469957604
 30
0.0
 11
33763.39694415293
 21
28952.54469957604
 31
0.0
  0
LINE
  5
1CC7
330
1F
100
AcDbEntity
  8
外形線
100
AcDbLine
 10
33836.69694415293
 20
28965.54469957603
 30
0.0
 11
33786.39694415293
 21
28965.54469957603
 31
0.0
  0
LINE
  5
1CC8
330
1F
100
AcDbEntity
  8
外形線
100
AcDbLine
 10
33836.69694415293
 20
28979.54469957604
 30
0.0
 11
33836.69694415293
 21
28955.54469957604
 31
0.0
  0
LINE
  5
1CC9
330
1F
100
AcDbEntity
  8
外形線
100
AcDbLine
 10
33836.69694415293
 20
28955.54469957604
 30
0.0
 11
33963.69694415293
 21
28955.54469957604
 31
0.0
  0
LINE
  5
1CCA
330
1F
100
AcDbEntity
  8
外形線
100
AcDbLine
 10
33963.69694415293
 20
28955.54469957604
 30
0.0
 11
33963.69694415293
 21
28979.54469957604
 31
0.0
  0
ARC
  5
1CCB
330
1F
100
AcDbEntity
  8
外形線
100
AcDbCircle
 10
33962.69694415293
 20
28979.54469957604
 30
0.0
 40
1.0
100
AcDbArc
 50
0.0
 51
90.0
  0
LINE
  5
1CCC
330
1F
100
AcDbEntity
  8
外形線
100
AcDbLine
 10
33962.69694415293
 20
28980.54469957603
 30
0.0
 11
33837.69694415293
 21
28980.54469957603
 31
0.0
  0
ARC
  5
1CCD
330
1F
100
AcDbEntity
  8
外形線
100
AcDbCircle
 10
33837.69694415293
 20
28979.54469957604
 30
0.0
 40
1.0
100
AcDbArc
 50
90.0
 51
180.0
  0
LINE
  5
1CCE
330
1F
100
AcDbEntity
  8
外形線
100
AcDbLine
 10
33836.69694415293
 20
28963.54469957604
 30
0.0
 11
33833.09694415293
 21
28957.54469957604
 31
0.0
  0
LINE
  5
1CCF
330
1F
100
AcDbEntity
  8
外形線
100
AcDbLine
 10
33833.09694415293
 20
28957.54469957604
 30
0.0
 11
33825.19694415293
 21
28957.54469957604
 31
0.0
  0
LINE
  5
1CD0
330
1F
100
AcDbEntity
  8
外形線
100
AcDbLine
 10
33824.69694415293
 20
28957.04469957604
 30
0.0
 11
33824.69694415293
 21
28955.54469957604
 31
0.0
  0
ARC
  5
1CD1
330
1F
100
AcDbEntity
  8
外形線
100
AcDbCircle
 10
33825.19694415293
 20
28957.04469957604
 30
0.0
 40
0.5
100
AcDbArc
 50
90.0
 51
180.0
  0
LINE
  5
1CD2
330
1F
100
AcDbEntity
  8
外形線
100
AcDbLine
 10
33824.69694415293
 20
28955.54469957604
 30
0.0
 11
33836.69694415293
 21
28955.54469957604
 31
0.0
  0
LINE
  5
1CD3
330
1F
100
AcDbEntity
  8
外形線
100
AcDbLine
 10
33963.69694415293
 20
28963.54469957604
 30
0.0
 11
33967.29694415293
 21
28957.54469957604
 31
0.0
  0
LINE
  5
1CD4
330
1F
100
AcDbEntity
  8
外形線
100
AcDbLine
 10
33967.29694415293
 20
28957.54469957604
 30
0.0
 11
33975.19694415293
 21
28957.54469957604
 31
0.0
  0
LINE
  5
1CD5
330
1F
100
AcDbEntity
  8
外形線
100
AcDbLine
 10
33975.69694415293
 20
28957.04469957604
 30
0.0
 11
33975.69694415293
 21
28955.54469957604
 31
0.0
  0
ARC
  5
1CD6
330
1F
100
AcDbEntity
  8
外形線
100
AcDbCircle
 10
33975.19694415293
 20
28957.04469957604
 30
0.0
 40
0.5
100
AcDbArc
 50
0.0
 51
90.0
  0
LINE
  5
1CD7
330
1F
100
AcDbEntity
  8
外形線
100
AcDbLine
 10
33975.69694415293
 20
28955.54469957604
 30
0.0
 11
33963.69694415293
 21
28955.54469957604
 31
0.0
  0
DIMENSION
  5
1CD8
102
{ACAD_XDICTIONARY
360
1CD9
102
}
102
{ACAD_REACTORS
330
1CDA
102
}
330
1F
100
AcDbEntity
  8
寸法線
100
AcDbDimension
280
     0
  2
*D1
 10
34737.83575738412
 20
29007.54469957604
 30
0.0
 11
34726.99929762968
 21
28981.54469957604
 31
0.0
 70
    32
 71
     5
 42
52.0
 73
     0
 74
     0
 75
     0
  3
ISO-25
100
AcDbAlignedDimension
 13
34703.04694415292
 23
28955.54469957604
 33
0.0
 14
34703.04694415292
 24
29007.54469957604
 34
0.0
 50
90.0
100
AcDbRotatedDimension
  0
DIMENSION
  5
1CDB
102
{ACAD_XDICTIONARY
360
1CDC
102
}
102
{ACAD_REACTORS
330
1CDD
102
}
330
1F
100
AcDbEntity
  8
寸法線
100
AcDbDimension
280
     0
  2
*D2
 10
34737.83575738412
 20
28951.54469957604
 30
0.0
 11
34727.21075738411
 21
28939.00291922133
 31
0.0
 70
    32
 71
     5
 42
4.0
 73
     0
 74
     0
 75
     0
  3
ISO-25
100
AcDbAlignedDimension
 13
34703.04694415292
 23
28955.54469957604
 33
0.0
 14
34664.04694415292
 24
28951.54469957604
 34
0.0
 50
90.0
100
AcDbRotatedDimension
  0
DIMENSION
  5
1CDE
102
{ACAD_XDICTIONARY
360
1CDF
102
}
102
{ACAD_REACTORS
330
1CE0
102
}
330
1F
100
AcDbEntity
  8
寸法線
100
AcDbDimension
280
     0
  2
*D4
 10
34773.15862587009
 20
28951.54469992505
 30
0.0
 11
34762.32216611565
 21
28979.54469992505
 31
0.0
 70
    32
 71
     5
 42
56.0
 73
     0
 74
     0
 75
     0
  3
ISO-25
100
AcDbAlignedDimension
 13
34870.68805410151
 23
29007.54469992505
 33
0.0
 14
34870.68805410151
 24
28951.54469992505
 34
0.0
 50
90.0
100
AcDbRotatedDimension
  0
DIMENSION
  5
1CE1
102
{ACAD_XDICTIONARY
360
1CE2
102
}
102
{ACAD_REACTORS
330
1CE3
102
}
330
1F
100
AcDbEntity
  8
寸法線
100
AcDbDimension
280
     0
  2
*D5
 10
34886.68805410152
 20
29044.25043455933
 30
0.0
 11
34903.18958889006
 21
29055.08689431376
 31
0.0
 70
    32
 71
     5
 42
16.0
 73
     0
 74
     0
 75
     0
  3
ISO-25
100
AcDbAlignedDimension
 13
34870.68805410151
 23
29017.54470027406
 33
0.0
 14
34886.68805410152
 24
28991.29469992615
 34
0.0
100
AcDbRotatedDimension
  0
DIMENSION
  5
1CE4
102
{ACAD_XDICTIONARY
360
1CE5
102
}
102
{ACAD_REACTORS
330
1CE6
102
}
330
1F
100
AcDbEntity
  8
寸法線
100
AcDbDimension
280
     0
  2
*D6
 10
34801.88805410151
 20
29044.25043455933
 30
0.0
 11
34836.28805410151
 21
29056.89453415005
 31
0.0
 70
    32
 71
     5
 42
68.80000000000291
 73
     0
 74
     0
 75
     0
  3
ISO-25
100
AcDbAlignedDimension
 13
34870.68805410151
 23
29017.54470027406
 33
0.0
 14
34801.88805410151
 24
28975.54469992505
 34
0.0
100
AcDbRotatedDimension
  0
DIMENSION
  5
1CE7
102
{ACAD_XDICTIONARY
360
1CE8
102
}
102
{ACAD_REACTORS
330
1CE9
102
}
330
1F
100
AcDbEntity
  8
寸法線
100
AcDbDimension
280
     0
  2
*D7
 10
34801.88805410151
 20
29094.76730762198
 30
0.0
 11
34844.28805410151
 21
29107.4114072127
 31
0.0
 70
    32
 71
     5
 42
84.80000000000291
 73
     0
 74
     0
 75
     0
  3
ISO-25
100
AcDbAlignedDimension
 13
34886.68805410152
 23
28991.29469992615
 33
0.0
 14
34801.88805410151
 24
28975.54469992505
 34
0.0
100
AcDbRotatedDimension
  0
LINE
  5
1CEA
330
1F
100
AcDbEntity
  8
中心線
100
AcDbLine
 10
33708.54694415292
 20
29284.46792773294
 30
0.0
 11
33708.54694415292
 21
28940.90651548024
 31
0.0
  0
LINE
  5
1CEB
330
1F
100
AcDbEntity
  8
寸法線
100
AcDbLine
 10
33708.54694415292
 20
29060.22826060758
 30
0.0
 11
33708.54694415292
 21
29060.85326060757
 31
0.0
  0
LINE
  5
1CEC
330
1F
100
AcDbEntity
  8
寸法線
100
AcDbLine
 10
34654.54694415292
 20
29060.22826060758
 30
0.0
 11
34654.54694415292
 21
29060.85326060757
 31
0.0
  0
LINE
  5
1CED
330
1F
100
AcDbEntity
  8
寸法線
100
AcDbLine
 10
33711.04694415292
 20
29059.60326060758
 30
0.0
 11
34652.04694415292
 21
29059.60326060758
 31
0.0
  0
SOLID
  5
1CEE
330
1F
100
AcDbEntity
  8
寸法線
100
AcDbTrace
 10
33711.04694415292
 20
29060.01992727425
 30
0.0
 11
33711.04694415292
 21
29059.18659394091
 31
0.0
 12
33708.54694415292
 22
29059.60326060758
 32
0.0
 13
33708.54694415292
 23
29059.60326060758
 33
0.0
  0
SOLID
  5
1CEF
330
1F
100
AcDbEntity
  8
寸法線
100
AcDbTrace
 10
34652.04694415292
 20
29060.01992727425
 30
0.0
 11
34652.04694415292
 21
29059.18659394091
 31
0.0
 12
34654.54694415292
 22
29059.60326060758
 32
0.0
 13
34654.54694415292
 23
29059.60326060758
 33
0.0
  0
DIMENSION
  5
1CF0
102
{ACAD_XDICTIONARY
360
1CF1
102
}
102
{ACAD_REACTORS
330
1CF2
102
}
330
1F
100
AcDbEntity
  8
寸法線
100
AcDbDimension
280
     0
  2
*D3
 10
34704.04694415292
 20
29308.95603571816
 30
0.0
 11
34181.54694415292
 21
29319.79249547259
 31
0.0
 70
    32
 71
     5
 42
1045.0
 73
     0
 74
     0
 75
     0
  3
ISO-25
100
AcDbAlignedDimension
 13
33659.04694415292
 23
29250.26619691548
 33
0.0
 14
34704.04694415292
 24
29250.26619691548
 34
0.0
100
AcDbRotatedDimension
  0
VIEWPORT
  5
318
102
{ACAD_XDICTIONARY
360
319
102
}
330
D2
100
AcDbEntity
 67
     1
  8
0
100
AcDbViewport
 10
211.3853471294841
 20
143.5205755233764
 30
0.0
 40
524.1411654859327
 41
314.237268371582
 68
     1
 69
     1
 12
211.3853471294841
 22
143.5205755233764
 13
0.0
 23
0.0
 14
10.0
 24
10.0
 15
10.0
 25
10.0
 16
0.0
 26
0.0
 36
1.0
 17
0.0
 27
0.0
 37
0.0
 42
50.0
 43
0.0
 44
0.0
 45
314.237268371582
 50
0.0
 51
0.0
 72
  1000
 90
   557088
  1

281
     0
 71
     1
 74
     0
110
0.0
120
0.0
130
0.0
111
1.0
121
0.0
131
0.0
112
0.0
122
1.0
132
0.0
 79
     0
146
0.0
170
     0
 61
     5
348
EC
292
     1
282
     1
141
0.0
142
0.0
 63
   250
421
  3355443
  0
VIEWPORT
  5
31C
102
{ACAD_XDICTIONARY
360
31D
102
}
330
D2
100
AcDbEntity
 67
     1
  8
外形線②
100
AcDbViewport
 10
128.5
 20
97.5
 30
0.0
 40
205.6
 41
156.0
 68
     2
 69
     2
 12
210.0
 22
148.5
 13
0.0
 23
0.0
 14
10.0
 24
10.0
 15
10.0
 25
10.0
 16
0.0
 26
0.0
 36
1.0
 17
0.0
 27
0.0
 37
0.0
 42
50.0
 43
0.0
 44
0.0
 45
321.3253284758076
 50
0.0
 51
0.0
 72
  1000
 90
   819808
  1

281
     0
 71
     1
 74
     0
110
0.0
120
0.0
130
0.0
111
1.0
121
0.0
131
0.0
112
0.0
122
1.0
132
0.0
 79
     0
146
0.0
170
     0
 61
     5
348
EC
292
     1
282
     1
141
0.0
142
0.0
 63
   250
421
  3355443
  0
ENDSEC
  0
SECTION
  2
OBJECTS
  0
DICTIONARY
  5
C
330
0
100
AcDbDictionary
281
     1
  3
ACAD_CIP_PREVIOUS_PRODUCT_INFO
350
20D
  3
ACAD_COLOR
350
79
  3
ACAD_DETAILVIEWSTYLE
350
212
  3
ACAD_GROUP
350
D
  3
ACAD_LAYOUT
350
1A
  3
ACAD_MATERIAL
350
78
  3
ACAD_MLEADERSTYLE
350
124
  3
ACAD_MLINESTYLE
350
17
  3
ACAD_PLOTSETTINGS
350
19
  3
ACAD_PLOTSTYLENAME
350
E
  3
ACAD_SCALELIST
350
103
  3
ACAD_SECTIONVIEWSTYLE
350
210
  3
ACAD_TABLESTYLE
350
97
  3
ACAD_VISUALSTYLE
350
E6
  3
ACDB_RECOMPOSE_DATA
350
1D92
  3
AcDbVariableDictionary
350
67
  0
DICTIONARY
  5
1F6
330
2
100
AcDbDictionary
280
     1
281
     1
  3
ACAD_LAYERSTATES
360
1F7
  0
DICTIONARY
  5
133
330
10
100
AcDbDictionary
280
     1
281
     1
  0
DICTIONARY
  5
CEB
330
CEA
100
AcDbDictionary
280
     1
281
     1
  0
DICTIONARY
  5
1C5
330
1F
100
AcDbDictionary
280
     1
281
     1
  3
ACAD_SORTENTS
360
35E
  0
DICTIONARY
  5
1CD9
330
1CD8
100
AcDbDictionary
280
     1
281
     1
  3
ACAD_DIMASSOC
360
1CDA
  0
DICTIONARY
  5
1CDC
330
1CDB
100
AcDbDictionary
280
     1
281
     1
  3
ACAD_DIMASSOC
360
1CDD
  0
DICTIONARY
  5
1CDF
330
1CDE
100
AcDbDictionary
280
     1
281
     1
  3
ACAD_DIMASSOC
360
1CE0
  0
DICTIONARY
  5
1CE2
330
1CE1
100
AcDbDictionary
280
     1
281
     1
  3
ACAD_DIMASSOC
360
1CE3
  0
DICTIONARY
  5
1CE5
330
1CE4
100
AcDbDictionary
280
     1
281
     1
  3
ACAD_DIMASSOC
360
1CE6
  0
DICTIONARY
  5
1CE8
330
1CE7
100
AcDbDictionary
280
     1
281
     1
  3
ACAD_DIMASSOC
360
1CE9
  0
DICTIONARY
  5
1CF1
330
1CF0
100
AcDbDictionary
280
     1
281
     1
  3
ACAD_DIMASSOC
360
1CF2
  0
DICTIONARY
  5
319
330
318
100
AcDbDictionary
280
     1
281
     1
  3
ASDK_XREC_ANNOTATION_SCALE_INFO
360
31A
  0
DICTIONARY
  5
31D
330
31C
100
AcDbDictionary
280
     1
281
     1
  3
ASDK_XREC_ANNOTATION_SCALE_INFO
360
31E
  0
XRECORD
  5
20D
102
{ACAD_REACTORS
330
C
102
}
330
C
100
AcDbXrecord
280
     1
300
ACDLT
300
2016
300
ACDLT_F_S
  0
DICTIONARY
  5
79
102
{ACAD_REACTORS
330
C
102
}
330
C
100
AcDbDictionary
281
     1
  0
DICTIONARY
  5
212
102
{ACAD_REACTORS
330
C
102
}
330
C
100
AcDbDictionary
281
     1
  3
Metric50
350
213
  0
DICTIONARY
  5
D
102
{ACAD_REACTORS
330
C
102
}
330
C
100
AcDbDictionary
281
     1
  0
DICTIONARY
  5
1A
102
{ACAD_REACTORS
330
C
102
}
330
C
100
AcDbDictionary
281
     1
  3
Model
350
22
  3
レイアウト1
350
D3
  3
レイアウト2
350
D7
  0
DICTIONARY
  5
78
102
{ACAD_REACTORS
330
C
102
}
330
C
100
AcDbDictionary
281
     1
  3
ByBlock
350
E4
  3
ByLayer
350
E3
  3
Global
350
E5
  0
DICTIONARY
  5
124
102
{ACAD_REACTORS
330
C
102
}
330
C
100
AcDbDictionary
281
     1
  3
Annotative
350
132
  3
Standard
350
125
  0
DICTIONARY
  5
17
102
{ACAD_REACTORS
330
C
102
}
330
C
100
AcDbDictionary
281
     1
  3
Standard
350
18
  0
DICTIONARY
  5
19
102
{ACAD_REACTORS
330
C
102
}
330
C
100
AcDbDictionary
281
     1
  0
ACDBDICTIONARYWDFLT
  5
E
102
{ACAD_REACTORS
330
C
102
}
330
C
100
AcDbDictionary
281
     1
  3
Normal
350
F
100
AcDbDictionaryWithDefault
340
F
  0
DICTIONARY
  5
103
102
{ACAD_REACTORS
330
C
102
}
330
C
100
AcDbDictionary
281
     1
  3
A0
350
104
  3
A1
350
1B5
  3
A2
350
1B6
  3
A3
350
1B7
  3
A4
350
1B8
  3
A5
350
1B9
  3
A6
350
1BA
  3
A7
350
1BB
  3
A8
350
1BC
  3
A9
350
1BD
  3
B0
350
1BE
  3
B1
350
1BF
  3
B2
350
1C0
  3
B3
350
1C1
  3
B4
350
1C2
  3
B5
350
1C3
  3
B6
350
1C4
  0
DICTIONARY
  5
210
102
{ACAD_REACTORS
330
C
102
}
330
C
100
AcDbDictionary
281
     1
  3
Metric50
350
211
  0
DICTIONARY
  5
97
102
{ACAD_REACTORS
330
C
102
}
330
C
100
AcDbDictionary
281
     1
  3
Standard
350
98
  0
DICTIONARY
  5
E6
102
{ACAD_REACTORS
330
C
102
}
330
C
100
AcDbDictionary
281
     1
  3
2dWireframe
350
EC
  3
Basic
350
EB
  3
Brighten
350
F2
  3
ColorChange
350
F6
  3
Conceptual
350
EF
  3
Dim
350
F1
  3
EdgeColorOff
350
1DD
  3
Facepattern
350
F5
  3
Flat
350
E7
  3
FlatWithEdges
350
E8
  3
Gouraud
350
E9
  3
GouraudWithEdges
350
EA
  3
Hidden
350
EE
  3
JitterOff
350
1DB
  3
Linepattern
350
F4
  3
OverhangOff
350
1DC
  3
Realistic
350
F0
  3
Shaded
350
1EA
  3
Shaded with edges
350
1E9
  3
Shades of Gray
350
1E6
  3
Sketchy
350
1E7
  3
Thicken
350
F3
  3
Wireframe
350
ED
  3
X-Ray
350
1E8
  0
XRECORD
  5
1D92
102
{ACAD_REACTORS
330
C
102
}
330
C
100
AcDbXrecord
280
     1
 90
        1
330
98
330
211
330
213
330
B52
330
B53
330
B54
330
B55
330
B56
330
B57
330
B58
330
B59
330
B5A
330
B5B
330
B5C
330
B5D
330
B5E
330
B5F
330
B60
330
B61
330
B62
330
B63
330
B66
330
B67
330
B68
330
B69
330
B6A
330
B6B
330
B6C
330
B6D
330
B6E
330
B6F
330
B70
330
B7B
330
B7C
330
B7D
330
B7E
330
B7F
330
B80
330
B81
330
B82
330
B83
330
B84
330
B85
330
C3E
330
DDC
330
DDD
330
143B
330
143C
330
143E
330
1A69
330
1A6B
330
1A6D
330
1A6F
330
1A71
330
1A73
330
1A81
330
1AA9
  0
DICTIONARY
  5
67
102
{ACAD_REACTORS
330
C
102
}
330
C
100
AcDbDictionary
281
     1
  3
ANNOALLVISIBLE
350
1D65
  3
CANNOSCALE
350
13D
  3
CMLEADERSTYLE
350
13C
  3
CTABLESTYLE
350
C5
  3
CVIEWDETAILSTYLE
350
21E
  3
CVIEWSECTIONSTYLE
350
21F
  3
DIMASSOC
350
68
  3
EXPORTMODELSPACE
350
DA8
  3
HIDETEXT
350
6C
  3
LAYEREVAL
350
1A5
  3
LAYERNOTIFY
350
1A6
  0
DICTIONARY
  5
1F7
102
{ACAD_REACTORS
330
1F6
102
}
330
1F6
100
AcDbDictionary
281
     1
  0
SORTENTSTABLE
  5
35E
102
{ACAD_REACTORS
330
1C5
102
}
330
1C5
100
AcDbSortentsTable
330
1F
331
B4E
  5
B7D
331
D83
  5
DDC
331
D8B
  5
E8D
331
D4C
  5
D66
331
B56
  5
B85
331
D93
  5
E9F
331
D54
  5
D6E
331
B5E
  5
C19
331
D5C
  5
D76
331
B66
  5
C21
331
1424
  5
870
331
143C
  5
14C6
331
C25
  5
90F
331
B6E
  5
C29
331
B2F
  5
B5E
331
D64
  5
D7E
331
D6C
  5
D86
331
B76
  5
C37
331
B37
  5
B66
331
D74
  5
D8E
331
B7E
  5
C43
331
B3F
  5
B6E
331
D7C
  5
D96
331
B47
  5
B76
331
7E5
  5
8A4
331
DDD
  5
EFD
331
139D
  5
83C
331
B24
  5
B53
331
93D
  5
86E
331
B4F
  5
B7E
331
D84
  5
DDD
331
D8C
  5
E93
331
D4D
  5
D67
331
B57
  5
B86
331
D94
  5
EA0
331
D55
  5
D6F
331
C1E
  5
865
331
B5F
  5
C1A
331
D5D
  5
D77
331
B67
  5
C22
331
1A4A
  5
908
331
9C5
  5
7E5
331
B28
  5
B57
331
B6F
  5
C2A
331
D65
  5
D7F
331
B30
  5
B5F
331
D6D
  5
D87
331
B77
  5
C38
331
B38
  5
B67
331
D75
  5
D8F
331
C3E
  5
D50
331
B7F
  5
C45
331
B40
  5
B6F
331
D7D
  5
D97
331
B87
  5
C4C
331
7E6
  5
83A
331
139E
  5
8C7
331
B25
  5
B54
331
B48
  5
B77
331
D85
  5
DDF
331
B50
  5
B7F
331
D8D
  5
E94
331
D4E
  5
D68
331
C17
  5
90C
331
B58
  5
B87
331
D95
  5
EA1
331
D56
  5
D70
331
C1F
  5
867
331
B60
  5
C1B
331
D5E
  5
D78
331
9A6
  5
90B
331
9BE
  5
831
331
143E
  5
16D9
331
B68
  5
C23
331
B29
  5
B58
331
C27
  5
B21
331
D66
  5
D80
331
B70
  5
C2B
331
B31
  5
B60
331
D6E
  5
D88
331
B78
  5
C3A
331
B39
  5
B68
331
D76
  5
D90
331
B80
  5
C46
331
B41
  5
B70
331
D7E
  5
D98
331
196E
  5
869
331
B26
  5
B55
331
99F
  5
830
331
B49
  5
B78
331
B88
  5
C4D
331
D86
  5
DE0
331
B51
  5
B80
331
D8E
  5
E95
331
D4F
  5
D69
331
C18
  5
B25
331
B59
  5
B88
331
D96
  5
EA2
331
D57
  5
D71
331
B61
  5
C1C
331
D5F
  5
D79
331
D98
  5
EA4
331
9A7
  5
90A
331
143F
  5
8C5
331
B69
  5
C24
331
B2A
  5
B59
331
D67
  5
D81
331
C28
  5
832
331
B71
  5
C2F
331
B32
  5
B61
331
D6F
  5
D89
331
B79
  5
C3B
331
B3A
  5
B69
331
D77
  5
D91
331
B81
  5
C47
331
B42
  5
B71
331
D7F
  5
D99
331
1967
  5
868
331
B1F
  5
B4E
331
B27
  5
B56
331
998
  5
8B8
331
1A0F
  5
906
331
B4A
  5
B79
331
B89
  5
C4E
331
D87
  5
DE1
331
B52
  5
B81
331
D8F
  5
E98
331
D50
  5
D6A
331
C19
  5
83B
331
B5A
  5
B89
331
D97
  5
EA3
331
D58
  5
D72
331
B62
  5
C1D
331
9A0
  5
B29
331
D99
  5
EF8
331
1440
  5
8C6
331
C21
  5
866
331
B6A
  5
C25
331
B2B
  5
B5A
331
D60
  5
D7A
331
D68
  5
D82
331
B72
  5
C33
331
B33
  5
B62
331
D70
  5
D8A
331
B7A
  5
C3C
331
B3B
  5
B6A
331
D78
  5
D92
331
B82
  5
C48
331
B43
  5
B72
331
1968
  5
86A
331
B20
  5
B4F
331
999
  5
8A5
331
13A9
  5
864
331
D80
  5
D9A
331
B4B
  5
B7A
331
B8A
  5
C4F
331
D88
  5
DE2
331
D49
  5
D63
331
B53
  5
B82
331
D90
  5
E99
331
D51
  5
D6B
331
C1A
  5
840
331
B5B
  5
B8A
331
D59
  5
D73
331
B63
  5
C1E
331
9A1
  5
B28
331
D9A
  5
EF9
331
C22
  5
910
331
B6B
  5
C26
331
B2C
  5
B5B
331
D61
  5
D7B
331
D69
  5
D83
331
B73
  5
C34
331
B34
  5
B63
331
D71
  5
D8B
331
B7B
  5
C3D
331
B3C
  5
B6B
331
D79
  5
D93
331
C42
  5
B24
331
B83
  5
C49
331
B44
  5
B73
331
1969
  5
86B
331
139A
  5
83E
331
B21
  5
B50
331
13A2
  5
861
331
13AA
  5
863
331
B4C
  5
B7B
331
D81
  5
D9B
331
D89
  5
E83
331
D4A
  5
D64
331
B54
  5
B83
331
D91
  5
E9D
331
D52
  5
D6C
331
C1B
  5
860
331
B5C
  5
C17
331
D5A
  5
D74
331
B64
  5
C1F
331
9A2
  5
B27
331
D9B
  5
EFA
331
C23
  5
911
331
B6C
  5
C27
331
B2D
  5
B5C
331
D62
  5
D7C
331
D6A
  5
D84
331
B74
  5
C35
331
B35
  5
B64
331
D72
  5
D8C
331
B7C
  5
C3E
331
B3D
  5
B6C
331
D7A
  5
D94
331
C43
  5
B23
331
B84
  5
C4A
331
B45
  5
B74
331
873
  5
909
331
196A
  5
86D
331
139B
  5
8C4
331
B22
  5
B51
331
13A3
  5
862
331
B4D
  5
B7C
331
D82
  5
D9C
331
D8A
  5
E86
331
D4B
  5
D65
331
B55
  5
B84
331
D92
  5
E9E
331
D53
  5
D6D
331
C1C
  5
83D
331
B5D
  5
C18
331
D5B
  5
D75
331
B65
  5
C20
331
9A3
  5
B26
331
D9C
  5
EFB
331
1423
  5
86F
331
143B
  5
14AE
331
7DC
  5
7DC
331
1933
  5
839
331
C24
  5
90E
331
B6D
  5
C28
331
B2E
  5
B5D
331
D63
  5
D7D
331
D6B
  5
D85
331
B75
  5
C36
331
B36
  5
B65
331
D73
  5
D8D
331
B7D
  5
C42
331
B3E
  5
B6D
331
D7B
  5
D95
331
C44
  5
B22
331
B85
  5
C4B
331
B46
  5
B75
331
7E4
  5
8BA
331
DDC
  5
EFC
331
196B
  5
86C
331
139C
  5
83F
331
B23
  5
B52
  0
DIMASSOC
  5
1CDA
102
{ACAD_REACTORS
330
1CD9
102
}
330
1CD9
100
AcDbDimAssoc
330
1CD8
 90
        3
 70
     0
 71
     0
  1
AcDbOsnapPointRef
 72
    13
331
1AAE
 73
     2
 91
        0
 40
0.0
 10
34595.83243935384
 20
27487.08292663064
 30
0.0
 75
     0
  1
AcDbOsnapPointRef
 72
     1
331
1AD5
 73
     2
 91
        0
 40
1.0
 10
34595.83243935384
 20
27539.08292663064
 30
0.0
 75
     0
  0
DIMASSOC
  5
1CDD
102
{ACAD_REACTORS
330
1CDC
102
}
330
1CDC
100
AcDbDimAssoc
330
1CDB
 90
        3
 70
     0
 71
     0
  1
AcDbOsnapPointRef
 72
    13
331
1AAE
 73
     2
 91
        0
 40
0.0
 10
34595.83243935384
 20
27487.08292663064
 30
0.0
 75
     0
  1
AcDbOsnapPointRef
 72
    13
331
1AF5
 73
     2
 91
        0
 40
4.712388980384689
 10
34556.83243935383
 20
27483.08292663064
 30
0.0
 75
     0
  0
DIMASSOC
  5
1CE0
102
{ACAD_REACTORS
330
1CDF
102
}
330
1CDF
100
AcDbDimAssoc
330
1CDE
 90
        3
 70
     0
 71
     0
  1
AcDbOsnapPointRef
 72
     2
331
1C13
 73
     2
 91
        0
 40
7.853981633974482
 10
34763.47354930242
 20
27539.08292697965
 30
0.0
 75
     0
  1
AcDbOsnapPointRef
 72
     2
331
1C31
 73
     2
 91
        0
 40
0.5
 10
34763.47354930243
 20
27483.08292697965
 30
0.0
 75
     0
  0
DIMASSOC
  5
1CE3
102
{ACAD_REACTORS
330
1CE2
102
}
330
1CE2
100
AcDbDimAssoc
330
1CE1
 90
        3
 70
     0
 71
     0
  1
AcDbOsnapPointRef
 72
    13
331
1A67
 73
     2
 91
        0
 40
0.0
 10
34763.47354930243
 20
27549.08292732867
 30
0.0
 75
     0
  1
AcDbOsnapPointRef
 72
     1
331
1C12
 73
     2
 91
        0
 40
1.0
 10
34779.47354930243
 20
27522.83292698075
 30
0.0
 75
     0
  0
DIMASSOC
  5
1CE6
102
{ACAD_REACTORS
330
1CE5
102
}
330
1CE5
100
AcDbDimAssoc
330
1CE4
 90
        3
 70
     0
 71
     0
  1
AcDbOsnapPointRef
 72
    13
331
1A67
 73
     2
 91
        0
 40
0.0
 10
34763.47354930243
 20
27549.08292732867
 30
0.0
 75
     0
  1
AcDbOsnapPointRef
 72
    13
331
1A89
 73
     2
 91
        0
 40
0.0
 10
34694.67354930242
 20
27507.08292697965
 30
0.0
 75
     0
  0
DIMASSOC
  5
1CE9
102
{ACAD_REACTORS
330
1CE8
102
}
330
1CE8
100
AcDbDimAssoc
330
1CE7
 90
        3
 70
     0
 71
     0
  1
AcDbOsnapPointRef
 72
     1
331
1C12
 73
     2
 91
        0
 40
1.0
 10
34779.47354930243
 20
27522.83292698075
 30
0.0
 75
     0
  1
AcDbOsnapPointRef
 72
    13
331
1A89
 73
     2
 91
        0
 40
0.0
 10
34694.67354930242
 20
27507.08292697965
 30
0.0
 75
     0
  0
DIMASSOC
  5
1CF2
102
{ACAD_REACTORS
330
1CF1
102
}
330
1CF1
100
AcDbDimAssoc
330
1CF0
 90
        3
 70
     0
 71
     0
  1
AcDbOsnapPointRef
 72
     2
331
1B06
 73
     2
 91
        0
 40
0.5000000000000001
 10
33551.83243935384
 20
27781.80442397008
 30
0.0
 75
     0
  1
AcDbOsnapPointRef
 72
     2
331
1B1D
 73
     2
 91
        0
 40
0.5000000000000001
 10
34596.83243935383
 20
27781.80442397008
 30
0.0
 75
     0
  0
XRECORD
  5
31A
102
{ACAD_REACTORS
330
319
102
}
330
319
100
AcDbXrecord
280
     1
 90
        1
340
104
  0
XRECORD
  5
31E
102
{ACAD_REACTORS
330
31D
102
}
330
31D
100
AcDbXrecord
280
     1
 90
        1
340
104
  0
ACDBDETAILVIEWSTYLE
  5
213
102
{ACAD_XDICTIONARY
360
22D
102
}
102
{ACAD_REACTORS
330
212
102
}
330
212
100
AcDbModelDocViewStyle
 70
     0
  3
Metric50
290
     0
100
AcDbDetailViewStyle
 70
     0
 71
     0
 90
        3
 71
     1
340
11
 62
   256
 40
5.0
340
0
 62
   256
 40
5.0
300

 40
0.0
280
     1
 71
     2
340
16
 90
       25
 62
   256
 71
     3
340
11
 62
   256
 40
5.0
 90
        0
 40
15.0
 90
        1
300
%<\AcVar ViewDetailId>% (%<\AcVar ViewScale \f "%sn">%)
 71
     4
340
16
 90
       25
 62
   256
340
16
 90
       25
 62
   256
280
     0
  0
LAYOUT
  5
22
102
{ACAD_XDICTIONARY
360
1FC
102
}
102
{ACAD_REACTORS
330
1A
102
}
330
1A
100
AcDbPlotSettings
  1

  2
Kyocera TASKalfa 3252ci(J) KX
  4
A3
  6

 40
4.984749794006347
 41
5.111724853515625
 42
5.154083251953125
 43
4.9847412109375
 44
297.0106506347656
 45
419.9889831542968
 46
0.0
 47
0.0
 48
0.0
 49
0.0
140
0.0
141
0.0
142
1.0
143
9.806410578662045
 70
 11952
 72
     1
 73
     1
 74
     0
  7
monochrome.stb
 75
     0
147
0.1019741109122964
 76
     0
 77
     2
 78
   300
148
-32876.12478992212
149
-27320.92452532269
100
AcDbLayout
  1
Model
 70
     1
 71
     0
 10
0.0
 20
0.0
 11
12.0
 21
9.0
 12
0.0
 22
0.0
 32
0.0
 14
0.0
 24
0.0
 34
0.0
 15
0.0
 25
0.0
 35
0.0
146
0.0
 13
0.0
 23
0.0
 33
0.0
 16
1.0
 26
0.0
 36
0.0
 17
0.0
 27
1.0
 37
0.0
 76
     0
330
1F
331
E1
1001
ACAD_PSEXT
1000
Kyocera TASKalfa 3252ci(J) KX
1000
Kyocera TASKalfa 3252ci(J) KX
1000
192.168.11.123
1000

1070
     0
  0
LAYOUT
  5
D3
102
{ACAD_REACTORS
330
1A
102
}
330
1A
100
AcDbPlotSettings
  1

  2
Kyocera TASKalfa 3050ci(J) KX
  4
A3
  6

 40
4.984749794006347
 41
5.111724853515625
 42
5.154083251953125
 43
4.9847412109375
 44
297.0106506347656
 45
419.9889831542968
 46
0.0
 47
0.0
 48
0.0
 49
0.0
140
0.0
141
0.0
142
1.0
143
1.0
 70
   688
 72
     1
 73
     1
 74
     5
  7
monochrome.stb
 75
    16
147
1.0
 76
     0
 77
     2
 78
   300
148
0.0
149
0.0
100
AcDbLayout
  1
レイアウト1
 70
     1
 71
     1
 10
-4.9847412109375
 20
-4.984749794006347
 11
415.0042419433593
 21
292.0259008407593
 12
0.0
 22
0.0
 32
0.0
 14
25.69999999999999
 24
19.5
 34
0.0
 15
231.3
 25
175.5
 35
0.0
146
0.0
 13
0.0
 23
0.0
 33
0.0
 16
1.0
 26
0.0
 36
0.0
 17
0.0
 27
1.0
 37
0.0
 76
     0
330
D2
331
318
1001
ACAD_PSEXT
1000
Kyocera TASKalfa 3050ci(J) KX
1000
Kyocera TASKalfa 3050ci(J) KX
1000
192.168.11.123
1000

1070
     0
  0
LAYOUT
  5
D7
102
{ACAD_REACTORS
330
1A
102
}
330
1A
100
AcDbPlotSettings
  1

  2
C:\Documents and Settings\basas\Application Data\Autodesk\AutoCAD 2005\R16.1\enu\plotters\Default Windows System Printer.pc3
  4

  6

 40
0.0
 41
0.0
 42
0.0
 43
0.0
 44
0.0
 45
0.0
 46
0.0
 47
0.0
 48
0.0
 49
0.0
140
0.0
141
0.0
142
1.0
143
1.0
 70
   688
 72
     0
 73
     0
 74
     5
  7
monochrome.stb
 75
    16
147
1.0
 76
     0
 77
     2
 78
   300
148
0.0
149
0.0
100
AcDbLayout
  1
レイアウト2
 70
     1
 71
     2
 10
0.0
 20
0.0
 11
12.0
 21
9.0
 12
0.0
 22
0.0
 32
0.0
 14
0.0
 24
0.0
 34
0.0
 15
0.0
 25
0.0
 35
0.0
146
0.0
 13
0.0
 23
0.0
 33
0.0
 16
1.0
 26
0.0
 36
0.0
 17
0.0
 27
1.0
 37
0.0
 76
     0
330
D6
  0
MATERIAL
  5
E4
102
{ACAD_XDICTIONARY
360
1F0
102
}
102
{ACAD_REACTORS
330
78
102
}
330
78
100
AcDbMaterial
  1
ByBlock
 94
       63
  0
MATERIAL
  5
E3
102
{ACAD_XDICTIONARY
360
1EE
102
}
102
{ACAD_REACTORS
330
78
102
}
330
78
100
AcDbMaterial
  1
ByLayer
 94
       63
  0
MATERIAL
  5
E5
102
{ACAD_XDICTIONARY
360
16A
102
}
102
{ACAD_REACTORS
330
78
102
}
330
78
100
AcDbMaterial
  1
Global
 43
0.0007999999797903
 43
0.0
 43
0.0
 43
0.0
 43
0.0
 43
0.0007999999797903
 43
0.0
 43
0.0
 43
0.0
 43
0.0
 43
1.0
 43
0.0
 43
0.0
 43
0.0
 43
0.0
 43
1.0
 49
0.0007999999797903
 49
0.0
 49
0.0
 49
0.0
 49
0.0
 49
0.0007999999797903
 49
0.0
 49
0.0
 49
0.0
 49
0.0
 49
1.0
 49
0.0
 49
0.0
 49
0.0
 49
0.0
 49
1.0
142
0.0007999999797903
142
0.0
142
0.0
142
0.0
142
0.0
142
0.0007999999797903
142
0.0
142
0.0
142
0.0
142
0.0
142
1.0
142
0.0
142
0.0
142
0.0
142
0.0
142
1.0
144
0.0007999999797903
144
0.0
144
0.0
144
0.0
144
0.0
144
0.0007999999797903
144
0.0
144
0.0
144
0.0
144
0.0
144
1.0
144
0.0
144
0.0
144
0.0
144
0.0
144
1.0
 94
       63
1001
ACAD
1070
    -1
1070
     3
1070
     0
1000

1071
        0
1070
     0
  0
MLEADERSTYLE
  5
132
102
{ACAD_REACTORS
330
124
102
}
330
124
100
AcDbMLeaderStyle
179
     2
170
     2
171
     1
172
     0
 90
        2
 40
0.0
 41
0.0
173
     1
 91
-1056964608
340
14
 92
       -2
290
     1
 42
2.0
291
     1
 43
8.0
  3
Standard
 44
4.0
300

342
11
174
     1
178
     1
175
     1
176
     0
 93
-1056964608
 45
4.0
292
     0
297
     0
 46
4.0
 94
-1056964608
 47
1.0
 49
1.0
140
1.0
293
     1
141
0.0
294
     1
177
     0
142
1.0
295
     0
296
     1
143
3.75
271
     0
272
     9
273
     9
298
     0
  0
MLEADERSTYLE
  5
125
102
{ACAD_REACTORS
330
124
102
}
330
124
100
AcDbMLeaderStyle
179
     2
170
     2
171
     1
172
     0
 90
        2
 40
0.0
 41
0.0
173
     1
 91
-1056964608
340
14
 92
       -2
290
     1
 42
2.0
291
     1
 43
8.0
  3
Standard
 44
4.0
300

342
11
174
     1
178
     1
175
     1
176
     0
 93
-1056964608
 45
4.0
292
     0
297
     0
 46
4.0
 94
-1056964608
 47
1.0
 49
1.0
140
1.0
293
     1
141
0.0
294
     1
177
     0
142
1.0
295
     0
296
     0
143
3.75
271
     0
272
     9
273
     9
298
     0
  0
MLINESTYLE
  5
18
102
{ACAD_REACTORS
330
17
102
}
330
17
100
AcDbMlineStyle
  2
STANDARD
 70
     0
  3

 62
   256
 51
90.0
 52
90.0
 71
     2
 49
0.5
 62
   256
  6
BYLAYER
 49
-0.5
 62
   256
  6
BYLAYER
  0
ACDBPLACEHOLDER
  5
F
102
{ACAD_REACTORS
330
E
102
}
330
E
  0
SCALE
  5
104
102
{ACAD_REACTORS
330
103
102
}
330
103
100
AcDbScale
 70
     0
300
1:1
140
1.0
141
1.0
290
     1
  0
SCALE
  5
1B5
102
{ACAD_REACTORS
330
103
102
}
330
103
100
AcDbScale
 70
     0
300
1:2
140
1.0
141
2.0
290
     0
  0
SCALE
  5
1B6
102
{ACAD_REACTORS
330
103
102
}
330
103
100
AcDbScale
 70
     0
300
1:4
140
1.0
141
4.0
290
     0
  0
SCALE
  5
1B7
102
{ACAD_REACTORS
330
103
102
}
330
103
100
AcDbScale
 70
     0
300
1:5
140
1.0
141
5.0
290
     0
  0
SCALE
  5
1B8
102
{ACAD_REACTORS
330
103
102
}
330
103
100
AcDbScale
 70
     0
300
1:8
140
1.0
141
8.0
290
     0
  0
SCALE
  5
1B9
102
{ACAD_REACTORS
330
103
102
}
330
103
100
AcDbScale
 70
     0
300
1:10
140
1.0
141
10.0
290
     0
  0
SCALE
  5
1BA
102
{ACAD_REACTORS
330
103
102
}
330
103
100
AcDbScale
 70
     0
300
1:16
140
1.0
141
16.0
290
     0
  0
SCALE
  5
1BB
102
{ACAD_REACTORS
330
103
102
}
330
103
100
AcDbScale
 70
     0
300
1:20
140
1.0
141
20.0
290
     0
  0
SCALE
  5
1BC
102
{ACAD_REACTORS
330
103
102
}
330
103
100
AcDbScale
 70
     0
300
1:30
140
1.0
141
30.0
290
     0
  0
SCALE
  5
1BD
102
{ACAD_REACTORS
330
103
102
}
330
103
100
AcDbScale
 70
     0
300
1:40
140
1.0
141
40.0
290
     0
  0
SCALE
  5
1BE
102
{ACAD_REACTORS
330
103
102
}
330
103
100
AcDbScale
 70
     0
300
1:50
140
1.0
141
50.0
290
     0
  0
SCALE
  5
1BF
102
{ACAD_REACTORS
330
103
102
}
330
103
100
AcDbScale
 70
     0
300
1:100
140
1.0
141
100.0
290
     0
  0
SCALE
  5
1C0
102
{ACAD_REACTORS
330
103
102
}
330
103
100
AcDbScale
 70
     0
300
2:1
140
2.0
141
1.0
290
     0
  0
SCALE
  5
1C1
102
{ACAD_REACTORS
330
103
102
}
330
103
100
AcDbScale
 70
     0
300
4:1
140
4.0
141
1.0
290
     0
  0
SCALE
  5
1C2
102
{ACAD_REACTORS
330
103
102
}
330
103
100
AcDbScale
 70
     0
300
8:1
140
8.0
141
1.0
290
     0
  0
SCALE
  5
1C3
102
{ACAD_REACTORS
330
103
102
}
330
103
100
AcDbScale
 70
     0
300
10:1
140
10.0
141
1.0
290
     0
  0
SCALE
  5
1C4
102
{ACAD_REACTORS
330
103
102
}
330
103
100
AcDbScale
 70
     0
300
100:1
140
100.0
141
1.0
290
     0
  0
ACDBSECTIONVIEWSTYLE
  5
211
102
{ACAD_XDICTIONARY
360
22B
102
}
102
{ACAD_REACTORS
330
210
102
}
330
210
100
AcDbModelDocViewStyle
 70
     0
  3
Metric50
290
     0
100
AcDbSectionViewStyle
 70
     0
 71
     0
 90
      102
 71
     1
340
11
 62
   256
 40
5.0
340
0
340
0
 62
   256
 40
5.0
300
I, O, Q, S, X, Z
 40
10.0
 90
        0
 40
2.5
 90
        0
 71
     2
340
16
 90
       25
 62
   256
340
16
 90
       50
 62
   256
 40
5.0
 40
2.5
 40
5.0
 71
     3
340
11
 62
   256
 40
5.0
 90
        0
 40
15.0
 90
        1
300
%<\AcVar ViewSectionStartId>%-%<\AcVar ViewSectionEndId>% (%<\AcVar ViewScale \f "%sn">%)
 71
     4
 62
   256
 62
   257
300
ANSI31
 40
1.0
 90
        0
290
     0
290
     0
 90
        6
 40
0.0
 40
1.570796326794896
 40
0.2617993877991494
 40
1.308996938995747
 40
-0.2617993877991494
 40
1.832595714594046
  0
TABLESTYLE
  5
98
102
{ACAD_XDICTIONARY
360
159
102
}
102
{ACAD_REACTORS
330
97
102
}
330
97
100
AcDbTableStyle
280
     0
  3
Standard
 70
     0
 71
     0
 40
1.5
 41
1.5
280
     0
281
     0
  7
Standard
140
4.5
170
     2
 62
     0
 63
     7
283
     0
 90
      512
 91
        0
  1

274
    -2
284
     1
 64
     0
275
    -2
285
     1
 65
     0
276
    -2
286
     1
 66
     0
277
    -2
287
     1
 67
     0
278
    -2
288
     1
 68
     0
279
    -2
289
     1
 69
     0
  7
Standard
140
6.0
170
     5
 62
     0
 63
     7
283
     0
 90
      512
 91
        0
  1

274
    -2
284
     1
 64
     0
275
    -2
285
     1
 65
     0
276
    -2
286
     1
 66
     0
277
    -2
287
     1
 67
     0
278
    -2
288
     1
 68
     0
279
    -2
289
     1
 69
     0
  7
Standard
140
4.5
170
     5
 62
     0
 63
     7
283
     0
 90
      512
 91
        0
  1

274
    -2
284
     1
 64
     0
275
    -2
285
     1
 65
     0
276
    -2
286
     1
 66
     0
277
    -2
287
     1
 67
     0
278
    -2
288
     1
 68
     0
279
    -2
289
     1
 69
     0
  0
VISUALSTYLE
  5
EC
102
{ACAD_REACTORS
330
E6
102
}
330
E6
100
AcDbVisualStyle
  2
2dWireframe
 70
     4
177
     3
291
     0
 70
    58
 90
        0
176
     1
 90
        2
176
     1
 90
        1
176
     1
 90
        0
176
     1
 40
0.6
176
     1
 40
30.0
176
     1
 62
     7
420
 16777215
176
     1
 90
        1
176
     1
 90
        4
176
     1
 62
     7
176
     1
 62
   257
176
     1
 90
        1
176
     1
 90
        1
176
     1
 40
1.0
176
     1
 90
        0
176
     1
 62
   257
176
     1
 40
1.0
176
     1
 90
        1
176
     1
 90
        6
176
     1
 90
        2
176
     1
 62
     7
176
     1
 90
        5
176
     1
 90
        0
176
     1
 90
        0
176
     1
290
     0
176
     1
 90
        1
176
     1
 40
0.0
176
     1
 90
        0
176
     1
290
     1
176
     1
290
     1
176
     1
290
     0
176
     1
290
     0
176
     1
290
     0
176
     1
290
     0
176
     1
290
     0
176
     1
290
     0
176
     1
290
     0
176
     1
 90
       50
176
     1
 40
0.0
176
     1
 40
1.0
176
     1
 90
        0
176
     1
 62
    18
420
        0
176
     1
 90
       50
176
     1
 90
        3
176
     1
 62
     5
420
      255
176
     1
290
     0
176
     1
 90
       50
176
     1
 90
       50
176
     1
 90
       50
176
     1
290
     0
176
     1
 90
       50
176
     1
 62
   256
176
     0
 40
1.0
176
     0
 90
        2
176
     1
  1
strokes_ogs.tif
176
     1
290
     0
176
     1
 40
1.0
176
     1
 40
1.0
176
     1
  0
VISUALSTYLE
  5
EB
102
{ACAD_REACTORS
330
E6
102
}
330
E6
100
AcDbVisualStyle
  2
Basic
 70
     7
177
     3
291
     1
 70
    58
 90
        1
176
     1
 90
        0
176
     1
 90
        1
176
     1
 90
        0
176
     1
 40
0.6
176
     1
 40
30.0
176
     1
 62
     7
420
 16777215
176
     1
 90
        0
176
     1
 90
        4
176
     1
 62
     7
176
     1
 62
   257
176
     1
 90
        1
176
     1
 90
        1
176
     1
 40
1.0
176
     1
 90
        8
176
     1
 62
     7
176
     1
 40
1.0
176
     1
 90
        1
176
     1
 90
        6
176
     1
 90
        2
176
     1
 62
     7
176
     1
 90
        5
176
     1
 90
        0
176
     1
 90
        0
176
     1
290
     0
176
     1
 90
        1
176
     1
 40
0.0
176
     1
 90
        0
176
     1
290
     0
176
     1
290
     1
176
     1
290
     1
176
     1
290
     0
176
     1
290
     0
176
     1
290
     0
176
     1
290
     0
176
     1
290
     0
176
     1
290
     0
176
     1
 90
       50
176
     1
 40
0.0
176
     1
 40
1.0
176
     1
 90
        0
176
     1
 62
    18
420
        0
176
     1
 90
       50
176
     1
 90
        3
176
     1
 62
     5
420
      255
176
     1
290
     0
176
     1
 90
       50
176
     1
 90
       50
176
     1
 90
       50
176
     1
290
     0
176
     1
 90
       50
176
     1
 62
   256
176
     0
 40
1.0
176
     0
 90
        2
176
     1
  1
strokes_ogs.tif
176
     1
290
     0
176
     1
 40
1.0
176
     1
 40
1.0
176
     1
  0
VISUALSTYLE
  5
F2
102
{ACAD_REACTORS
330
E6
102
}
330
E6
100
AcDbVisualStyle
  2
Brighten
 70
    12
177
     3
291
     1
 70
    58
 90
        2
176
     1
 90
        2
176
     1
 90
        1
176
     1
 90
        0
176
     1
 40
0.6
176
     1
 40
30.0
176
     1
 62
     7
420
 16777215
176
     1
 90
        1
176
     1
 90
        4
176
     1
 62
     7
176
     1
 62
   257
176
     1
 90
        1
176
     1
 90
        1
176
     1
 40
1.0
176
     1
 90
        8
176
     1
 62
     7
176
     1
 40
1.0
176
     1
 90
        1
176
     1
 90
        6
176
     1
 90
        2
176
     1
 62
     7
176
     1
 90
        5
176
     1
 90
        0
176
     1
 90
        0
176
     1
290
     0
176
     1
 90
        1
176
     1
 40
50.0
176
     1
 90
        0
176
     1
290
     0
176
     1
290
     1
176
     1
290
     1
176
     1
290
     0
176
     1
290
     0
176
     1
290
     0
176
     1
290
     0
176
     1
290
     0
176
     1
290
     0
176
     1
 90
       50
176
     1
 40
0.0
176
     1
 40
1.0
176
     1
 90
        0
176
     1
 62
    18
420
        0
176
     1
 90
       50
176
     1
 90
        3
176
     1
 62
     5
420
      255
176
     1
290
     0
176
     1
 90
       50
176
     1
 90
       50
176
     1
 90
       50
176
     1
290
     0
176
     1
 90
       50
176
     1
 62
   256
176
     0
 40
1.0
176
     0
 90
        2
176
     1
  1
strokes_ogs.tif
176
     1
290
     0
176
     1
 40
1.0
176
     1
 40
1.0
176
     1
  0
VISUALSTYLE
  5
F6
102
{ACAD_REACTORS
330
E6
102
}
330
E6
100
AcDbVisualStyle
  2
ColorChange
 70
    16
177
     3
291
     1
 70
    58
 90
        2
176
     1
 90
        2
176
     1
 90
        3
176
     1
 90
        0
176
     1
 40
0.6
176
     1
 40
30.0
176
     1
 62
     8
420
  8421504
176
     1
 90
        1
176
     1
 90
        4
176
     1
 62
     7
176
     1
 62
   257
176
     1
 90
        1
176
     1
 90
        1
176
     1
 40
1.0
176
     1
 90
        8
176
     1
 62
     8
420
  8421504
176
     1
 40
1.0
176
     1
 90
        1
176
     1
 90
        6
176
     1
 90
        2
176
     1
 62
     7
176
     1
 90
        5
176
     1
 90
        0
176
     1
 90
        0
176
     1
290
     0
176
     1
 90
        1
176
     1
 40
0.0
176
     1
 90
        0
176
     1
290
     0
176
     1
290
     1
176
     1
290
     1
176
     1
290
     0
176
     1
290
     0
176
     1
290
     0
176
     1
290
     0
176
     1
290
     0
176
     1
290
     0
176
     1
 90
       50
176
     1
 40
0.0
176
     1
 40
1.0
176
     1
 90
        0
176
     1
 62
    18
420
        0
176
     1
 90
       50
176
     1
 90
        3
176
     1
 62
     5
420
      255
176
     1
290
     0
176
     1
 90
       50
176
     1
 90
       50
176
     1
 90
       50
176
     1
290
     0
176
     1
 90
       50
176
     1
 62
   256
176
     0
 40
1.0
176
     0
 90
        2
176
     1
  1
strokes_ogs.tif
176
     1
290
     0
176
     1
 40
1.0
176
     1
 40
1.0
176
     1
  0
VISUALSTYLE
  5
EF
102
{ACAD_REACTORS
330
E6
102
}
330
E6
100
AcDbVisualStyle
  2
Conceptual
 70
     9
177
     3
291
     0
 70
    58
 90
        3
176
     1
 90
        2
176
     1
 90
        1
176
     1
 90
        0
176
     1
 40
0.6
176
     1
 40
30.0
176
     1
 62
     7
420
 16777215
176
     1
 90
        2
176
     1
 90
        2
176
     1
 62
     7
176
     1
 62
   257
176
     1
 90
        1
176
     1
 90
        1
176
     1
 40
40.0
176
     1
 90
        8
176
     1
 62
     7
176
     1
 40
1.0
176
     1
 90
        1
176
     1
 90
        6
176
     1
 90
        2
176
     1
 62
     7
176
     1
 90
        3
176
     1
 90
        0
176
     1
 90
        0
176
     1
290
     0
176
     1
 90
        1
176
     1
 40
0.0
176
     1
 90
        0
176
     1
290
     0
176
     1
290
     1
176
     1
290
     1
176
     1
290
     0
176
     1
290
     0
176
     1
290
     0
176
     1
290
     0
176
     1
290
     0
176
     1
290
     0
176
     1
 90
       50
176
     1
 40
0.0
176
     1
 40
1.0
176
     1
 90
        0
176
     1
 62
    18
420
        0
176
     1
 90
       50
176
     1
 90
        3
176
     1
 62
     5
420
      255
176
     1
290
     0
176
     1
 90
       50
176
     1
 90
       50
176
     1
 90
       50
176
     1
290
     0
176
     1
 90
       50
176
     1
 62
   256
176
     0
 40
1.0
176
     0
 90
        2
176
     1
  1
strokes_ogs.tif
176
     1
290
     0
176
     1
 40
1.0
176
     1
 40
1.0
176
     1
  0
VISUALSTYLE
  5
F1
102
{ACAD_REACTORS
330
E6
102
}
330
E6
100
AcDbVisualStyle
  2
Dim
 70
    11
177
     3
291
     1
 70
    58
 90
        2
176
     1
 90
        2
176
     1
 90
        1
176
     1
 90
        0
176
     1
 40
0.6
176
     1
 40
30.0
176
     1
 62
     7
420
 16777215
176
     1
 90
        1
176
     1
 90
        4
176
     1
 62
     7
176
     1
 62
   257
176
     1
 90
        1
176
     1
 90
        1
176
     1
 40
1.0
176
     1
 90
        8
176
     1
 62
     7
176
     1
 40
1.0
176
     1
 90
        1
176
     1
 90
        6
176
     1
 90
        2
176
     1
 62
     7
176
     1
 90
        5
176
     1
 90
        0
176
     1
 90
        0
176
     1
290
     0
176
     1
 90
        1
176
     1
 40
-50.0
176
     1
 90
        0
176
     1
290
     0
176
     1
290
     1
176
     1
290
     1
176
     1
290
     0
176
     1
290
     0
176
     1
290
     0
176
     1
290
     0
176
     1
290
     0
176
     1
290
     0
176
     1
 90
       50
176
     1
 40
0.0
176
     1
 40
1.0
176
     1
 90
        0
176
     1
 62
    18
420
        0
176
     1
 90
       50
176
     1
 90
        3
176
     1
 62
     5
420
      255
176
     1
290
     0
176
     1
 90
       50
176
     1
 90
       50
176
     1
 90
       50
176
     1
290
     0
176
     1
 90
       50
176
     1
 62
   256
176
     0
 40
1.0
176
     0
 90
        2
176
     1
  1
strokes_ogs.tif
176
     1
290
     0
176
     1
 40
1.0
176
     1
 40
1.0
176
     1
  0
VISUALSTYLE
  5
1DD
102
{ACAD_REACTORS
330
E6
102
}
330
E6
100
AcDbVisualStyle
  2
EdgeColorOff
 70
    22
177
     3
291
     1
 70
    58
 90
        2
176
     0
 90
        2
176
     0
 90
        0
176
     0
 90
        0
176
     0
 40
0.6
176
     0
 40
30.0
176
     0
 62
     7
420
 16777215
176
     0
 90
        1
176
     0
 90
        4
176
     0
 62
     7
176
     0
 62
   257
176
     0
 90
        1
176
     0
 90
        1
176
     0
 40
1.0
176
     0
 90
        8
176
     2
 62
     7
176
     0
 40
1.0
176
     0
 90
        1
176
     0
 90
        6
176
     0
 90
        2
176
     0
 62
     7
176
     0
 90
        5
176
     0
 90
        0
176
     0
 90
        0
176
     0
290
     0
176
     0
 90
        1
176
     0
 40
0.0
176
     0
 90
        0
176
     0
290
     0
176
     1
290
     1
176
     1
290
     1
176
     1
290
     0
176
     1
290
     0
176
     1
290
     0
176
     1
290
     0
176
     1
290
     0
176
     1
290
     0
176
     1
 90
       50
176
     1
 40
0.0
176
     1
 40
1.0
176
     1
 90
        0
176
     1
 62
    18
420
        0
176
     1
 90
       50
176
     1
 90
        3
176
     1
 62
     5
420
      255
176
     1
290
     0
176
     1
 90
       50
176
     1
 90
       50
176
     1
 90
       50
176
     1
290
     0
176
     1
 90
       50
176
     1
 62
   256
176
     0
 40
1.0
176
     0
 90
        2
176
     1
  1
strokes_ogs.tif
176
     1
290
     0
176
     1
 40
1.0
176
     1
 40
1.0
176
     1
  0
VISUALSTYLE
  5
F5
102
{ACAD_REACTORS
330
E6
102
}
330
E6
100
AcDbVisualStyle
  2
Facepattern
 70
    15
177
     3
291
     1
 70
    58
 90
        2
176
     1
 90
        2
176
     1
 90
        1
176
     1
 90
        0
176
     1
 40
0.6
176
     1
 40
30.0
176
     1
 62
     7
420
 16777215
176
     1
 90
        1
176
     1
 90
        4
176
     1
 62
     7
176
     1
 62
   257
176
     1
 90
        1
176
     1
 90
        1
176
     1
 40
1.0
176
     1
 90
        8
176
     1
 62
     7
176
     1
 40
1.0
176
     1
 90
        1
176
     1
 90
        6
176
     1
 90
        2
176
     1
 62
     7
176
     1
 90
        5
176
     1
 90
        0
176
     1
 90
        0
176
     1
290
     0
176
     1
 90
        1
176
     1
 40
0.0
176
     1
 90
        0
176
     1
290
     0
176
     1
290
     1
176
     1
290
     1
176
     1
290
     0
176
     1
290
     0
176
     1
290
     0
176
     1
290
     0
176
     1
290
     0
176
     1
290
     0
176
     1
 90
       50
176
     1
 40
0.0
176
     1
 40
1.0
176
     1
 90
        0
176
     1
 62
    18
420
        0
176
     1
 90
       50
176
     1
 90
        3
176
     1
 62
     5
420
      255
176
     1
290
     0
176
     1
 90
       50
176
     1
 90
       50
176
     1
 90
       50
176
     1
290
     0
176
     1
 90
       50
176
     1
 62
   256
176
     0
 40
1.0
176
     0
 90
        2
176
     1
  1
strokes_ogs.tif
176
     1
290
     0
176
     1
 40
1.0
176
     1
 40
1.0
176
     1
  0
VISUALSTYLE
  5
E7
102
{ACAD_REACTORS
330
E6
102
}
330
E6
100
AcDbVisualStyle
  2
Flat
 70
     0
177
     3
291
     1
 70
    58
 90
        2
176
     1
 90
        1
176
     1
 90
        1
176
     1
 90
        2
176
     1
 40
0.6
176
     1
 40
30.0
176
     1
 62
     7
420
 16777215
176
     1
 90
        0
176
     1
 90
        0
176
     1
 62
     7
176
     1
 62
   257
176
     1
 90
        1
176
     1
 90
        1
176
     1
 40
1.0
176
     1
 90
        8
176
     1
 62
     7
176
     1
 40
1.0
176
     1
 90
        1
176
     1
 90
        6
176
     1
 90
        2
176
     1
 62
     7
176
     1
 90
        5
176
     1
 90
        0
176
     1
 90
        0
176
     1
290
     0
176
     1
 90
       13
176
     1
 40
0.0
176
     1
 90
        0
176
     1
290
     0
176
     1
290
     1
176
     1
290
     1
176
     1
290
     0
176
     1
290
     0
176
     1
290
     0
176
     1
290
     0
176
     1
290
     0
176
     1
290
     0
176
     1
 90
       50
176
     1
 40
0.0
176
     1
 40
1.0
176
     1
 90
        0
176
     1
 62
    18
420
        0
176
     1
 90
       50
176
     1
 90
        3
176
     1
 62
     5
420
      255
176
     1
290
     0
176
     1
 90
       50
176
     1
 90
       50
176
     1
 90
       50
176
     1
290
     0
176
     1
 90
       50
176
     1
 62
   256
176
     0
 40
1.0
176
     0
 90
        2
176
     1
  1
strokes_ogs.tif
176
     1
290
     0
176
     1
 40
1.0
176
     1
 40
1.0
176
     1
  0
VISUALSTYLE
  5
E8
102
{ACAD_REACTORS
330
E6
102
}
330
E6
100
AcDbVisualStyle
  2
FlatWithEdges
 70
     1
177
     3
291
     1
 70
    58
 90
        2
176
     1
 90
        1
176
     1
 90
        1
176
     1
 90
        2
176
     1
 40
0.6
176
     1
 40
30.0
176
     1
 62
     7
420
 16777215
176
     1
 90
        1
176
     1
 90
        0
176
     1
 62
     7
176
     1
 62
   257
176
     1
 90
        1
176
     1
 90
        1
176
     1
 40
1.0
176
     1
 90
        0
176
     1
 62
   257
176
     1
 40
1.0
176
     1
 90
        1
176
     1
 90
        6
176
     1
 90
        2
176
     1
 62
     7
176
     1
 90
        5
176
     1
 90
        0
176
     1
 90
        0
176
     1
290
     0
176
     1
 90
       13
176
     1
 40
0.0
176
     1
 90
        0
176
     1
290
     0
176
     1
290
     1
176
     1
290
     1
176
     1
290
     0
176
     1
290
     0
176
     1
290
     0
176
     1
290
     0
176
     1
290
     0
176
     1
290
     0
176
     1
 90
       50
176
     1
 40
0.0
176
     1
 40
1.0
176
     1
 90
        0
176
     1
 62
    18
420
        0
176
     1
 90
       50
176
     1
 90
        3
176
     1
 62
     5
420
      255
176
     1
290
     0
176
     1
 90
       50
176
     1
 90
       50
176
     1
 90
       50
176
     1
290
     0
176
     1
 90
       50
176
     1
 62
   256
176
     0
 40
1.0
176
     0
 90
        2
176
     1
  1
strokes_ogs.tif
176
     1
290
     0
176
     1
 40
1.0
176
     1
 40
1.0
176
     1
  0
VISUALSTYLE
  5
E9
102
{ACAD_REACTORS
330
E6
102
}
330
E6
100
AcDbVisualStyle
  2
Gouraud
 70
     2
177
     3
291
     1
 70
    58
 90
        2
176
     1
 90
        2
176
     1
 90
        1
176
     1
 90
        2
176
     1
 40
0.6
176
     1
 40
30.0
176
     1
 62
     7
420
 16777215
176
     1
 90
        0
176
     1
 90
        0
176
     1
 62
     7
176
     1
 62
   257
176
     1
 90
        1
176
     1
 90
        1
176
     1
 40
1.0
176
     1
 90
        0
176
     1
 62
     7
176
     1
 40
1.0
176
     1
 90
        1
176
     1
 90
        6
176
     1
 90
        2
176
     1
 62
     7
176
     1
 90
        5
176
     1
 90
        0
176
     1
 90
        0
176
     1
290
     0
176
     1
 90
       13
176
     1
 40
0.0
176
     1
 90
        0
176
     1
290
     0
176
     1
290
     1
176
     1
290
     1
176
     1
290
     0
176
     1
290
     0
176
     1
290
     0
176
     1
290
     0
176
     1
290
     0
176
     1
290
     0
176
     1
 90
       50
176
     1
 40
0.0
176
     1
 40
1.0
176
     1
 90
        0
176
     1
 62
    18
420
        0
176
     1
 90
       50
176
     1
 90
        3
176
     1
 62
     5
420
      255
176
     1
290
     0
176
     1
 90
       50
176
     1
 90
       50
176
     1
 90
       50
176
     1
290
     0
176
     1
 90
       50
176
     1
 62
   256
176
     0
 40
1.0
176
     0
 90
        2
176
     1
  1
strokes_ogs.tif
176
     1
290
     0
176
     1
 40
1.0
176
     1
 40
1.0
176
     1
  0
VISUALSTYLE
  5
EA
102
{ACAD_REACTORS
330
E6
102
}
330
E6
100
AcDbVisualStyle
  2
GouraudWithEdges
 70
     3
177
     3
291
     1
 70
    58
 90
        2
176
     1
 90
        2
176
     1
 90
        1
176
     1
 90
        2
176
     1
 40
0.6
176
     1
 40
30.0
176
     1
 62
     7
420
 16777215
176
     1
 90
        1
176
     1
 90
        0
176
     1
 62
     7
176
     1
 62
   257
176
     1
 90
        1
176
     1
 90
        1
176
     1
 40
1.0
176
     1
 90
        0
176
     1
 62
   257
176
     1
 40
1.0
176
     1
 90
        1
176
     1
 90
        6
176
     1
 90
        2
176
     1
 62
     7
176
     1
 90
        5
176
     1
 90
        0
176
     1
 90
        0
176
     1
290
     0
176
     1
 90
       13
176
     1
 40
0.0
176
     1
 90
        0
176
     1
290
     0
176
     1
290
     1
176
     1
290
     1
176
     1
290
     0
176
     1
290
     0
176
     1
290
     0
176
     1
290
     0
176
     1
290
     0
176
     1
290
     0
176
     1
 90
       50
176
     1
 40
0.0
176
     1
 40
1.0
176
     1
 90
        0
176
     1
 62
    18
420
        0
176
     1
 90
       50
176
     1
 90
        3
176
     1
 62
     5
420
      255
176
     1
290
     0
176
     1
 90
       50
176
     1
 90
       50
176
     1
 90
       50
176
     1
290
     0
176
     1
 90
       50
176
     1
 62
   256
176
     0
 40
1.0
176
     0
 90
        2
176
     1
  1
strokes_ogs.tif
176
     1
290
     0
176
     1
 40
1.0
176
     1
 40
1.0
176
     1
  0
VISUALSTYLE
  5
EE
102
{ACAD_REACTORS
330
E6
102
}
330
E6
100
AcDbVisualStyle
  2
Hidden
 70
     6
177
     3
291
     0
 70
    58
 90
        1
176
     1
 90
        2
176
     1
 90
        2
176
     1
 90
        0
176
     1
 40
0.6
176
     1
 40
30.0
176
     1
 62
     7
420
 16777215
176
     1
 90
        2
176
     1
 90
        2
176
     1
 62
     7
176
     1
 62
   257
176
     1
 90
        2
176
     1
 90
        1
176
     1
 40
40.0
176
     1
 90
        0
176
     1
 62
   257
176
     1
 40
1.0
176
     1
 90
        1
176
     1
 90
        6
176
     1
 90
        2
176
     1
 62
     7
176
     1
 90
        3
176
     1
 90
        0
176
     1
 90
        0
176
     1
290
     0
176
     1
 90
        1
176
     1
 40
0.0
176
     1
 90
        0
176
     1
290
     0
176
     1
290
     1
176
     1
290
     1
176
     1
290
     0
176
     1
290
     0
176
     1
290
     0
176
     1
290
     0
176
     1
290
     0
176
     1
290
     0
176
     1
 90
       50
176
     1
 40
0.0
176
     1
 40
1.0
176
     1
 90
        0
176
     1
 62
    18
420
        0
176
     1
 90
       50
176
     1
 90
        3
176
     1
 62
     5
420
      255
176
     1
290
     0
176
     1
 90
       50
176
     1
 90
       50
176
     1
 90
       50
176
     1
290
     0
176
     1
 90
       50
176
     1
 62
   256
176
     0
 40
1.0
176
     0
 90
        2
176
     1
  1
strokes_ogs.tif
176
     1
290
     0
176
     1
 40
1.0
176
     1
 40
1.0
176
     1
  0
VISUALSTYLE
  5
1DB
102
{ACAD_REACTORS
330
E6
102
}
330
E6
100
AcDbVisualStyle
  2
JitterOff
 70
    20
177
     3
291
     1
 70
    58
 90
        2
176
     0
 90
        2
176
     0
 90
        0
176
     0
 90
        0
176
     0
 40
0.6
176
     0
 40
30.0
176
     0
 62
     7
420
 16777215
176
     0
 90
        1
176
     0
 90
        4
176
     0
 62
     7
176
     0
 62
   257
176
     0
 90
        1
176
     0
 90
        1
176
     0
 40
1.0
176
     0
 90
       10
176
     2
 62
     7
176
     0
 40
1.0
176
     0
 90
        1
176
     0
 90
        6
176
     0
 90
        2
176
     0
 62
     7
176
     0
 90
        5
176
     0
 90
        0
176
     0
 90
        0
176
     0
290
     0
176
     0
 90
        1
176
     0
 40
0.0
176
     0
 90
        0
176
     0
290
     0
176
     1
290
     1
176
     1
290
     1
176
     1
290
     0
176
     1
290
     0
176
     1
290
     0
176
     1
290
     0
176
     1
290
     0
176
     1
290
     0
176
     1
 90
       50
176
     1
 40
0.0
176
     1
 40
1.0
176
     1
 90
        0
176
     1
 62
    18
420
        0
176
     1
 90
       50
176
     1
 90
        3
176
     1
 62
     5
420
      255
176
     1
290
     0
176
     1
 90
       50
176
     1
 90
       50
176
     1
 90
       50
176
     1
290
     0
176
     1
 90
       50
176
     1
 62
   256
176
     0
 40
1.0
176
     0
 90
        2
176
     1
  1
strokes_ogs.tif
176
     1
290
     0
176
     1
 40
1.0
176
     1
 40
1.0
176
     1
  0
VISUALSTYLE
  5
F4
102
{ACAD_REACTORS
330
E6
102
}
330
E6
100
AcDbVisualStyle
  2
Linepattern
 70
    14
177
     3
291
     1
 70
    58
 90
        2
176
     1
 90
        2
176
     1
 90
        1
176
     1
 90
        0
176
     1
 40
0.6
176
     1
 40
30.0
176
     1
 62
     7
420
 16777215
176
     1
 90
        1
176
     1
 90
        4
176
     1
 62
     7
176
     1
 62
   257
176
     1
 90
        7
176
     1
 90
        7
176
     1
 40
1.0
176
     1
 90
        8
176
     1
 62
     7
176
     1
 40
1.0
176
     1
 90
        1
176
     1
 90
        6
176
     1
 90
        2
176
     1
 62
     7
176
     1
 90
        5
176
     1
 90
        0
176
     1
 90
        0
176
     1
290
     0
176
     1
 90
        1
176
     1
 40
0.0
176
     1
 90
        0
176
     1
290
     0
176
     1
290
     1
176
     1
290
     1
176
     1
290
     0
176
     1
290
     0
176
     1
290
     0
176
     1
290
     0
176
     1
290
     0
176
     1
290
     0
176
     1
 90
       50
176
     1
 40
0.0
176
     1
 40
1.0
176
     1
 90
        0
176
     1
 62
    18
420
        0
176
     1
 90
       50
176
     1
 90
        3
176
     1
 62
     5
420
      255
176
     1
290
     0
176
     1
 90
       50
176
     1
 90
       50
176
     1
 90
       50
176
     1
290
     0
176
     1
 90
       50
176
     1
 62
   256
176
     0
 40
1.0
176
     0
 90
        2
176
     1
  1
strokes_ogs.tif
176
     1
290
     0
176
     1
 40
1.0
176
     1
 40
1.0
176
     1
  0
VISUALSTYLE
  5
1DC
102
{ACAD_REACTORS
330
E6
102
}
330
E6
100
AcDbVisualStyle
  2
OverhangOff
 70
    21
177
     3
291
     1
 70
    58
 90
        2
176
     0
 90
        2
176
     0
 90
        0
176
     0
 90
        0
176
     0
 40
0.6
176
     0
 40
30.0
176
     0
 62
     7
420
 16777215
176
     0
 90
        1
176
     0
 90
        4
176
     0
 62
     7
176
     0
 62
   257
176
     0
 90
        1
176
     0
 90
        1
176
     0
 40
1.0
176
     0
 90
        9
176
     2
 62
     7
176
     0
 40
1.0
176
     0
 90
        1
176
     0
 90
        6
176
     0
 90
        2
176
     0
 62
     7
176
     0
 90
        5
176
     0
 90
        0
176
     0
 90
        0
176
     0
290
     0
176
     0
 90
        1
176
     0
 40
0.0
176
     0
 90
        0
176
     0
290
     0
176
     1
290
     1
176
     1
290
     1
176
     1
290
     0
176
     1
290
     0
176
     1
290
     0
176
     1
290
     0
176
     1
290
     0
176
     1
290
     0
176
     1
 90
       50
176
     1
 40
0.0
176
     1
 40
1.0
176
     1
 90
        0
176
     1
 62
    18
420
        0
176
     1
 90
       50
176
     1
 90
        3
176
     1
 62
     5
420
      255
176
     1
290
     0
176
     1
 90
       50
176
     1
 90
       50
176
     1
 90
       50
176
     1
290
     0
176
     1
 90
       50
176
     1
 62
   256
176
     0
 40
1.0
176
     0
 90
        2
176
     1
  1
strokes_ogs.tif
176
     1
290
     0
176
     1
 40
1.0
176
     1
 40
1.0
176
     1
  0
VISUALSTYLE
  5
F0
102
{ACAD_REACTORS
330
E6
102
}
330
E6
100
AcDbVisualStyle
  2
Realistic
 70
     8
177
     3
291
     0
 70
    58
 90
        2
176
     1
 90
        3
176
     1
 90
        0
176
     1
 90
        2
176
     1
 40
0.6
176
     1
 40
30.0
176
     1
 62
     7
420
 16777215
176
     1
 90
        0
176
     1
 90
        0
176
     1
 62
     7
176
     1
 62
   257
176
     1
 90
        1
176
     1
 90
        1
176
     1
 40
1.0
176
     1
 90
        8
176
     1
 62
   257
176
     1
 40
1.0
176
     1
 90
        1
176
     1
 90
        6
176
     1
 90
        2
176
     1
 62
     7
176
     1
 90
        3
176
     1
 90
        0
176
     1
 90
        0
176
     1
290
     0
176
     1
 90
       13
176
     1
 40
0.0
176
     1
 90
        0
176
     1
290
     0
176
     1
290
     1
176
     1
290
     1
176
     1
290
     0
176
     1
290
     0
176
     1
290
     0
176
     1
290
     0
176
     1
290
     0
176
     1
290
     0
176
     1
 90
       50
176
     1
 40
0.0
176
     1
 40
1.0
176
     1
 90
        0
176
     1
 62
    18
420
        0
176
     1
 90
       50
176
     1
 90
        3
176
     1
 62
     5
420
      255
176
     1
290
     0
176
     1
 90
       50
176
     1
 90
       50
176
     1
 90
       50
176
     1
290
     0
176
     1
 90
       50
176
     1
 62
   256
176
     0
 40
1.0
176
     0
 90
        2
176
     1
  1
strokes_ogs.tif
176
     1
290
     0
176
     1
 40
1.0
176
     1
 40
1.0
176
     1
  0
VISUALSTYLE
  5
1EA
102
{ACAD_REACTORS
330
E6
102
}
330
E6
100
AcDbVisualStyle
  2
Shaded
 70
    27
177
     3
291
     0
 70
    58
 90
        2
176
     1
 90
        2
176
     1
 90
        1
176
     1
 90
        2
176
     1
 40
0.6
176
     1
 40
30.0
176
     1
 62
     7
420
 16777215
176
     1
 90
        0
176
     1
 90
        4
176
     1
 62
     7
176
     1
 62
   257
176
     1
 90
        1
176
     1
 90
        1
176
     1
 40
1.0
176
     1
 90
        8
176
     1
 62
   257
176
     1
 40
1.0
176
     1
 90
        1
176
     1
 90
        6
176
     1
 90
        2
176
     1
 62
     8
420
  7895160
176
     1
 90
        3
176
     1
 90
        0
176
     1
 90
        0
176
     1
290
     0
176
     1
 90
        5
176
     1
 40
0.0
176
     1
 90
        0
176
     1
290
     0
176
     1
290
     1
176
     1
290
     1
176
     1
290
     0
176
     1
290
     0
176
     1
290
     0
176
     1
290
     0
176
     1
290
     0
176
     1
290
     0
176
     1
 90
       50
176
     1
 40
0.0
176
     1
 40
1.0
176
     1
 90
        0
176
     1
 62
    18
420
        0
176
     1
 90
       50
176
     1
 90
        3
176
     1
 62
     5
420
      255
176
     1
290
     0
176
     1
 90
       50
176
     1
 90
       50
176
     1
 90
       50
176
     1
290
     0
176
     1
 90
       50
176
     1
 62
   256
176
     0
 40
1.0
176
     0
 90
        2
176
     1
  1
strokes_ogs.tif
176
     1
290
     0
176
     1
 40
1.0
176
     1
 40
1.0
176
     1
  0
VISUALSTYLE
  5
1E9
102
{ACAD_REACTORS
330
E6
102
}
330
E6
100
AcDbVisualStyle
  2
Shaded with edges
 70
    26
177
     3
291
     0
 70
    58
 90
        2
176
     1
 90
        2
176
     1
 90
        1
176
     1
 90
        2
176
     1
 40
0.6
176
     1
 40
30.0
176
     1
 62
     7
420
 16777215
176
     1
 90
        1
176
     1
 90
       10
176
     1
 62
     7
176
     1
 62
   257
176
     1
 90
        2
176
     1
 90
        1
176
     1
 40
1.0
176
     1
 90
        8
176
     1
 62
   257
176
     1
 40
1.0
176
     1
 90
        1
176
     1
 90
        6
176
     1
 90
        2
176
     1
 62
     7
176
     1
 90
        3
176
     1
 90
        0
176
     1
 90
        0
176
     1
290
     0
176
     1
 90
        5
176
     1
 40
0.0
176
     1
 90
        0
176
     1
290
     0
176
     1
290
     1
176
     1
290
     1
176
     1
290
     0
176
     1
290
     0
176
     1
290
     0
176
     1
290
     0
176
     1
290
     0
176
     1
290
     0
176
     1
 90
       50
176
     1
 40
0.0
176
     1
 40
1.0
176
     1
 90
        0
176
     1
 62
    18
420
        0
176
     1
 90
       50
176
     1
 90
        3
176
     1
 62
     5
420
      255
176
     1
290
     0
176
     1
 90
       50
176
     1
 90
       50
176
     1
 90
       50
176
     1
290
     0
176
     1
 90
       50
176
     1
 62
   256
176
     0
 40
1.0
176
     0
 90
        2
176
     1
  1
strokes_ogs.tif
176
     1
290
     0
176
     1
 40
1.0
176
     1
 40
1.0
176
     1
  0
VISUALSTYLE
  5
1E6
102
{ACAD_REACTORS
330
E6
102
}
330
E6
100
AcDbVisualStyle
  2
Shades of Gray
 70
    23
177
     3
291
     0
 70
    58
 90
        2
176
     1
 90
        2
176
     1
 90
        3
176
     1
 90
        0
176
     1
 40
0.6
176
     1
 40
30.0
176
     1
 62
     7
420
 16777215
176
     1
 90
        2
176
     1
 90
        2
176
     1
 62
     7
176
     1
 62
     7
176
     1
 90
        1
176
     1
 90
        1
176
     1
 40
40.0
176
     1
 90
        8
176
     1
 62
     7
176
     1
 40
1.0
176
     1
 90
        1
176
     1
 90
        6
176
     1
 90
        2
176
     1
 62
     7
176
     1
 90
        3
176
     1
 90
        0
176
     1
 90
        0
176
     1
290
     0
176
     1
 90
        1
176
     1
 40
0.0
176
     1
 90
        0
176
     1
290
     0
176
     1
290
     1
176
     1
290
     1
176
     1
290
     0
176
     1
290
     0
176
     1
290
     0
176
     1
290
     0
176
     1
290
     0
176
     1
290
     0
176
     1
 90
       50
176
     1
 40
0.0
176
     1
 40
1.0
176
     1
 90
        0
176
     1
 62
    18
420
        0
176
     1
 90
       50
176
     1
 90
        3
176
     1
 62
     5
420
      255
176
     1
290
     0
176
     1
 90
       50
176
     1
 90
       50
176
     1
 90
       50
176
     1
290
     0
176
     1
 90
       50
176
     1
 62
   256
176
     0
 40
1.0
176
     0
 90
        2
176
     1
  1
strokes_ogs.tif
176
     1
290
     0
176
     1
 40
1.0
176
     1
 40
1.0
176
     1
  0
VISUALSTYLE
  5
1E7
102
{ACAD_REACTORS
330
E6
102
}
330
E6
100
AcDbVisualStyle
  2
Sketchy
 70
    24
177
     3
291
     0
 70
    58
 90
        1
176
     1
 90
        2
176
     1
 90
        2
176
     1
 90
        0
176
     1
 40
0.6
176
     1
 40
30.0
176
     1
 62
     7
420
 16777215
176
     1
 90
        2
176
     1
 90
        2
176
     1
 62
     7
176
     1
 62
     7
176
     1
 90
        1
176
     1
 90
        1
176
     1
 40
40.0
176
     1
 90
       11
176
     1
 62
     7
176
     1
 40
1.0
176
     1
 90
        1
176
     1
 90
        6
176
     1
 90
        2
176
     1
 62
     7
176
     1
 90
        6
176
     1
 90
        0
176
     1
 90
        0
176
     1
290
     0
176
     1
 90
        1
176
     1
 40
0.0
176
     1
 90
        0
176
     1
290
     0
176
     1
290
     1
176
     1
290
     1
176
     1
290
     0
176
     1
290
     0
176
     1
290
     0
176
     1
290
     0
176
     1
290
     0
176
     1
290
     0
176
     1
 90
       50
176
     1
 40
0.0
176
     1
 40
1.0
176
     1
 90
        0
176
     1
 62
    18
420
        0
176
     1
 90
       50
176
     1
 90
        3
176
     1
 62
     5
420
      255
176
     1
290
     0
176
     1
 90
       50
176
     1
 90
       50
176
     1
 90
       50
176
     1
290
     0
176
     1
 90
       50
176
     1
 62
   256
176
     0
 40
1.0
176
     0
 90
        2
176
     1
  1
strokes_ogs.tif
176
     1
290
     0
176
     1
 40
1.0
176
     1
 40
1.0
176
     1
  0
VISUALSTYLE
  5
F3
102
{ACAD_REACTORS
330
E6
102
}
330
E6
100
AcDbVisualStyle
  2
Thicken
 70
    13
177
     3
291
     1
 70
    58
 90
        2
176
     1
 90
        2
176
     1
 90
        1
176
     1
 90
        0
176
     1
 40
0.6
176
     1
 40
30.0
176
     1
 62
     7
420
 16777215
176
     1
 90
        1
176
     1
 90
        4
176
     1
 62
     7
176
     1
 62
   257
176
     1
 90
        1
176
     1
 90
        1
176
     1
 40
1.0
176
     1
 90
       12
176
     1
 62
     7
176
     1
 40
1.0
176
     1
 90
        1
176
     1
 90
        6
176
     1
 90
        2
176
     1
 62
     7
176
     1
 90
        5
176
     1
 90
        0
176
     1
 90
        0
176
     1
290
     0
176
     1
 90
        1
176
     1
 40
0.0
176
     1
 90
        0
176
     1
290
     0
176
     1
290
     1
176
     1
290
     1
176
     1
290
     0
176
     1
290
     0
176
     1
290
     0
176
     1
290
     0
176
     1
290
     0
176
     1
290
     0
176
     1
 90
       50
176
     1
 40
0.0
176
     1
 40
1.0
176
     1
 90
        0
176
     1
 62
    18
420
        0
176
     1
 90
       50
176
     1
 90
        3
176
     1
 62
     5
420
      255
176
     1
290
     0
176
     1
 90
       50
176
     1
 90
       50
176
     1
 90
       50
176
     1
290
     0
176
     1
 90
       50
176
     1
 62
   256
176
     0
 40
1.0
176
     0
 90
        2
176
     1
  1
strokes_ogs.tif
176
     1
290
     0
176
     1
 40
1.0
176
     1
 40
1.0
176
     1
  0
VISUALSTYLE
  5
ED
102
{ACAD_REACTORS
330
E6
102
}
330
E6
100
AcDbVisualStyle
  2
Wireframe
 70
     5
177
     3
291
     0
 70
    58
 90
        0
176
     1
 90
        2
176
     1
 90
        0
176
     1
 90
        0
176
     1
 40
0.6
176
     1
 40
30.0
176
     1
 62
     7
420
 16777215
176
     1
 90
        1
176
     1
 90
        4
176
     1
 62
     7
176
     1
 62
   257
176
     1
 90
        1
176
     1
 90
        1
176
     1
 40
1.0
176
     1
 90
        0
176
     1
 62
   257
176
     1
 40
1.0
176
     1
 90
        1
176
     1
 90
        6
176
     1
 90
        2
176
     1
 62
     7
176
     1
 90
        3
176
     1
 90
        0
176
     1
 90
        0
176
     1
290
     0
176
     1
 90
        1
176
     1
 40
0.0
176
     1
 90
        0
176
     1
290
     0
176
     1
290
     1
176
     1
290
     1
176
     1
290
     0
176
     1
290
     0
176
     1
290
     0
176
     1
290
     0
176
     1
290
     0
176
     1
290
     0
176
     1
 90
       50
176
     1
 40
0.0
176
     1
 40
1.0
176
     1
 90
        0
176
     1
 62
    18
420
        0
176
     1
 90
       50
176
     1
 90
        3
176
     1
 62
     5
420
      255
176
     1
290
     0
176
     1
 90
       50
176
     1
 90
       50
176
     1
 90
       50
176
     1
290
     0
176
     1
 90
       50
176
     1
 62
   256
176
     0
 40
1.0
176
     0
 90
        2
176
     1
  1
strokes_ogs.tif
176
     1
290
     0
176
     1
 40
1.0
176
     1
 40
1.0
176
     1
  0
VISUALSTYLE
  5
1E8
102
{ACAD_REACTORS
330
E6
102
}
330
E6
100
AcDbVisualStyle
  2
X-Ray
 70
    25
177
     3
291
     0
 70
    58
 90
        2
176
     1
 90
        2
176
     1
 90
        1
176
     1
 90
        1
176
     1
 40
0.5
176
     1
 40
30.0
176
     1
 62
     7
420
 16777215
176
     1
 90
        1
176
     1
 90
        0
176
     1
 62
     7
176
     1
 62
   257
176
     1
 90
        1
176
     1
 90
        1
176
     1
 40
1.0
176
     1
 90
        8
176
     1
 62
     7
176
     1
 40
1.0
176
     1
 90
        1
176
     1
 90
        6
176
     1
 90
        2
176
     1
 62
     7
176
     1
 90
        3
176
     1
 90
        0
176
     1
 90
        0
176
     1
290
     0
176
     1
 90
       13
176
     1
 40
0.0
176
     1
 90
        0
176
     1
290
     0
176
     1
290
     1
176
     1
290
     1
176
     1
290
     0
176
     1
290
     0
176
     1
290
     0
176
     1
290
     0
176
     1
290
     0
176
     1
290
     0
176
     1
 90
       50
176
     1
 40
0.0
176
     1
 40
1.0
176
     1
 90
        0
176
     1
 62
    18
420
        0
176
     1
 90
       50
176
     1
 90
        3
176
     1
 62
     5
420
      255
176
     1
290
     0
176
     1
 90
       50
176
     1
 90
       50
176
     1
 90
       50
176
     1
290
     0
176
     1
 90
       50
176
     1
 62
   256
176
     0
 40
1.0
176
     0
 90
        2
176
     1
  1
strokes_ogs.tif
176
     1
290
     0
176
     1
 40
1.0
176
     1
 40
1.0
176
     1
  0
DICTIONARYVAR
  5
1D65
102
{ACAD_REACTORS
330
67
102
}
330
67
100
DictionaryVariables
280
     0
  1
0
  0
DICTIONARYVAR
  5
13D
102
{ACAD_REACTORS
330
67
102
}
330
67
100
DictionaryVariables
280
     0
  1
1:1
  0
DICTIONARYVAR
  5
13C
102
{ACAD_REACTORS
330
67
102
}
330
67
100
DictionaryVariables
280
     0
  1
STANDARD
  0
DICTIONARYVAR
  5
C5
102
{ACAD_REACTORS
330
67
102
}
330
67
100
DictionaryVariables
280
     0
  1
STANDARD
  0
DICTIONARYVAR
  5
21E
102
{ACAD_REACTORS
330
67
102
}
330
67
100
DictionaryVariables
280
     0
  1
Metric50
  0
DICTIONARYVAR
  5
21F
102
{ACAD_REACTORS
330
67
102
}
330
67
100
DictionaryVariables
280
     0
  1
Metric50
  0
DICTIONARYVAR
  5
68
102
{ACAD_REACTORS
330
67
102
}
330
67
100
DictionaryVariables
280
     0
  1
2
  0
DICTIONARYVAR
  5
DA8
102
{ACAD_REACTORS
330
67
102
}
330
67
100
DictionaryVariables
280
     0
  1
2
  0
DICTIONARYVAR
  5
6C
102
{ACAD_REACTORS
330
67
102
}
330
67
100
DictionaryVariables
280
     0
  1
1
  0
DICTIONARYVAR
  5
1A5
102
{ACAD_REACTORS
330
67
102
}
330
67
100
DictionaryVariables
280
     0
  1
0
  0
DICTIONARYVAR
  5
1A6
102
{ACAD_REACTORS
330
67
102
}
330
67
100
DictionaryVariables
280
     0
  1
0
  0
DICTIONARY
  5
22D
330
213
100
AcDbDictionary
280
     1
281
     1
  3
ACAD_XREC_ROUNDTRIP
360
1D91
  0
DICTIONARY
  5
1FC
330
22
100
AcDbDictionary
280
     1
281
     1
  3
AcPublish_PlotSettingsOverride
360
DA7
  0
DICTIONARY
  5
1F0
330
E4
100
AcDbDictionary
280
     1
281
     1
  3
FBXASSET
360
1F1
  0
DICTIONARY
  5
1EE
330
E3
100
AcDbDictionary
280
     1
281
     1
  3
FBXASSET
360
1EF
  0
DICTIONARY
  5
16A
330
E5
100
AcDbDictionary
280
     1
281
     1
  3
BUMPTILE
360
16C
  3
DIFFUSETILE
360
16B
  3
FBXASSET
360
1F2
  3
OPACITYTILE
360
16D
  3
REFLECTIONTILE
360
16E
  0
DICTIONARY
  5
22B
330
211
100
AcDbDictionary
280
     1
281
     1
  3
ACAD_XREC_ROUNDTRIP
360
1D90
  0
DICTIONARY
  5
159
330
98
100
AcDbDictionary
280
     1
281
     1
  3
ACAD_ROUNDTRIP_2008_TABLESTYLE_CELLSTYLEMAP
360
1D8F
  0
XRECORD
  5
1D91
102
{ACAD_REACTORS
330
22D
102
}
330
22D
100
AcDbXrecord
280
     1
102
DISPLAYNAME
  1
Metric50
102
FLAGS
 90
        0
  0
PLOTSETTINGS
  5
DA7
102
{ACAD_REACTORS
330
1FC
102
}
330
1FC
100
AcDbPlotSettings
  1

  2
Kyocera TASKalfa 3050ci(J) KX
  4
ANSI_A_(8.50_x_11.00_Inches)
  6

 40
4.984749794006347
 41
5.111724853515625
 42
5.154083251953125
 43
4.9847412109375
 44
297.0106506347656
 45
419.9889831542968
 46
0.0
 47
0.0
 48
33316.24093491146
 49
28289.23237812787
140
35416.24093491148
141
29774.23237812787
142
1.0
143
1.0
 70
 11952
 72
     1
 73
     1
 74
     4
  7

 75
    16
147
1.0
 76
     0
 77
     2
 78
   300
148
-33316.24093491146
149
-28289.23237812787
1001
ACAD_PSEXT
1000
Kyocera TASKalfa 3050ci(J) KX
1000
Kyocera TASKalfa 3050ci(J) KX
1000
192.168.11.123
1000

1070
     0
  0
XRECORD
  5
1F1
102
{ACAD_REACTORS
330
1F0
102
}
330
1F0
100
AcDbXrecord
280
     1
 70
     1
 90
429727718
  1
F226E010-5D7B-4EF0-9E0F-00A2E58668EA
310
504B03040A0000080000C270623B3DEE336E79000000790000001B0000006175746F6465736B2D64657369676E2D7061636B6167652E786D6C3C3F786D6C2076657273696F6E3D22312E302220656E636F64696E673D227574662D3822203F3E3C666F726D6174733E3C666F726D61743E687474703A2F2F736368656D612E
310
6175746F6465736B2E636F6D2F64657369676E2D7061636B6167652F323030393C2F666F726D61743E3C2F666F726D6174733E504B0304140006080800C270623BD486FD9CA0000000F4000000130000005B436F6E74656E745F54797065735D2E786D6C7D8EC10E82300C865F65E91D8A1E8C310C0EEA1BF002731658846E
310
D98AC1B77784ABF1D8FE5FBFBF75BBCE937A534CCEB38643598122B6FEE978D0B0485F9C41B54DDD7D022595594E1A469170414C76A4D9A4D207E29CF43ECE46F218070CC6BECC4078ACAA135ACF422C856C0E68EA1BF5669944DDD7BCDE7B1F8E415D77AECB980613C2E4AC91FC167A2B244592486606FC29C8FD7F045B9A
310
EF7053A7E60B504B0304140006080800C270623B132FA9F8EA0000007C01000008000000636F72652E786D6C8D90DD6EC3200C855F05F976223169D2D18850ADDDF6047B010434436D200A30EDF147FA236D77BBB2757C3EDB3A62FF3D5DC8975DA20B7E00562110EB7530CE8F03E474A21CC85E8A2584F4CB06C4ABC90EB0
310
CA20C5B8843CDF251D7CB23E15D50763EFA28AD12620FA529A01A2FEB493AA544EC511CFD5ACF4598DB6628FAEC0393B436E479C29FBDCC9D905E486BFBF1D5ED8336D78D7D2961F90F2233FD2572C8316D9B6EB1A51AFB014C94D8FFB7AB12A5903B241DC51C628361FACED71DB63FB84BC4714F56AFF03E5D9FC13CACEA7
310
4D737FF7864590AC3C721D4851AF5994720DAAD43537F903504B0304140006080800C270623B55019EA25F0000007C00000007000000636E782E786D6C4DCB3B0E80201045D1AD90E915ED2CF8AC45050C11660C8261F98AB1B07AC9C97D42D718D865D3E909258CFD00CCE24AC6E326A164D74DC0B4128928FF326038472B
310
A13128B1252AC747C6BAB984FC68F0B87FE8960A5C09FE86CFB69FBA01504B0304140006080800C270623B0B97CEAB6F010000D40300000C0000006662782F636F72652E786D6CC553ED6E8320147D15C2DF05416B3BD720CDDA6D4FB017A04A1DA98241307DFC5D3F9AAE4BB774BFE60F25E7DCCB3DE7207C736A6AD42BD7
310
696B721C470C23650A5B6A53E538F803C930DA08EEACF55FCA3032B251391E602C78E56C6867A8B0C62BE30135B6543328BB4E798C8A1A1639EE8A0FD5C848060F15DD316A657194958AE20868A813BCF30E04A069C8F0C6E2B03F713AE18287A0CB99D5254CD307AD1C168BECED75FB1C3F92245BA624CDB68C64BB6C475E
310
1810298B57CB65C2E9D02CB8D7CD595DE194F4AAC42261EC89C43161C97B9CAED96ACDD20796AD19E37428BF6A0A6D796753D0C62F9259EED4D66111839091F8E61622F2A8933DE8A182D32144F88C095F070D8140C85EEEEBB38F2340BD2ABC752930A50D17AA9775503095456C7CD0CF0B4EA74E983A6E0EAE6FCE48EE9E
310
F1FB8E70D4D25460427A58EE831F74F249C31C5AAB1CE9FD0919EB1A59DF67E317877FA22EE26F4A2A6C6DDD7F29A2F301D1F9F7A0C37D149F504B0304140006080800C270623BD9317DDA7D0000009D0000000B0000006662782F636E782E786D6C4DCCD10AC2201886E15B91FFDC966B53037588D27D8CE686E4344CA3CB
310
6F8B1D74F4C1C3C72B86CF1AD0DBE5974F5102399D01B9784F938F8B845A66CC010D4AE494CADF0D501C572761675062C9A93E0F9ADC3CD650360D3E3E0E34BDE1DA901EDFAE96E18ED00E6BC65A6C29B78651DEB28B864689E657DA760FAB2F504B0304140006080800C270623B609261632A010000120200003100000066
310
62782F43354338414331352D463944372D343136342D413737322D4436384443373638323733412F636F72652E786D6C8D515B6EC32010BC0AE22B55850D0E7E24C24491A39EA0172086A42831583CAA1CBF503B52FB971F16CDCECC0E2C3B3CA63BF856CE6B6B7A480A0C8132A395DA5C7B18C30575101C3873D6863F3408
310
8C98540F330C39BB3A1BE7151AAD09CA84841A2BD50A0AEF558060BCA74B0FFDF8A52651881812C3DF8A598C3771550529523BF138F3C1A5006019924FC8877AE88E03A9D1C7EED4224A1A8A8E6D5BA153D39D86B6E9AA767B64E522E42C462D57B996298EBE68E55E35C962CE829E9EF147A7445012F20AE31D2204E1EA93
310
D03D6EF698BEE36E8F312B33FD9F28CEF24551D4266CAB35EE22F39013562E0DCEA48DE7FB338C7ACCD60590E76DBC1ADF20C705C635D951562EC4F4FCE4D8D0D5D107EBD2F76E6EE7C425F562DB50CECABCA1547ED7976ADE26FF01504B0304140006080800C270623BAB1CAE584E01000033030000300000006662782F43
310
354338414331352D463944372D343136342D413737322D4436384443373638323733412F636E782E786D6CD593CD6EC32010845F0571AD6CE3D48AD20813A9873E410FBD12D82434182C7EAAE6EDBB2424CD25871E7B41D6EC30B3FA84F9E67BB2E40B4234DE8DB46F1925E094D7C6ED479AD3AE5951B2113C789FEE6C9438
310
39C1488B4C05DF079FE72A69D8C96C13AAD6B8631503449F83828872B949AC57D26200B826A308D316B4064D6E46FCDA41C05550DC9E483A00797BFD207EFB092A45DE9514C1BBD22178396BD39D891265658C238DEA00936C654E5E433CB65A26D9F6EDB5EBC14EBF49A45CB856E66048291F6939A9A81BB5C8917738143C
310
A680F4AA299D66A042CEB3354A2684DC9D8D178FE0D9B8B41CAAD720F880EE7EF93C0C18769E099ECC04D5A102C8049A8A05632F4DDF376CF1DE0F6BB65CB3E189ADD68CF1AED805DF7A6FEB258C81E067A2BC4BE012153DEFCAF811BEEA23DA0464EDC3E90F2011406DBDD0B965FC673EDDF97D23AE807F81F801504B0304
310
140006080800C270623BCB23EE24670500003C100000340000006662782F43354338414331352D463944372D343136342D413737322D4436384443373638323733412F6F626A656374732E786D6CAD575B8F9B3818FD2B887DE69664A6332B866A72ABA26ADAAA51AB7D182932E030EC0046B69966F6D7EF31180224D3662F
310
7908D8D8DFF57CC79FFDF7873C335E2817292BEE4CCF764D8316118BD322B9332BB9B76E4CE37DE073C6646F99691424A777A69A36033FE1AC2AF5544CF7A4CAE468763DFFC310112DA869441911E2CE14D113CD894D2AC9622A9EED98486227FB83EDD9CDC2A1D88493F26924B4249C16129662BE8014A331CA1B0E5DD309
310
7C477D0F7CF5AF574DDF5EE5D4FE0CF5A78590A4884E948DC44CBDD97235B9BAB5AE66B3A935BB9E78D67C3D5F5ADEBBA9BBB85E2C6EEF57B7502C2487246D09A77B33F880D8F034F29DE65367B136FC9C49112B0A1AD5FEC3C3DA662D31A6252D62E431A502DA7A5EBBC3A1A762D3FB3C5563ADB23F7D9957FD1D3D41ADED
310
EDB36F290BFF840BE21254704115AA9AF868471BFCB9C7A8858C65FA5B2A8C9C48CA539219591A72C25FCD004BD592C01F8851E8E40AE1CA0333F08EF2FAB6A2347E8DDD7356EEAB2C53D034831AD93BE09F4A515B96FE45F9796DB009B9AAD242DE6887E46B49CDE0D677EAC9C0578FE9447F6C0269EC339220E570B3F93A
310
7274A16A6FB334838FEBF0B055F5785E79C95949B954F001B4DAC4B54F1525ADD6BB28736A039C19C4FC1894AF88FC2794EFD114E48DA787D961A6B5484E0AB1673C476E6CB7FE196EFB62756FA72FE0B3D1EAD335DDCCBF5AEC3B9DB143C2782B7F00974ACDCD7FCFDF30667DA4F6D217F82F2830C6A73A94DB8864A09E87
310
B4404214288D8C610A5CBE0F0F66B0015382D9B18B644117909317DF79C177FC37B2C156B5FADEB34042477C7B01F323967559C0B637C072C293B562EDDC5B31BFFA5F6AE67EB9FDB8ADF89E44F44113CB92EED32295383B8FE0ED1B3448C4C0A367FAFA83F1188E9E2661DB4F42AE5509445BC55C053E690F0B35386A1E28
310
88B02F618AF3FC5F6878484544B38C149455AD96EE185258ED4846F709A8C226A0D3C908C59CBEA4AA9318AC189885B33EE269A942D61D7A1D4FDB6FF8F26DF309A03483F9EB1C687D3EAE0A8F741FB18CF15DF8BA6B98D004F8B06788EEEF4378EB883A4A0A105F63B9A51C1DE25D9CEEF79500EF9E89E2F7CDA29FA98E48
310
4E5FDA026A35363539033BA3F608D7F06D75A221E004073B2B76298E7194E559E57DDD6305A296FB86FCB0CACB1DC95955C84BC2E4B6FEB4D677C2FB5D8CF84164F46406DBFA69CD41D9318D8FA91AA0401D41677C1AA4673D995CAF5CCFB5AE96EFE6D66CB576ADDB95BBB65CF77EB2BABAB9BEBE59DD7716D596047E7B42
310
F56B10D1C489E8573CD561FEB63996AD193C10299C0F4D413949F3FCB6B1D116FB0EF600E0DDC64D5E6634A785240ABE0FEA25FB4AD0550C6434F39B9C24F402299F3F6C473660E6827D5F54A9D11FA3BD7A76A16AE1AC10F954E56141D26CB4513B6E9745A2DD6E43D93D1B466F876AA4E3893E54B02C8D4138B191509653
310
09DAB980ED794E0510D3EFCA637D7BB860F74BD30F4A1266B4B5E489A025CE04500DB855911CCE1BBFA185535DD49D89C3CE7EC69F2E44D340AAEF4CF09B4C232AEC10C7A36A7C6AE18000BAB08E0401355224193AEB665337EE76A9D8807E70026AFDDD924BBA25EDD7807873529638B507B45ADBA61544FFC8F1D61C8348
310
BC8695EC7C394E74CED46A50598D53FA6E8016E259AB3EA0BE7EEE9667D76B0611B9E89EF4531034522D497852DF0B947DDAA4FBE51707AD80B1F96C9459952097974BB23805982B55E0401150A165964402AA8BDF1FBF7086BB686EAC5340E071C1F29C157A70AFEFB2C6F60937D3F811B440D5F5434C5CCF7BACBB7E7D11
310
D98544509BC4E219136DC1290F465803204F8E539D0247E560B47CB334F4813183D01AB4274D69730D37503CEAE6A84AA54F96E54F1B7FA75E0A3070B4ECC1DF504B0304140006080000C270623B000000000000000000000000350000006662782F43354338414331352D463944372D343136342D413737322D4436384443
310
373638323733412F76657274696365732E62696E504B0304140006080800C270623BF270F1330600000004000000360000006662782F43354338414331352D463944372D343136342D413737322D4436384443373638323733412F747269616E676C65732E62696E636660600000504B0304140006080000C270623B000000
310
000000000000000000370000006662782F43354338414331352D463944372D343136342D413737322D4436384443373638323733412F617474726962757465732E62696E504B0304140006080800C270623B08DA0BD19000000041010000360000006662782F43354338414331352D463944372D343136342D413737322D44
310
36384443373638323733412F6469726563746F72792E786D6C858F410AC3201045AF22B36F53E9A60B35CBEEBAE80D244E44489C6234F4F835464A48035D0DF398FF9F8AF63D0E6CC63039F212F8F9020C7D47C6792B21C5FE7403D62A1188E2E60C98D7234A5830286103A55745067B9D86B8A3CF9C7F90C11DE607FB1443
310
96D7B6A82D282E9A152AD114D5EF2CB866EEE831B8EEA07A7BB5A8D7D61A2BAAEB7FD5F70921FF497D00504B0304140006080800C270623B00848760FC000000A00100003B0000006662782F43354338414331352D463944372D343136342D413737322D4436384443373638323733412F7265736F75726365732F636F7265
310
2E786D6C8D504B6E833010BD0A9A6D65B009201719474DDA9EA017B0CC84580936F2A7EAF16B0295DA5D3733A3F7D13C3D71FC9AEFC527FA609C1D8095140AB4DA8DC64E03A478211C8AA314DEB9F84B068555330EB0C220C5E45D5A76483B1BD1C68C5A37E20EAA103042A1EFF91820E82BCEAA54296645B8958BD2373561
310
C9CA4C679D1421FA1CA0D89EAC13A4C7E092D71844B5B152A464C65D63C6FCD35C0C7A9007FEFE767A611DA979DB90869F28E1677E26AF34130D655DDBD6A25ACD524433FF64D41E55C411644DE933618CD0FA83353DED7ADA3C51DE532AAA55FEC79496F19FA6646C3CD47BDCCD1640B21CE4414851AD7DE5F52833EFB55B
310
F90D504B010214000A0000080000C270623B3DEE336E79000000790000001B00000000000000000000000000000000006175746F6465736B2D64657369676E2D7061636B6167652E786D6C504B01021400140006080800C270623BD486FD9CA0000000F40000001300000000000000000000000000B20000005B436F6E7465
310
6E745F54797065735D2E786D6C504B01021400140006080800C270623B132FA9F8EA0000007C010000080000000000000000000000000083010000636F72652E786D6C504B01021400140006080800C270623B55019EA25F0000007C000000070000000000000000000000000093020000636E782E786D6C504B0102140014
310
0006080800C270623B0B97CEAB6F010000D40300000C00000000000000000000000000170300006662782F636F72652E786D6C504B01021400140006080800C270623BD9317DDA7D0000009D0000000B00000000000000000000000000B00400006662782F636E782E786D6C504B01021400140006080800C270623B609261
310
632A010000120200003100000000000000000000000000560500006662782F43354338414331352D463944372D343136342D413737322D4436384443373638323733412F636F72652E786D6C504B01021400140006080800C270623BAB1CAE584E010000330300003000000000000000000000000000CF0600006662782F43
310
354338414331352D463944372D343136342D413737322D4436384443373638323733412F636E782E786D6C504B01021400140006080800C270623BCB23EE24670500003C10000034000000000000000000000000006B0800006662782F43354338414331352D463944372D343136342D413737322D44363844433736383237
310
33412F6F626A656374732E786D6C504B01021400140006080000C270623B0000000000000000000000003500000000000000000000000000240E00006662782F43354338414331352D463944372D343136342D413737322D4436384443373638323733412F76657274696365732E62696E504B01021400140006080800C270
310
623BF270F13306000000040000003600000000000000000000000000770E00006662782F43354338414331352D463944372D343136342D413737322D4436384443373638323733412F747269616E676C65732E62696E504B01021400140006080000C270623B00000000000000000000000037000000000000000000000000
310
00D10E00006662782F43354338414331352D463944372D343136342D413737322D4436384443373638323733412F617474726962757465732E62696E504B01021400140006080800C270623B08DA0BD190000000410100003600000000000000000000000000260F00006662782F43354338414331352D463944372D343136
310
342D413737322D4436384443373638323733412F6469726563746F72792E786D6C504B01021400140006080800C270623B00848760FC000000A00100003B000000000000000000000000000A1000006662782F43354338414331352D463944372D343136342D413737322D4436384443373638323733412F7265736F757263
310
65732F636F72652E786D6C504B0506000000000E000E00800400005F1100000000
  0
XRECORD
  5
1EF
102
{ACAD_REACTORS
330
1EE
102
}
330
1EE
100
AcDbXrecord
280
     1
 70
     1
 90
429727718
  1
E2304D28-6187-4406-84E4-1B0A0969D8AC
310
504B03040A0000080000C270623B3DEE336E79000000790000001B0000006175746F6465736B2D64657369676E2D7061636B6167652E786D6C3C3F786D6C2076657273696F6E3D22312E302220656E636F64696E673D227574662D3822203F3E3C666F726D6174733E3C666F726D61743E687474703A2F2F736368656D612E
310
6175746F6465736B2E636F6D2F64657369676E2D7061636B6167652F323030393C2F666F726D61743E3C2F666F726D6174733E504B0304140006080800C270623BD486FD9CA0000000F4000000130000005B436F6E74656E745F54797065735D2E786D6C7D8EC10E82300C865F65E91D8A1E8C310C0EEA1BF002731658846E
310
D98AC1B77784ABF1D8FE5FBFBF75BBCE937A534CCEB38643598122B6FEE978D0B0485F9C41B54DDD7D022595594E1A469170414C76A4D9A4D207E29CF43ECE46F218070CC6BECC4078ACAA135ACF422C856C0E68EA1BF5669944DDD7BCDE7B1F8E415D77AECB980613C2E4AC91FC167A2B244592486606FC29C8FD7F045B9A
310
EF7053A7E60B504B0304140006080800C270623B6C505844EA0000007C01000008000000636F72652E786D6C8D90416EC3201045AF82665B61834B1DC7C244B5EB1BF402088883128365A0EAF18B13476A775DCDE8CF7F33A3CF4FDFF30D7D993558EF3AA00501649CF2DABAA98314CFB80174127CF53EFEB2017272361D6C
310
32083EAD3E2DBBA4BC8BC6C5AC3AAFCD2ECA104C04A46EB9E920A88B99652153CC8E702D16A9AE7232057D76194EC96AF4386275DE67CFD6AC20081DC7633D50FCC1688F197BA3F8FD30F6781846D2B3C3D83475C5CB0D163CDAF9795FAD4646A34154841C31A598549F94B5A46E097B214D4B082F37FB1F282DFA9F50B22E
310
BE56FBBB0F2C80A0F991FB40F072CB22977B50B96EB9891F504B0304140006080800C270623B55019EA25F0000007C00000007000000636E782E786D6C4DCB3B0E80201045D1AD90E915ED2CF8AC45050C11660C8261F98AB1B07AC9C97D42D718D865D3E909258CFD00CCE24AC6E326A164D74DC0B4128928FF326038472B
310
A13128B1252AC747C6BAB984FC68F0B87FE8960A5C09FE86CFB69FBA01504B0304140006080800C270623B85AE40E170010000D40300000C0000006662782F636F72652E786D6CC553ED6E8320147D15C2DF4501E7FA15A4593BDF602F40913A53058360FAF8BB7E345D976EE97ECD1F4ACEB9977BCE41F8F6DCD4A8D7AEAB
310
ACC9308B2946DA285B54A6CC70F0C76885D1567067ADFF528691918DCEF00063C14B67433B43CA1AAF8D07D4D842CFA0EC3AED3152352C32DCA90FDDC858060F15DD296EA53AC952C72C061AEA04EFBC0301681A32BCB1381ECE9C4CB8E02154C5CC56054CAB8E9576585096E7EBC59E456F29DB4569FAC2A2D765BE8BF6FB
310
9CEED265BE5A2D124E8666C17DD55CD429A7A5D7051609A5EB88B18826EF2CDDD0C586A64F74B5A19493A1FCA629B4C5834DA132FE3999E54E6D1D160C848CC437B71091479DEC410F119C0C21C2674CF83668080442F6F2505F7C9C00EAB5F2D6A5C014365CA95ED641C3541AD3F1413F2F38993A61EAB839B8BE3B237978
310
C6EF3BC2514B538209E96179087ED0C9270D7368AD7651EFCFC858D7C8FA311BBF38FC1375157F5792B2B575FFA588CC0744E6DF830CF7517C02504B0304140006080800C270623BD959F09C7C0000009D0000000B0000006662782F636E782E786D6C4DCCD10A83201886E15B91FFDC4A2BF0400D0BBD8F581632D3E13476
310
F9ABD1C18E3E78F878F9F0D93D3A6C7ABB180490AA0164C3232E2E6C024A5E310334489E62CC7F374061DEAD808B41F22DC5F2BA69B1EB5C7C3ED5BBF0BCB11F29514A1BACD44471C74C8BC7C968CC28D13D316DC71A06B5E4F5AF74EE15965F504B0304140006080800C270623BD97BE6F829010000120200003100000066
310
62782F35423231414145462D414143322D343846332D424346452D3832314535314633343830382F636F72652E786D6C8D515B6EC32010BC0AE22B55850D0E8EDC081339517C825E8018E2A2C460F1A872FC42ED48ED5F7E58343B333BB0ECF098EEE05B39AFAD6921293004CA0C566A33B630862B6A203870E6AC0D7F6810
310
1831A916661872363A1BE7151AAC09CA84841A2BD50A0AEF558060B8A74B0BFDF0A52651881812C3DF8A590C3731AA8214A99D789CF9E05200B00CC927E4F5B1225D77EE51D79D2A449B7E8B8EA7FE8C9A8A9C6BD26F69831B562E42CE62D472956B99E2E8AB56EE55932CE62CE8E9197F704A042521AF30FE4084205C7D12
310
BAC7BB3DA6EFB8D963CCCA4CFF278AB37C5114B509DB6A8DBBC83CE484954B833369E3E5FE0CA31EB37501E4791BAF8637C87181714D680AB110D3F393E38EAE8E3E5897BE7773BB242EA917DB1DE5ACCC1B4AE5777DA9E66DF21F504B0304140006080800C270623BAB1CAE584E01000033030000300000006662782F3542
310
3231414145462D414143322D343846332D424346452D3832314535314633343830382F636E782E786D6CD593CD6EC32010845F0571AD6CE3D48AD20813A9873E410FBD12D82434182C7EAAE6EDBB2424CD25871E7B41D6EC30B3FA84F9E67BB2E40B4234DE8DB46F1925E094D7C6ED479AD3AE5951B2113C789FEE6C943839
310
C1488B4C05DF079FE72A69D8C96C13AAD6B8631503449F83828872B949AC57D26200B826A308D316B4064D6E46FCDA41C05550DC9E483A00797BFD207EFB092A45DE9514C1BBD22178396BD39D891265658C238DEA00936C654E5E433CB65A26D9F6EDB5EBC14EBF49A45CB856E66048291F6939A9A81BB5C8917738143CA6
310
80F4AA299D66A042CEB3354A2684DC9D8D178FE0D9B8B41CAAD720F880EE7EF93C0C18769E099ECC04D5A102C8049A8A05632F4DDF376CF1DE0F6BB65CB3E189ADD68CF1AED805DF7A6FEB258C81E067A2BC4BE012153DEFCAF811BEEA23DA0464EDC3E90F2011406DBDD0B965FC673EDDF97D23AE807F81F801504B030414
310
0006080800C270623B086A6785630500003C100000340000006662782F35423231414145462D414143322D343846332D424346452D3832314535314633343830382F6F626A656374732E786D6CAD575D739B3814FD2B0CFB0C189BA4CE0EA193D849C6D34DDBA9A79D7DC88C47804CD8006224913AFDF57B040203B65BEF87
310
1F0C12D2FD3CF7E8CA7FBFCB33E3957291B2E2DA74ED8969D02262715A24D76625B7D6DC34DE073E674CF696994641727A6DAA6933F013CEAA524FC5744BAA4C8E66EF6FFF3444440B6A1A514684B83645F44C7362934AB2988A173B2692D8C97667BB76B3702836E1A47C1E092D09A78584A5982F20C5688C7287C389E904
310
BEA3BE07BEFAD7AB66A75739B53F43FD69212429A20365233133D75BDE4D2FAEAC0BCF9B59DEE5D4B56EEF6F9796FB6E36595C2E1657377757502C2487246D09A75B3378406C781AF94EF3A9B3581B7ECCA48815058D6AFFE1616DB39618D3921631F29852016D3DAF27C3A1AB62D3FB3C5363ADB23F7D9E57FD1D3D41ADED
310
EDB36F290BFF820BE21C54704115AA9AF868471BFC4DF6510B19CBF4B75418399194A72433B234E484BF990196AA25813F10A3D0C915C2950766E0EEE5F56D4569FC1ABBC7ACDC5659A6A0690635B237C03F95A2B62CFD41F9716DB009B9AAD242CEB543F2ADA46670E53BF564E0ABC76CAA3F368134B619499072B8D97C1D
310
39BA50B5B75A9AC187FB70B756F5785C79C95949B954F001B4DAC4B54F1525ADD63D2B736A039C19C47C1F942F88FC4794EFDE14E48DA73B6FE7692D9293426C19CF911B7B52FF8C49FB62756F872FE0B3D1EAC335DDCCBF5AEC3B9DB143C238953F804BA566FEDFF3378C591FA9BDF405FE2B0A8CF1990EE53A2219A8E731
310
2D9010054A23639802976FC39D19ACC0946076EC2259D005E4E0C5775EF11DFF8D6CB055ADBEF72C90D011DF9EC1FC88655D16B0ED04580E78B256AC9D3B15F38BFFA5666E96EB0FEB8A6F49441F35B12CE9362D5289B3730FDEBE4183440C3C7AA16FDF198FE1E86112D6FD24E45A9540B455CC55E093F6B05083BDE68182
310
08FB12A638CFFF8586C7544434CB484159D56AE98E2185D58E64749F802A6C023A9B8E50CCE96BAA3A89C18A815938EB239E962A64DDA1D7F1B47DC297AFAB8F00A519DCBEFD41DEFA8419EEE93E6219E39BF06DD330A109F061CF10DDDF86F0D61175941420BEC6724B393AC49B38DD6E2B01DE3D12C56FAB453F531D911C
310
BEB405D46A6C6AD2033BA3F608D7F06D75A221E004073B2B36298E7194E551E57DDD6305A2967B427E58E5E586E4AC2AE439619AB4FEB4D677C2FB5D8CF84E64F46C06EBFA69DD82B2631A9F48A83A828EF83448CFDD7436F196D3B975E9CEDF599E37B9B4E6DE9D67B9B7939BC9D5E5D5727E83F00F2BA03DA1FA358868E2
310
44F42B9EEA307F5DEDCBD60C1E8914CE4353504ED23CBFAE6CB4C5BE833D0078B771959719CD69218982EFA37AC9BE1074150319CDFC2A27093D43CAA787F5C806CC9CB1EFB32A35FA7DB457CF2E542D1C15229FAB3C2C489A8D366AC7EDB248B4DB6D28BB67C3E8ED508D743CD1870A96A53108273612CA722A413B67B03D
310
CFA90062FA5D79AC6F0F67EC7E6DFA4149C28CB6963C13B4C49900AA413A552487F3C66F68E15417756DE2B0B35FF0A70BD13490EA6B13FC26D3880A3BC4F1A81A9F5A3820802EAC2341809E144986CEBAD9D48DBB5D2A36A01F9C805A7FB7E49C6E49FB3520DE9C94254EED01ADD6B66905D13F72BC35C72012AF61253B5F
310
F6139D33B59A005C0377BA075A8817AD7A87FAFAB95BAE5DAF1944E4AC7BD24F41D048B524E1497D2F5041D726DD2C3F3B68058CD527A3CCAA04B93C5F92C529C05CA902078A800A2DB32412505DFCFEF49933DC4573E33E05049E162CCF59A10737FA2E6BAC9F71338D9F400B545D3FC474E2BA4F75D7AF2F229B90086A93
310
58BC60A22D38E5C1086B00E4C171AAAF678ECAC168F96A69E803C383D01AB4074D69730D37503CEAE6A84AA54F96E54F1B7FA75E0A1470B4ECC1DF504B0304140006080000C270623B000000000000000000000000350000006662782F35423231414145462D414143322D343846332D424346452D38323145353146333438
310
30382F76657274696365732E62696E504B0304140006080800C270623BF270F1330600000004000000360000006662782F35423231414145462D414143322D343846332D424346452D3832314535314633343830382F747269616E676C65732E62696E636660600000504B0304140006080000C270623B0000000000000000
310
00000000370000006662782F35423231414145462D414143322D343846332D424346452D3832314535314633343830382F617474726962757465732E62696E504B0304140006080800C270623B08DA0BD19000000041010000360000006662782F35423231414145462D414143322D343846332D424346452D383231453531
310
4633343830382F6469726563746F72792E786D6C858F410AC3201045AF22B36F53E9A60B35CBEEBAE80D244E44489C6234F4F835464A48035D0DF398FF9F8AF63D0E6CC63039F212F8F9020C7D47C6792B21C5FE7403D62A1188E2E60C98D7234A5830286103A55745067B9D86B8A3CF9C7F90C11DE607FB144396D7B6A82D
310
282E9A152AD114D5EF2CB866EEE831B8EEA07A7BB5A8D7D61A2BAAEB7FD5F70921FF497D00504B0304140006080800C270623B7FFB76DCFC000000A00100003B0000006662782F35423231414145462D414143322D343846332D424346452D3832314535314633343830382F7265736F75726365732F636F72652E786D6C8D
310
504B6E833010BD0A9A6D65B029250419478572835EC032136A25D8C89FAAC7AF09546A77DDCC8CDE47F3F4F8E56BB9679FE8BCB6A6039653C8D0283B69337710C39534905D0477D6865F32C88C5CB0830D06C16767E37A40CA9A802624D4D8090F507A8F0132754F47075E7DE02273194352F85BBE4A759333E62C4F74D209
310
EE834B01B2FDC9364138F4363A859E173B2B788C7A3A347A4A3FF555A30341D9389EEB8192B78AF5A4AA5E18793D8D3D198691F6D5696C9ABAE4C566163CE8E527A37228034E204A4ACF843142CB7756B5B46E69F5449B96525E6CF23FA6B84EFF34456DC27379C4DD6D1E044B411E84E0C5D6575A8F32D3DEBA15DF504B01
310
0214000A0000080000C270623B3DEE336E79000000790000001B00000000000000000000000000000000006175746F6465736B2D64657369676E2D7061636B6167652E786D6C504B01021400140006080800C270623BD486FD9CA0000000F40000001300000000000000000000000000B20000005B436F6E74656E745F5479
310
7065735D2E786D6C504B01021400140006080800C270623B6C505844EA0000007C010000080000000000000000000000000083010000636F72652E786D6C504B01021400140006080800C270623B55019EA25F0000007C000000070000000000000000000000000093020000636E782E786D6C504B01021400140006080800
310
C270623B85AE40E170010000D40300000C00000000000000000000000000170300006662782F636F72652E786D6C504B01021400140006080800C270623BD959F09C7C0000009D0000000B00000000000000000000000000B10400006662782F636E782E786D6C504B01021400140006080800C270623BD97BE6F829010000
310
120200003100000000000000000000000000560500006662782F35423231414145462D414143322D343846332D424346452D3832314535314633343830382F636F72652E786D6C504B01021400140006080800C270623BAB1CAE584E010000330300003000000000000000000000000000CE0600006662782F354232314141
310
45462D414143322D343846332D424346452D3832314535314633343830382F636E782E786D6C504B01021400140006080800C270623B086A6785630500003C10000034000000000000000000000000006A0800006662782F35423231414145462D414143322D343846332D424346452D3832314535314633343830382F6F62
310
6A656374732E786D6C504B01021400140006080000C270623B00000000000000000000000035000000000000000000000000001F0E00006662782F35423231414145462D414143322D343846332D424346452D3832314535314633343830382F76657274696365732E62696E504B01021400140006080800C270623BF270F1
310
3306000000040000003600000000000000000000000000720E00006662782F35423231414145462D414143322D343846332D424346452D3832314535314633343830382F747269616E676C65732E62696E504B01021400140006080000C270623B0000000000000000000000003700000000000000000000000000CC0E0000
310
6662782F35423231414145462D414143322D343846332D424346452D3832314535314633343830382F617474726962757465732E62696E504B01021400140006080800C270623B08DA0BD190000000410100003600000000000000000000000000210F00006662782F35423231414145462D414143322D343846332D424346
310
452D3832314535314633343830382F6469726563746F72792E786D6C504B01021400140006080800C270623B7FFB76DCFC000000A00100003B00000000000000000000000000051000006662782F35423231414145462D414143322D343846332D424346452D3832314535314633343830382F7265736F75726365732F636F
310
72652E786D6C504B0506000000000E000E00800400005A1100000000
  0
XRECORD
  5
16C
102
{ACAD_REACTORS
330
16A
102
}
330
16A
100
AcDbXrecord
280
     1
270
     1
271
     1
  0
XRECORD
  5
16B
102
{ACAD_REACTORS
330
16A
102
}
330
16A
100
AcDbXrecord
280
     1
270
     1
271
     1
  0
XRECORD
  5
1F2
102
{ACAD_REACTORS
330
16A
102
}
330
16A
100
AcDbXrecord
280
     1
 70
     0
 90
1673772943
  1
AEB1D1DA-B7DF-4CBA-830A-738AA2653737
310
504B03040A0000080000C270623B3DEE336E79000000790000001B0000006175746F6465736B2D64657369676E2D7061636B6167652E786D6C3C3F786D6C2076657273696F6E3D22312E302220656E636F64696E673D227574662D3822203F3E3C666F726D6174733E3C666F726D61743E687474703A2F2F736368656D612E
310
6175746F6465736B2E636F6D2F64657369676E2D7061636B6167652F323030393C2F666F726D61743E3C2F666F726D6174733E504B0304140006080800C270623BD486FD9CA0000000F4000000130000005B436F6E74656E745F54797065735D2E786D6C7D8EC10E82300C865F65E91D8A1E8C310C0EEA1BF002731658846E
310
D98AC1B77784ABF1D8FE5FBFBF75BBCE937A534CCEB38643598122B6FEE978D0B0485F9C41B54DDD7D022595594E1A469170414C76A4D9A4D207E29CF43ECE46F218070CC6BECC4078ACAA135ACF422C856C0E68EA1BF5669944DDD7BCDE7B1F8E415D77AECB980613C2E4AC91FC167A2B244592486606FC29C8FD7F045B9A
310
EF7053A7E60B504B0304140006080800C270623BC5983BD0EB0000007C01000008000000636F72652E786D6C8D904D6EC3201085AF82665B6103F1BF3091AB2427E80510262E4A0C9681AAC72F4E1CA9DD7535A337EF9B193D7EFC9EEFE84BAFDE38DB03CD08206D951B8D9D7A88E18A1B4047C157E7C22F1B202B67DDC326
310
83E0D3EAE2B24BCAD9A06D48AA75A3DE45E9BD0E80D43D353D78F5A96799C91892C3DFB245AA9B9C74465F5D826334237A1E3163DA67AE46AF20CABAA887E1FD82D9401A5C9CCA136ED8E58CEBF650B2BAA8CE557BE6F9060B1ECCFCBAAF562D831E4130425A4C2926EC83161DA93A52BC91A62384E79BFD0F1497F19F5034
310
361CD8FEEE13F320687AE431103CDFB248E51154AA5B6EE207504B0304140006080800C270623B55019EA25F0000007C00000007000000636E782E786D6C4DCB3B0E80201045D1AD90E915ED2CF8AC45050C11660C8261F98AB1B07AC9C97D42D718D865D3E909258CFD00CCE24AC6E326A164D74DC0B4128928FF32603847
310
2BA13128B1252AC747C6BAB984FC68F0B87FE8960A5C09FE86CFB69FBA01504B0304140006080800C270623BEE35DAD072010000D40300000C0000006662782F636F72652E786D6CC553ED6E8230147D95A67F1768411435A5C6457D82BD4085CA1AA125A5253EFE2E1FC6B938E37E8D1FD09C736FEF39A7946D2E75853A69
310
5B657486A3906224756E0AA5CB0C7B770A96186D38B3C6B86F65186951CB0CF730E6ACB4C63713941BEDA476806A53C809146D2B1D4679058B0CB7F9A7AC4528BC838AF61C36223F8B5286510834D471D63A0B02D038A47F637E3A5E181971CEBC57C5C4AA02A6A9939216F3799AA4DBEDFB2188B7741924BBF92E58C6877D
310
90AE66F3384D16FBC56ACF48DFCC9953F5555D6EA570B2C03CA67415445140E38F2859D3C59A266F74B9A69491BEFCAEC937C58B4D5E69378B27B9635B8B79044206E2875B88C8A15674A0877046FA10E133247C1F340402213B71ACAE3ECE00753277C626C014C6DFA84E545EC2541AD2E141BF2F18193B61EAB039B87E38
310
237E79C6F31DE1A8852EC18470B03C7AD7EB64A38629B446DAA07317A48DAD45F59A8D270EFF44DDC43F94949BCAD8FF5244A60322D3EF41FAFBC8BF00504B0304140006080800C270623BD65DADFA7E0000009D0000000B0000006662782F636E782E786D6C4DCCD10A83201886E15B91FFDC651665A0C64C771FB12C62A6
310
C3E9D8E5AF46073BFAE0E1E3E5FD6773E86DE36B0D5E40792180ACBF8769F58B809C66CC00F592C710D2DF0D901F372BE060907C89213F4F9AEC3C66977675AB7F9C488DBA1A4309AE06D6E25ADD4ADCB5BAC2A4D1BAA135EBD440A190BCF895F63DC2F20B504B0304140006080800C270623B16D345222A01000012020000
310
310000006662782F32454241454532302D334338372D344246312D393744332D3036444436323438394243322F636F72652E786D6C8D515B6EC32010BC0AE2AB55850DC4719C0813358F9EA01720405294182C1E558E5FA81DA9FDCB0F8B66676607966DEFC30D7C6B1F8CB33D241586405BE994B1971EA678461D045BCEBC
310
73F10F0D022B06DDC30243CE2EDEA57186A4B351DB9851EB949E4111828E10C85BBEF430C82F3D884AA49819E15A8D425EC54557A4CAEDCCE32C449F038069483921A7C7DDFBF148315AECBB156A761F04AD578705C2EDE1D0D2A65BEFF694D59390B3948C9AE546E538E66CB47FD6A488398B6678C4975E8BA855D663BC46
310
84204C3F49B3C1ED06376FB8DB60CCEA42FF274AA37A52948C8D0B3AC79D640172C2EAA9C19972E9747B84D1F7D1F908CABC97A0E52BE4B8C2784968CBEA89989F9F1DDB66760CD1F9FCBD2FD753E692E564DB369CD56543B9FCAE2FD7B24DFE03504B0304140006080800C270623BAB1CAE584E0100003303000030000000
310
6662782F32454241454532302D334338372D344246312D393744332D3036444436323438394243322F636E782E786D6CD593CD6EC32010845F0571AD6CE3D48AD20813A9873E410FBD12D82434182C7EAAE6EDBB2424CD25871E7B41D6EC30B3FA84F9E67BB2E40B4234DE8DB46F1925E094D7C6ED479AD3AE5951B2113C78
310
9FEE6C943839C1488B4C05DF079FE72A69D8C96C13AAD6B8631503449F83828872B949AC57D26200B826A308D316B4064D6E46FCDA41C05550DC9E483A00797BFD207EFB092A45DE9514C1BBD22178396BD39D891265658C238DEA00936C654E5E433CB65A26D9F6EDB5EBC14EBF49A45CB856E66048291F6939A9A81BB5C8
310
917738143CA680F4AA299D66A042CEB3354A2684DC9D8D178FE0D9B8B41CAAD720F880EE7EF93C0C18769E099ECC04D5A102C8049A8A05632F4DDF376CF1DE0F6BB65CB3E189ADD68CF1AED805DF7A6FEB258C81E067A2BC4BE012153DEFCAF811BEEA23DA0464EDC3E90F2011406DBDD0B965FC673EDDF97D23AE807F81F8
310
01504B0304140006080800C270623B849BF81A650500003B100000340000006662782F32454241454532302D334338372D344246312D393744332D3036444436323438394243322F6F626A656374732E786D6CAD575B739B3814FE2B0CFB0C98D869921D42C797A6E3E9A4CDD4D3CE3E64C62340266C406224913AFBEBF713
310
080CD869BD173F18248ECEF53B1705EFF7456EBD502133CE6E6DDF9DD81665314F3296DEDA95DA39D7B6F53E0C04E7AA47665B8C14F4D6D6DB7618A48257A5D94AE88E54B91AEDDE2DFEB0644C19B5AD382752DEDA327EA2057149A57842E5B39B1045DC74B7777DB7211CB24D05299F464C4B222853D014FB0C5CAC46297F
310
B89CD85E1878FA7B18E87F43357D9BCAABED19CACF985484C547C2466CA6FE6CF5E1E2F2C6B99CCDA6CEECDD85EF2CEE162BC7BF9A4E96EF96CB9BF9871B08964A8093D144D09D1D7E846F4416075EF3A9D3D8287E4AA5983346E3DA7E5858EB6C3826B4A42C411C332A21AD67F564B8F4B56F7A9FA77A6D44F6B7CFB3AA7F
310
A2C7A8D5BD7DF635E5D19F30419E830A21A94655E31F636883BFC9C16B11E7B9F99649AB208A8A8CE4569E458288573B04A9260983011B8D4EA111AE2DB043FFC0AFAF2B52E3D7D83DA5E5AECA730D4D3BAC91BD05FEA992B566D95F549C96069D10AB2A63EADA18A45E4B6A873781576F86817E4C2FCCC7C691D62E272942
310
0E339BAF2343973AF7D62B3BFC7417ED373A1F4F0B2F052FA9501A3E80561BB8F6A9BD64C4FA67454E1F8031039F1F9CF2159EFF8CF43DA882B8896C3FDBCF8C142508933B2E0AC4C69DD43F6BD2BE38DDDBF10BEAD988FA98A6DBF957C481D7293B2C186FC50FE0D2A1B9FEEFF11BFAAC8FD45EF8C2E00509C6C5D4B87213
310
931CA5E73E63088806A595736CA196EFA2BD1DAE512951D9718AE461E790A397C07BC177FC37BC51AD6AF1BD27434047F5F68CCA0F5FD66901DDDE00CB519DAC051BE3DEF2F9E5FF9233F3D5E6D3A6123B12D37B5358567497B14CA1771EC0DB576810888145CFF4F50717090C3D0EC2A61F84C28892F0B6F6B9767CDA360B
310
BD38481E0888712EE5BAE605BF90709FC998E639619457AD94AE0D69AC7645C6CC09C8C2C6A1D38B118A057DC9F42431A018A8855E1F8BACD42EEB9A5E57A7DD376CF9B6FE0C50823EE711C90F44D1A1DAC73CE7621BBD6E9B4268037B383204F7F721BA8D433DCD0580AFA1DC561CE3E16D92ED769544D93DE1C4EFEB653F
310
505D1D397E69F3A795D8A4E40CC519A94784416F2B13F38020E8EB9C6D33747164E549E17DD96301B2E6FB06FFA82ACA2D2978C5D4396E9AB4F6B4DA77CCFB438CFC4154FC64879BFAE92C50B1139A1C42350081EE40276C1A8467FE61E1AFFCD5DC595CADEE9CD9723177AEA793B97335BD9ECF2FDE5D4EAFA6579D46B526
310
61D036A87E0AC29B6888412532E3E66FEB43D6DAE13D51D2FBD8E4939736CF6F6B175371E0E10CF0DD1D5C17654E0BCA14D1E8BDD72FF95782A162C0A3D95F1724A56770F9F27133D2013B679C7BD099467F8CCE9ADDA5CE85934CD45355448C64F9E8A031DC2D596ACC6E5DD93D9B82DE2EF5CAF81363A8E47996A0DE2456
310
4A794115AACE19C55E14540231FDA13C319787334EBF34E3A022514E5B4D9E0826E25C02D5805B15ABE1BEF51B26383D44DDDAE875EE33FE4C22DA16427D6BA3BCA92CA6D28DD01DF5DC53330704308475351050232CCD31583787BA75774AFB06E5070DD0C8EF48CE19968C5D83BA5B90B244D31E54D55A372320FE4786B7
310
EA5844E135AA5467CB61A333A61683CC6A8C3257034C10CF46F41EF9F573B37CB7A61978E4AC6BD24F41D070751411697D2DD0FA1995E6AB070F9380B5FE629579952296E773720405982B9DE04011506178964401AACBDF1F1F04C755B4B0EE3240E071C98B8233B3989BABACB579C2C534794459A0FAF6212F26BEFF580F
310
FDE61EB28D88A42E49E43336DA84D3168CB006401E755313024FC76044BE5E59A661CCC0B406EDD14CDADCC22D248FBE38EA54E917CBF2A773BF5793020C02137BF837504B0304140006080000C270623B000000000000000000000000350000006662782F32454241454532302D334338372D344246312D393744332D3036
310
444436323438394243322F76657274696365732E62696E504B0304140006080800C270623BF270F1330600000004000000360000006662782F32454241454532302D334338372D344246312D393744332D3036444436323438394243322F747269616E676C65732E62696E636660600000504B0304140006080000C270623B
310
000000000000000000000000370000006662782F32454241454532302D334338372D344246312D393744332D3036444436323438394243322F617474726962757465732E62696E504B0304140006080800C270623B08DA0BD19000000041010000360000006662782F32454241454532302D334338372D344246312D393744
310
332D3036444436323438394243322F6469726563746F72792E786D6C858F410AC3201045AF22B36F53E9A60B35CBEEBAE80D244E44489C6234F4F835464A48035D0DF398FF9F8AF63D0E6CC63039F212F8F9020C7D47C6792B21C5FE7403D62A1188E2E60C98D7234A5830286103A55745067B9D86B8A3CF9C7F90C11DE607
310
FB144396D7B6A82D282E9A152AD114D5EF2CB866EEE831B8EEA07A7BB5A8D7D61A2BAAEB7FD5F70921FF497D00504B0304140006080800C270623BAD7266E1FD000000A00100003B0000006662782F32454241454532302D334338372D344246312D393744332D3036444436323438394243322F7265736F75726365732F63
310
6F72652E786D6C8D50596E833010BD0A9ADFCA6008BB8C23AAD013F4029699502BC1465EAA1EBF26A152FBD79F99D15B344F8F9DBFD67BF289D629A307C8530A096A6966A5970182BF9216923367D618FF4B0689162B0EB0C3C0D9624DD80E481AED51FB886A33E3010AE7D04322EFF118C0C90F5C452A828F0A774B37216F
310
62C1344F231D759C396F6380E4F9649FC02D3A13AC44C7B227CB59086A3E346A8E3FD555A1055E3565338EAF132946DA92F2525D485BBC4DA4E94E55D194F5547713CB7633675EAD3F19A545E171065E50DA913C27B478CFCB9ED63D2D5F68DB53CAB25DFEC714B6F99FA6A0B43F1547DCA7CD01CF639007C159B6F715D7A3
310
CCB8F76EF937504B010214000A0000080000C270623B3DEE336E79000000790000001B00000000000000000000000000000000006175746F6465736B2D64657369676E2D7061636B6167652E786D6C504B01021400140006080800C270623BD486FD9CA0000000F40000001300000000000000000000000000B20000005B43
310
6F6E74656E745F54797065735D2E786D6C504B01021400140006080800C270623BC5983BD0EB0000007C010000080000000000000000000000000083010000636F72652E786D6C504B01021400140006080800C270623B55019EA25F0000007C000000070000000000000000000000000094020000636E782E786D6C504B01
310
021400140006080800C270623BEE35DAD072010000D40300000C00000000000000000000000000180300006662782F636F72652E786D6C504B01021400140006080800C270623BD65DADFA7E0000009D0000000B00000000000000000000000000B40400006662782F636E782E786D6C504B01021400140006080800C27062
310
3B16D345222A0100001202000031000000000000000000000000005B0500006662782F32454241454532302D334338372D344246312D393744332D3036444436323438394243322F636F72652E786D6C504B01021400140006080800C270623BAB1CAE584E010000330300003000000000000000000000000000D406000066
310
62782F32454241454532302D334338372D344246312D393744332D3036444436323438394243322F636E782E786D6C504B01021400140006080800C270623B849BF81A650500003B1000003400000000000000000000000000700800006662782F32454241454532302D334338372D344246312D393744332D303644443632
310
3438394243322F6F626A656374732E786D6C504B01021400140006080000C270623B0000000000000000000000003500000000000000000000000000270E00006662782F32454241454532302D334338372D344246312D393744332D3036444436323438394243322F76657274696365732E62696E504B0102140014000608
310
0800C270623BF270F133060000000400000036000000000000000000000000007A0E00006662782F32454241454532302D334338372D344246312D393744332D3036444436323438394243322F747269616E676C65732E62696E504B01021400140006080000C270623B000000000000000000000000370000000000000000
310
0000000000D40E00006662782F32454241454532302D334338372D344246312D393744332D3036444436323438394243322F617474726962757465732E62696E504B01021400140006080800C270623B08DA0BD190000000410100003600000000000000000000000000290F00006662782F32454241454532302D33433837
310
2D344246312D393744332D3036444436323438394243322F6469726563746F72792E786D6C504B01021400140006080800C270623BAD7266E1FD000000A00100003B000000000000000000000000000D1000006662782F32454241454532302D334338372D344246312D393744332D3036444436323438394243322F726573
310
6F75726365732F636F72652E786D6C504B0506000000000E000E0080040000631100000000
  0
XRECORD
  5
16D
102
{ACAD_REACTORS
330
16A
102
}
330
16A
100
AcDbXrecord
280
     1
270
     1
271
     1
  0
XRECORD
  5
16E
102
{ACAD_REACTORS
330
16A
102
}
330
16A
100
AcDbXrecord
280
     1
270
     1
271
     1
  0
XRECORD
  5
1D90
102
{ACAD_REACTORS
330
22B
102
}
330
22B
100
AcDbXrecord
280
     1
102
DISPLAYNAME
  1
Metric50
102
FLAGS
 90
        0
  0
CELLSTYLEMAP
  5
1D8F
102
{ACAD_REACTORS
330
159
102
}
330
159
100
AcDbCellStyleMap
 90
        3
300
CELLSTYLE
  1
TABLEFORMAT_BEGIN
 90
        5
170
     1
 91
        0
 92
    32768
 62
   257
 93
        1
300
CONTENTFORMAT
  1
CONTENTFORMAT_BEGIN
 90
        0
 91
        0
 92
      512
 93
        0
300

 40
0.0
140
1.0
 94
        5
 62
     0
340
11
144
6.0
309
CONTENTFORMAT_END
171
     1
301
MARGIN
  1
CELLMARGIN_BEGIN
 40
1.5
 40
1.5
 40
1.5
 40
1.5
 40
4.5
 40
4.5
309
CELLMARGIN_END
 94
        6
 95
        1
302
GRIDFORMAT
  1
GRIDFORMAT_BEGIN
 90
        0
 91
        1
 62
     0
 92
       -2
340
14
 93
        0
 40
1.125
309
GRIDFORMAT_END
 95
        2
302
GRIDFORMAT
  1
GRIDFORMAT_BEGIN
 90
        0
 91
        1
 62
     0
 92
       -2
340
14
 93
        0
 40
1.125
309
GRIDFORMAT_END
 95
        4
302
GRIDFORMAT
  1
GRIDFORMAT_BEGIN
 90
        0
 91
        1
 62
     0
 92
       -2
340
14
 93
        0
 40
1.125
309
GRIDFORMAT_END
 95
        8
302
GRIDFORMAT
  1
GRIDFORMAT_BEGIN
 90
        0
 91
        1
 62
     0
 92
       -2
340
14
 93
        0
 40
1.125
309
GRIDFORMAT_END
 95
       16
302
GRIDFORMAT
  1
GRIDFORMAT_BEGIN
 90
        0
 91
        1
 62
     0
 92
       -2
340
14
 93
        0
 40
1.125
309
GRIDFORMAT_END
 95
       32
302
GRIDFORMAT
  1
GRIDFORMAT_BEGIN
 90
        0
 91
        1
 62
     0
 92
       -2
340
14
 93
        0
 40
1.125
309
GRIDFORMAT_END
309
TABLEFORMAT_END
  1
CELLSTYLE_BEGIN
 90
        1
 91
        1
300
_TITLE
309
CELLSTYLE_END
300
CELLSTYLE
  1
TABLEFORMAT_BEGIN
 90
        5
170
     1
 91
        0
 92
        0
 62
   257
 93
        1
300
CONTENTFORMAT
  1
CONTENTFORMAT_BEGIN
 90
        0
 91
        0
 92
      512
 93
        0
300

 40
0.0
140
1.0
 94
        5
 62
     0
340
11
144
4.5
309
CONTENTFORMAT_END
171
     1
301
MARGIN
  1
CELLMARGIN_BEGIN
 40
1.5
 40
1.5
 40
1.5
 40
1.5
 40
4.5
 40
4.5
309
CELLMARGIN_END
 94
        6
 95
        1
302
GRIDFORMAT
  1
GRIDFORMAT_BEGIN
 90
        0
 91
        1
 62
     0
 92
       -2
340
14
 93
        0
 40
1.125
309
GRIDFORMAT_END
 95
        2
302
GRIDFORMAT
  1
GRIDFORMAT_BEGIN
 90
        0
 91
        1
 62
     0
 92
       -2
340
14
 93
        0
 40
1.125
309
GRIDFORMAT_END
 95
        4
302
GRIDFORMAT
  1
GRIDFORMAT_BEGIN
 90
        0
 91
        1
 62
     0
 92
       -2
340
14
 93
        0
 40
1.125
309
GRIDFORMAT_END
 95
        8
302
GRIDFORMAT
  1
GRIDFORMAT_BEGIN
 90
        0
 91
        1
 62
     0
 92
       -2
340
14
 93
        0
 40
1.125
309
GRIDFORMAT_END
 95
       16
302
GRIDFORMAT
  1
GRIDFORMAT_BEGIN
 90
        0
 91
        1
 62
     0
 92
       -2
340
14
 93
        0
 40
1.125
309
GRIDFORMAT_END
 95
       32
302
GRIDFORMAT
  1
GRIDFORMAT_BEGIN
 90
        0
 91
        1
 62
     0
 92
       -2
340
14
 93
        0
 40
1.125
309
GRIDFORMAT_END
309
TABLEFORMAT_END
  1
CELLSTYLE_BEGIN
 90
        2
 91
        1
300
_HEADER
309
CELLSTYLE_END
300
CELLSTYLE
  1
TABLEFORMAT_BEGIN
 90
        5
170
     1
 91
        0
 92
        0
 62
   257
 93
        1
300
CONTENTFORMAT
  1
CONTENTFORMAT_BEGIN
 90
        0
 91
        0
 92
      512
 93
        0
300

 40
0.0
140
1.0
 94
        2
 62
     0
340
11
144
4.5
309
CONTENTFORMAT_END
171
     1
301
MARGIN
  1
CELLMARGIN_BEGIN
 40
1.5
 40
1.5
 40
1.5
 40
1.5
 40
4.5
 40
4.5
309
CELLMARGIN_END
 94
        6
 95
        1
302
GRIDFORMAT
  1
GRIDFORMAT_BEGIN
 90
        0
 91
        1
 62
     0
 92
       -2
340
14
 93
        0
 40
1.125
309
GRIDFORMAT_END
 95
        2
302
GRIDFORMAT
  1
GRIDFORMAT_BEGIN
 90
        0
 91
        1
 62
     0
 92
       -2
340
14
 93
        0
 40
1.125
309
GRIDFORMAT_END
 95
        4
302
GRIDFORMAT
  1
GRIDFORMAT_BEGIN
 90
        0
 91
        1
 62
     0
 92
       -2
340
14
 93
        0
 40
1.125
309
GRIDFORMAT_END
 95
        8
302
GRIDFORMAT
  1
GRIDFORMAT_BEGIN
 90
        0
 91
        1
 62
     0
 92
       -2
340
14
 93
        0
 40
1.125
309
GRIDFORMAT_END
 95
       16
302
GRIDFORMAT
  1
GRIDFORMAT_BEGIN
 90
        0
 91
        1
 62
     0
 92
       -2
340
14
 93
        0
 40
1.125
309
GRIDFORMAT_END
 95
       32
302
GRIDFORMAT
  1
GRIDFORMAT_BEGIN
 90
        0
 91
        1
 62
     0
 92
       -2
340
14
 93
        0
 40
1.125
309
GRIDFORMAT_END
309
TABLEFORMAT_END
  1
CELLSTYLE_BEGIN
 90
        3
 91
        2
300
_DATA
309
CELLSTYLE_END
  0
ENDSEC
  0
SECTION
  2
ACDSDATA
 70
     2
 71
     8
  0
ACDSSCHEMA
 90
        0
  1
AcDb_Thumbnail_Schema
  2
AcDbDs::ID
280
    10
 91
        8
  2
Thumbnail_Data
280
    15
 91
        0
101
ACDSRECORD
 95
        0
 90
        1
  2
AcDbDs::TreatedAsObjectData
280
     1
291
     1
101
ACDSRECORD
 95
        0
 90
        2
  2
AcDbDs::Legacy
280
     1
291
     1
101
ACDSRECORD
  1
AcDbDs::ID
 90
        3
  2
AcDs:Indexable
280
     1
291
     1
101
ACDSRECORD
  1
AcDbDs::ID
 90
        4
  2
AcDbDs::HandleAttribute
280
     7
282
     1
  0
ACDSSCHEMA
 90
        1
  1
AcDbDs::TreatedAsObjectDataSchema
  2
AcDbDs::TreatedAsObjectData
280
     1
 91
        0
  0
ACDSSCHEMA
 90
        2
  1
AcDbDs::LegacySchema
  2
AcDbDs::Legacy
280
     1
 91
        0
  0
ACDSSCHEMA
 90
        3
  1
AcDbDs::IndexedPropertySchema
  2
AcDs:Indexable
280
     1
 91
        0
  0
ACDSSCHEMA
 90
        4
  1
AcDbDs::HandleAttributeSchema
  2
AcDbDs::HandleAttribute
280
     7
 91
        1
284
     1
  0
ACDSRECORD
 90
        0
  2
AcDbDs::ID
280
    10
320
22
  2
Thumbnail_Data
280
    15
 94
     3270
310
89504E470D0A1A0A0000000D4948445200000131000001000803000000EC9DB15200000300504C5445212830000000C8C8C80000000000000000000000000000000000000000000000000000330000660000990000CC0000FF0033000033330033660033990033CC0033FF0066000066330066660066990066CC0066FF0099
310
000099330099660099990099CC0099FF00CC0000CC3300CC6600CC9900CCCC00CCFF00FF0000FF3300FF6600FF9900FFCC00FFFF3300003300333300663300993300CC3300FF3333003333333333663333993333CC3333FF3366003366333366663366993366CC3366FF3399003399333399663399993399CC3399FF33CC00
310
33CC3333CC6633CC9933CCCC33CCFF33FF0033FF3333FF6633FF9933FFCC33FFFF6600006600336600666600996600CC6600FF6633006633336633666633996633CC6633FF6666006666336666666666996666CC6666FF6699006699336699666699996699CC6699FF66CC0066CC3366CC6666CC9966CCCC66CCFF66FF0066
310
FF3366FF6666FF9966FFCC66FFFF9900009900339900669900999900CC9900FF9933009933339933669933999933CC9933FF9966009966339966669966999966CC9966FF9999009999339999669999999999CC9999FF99CC0099CC3399CC6699CC9999CCCC99CCFF99FF0099FF3399FF6699FF9999FFCC99FFFFCC0000CC00
310
33CC0066CC0099CC00CCCC00FFCC3300CC3333CC3366CC3399CC33CCCC33FFCC6600CC6633CC6666CC6699CC66CCCC66FFCC9900CC9933CC9966CC9999CC99CCCC99FFCCCC00CCCC33CCCC66CCCC99CCCCCCCCCCFFCCFF00CCFF33CCFF66CCFF99CCFFCCCCFFFFFF0000FF0033FF0066FF0099FF00CCFF00FFFF3300FF3333
310
FF3366FF3399FF33CCFF33FFFF6600FF6633FF6666FF6699FF66CCFF66FFFF9900FF9933FF9966FF9999FF99CCFF99FFFFCC00FFCC33FFCC66FFCC99FFCCCCFFCCFFFFFF00FFFF33FFFF66FFFF99FFFFCCFFFFFF0000000D0D0D1A1A1A2828283535354343435050505D5D5D6B6B6B787878868686939393A1A1A1AEAEAEBB
310
BBBBC9C9C9D6D6D6E4E4E4F1F1F1FFFFFF000000000000000000000000000000000000000000000000000000000000B21171F6000009674944415478DAED9D5182AB200C45B39CFCB8FFCDB80DFF67AA0801410145A2DEBC79D38E552AC710420C48048140201008040281402010080402814020100804028140209087C804
310
490994A3549780E02262687CA9F6081D2BD52E10BB8AD80809A4A78E8DDE9529D9FB70EB58527259D1BD89F12C2D88E597FC3D62FC2BA60DB148D1BA88FDDE2E67B86C359B5CB578FEB147ADD55AFE145BB7C46CD1B6E4CAA29511234B6C397FFB2AF7E6B05A82459AD85AB42DB1B26855C4D89D987965D7284C059C2290AF
310
08FBC45CD1F61B2A8BD6D757BA13DC5460AE64A45A8EF37E5F6955C85E948AA235DA3136067735BBB25A14E16814811D0DA7B1811D635B7275D13A2DBFD031592D4A2882EC279C5E452D3FFB5A5351B436CB6FFF472B603B34DB4E4CB5CC21AB318F11B3479B926B8B7EAF074B6FF460FF6521D66400D8A8640D3A9639AE64
310
27D93A9639AE2C29BA33B1D54ED038C64EFA0CB1D55F902573FC4BDE4A4CBA55D1CABA4347E319E4128B17AD9D5849D3116C7688AD3A469545AB255661C70EAB655A65851DD34D6CE9D05A054B1B158D18EC13238AA5ADB2C0837D1FB1B5434BF568511B9F19B5B6DE05ED74937B8544CFA5BFE5CF2716044E8F89D149622F
310
F52EF6748CE8D4B8328A5901316EE75DD0393BA69018BC0B7817BABC0B8A19EE1CEF8277E44DDEC559620723F1C712A3026265ADF220DAF3026257DB31A763EFF2F90BBC8B0A1D7BDD2809DE85D2BEF265AD72B56347C3CA137DE5CB62170C626D89D57817AF6B954576ECE37DA50877B5C92278DDB812D9E96DBD0B867721
310
5303F7477FBFBA971233C97B5F265631AE647EB1079BD72A41AC34CE5FD4571246E2C543F1B7F5958F14100331100331100331088881188881188841400CC4400CC4127234DB0DC4400CC48A2BAA50741253AC632F27D6A2A183D8AB88B1425420F612626609597DC4A6492DB159786755DEA1E99ABFC9D2D5EAD8F02F3331
310
FAA9DB300B0D34FF98F7FF6FC96C5B362D6FCC27E4F6A6C1DB69188E4F602EC5FEB204872710FB9DE40A6CFDE501B3DB0607CC7C263EF276CAE800BD237D62AC91D814B4CA99DF60CEF98772B08D67FE6358000F66CB201AD6FCF760F69C8682D63C0CCB2FFF009AB412A335ED6B3EF2B025FDEF309D36EB5996BF7DBBACF7
310
2E56623FFDC8C1DCD83165FF972A62C162AA73EB081BECF6E112276323FC6062CE55343A36F1203469C3EB1A62871CD8BB980A89B9752E2766FB5404074822BC8FD81DC88A8989D1886B953BC4D60F4F472C399F585364A5C478D306A63431B63AC617C478F92DC41647EAC88E5DF17821CE26D612592131DE9E5EAED34977
310
10BB01D979629C57C92BAAC0CF23C6A9A6795CC94BAAC0F9F13156418C53FDA50264DC42A9AF2226C16923D65EC90A8885CFFD883CB5247E58F8548F53C85285F0668746372FB389B1787A84DCC479C7F9479E02C6BBFA2F9FE8D204198881981A62C4C1738C32CF892FB5637C64C7BCAF738FEDB9905D0DB1EDF5BC93183D
310
86D8B6E3E6ECD8E80D5E7FCABBE84AEC091E2C889D1C2535C82DAB1A576EE2B019E3844BB2E8CA89E507D8B410F33D9193C4CA6317DD8945A23D0C627A89154414375FDB8D981F1A539832BC4BEC12E37F3ACECF592A76C505AEB933A280D8A6416612BB4E7DEA885DE7619C269619E73F4FACE07E25D356C72E73C9CEDF13
310
D74D4CBEEB63F9CB88452E762D312ED57D3DC4882B88B5B6FB0F20E63D63FA066295D9503A88CDA9BA03CF3F3FE12129BC79532B9CB3C32F33CB7F48B490A93BB18CB490EBBCB18C38DC6012653836EC5DF276FB10E3395D4CE544C169FE17FF685A4EBAA78EB9CC616E6FC67232878725B148785FA18E4D7D5BA52326EB93
310
48EAB989D8B425B69EC19CECDF97D8BFA96593A8BF64F42F7F6CEB399D37FC9CB94F42C766FB3675262667401027B2C438A9760DC52736CD4980345FD3AEC44C1F60125C99F61211CF4F4AC8387C72D3313C6FD628D78566EC9259363C6990705CB5ED2EFB11B3D75ECF3A2C53C2D3BF3A647D96182992A264905EC4540A88
310
81D8E305C4400CC4400CC4400C0262200662200662101003311003B1BE55C473DFCA9562BB69848E9512AB4EFD03311003311083E57F9B8E81188881187C7E58FED7121369EC72F213CBD70F13F36737FD88F9E99FB402F3892DBB108B3CE946C4D85C3AB1DE96598B85E9BA557C4A883902091D635AE7AD8A65C238F8B031
310
B1646F74EF93A59C8ED92F34C4FC59EF2B54EF42AF09A265C42AFA607B6D0C22EF4FA6DB898995ADA48E4960E44F0473CBD399958A5A13E3D59C5A60CBA533AF3BCB62B52166F5C4115BF5CEAA52DE42E259ADD26F4999CA91700F570567EFBAB7D4B7D989E2FF7FBF1756EC8F85B6CB6978D0305B37D0C7F863698BEF9BB5
310
E646ED591E2C076BFB386B7BDF1318C7E0F2B971254983E01909E1BF71471DDBF5346E27460111F6603957E3B48EE5F700513EBE3563E1217621B6E221F6FA72F1AB0131DEDDD3B3526C3B7441CC793CB71273BE856C95C2274AAD1B70B655F2FE2AC011B32FE63EFA6EEDCDC49A59FE0C23943E90988EC649ED91758A8F99
310
D17B38176FCF358892916DF32E627DBC8B70C9E1AD8B156FB0AB5DEDF838E7D4B8B263ABE458274C3D9EC3BC47CCD855051E6C0131EE488CA4D9EDEFF3EF10231747EC498C583F315551EBC09E8258660CD6FA8E8D89A53C873D6251F721EE6EBCCE1F0BDC09D74D57118B3BAF7E20BDBB3F368E61A8A5CEBB38F033323A4A
310
6F2019F9B471AB1481A76C62A3A7A95712E31D0F7673C1B8871D137172418C63C66725368E6CF65B688D65766C13ADCF8F72506D52C8D53A76408C7D6289F3CD23B6A91EE73D28E988D99D3AC622D0122326EEAFC5746CCCD6B1FADA05C02802EE460FD6428BD9318EE9986FC728DB8E75313D4D8889A06AD3BE32ED93E5E9
310
990DA7B3B7B4CE9DC41E913F96E5C1DED957DE1F1FAB09681C7AB0B713F3B308D411A3E898886ECE53F13C58C5C49C07EBDD0F110304A69D214333626AA23DA5C1DBC83D939B7C7ECD3AB66FC4EEBB31E2B74A564D2C7424789BCB99FDC082CBFA4ACD764C8D078B7CFE8BFDB1718CEE2B37D3F82D1D3BB063A39B7193D8CC
310
1F2416A43C80588E8E91C8A403B1ACF898CBA303B19C56E945D1412C233EC6FEDC22F495F0C73E171F0331100331100331108377011DFB1C3131B76D938FC5DE6C2E31219ABF4B6C2FDF7E3BBF83D8E5EB7C7ADD1E5FC7C4C434EF5E1D8B61E93228FFAE8EF933610262EB1204EE0ECFB7758C373A266ED753302386A561FB
310
2C3192B7FDE2374DE3D9BD87C446C8E7FCB1EB05C440AC2FB109127D183374AC56D3A063A59A068140201008040251267FEECEB8EA05AE03EB0000000049454E44AE4260821AA00D85F6071FF2081925625F020000000049454E44AE426082
  0
ACDSRECORD
 90
        0
  2
AcDbDs::ID
280
    10
320
D3
  2
Thumbnail_Data
280
    15
 94
     1153
310
89504E470D0A1A0A0000000D4948445200000100000000B5080300000087DCD12600000300504C5445FFFFFF000000C8C8C80000000000000000000000000000000000000000000000000000330000660000990000CC0000FF0033000033330033660033990033CC0033FF0066000066330066660066990066CC0066FF0099
310
000099330099660099990099CC0099FF00CC0000CC3300CC6600CC9900CCCC00CCFF00FF0000FF3300FF6600FF9900FFCC00FFFF3300003300333300663300993300CC3300FF3333003333333333663333993333CC3333FF3366003366333366663366993366CC3366FF3399003399333399663399993399CC3399FF33CC00
310
33CC3333CC6633CC9933CCCC33CCFF33FF0033FF3333FF6633FF9933FFCC33FFFF6600006600336600666600996600CC6600FF6633006633336633666633996633CC6633FF6666006666336666666666996666CC6666FF6699006699336699666699996699CC6699FF66CC0066CC3366CC6666CC9966CCCC66CCFF66FF0066
310
FF3366FF6666FF9966FFCC66FFFF9900009900339900669900999900CC9900FF9933009933339933669933999933CC9933FF9966009966339966669966999966CC9966FF9999009999339999669999999999CC9999FF99CC0099CC3399CC6699CC9999CCCC99CCFF99FF0099FF3399FF6699FF9999FFCC99FFFFCC0000CC00
310
33CC0066CC0099CC00CCCC00FFCC3300CC3333CC3366CC3399CC33CCCC33FFCC6600CC6633CC6666CC6699CC66CCCC66FFCC9900CC9933CC9966CC9999CC99CCCC99FFCCCC00CCCC33CCCC66CCCC99CCCCCCCCCCFFCCFF00CCFF33CCFF66CCFF99CCFFCCCCFFFFFF0000FF0033FF0066FF0099FF00CCFF00FFFF3300FF3333
310
FF3366FF3399FF33CCFF33FFFF6600FF6633FF6666FF6699FF66CCFF66FFFF9900FF9933FF9966FF9999FF99CCFF99FFFFCC00FFCC33FFCC66FFCC99FFCCCCFFCCFFFFFF00FFFF33FFFF66FFFF99FFFFCCFFFFFF0000000D0D0D1A1A1A2828283535354343435050505D5D5D6B6B6B787878868686939393A1A1A1AEAEAEBB
310
BBBBC9C9C9D6D6D6E4E4E4F1F1F1FFFFFF000000000000000000000000000000000000000000000000000000000000B0E2D2350000012D4944415478DAEDDDC19185300C4441E51FA6CE0441A1220719A67D2080DE7AE37F5AD7157E0A40251F0003D0DDF309FCBE0012001079E2130000C02DE016700BD8000000DC026E01
310
09000000C0080290000000008C200009000000C0080290000000008C200009000000C0080290000000008C200009000000C0080290000000008C2000090000F06B80DE3C278C60EFFE5500EC270000000023084002000000308200240000000023084002000000308200240000000023084002000000308200240000000023
310
0840020000003082002400000000230840020000003082002400000000230840020000003082002400000000230840020000003082002400000000230840021F0108F9EFF2DE17F0CA8C5766BC3263030000700BB805DC02F30B34F02B01000F40F88907B801D6BB095400FA5D890000000049454E44AE4260829429460000
310
000049454E44AE426082
  0
ENDSEC
  0
EOF
