  0
SECTION
  2
HEADER
  9
$ACADVER
  1
AC1027
  9
$ACADMAINTVER
 70
   106
  9
$DWGCODEPAGE
  3
ANSI_932
  9
$LASTSAVEDBY
  1
takamura205
  9
$REQUIREDVERSIONS
160
                 0
  9
$INSBASE
 10
0.0
 20
0.0
 30
0.0
  9
$EXTMIN
 10
35785.82830891649
 20
28277.30141662591
 30
0.0
  9
$EXTMAX
 10
37465.82830891649
 20
29465.30141662591
 30
0.0
  9
$LIMMIN
 10
0.0
 20
0.0
  9
$LIMMAX
 10
420.0
 20
297.0
  9
$ORTHOMODE
 70
     0
  9
$REGENMODE
 70
     1
  9
$FILLMODE
 70
     1
  9
$QTEXTMODE
 70
     0
  9
$MIRRTEXT
 70
     0
  9
$LTSCALE
 40
1.0
  9
$ATTMODE
 70
     1
  9
$TEXTSIZE
 40
2.5
  9
$TRACEWID
 40
1.0
  9
$TEXTSTYLE
  7
Standard
  9
$CLAYER
  8
寸法線
  9
$CELTYPE
  6
ByLayer
  9
$CECOLOR
 62
   256
  9
$CELTSCALE
 40
1.0
  9
$DISPSILH
 70
     0
  9
$DIMSCALE
 40
1.0
  9
$DIMASZ
 40
2.5
  9
$DIMEXO
 40
0.625
  9
$DIMDLI
 40
3.75
  9
$DIMRND
 40
0.0
  9
$DIMDLE
 40
0.0
  9
$DIMEXE
 40
1.25
  9
$DIMTP
 40
0.0
  9
$DIMTM
 40
0.0
  9
$DIMTXT
 40
20.0
  9
$DIMCEN
 40
2.5
  9
$DIMTSZ
 40
0.0
  9
$DIMTOL
 70
     0
  9
$DIMLIM
 70
     0
  9
$DIMTIH
 70
     0
  9
$DIMTOH
 70
     0
  9
$DIMSE1
 70
     0
  9
$DIMSE2
 70
     0
  9
$DIMTAD
 70
     1
  9
$DIMZIN
 70
     8
  9
$DIMBLK
  1

  9
$DIMASO
 70
     1
  9
$DIMSHO
 70
     1
  9
$DIMPOST
  1

  9
$DIMAPOST
  1

  9
$DIMALT
 70
     0
  9
$DIMALTD
 70
     3
  9
$DIMALTF
 40
0.03937007874016
  9
$DIMLFAC
 40
1.0
  9
$DIMTOFL
 70
     1
  9
$DIMTVP
 40
0.0
  9
$DIMTIX
 70
     0
  9
$DIMSOXD
 70
     0
  9
$DIMSAH
 70
     0
  9
$DIMBLK1
  1

  9
$DIMBLK2
  1

  9
$DIMSTYLE
  2
ISO-25
  9
$DIMCLRD
 70
     0
  9
$DIMCLRE
 70
     0
  9
$DIMCLRT
 70
     0
  9
$DIMTFAC
 40
1.0
  9
$DIMGAP
 40
0.625
  9
$DIMJUST
 70
     0
  9
$DIMSD1
 70
     0
  9
$DIMSD2
 70
     0
  9
$DIMTOLJ
 70
     0
  9
$DIMTZIN
 70
     8
  9
$DIMALTZ
 70
     0
  9
$DIMALTTZ
 70
     0
  9
$DIMUPT
 70
     0
  9
$DIMDEC
 70
     2
  9
$DIMTDEC
 70
     2
  9
$DIMALTU
 70
     2
  9
$DIMALTTD
 70
     3
  9
$DIMTXSTY
  7
Standard
  9
$DIMAUNIT
 70
     0
  9
$DIMADEC
 70
     0
  9
$DIMALTRND
 40
0.0
  9
$DIMAZIN
 70
     0
  9
$DIMDSEP
 70
    44
  9
$DIMATFIT
 70
     3
  9
$DIMFRAC
 70
     0
  9
$DIMLDRBLK
  1

  9
$DIMLUNIT
 70
     2
  9
$DIMLWD
 70
    -2
  9
$DIMLWE
 70
    -2
  9
$DIMTMOVE
 70
     0
  9
$DIMFXL
 40
1.0
  9
$DIMFXLON
 70
     0
  9
$DIMJOGANG
 40
0.7853981633974483
  9
$DIMTFILL
 70
     0
  9
$DIMTFILLCLR
 70
     0
  9
$DIMARCSYM
 70
     0
  9
$DIMLTYPE
  6

  9
$DIMLTEX1
  6

  9
$DIMLTEX2
  6

  9
$DIMTXTDIRECTION
 70
     0
  9
$LUNITS
 70
     2
  9
$LUPREC
 70
     4
  9
$SKETCHINC
 40
1.0
  9
$FILLETRAD
 40
1.0
  9
$AUNITS
 70
     0
  9
$AUPREC
 70
     0
  9
$MENU
  1
.
  9
$ELEVATION
 40
0.0
  9
$PELEVATION
 40
0.0
  9
$THICKNESS
 40
0.0
  9
$LIMCHECK
 70
     0
  9
$CHAMFERA
 40
0.0
  9
$CHAMFERB
 40
0.0
  9
$CHAMFERC
 40
0.0
  9
$CHAMFERD
 40
0.0
  9
$SKPOLY
 70
     0
  9
$TDCREATE
 40
2457175.672123785
  9
$TDUCREATE
 40
2457175.297123785
  9
$TDUPDATE
 40
2457871.504902986
  9
$TDUUPDATE
 40
2457871.129902986
  9
$TDINDWG
 40
0.7108947569
  9
$TDUSRTIMER
 40
0.7108946528
  9
$USRTIMER
 70
     1
  9
$ANGBASE
 50
0.0
  9
$ANGDIR
 70
     0
  9
$PDMODE
 70
     0
  9
$PDSIZE
 40
0.0
  9
$PLINEWID
 40
0.0
  9
$SPLFRAME
 70
     0
  9
$SPLINETYPE
 70
     6
  9
$SPLINESEGS
 70
     8
  9
$HANDSEED
  5
2B04
  9
$SURFTAB1
 70
     6
  9
$SURFTAB2
 70
     6
  9
$SURFTYPE
 70
     6
  9
$SURFU
 70
     6
  9
$SURFV
 70
     6
  9
$UCSBASE
  2

  9
$UCSNAME
  2

  9
$UCSORG
 10
0.0
 20
0.0
 30
0.0
  9
$UCSXDIR
 10
1.0
 20
0.0
 30
0.0
  9
$UCSYDIR
 10
0.0
 20
1.0
 30
0.0
  9
$UCSORTHOREF
  2

  9
$UCSORTHOVIEW
 70
     0
  9
$UCSORGTOP
 10
0.0
 20
0.0
 30
0.0
  9
$UCSORGBOTTOM
 10
0.0
 20
0.0
 30
0.0
  9
$UCSORGLEFT
 10
0.0
 20
0.0
 30
0.0
  9
$UCSORGRIGHT
 10
0.0
 20
0.0
 30
0.0
  9
$UCSORGFRONT
 10
0.0
 20
0.0
 30
0.0
  9
$UCSORGBACK
 10
0.0
 20
0.0
 30
0.0
  9
$PUCSBASE
  2

  9
$PUCSNAME
  2

  9
$PUCSORG
 10
0.0
 20
0.0
 30
0.0
  9
$PUCSXDIR
 10
1.0
 20
0.0
 30
0.0
  9
$PUCSYDIR
 10
0.0
 20
1.0
 30
0.0
  9
$PUCSORTHOREF
  2

  9
$PUCSORTHOVIEW
 70
     0
  9
$PUCSORGTOP
 10
0.0
 20
0.0
 30
0.0
  9
$PUCSORGBOTTOM
 10
0.0
 20
0.0
 30
0.0
  9
$PUCSORGLEFT
 10
0.0
 20
0.0
 30
0.0
  9
$PUCSORGRIGHT
 10
0.0
 20
0.0
 30
0.0
  9
$PUCSORGFRONT
 10
0.0
 20
0.0
 30
0.0
  9
$PUCSORGBACK
 10
0.0
 20
0.0
 30
0.0
  9
$USERI1
 70
     0
  9
$USERI2
 70
     0
  9
$USERI3
 70
     0
  9
$USERI4
 70
     0
  9
$USERI5
 70
     0
  9
$USERR1
 40
0.0
  9
$USERR2
 40
0.0
  9
$USERR3
 40
0.0
  9
$USERR4
 40
0.0
  9
$USERR5
 40
0.0
  9
$WORLDVIEW
 70
     1
  9
$SHADEDGE
 70
     3
  9
$SHADEDIF
 70
    70
  9
$TILEMODE
 70
     1
  9
$MAXACTVP
 70
    64
  9
$PINSBASE
 10
0.0
 20
0.0
 30
0.0
  9
$PLIMCHECK
 70
     0
  9
$PEXTMIN
 10
25.69999999999999
 20
19.5
 30
0.0
  9
$PEXTMAX
 10
231.3
 20
175.5
 30
0.0
  9
$PLIMMIN
 10
-4.9847412109375
 20
-4.984749794006347
  9
$PLIMMAX
 10
415.0042419433593
 20
292.0259008407593
  9
$UNITMODE
 70
     0
  9
$VISRETAIN
 70
     1
  9
$PLINEGEN
 70
     0
  9
$PSLTSCALE
 70
     1
  9
$TREEDEPTH
 70
  3020
  9
$CMLSTYLE
  2
Standard
  9
$CMLJUST
 70
     0
  9
$CMLSCALE
 40
20.0
  9
$PROXYGRAPHICS
 70
     1
  9
$MEASUREMENT
 70
     1
  9
$CELWEIGHT
370
    -1
  9
$ENDCAPS
280
     0
  9
$JOINSTYLE
280
     0
  9
$LWDISPLAY
290
     0
  9
$INSUNITS
 70
     4
  9
$HYPERLINKBASE
  1

  9
$STYLESHEET
  1
monochrome.stb
  9
$XEDIT
290
     1
  9
$CEPSNTYPE
380
     0
  9
$PSTYLEMODE
290
     0
  9
$FINGERPRINTGUID
  2
{083708C7-F509-4151-B42C-06F3721D7F80}
  9
$VERSIONGUID
  2
{CF513C6C-E9F5-4FB9-A193-359256256FB1}
  9
$EXTNAMES
290
     1
  9
$PSVPSCALE
 40
0.0
  9
$OLESTARTUP
290
     0
  9
$SORTENTS
280
   127
  9
$INDEXCTL
280
     0
  9
$HIDETEXT
280
     1
  9
$XCLIPFRAME
280
     2
  9
$HALOGAP
280
     0
  9
$OBSCOLOR
 70
   257
  9
$OBSLTYPE
280
     0
  9
$INTERSECTIONDISPLAY
280
     0
  9
$INTERSECTIONCOLOR
 70
   257
  9
$DIMASSOC
280
     2
  9
$PROJECTNAME
  1

  9
$CAMERADISPLAY
290
     0
  9
$LENSLENGTH
 40
50.0
  9
$CAMERAHEIGHT
 40
1524.0
  9
$STEPSPERSEC
 40
2.0
  9
$STEPSIZE
 40
6.0
  9
$3DDWFPREC
 40
2.0
  9
$PSOLWIDTH
 40
5.0
  9
$PSOLHEIGHT
 40
80.0
  9
$LOFTANG1
 40
1.570796326794896
  9
$LOFTANG2
 40
1.570796326794896
  9
$LOFTMAG1
 40
0.0
  9
$LOFTMAG2
 40
0.0
  9
$LOFTPARAM
 70
     7
  9
$LOFTNORMALS
280
     1
  9
$LATITUDE
 40
37.795
  9
$LONGITUDE
 40
-122.394
  9
$NORTHDIRECTION
 40
0.0
  9
$TIMEZONE
 70
 -8000
  9
$LIGHTGLYPHDISPLAY
280
     1
  9
$TILEMODELIGHTSYNCH
280
     1
  9
$CMATERIAL
347
E3
  9
$SOLIDHIST
280
     0
  9
$SHOWHIST
280
     1
  9
$DWFFRAME
280
     2
  9
$DGNFRAME
280
     0
  9
$REALWORLDSCALE
290
     1
  9
$INTERFERECOLOR
 62
     1
  9
$INTERFEREOBJVS
345
F0
  9
$INTERFEREVPVS
346
ED
  9
$CSHADOW
280
     0
  9
$SHADOWPLANELOCATION
 40
0.0
  0
ENDSEC
  0
SECTION
  2
CLASSES
  0
CLASS
  1
ACDBDICTIONARYWDFLT
  2
AcDbDictionaryWithDefault
  3
ObjectDBX Classes
 90
        0
 91
        1
280
     0
281
     0
  0
CLASS
  1
DICTIONARYVAR
  2
AcDbDictionaryVar
  3
ObjectDBX Classes
 90
        0
 91
       11
280
     0
281
     0
  0
CLASS
  1
TABLESTYLE
  2
AcDbTableStyle
  3
ObjectDBX Classes
 90
     4095
 91
        1
280
     0
281
     0
  0
CLASS
  1
MATERIAL
  2
AcDbMaterial
  3
ObjectDBX Classes
 90
     1153
 91
        3
280
     0
281
     0
  0
CLASS
  1
VISUALSTYLE
  2
AcDbVisualStyle
  3
ObjectDBX Classes
 90
     4095
 91
       24
280
     0
281
     0
  0
CLASS
  1
SCALE
  2
AcDbScale
  3
ObjectDBX Classes
 90
     1153
 91
       17
280
     0
281
     0
  0
CLASS
  1
MLEADERSTYLE
  2
AcDbMLeaderStyle
  3
ACDB_MLEADERSTYLE_CLASS
 90
     4095
 91
        2
280
     0
281
     0
  0
CLASS
  1
CELLSTYLEMAP
  2
AcDbCellStyleMap
  3
ObjectDBX Classes
 90
     1152
 91
        1
280
     0
281
     0
  0
CLASS
  1
EXACXREFPANELOBJECT
  2
ExAcXREFPanelObject
  3
EXAC_ESW
 90
     1025
 91
        0
280
     0
281
     0
  0
CLASS
  1
NPOCOLLECTION
  2
AcDbImpNonPersistentObjectsCollection
  3
ObjectDBX Classes
 90
     1153
 91
        0
280
     0
281
     0
  0
CLASS
  1
LAYER_INDEX
  2
AcDbLayerIndex
  3
ObjectDBX Classes
 90
        0
 91
        0
280
     0
281
     0
  0
CLASS
  1
SPATIAL_INDEX
  2
AcDbSpatialIndex
  3
ObjectDBX Classes
 90
        0
 91
        0
280
     0
281
     0
  0
CLASS
  1
IDBUFFER
  2
AcDbIdBuffer
  3
ObjectDBX Classes
 90
        0
 91
        0
280
     0
281
     0
  0
CLASS
  1
ACDBSECTIONVIEWSTYLE
  2
AcDbSectionViewStyle
  3
ObjectDBX Classes
 90
     1025
 91
        1
280
     0
281
     0
  0
CLASS
  1
ACDBDETAILVIEWSTYLE
  2
AcDbDetailViewStyle
  3
ObjectDBX Classes
 90
     1025
 91
        1
280
     0
281
     0
  0
CLASS
  1
DIMASSOC
  2
AcDbDimAssoc
  3
"AcDbDimAssoc|Product Desc:     AcDim ARX App For Dimension|Company:          Autodesk, Inc.|WEB Address:      www.autodesk.com"
 90
        0
 91
        7
280
     0
281
     0
  0
CLASS
  1
SORTENTSTABLE
  2
AcDbSortentsTable
  3
ObjectDBX Classes
 90
        0
 91
        1
280
     0
281
     0
  0
CLASS
  1
PLOTSETTINGS
  2
AcDbPlotSettings
  3
ObjectDBX Classes
 90
        0
 91
        1
280
     0
281
     0
  0
ENDSEC
  0
SECTION
  2
TABLES
  0
TABLE
  2
VPORT
  5
8
330
0
100
AcDbSymbolTable
 70
     1
  0
VPORT
  5
E1
330
8
100
AcDbSymbolTableRecord
100
AcDbViewportTableRecord
  2
*Active
 70
     0
 10
0.0
 20
0.0
 11
1.0
 21
1.0
 12
36978.44513010859
 22
28779.48388274165
 13
0.0
 23
0.0
 14
10.0
 24
10.0
 15
10.0
 25
10.0
 16
0.0
 26
0.0
 36
1.0
 17
0.0
 27
0.0
 37
0.0
 40
2245.076041461429
 41
1.203585147247119
 42
50.0
 43
0.0
 44
0.0
 50
0.0
 51
0.0
 71
     0
 72
  1000
 73
     1
 74
     3
 75
     0
 76
     1
 77
     0
 78
     0
281
     0
 65
     1
110
0.0
120
0.0
130
0.0
111
1.0
121
0.0
131
0.0
112
0.0
122
1.0
132
0.0
 79
     0
146
0.0
348
EC
 60
     3
 61
     5
292
     1
282
     1
141
0.0
142
0.0
 63
   250
421
  3355443
1001
ACAD_NAV_VCDISPLAY
1070
     3
  0
ENDTAB
  0
TABLE
  2
LTYPE
  5
5
330
0
100
AcDbSymbolTable
 70
     4
  0
LTYPE
  5
14
330
5
100
AcDbSymbolTableRecord
100
AcDbLinetypeTableRecord
  2
ByBlock
 70
     0
  3

 72
    65
 73
     0
 40
0.0
  0
LTYPE
  5
15
330
5
100
AcDbSymbolTableRecord
100
AcDbLinetypeTableRecord
  2
ByLayer
 70
     0
  3

 72
    65
 73
     0
 40
0.0
  0
LTYPE
  5
16
330
5
100
AcDbSymbolTableRecord
100
AcDbLinetypeTableRecord
  2
Continuous
 70
     0
  3
Solid line
 72
    65
 73
     0
 40
0.0
  0
LTYPE
  5
25A
330
5
100
AcDbSymbolTableRecord
100
AcDbLinetypeTableRecord
  2
ACAD_ISO04W100
 70
     0
  3
ISO long-dash dot ____ . ____ . ____ . ____ . _
 72
    65
 73
     4
 40
30.0
 49
24.0
 74
     0
 49
-3.0
 74
     0
 49
0.0
 74
     0
 49
-3.0
 74
     0
  0
LTYPE
  5
25E
330
5
100
AcDbSymbolTableRecord
100
AcDbLinetypeTableRecord
  2
ACAD_ISO02W100
 70
     0
  3
ISO dash __ __ __ __ __ __ __ __ __ __ __ __ __
 72
    65
 73
     2
 40
15.0
 49
12.0
 74
     0
 49
-3.0
 74
     0
  0
LTYPE
  5
260
330
5
100
AcDbSymbolTableRecord
100
AcDbLinetypeTableRecord
  2
ACAD_ISO07W100
 70
     0
  3
ISO dot . . . . . . . . . . . . . . . . . . . .
 72
    65
 73
     2
 40
3.0
 49
0.0
 74
     0
 49
-3.0
 74
     0
  0
ENDTAB
  0
TABLE
  2
LAYER
  5
2
102
{ACAD_XDICTIONARY
360
1F6
102
}
330
0
100
AcDbSymbolTable
 70
    14
  0
LAYER
  5
10
102
{ACAD_XDICTIONARY
360
133
102
}
330
2
100
AcDbSymbolTableRecord
100
AcDbLayerTableRecord
  2
0
 70
     0
 62
     7
  6
Continuous
370
    -3
390
F
347
E5
348
0
  0
LAYER
  5
255
330
2
100
AcDbSymbolTableRecord
100
AcDbLayerTableRecord
  2
中心線
 70
     0
 62
     3
  6
ACAD_ISO04W100
370
     9
390
F
347
E5
348
0
1001
AcAecLayerStandard
1000

1000

1001
AcCmTransparency
1071
        0
  0
LAYER
  5
25B
330
2
100
AcDbSymbolTableRecord
100
AcDbLayerTableRecord
  2
外形線②
 70
     0
 62
     7
  6
Continuous
370
    15
390
F
347
E5
348
0
1001
AcAecLayerStandard
1000

1000

1001
AcCmTransparency
1071
        0
  0
LAYER
  5
25C
330
2
100
AcDbSymbolTableRecord
100
AcDbLayerTableRecord
  2
寸法線
 70
     0
 62
     3
  6
Continuous
370
    13
390
F
347
E5
348
0
1001
AcAecLayerStandard
1000

1000

1001
AcCmTransparency
1071
        0
  0
LAYER
  5
25D
330
2
100
AcDbSymbolTableRecord
100
AcDbLayerTableRecord
  2
点線
 70
     0
 62
     4
  6
ACAD_ISO02W100
370
     9
390
F
347
E5
348
0
1001
AcAecLayerStandard
1000

1000

1001
AcCmTransparency
1071
        0
  0
LAYER
  5
25F
330
2
100
AcDbSymbolTableRecord
100
AcDbLayerTableRecord
  2
オフセット
 70
     0
 62
    -6
  6
Continuous
370
    13
390
F
347
E5
348
0
1001
AcAecLayerStandard
1000

1000

1001
AcCmTransparency
1071
        0
  0
LAYER
  5
271
330
2
100
AcDbSymbolTableRecord
100
AcDbLayerTableRecord
  2
Defpoints
 70
     0
 62
     7
  6
Continuous
290
     0
370
    -3
390
F
347
E5
348
0
  0
LAYER
  5
2F1
330
2
100
AcDbSymbolTableRecord
100
AcDbLayerTableRecord
  2
ビューポート
 70
     0
 62
     3
  6
Continuous
370
    15
390
F
347
E5
348
0
1001
AcAecLayerStandard
1000

1000

1001
AcCmTransparency
1071
        0
  0
LAYER
  5
382
330
2
100
AcDbSymbolTableRecord
100
AcDbLayerTableRecord
  2
外形線
 70
     0
 62
     7
  6
Continuous
370
    15
390
F
347
E5
348
0
1001
AcAecLayerStandard
1000

1000

1001
AcCmTransparency
1071
        0
  0
LAYER
  5
430
330
2
100
AcDbSymbolTableRecord
100
AcDbLayerTableRecord
  2
LED器具
 70
     0
 62
     4
  6
Continuous
370
    13
390
F
347
E5
348
0
1001
AcAecLayerStandard
1000

1000

1001
AcCmTransparency
1071
        0
  0
LAYER
  5
44D
330
2
100
AcDbSymbolTableRecord
100
AcDbLayerTableRecord
  2
孔
 70
     0
 62
     4
  6
Continuous
370
    15
390
F
347
E5
348
0
1001
AcAecLayerStandard
1000

1000

1001
AcCmTransparency
1071
        0
  0
LAYER
  5
AAC
330
2
100
AcDbSymbolTableRecord
100
AcDbLayerTableRecord
  2
枠線
 70
     0
 62
     2
  6
Continuous
370
     9
390
F
347
E5
348
0
1001
AcAecLayerStandard
1000

1000

1001
AcCmTransparency
1071
        0
  0
LAYER
  5
CEA
102
{ACAD_XDICTIONARY
360
CEB
102
}
330
2
100
AcDbSymbolTableRecord
100
AcDbLayerTableRecord
  2
1
 70
     0
 62
     7
  6
Continuous
370
    -3
390
F
347
E5
348
0
  0
LAYER
  5
DBB
330
2
100
AcDbSymbolTableRecord
100
AcDbLayerTableRecord
  2
○
 70
     0
 62
     3
  6
Continuous
370
     9
390
F
347
E5
348
0
1001
AcAecLayerStandard
1000

1000

1001
AcCmTransparency
1071
        0
  0
ENDTAB
  0
TABLE
  2
STYLE
  5
3
330
0
100
AcDbSymbolTable
 70
     4
  0
STYLE
  5
11
330
3
100
AcDbSymbolTableRecord
100
AcDbTextStyleTableRecord
  2
Standard
 70
     0
 40
0.0
 41
1.0
 50
0.0
 71
     0
 42
2.5
  3
arial.ttf
  4

1001
ACAD
1000
Arial
1071
       34
  0
STYLE
  5
129
330
3
100
AcDbSymbolTableRecord
100
AcDbTextStyleTableRecord
  2
Annotative
 70
     0
 40
0.0
 41
1.0
 50
0.0
 71
     0
 42
2.5
  3
arial.ttf
  4

1001
AcadAnnotative
1000
AnnotativeData
1002
{
1070
     1
1070
     1
1002
}
1001
ACAD
1000
Arial
1071
       34
  0
STYLE
  5
259
330
3
100
AcDbSymbolTableRecord
100
AcDbTextStyleTableRecord
  2

 70
     1
 40
0.0
 41
1.0
 50
0.0
 71
     0
 42
2.5
  3
ltypeshp.shx
  4

  0
STYLE
  5
CEC
330
3
100
AcDbSymbolTableRecord
100
AcDbTextStyleTableRecord
  2
BIGFONT
 70
     0
 40
1.0
 41
1.0
 50
0.0
 71
     0
 42
1.0
  3
TXT
  4
BIGFONT
  0
ENDTAB
  0
TABLE
  2
VIEW
  5
6
330
0
100
AcDbSymbolTable
 70
     0
  0
ENDTAB
  0
TABLE
  2
UCS
  5
7
330
0
100
AcDbSymbolTable
 70
     0
  0
ENDTAB
  0
TABLE
  2
APPID
  5
9
330
0
100
AcDbSymbolTable
 70
    13
  0
APPID
  5
12
330
9
100
AcDbSymbolTableRecord
100
AcDbRegAppTableRecord
  2
ACAD
 70
     0
  0
APPID
  5
A0
330
9
100
AcDbSymbolTableRecord
100
AcDbRegAppTableRecord
  2
ACAD_PSEXT
 70
     0
  0
APPID
  5
12A
330
9
100
AcDbSymbolTableRecord
100
AcDbRegAppTableRecord
  2
AcadAnnoPO
 70
     0
  0
APPID
  5
12B
330
9
100
AcDbSymbolTableRecord
100
AcDbRegAppTableRecord
  2
AcadAnnotative
 70
     0
  0
APPID
  5
12C
330
9
100
AcDbSymbolTableRecord
100
AcDbRegAppTableRecord
  2
ACAD_DSTYLE_DIMJAG
 70
     0
  0
APPID
  5
12D
330
9
100
AcDbSymbolTableRecord
100
AcDbRegAppTableRecord
  2
ACAD_DSTYLE_DIMTALN
 70
     0
  0
APPID
  5
15C
330
9
100
AcDbSymbolTableRecord
100
AcDbRegAppTableRecord
  2
ACAD_MLEADERVER
 70
     0
  0
APPID
  5
20E
330
9
100
AcDbSymbolTableRecord
100
AcDbRegAppTableRecord
  2
ACAD_NAV_VCDISPLAY
 70
     0
  0
APPID
  5
256
330
9
100
AcDbSymbolTableRecord
100
AcDbRegAppTableRecord
  2
AcAecLayerStandard
 70
     0
  0
APPID
  5
257
330
9
100
AcDbSymbolTableRecord
100
AcDbRegAppTableRecord
  2
AcCmTransparency
 70
     0
  0
APPID
  5
264
330
9
100
AcDbSymbolTableRecord
100
AcDbRegAppTableRecord
  2
ACAD_EXEMPT_FROM_CAD_STANDARDS
 70
     0
  0
APPID
  5
26F
330
9
100
AcDbSymbolTableRecord
100
AcDbRegAppTableRecord
  2
ACAD_DSTYLE_DIMRADIAL_EXTENSION
 70
     0
  0
APPID
  5
A2B
330
9
100
AcDbSymbolTableRecord
100
AcDbRegAppTableRecord
  2
AcadAnnoMonitorAlertIconDisabled
 70
     0
  0
ENDTAB
  0
TABLE
  2
DIMSTYLE
  5
A
330
0
100
AcDbSymbolTable
 70
     3
100
AcDbDimStyleTable
 71
     2
340
27
340
12E
  0
DIMSTYLE
105
1A7
330
A
100
AcDbSymbolTableRecord
100
AcDbDimStyleTableRecord
  2
Standard
 70
     0
340
11
  0
DIMSTYLE
105
12E
330
A
100
AcDbSymbolTableRecord
100
AcDbDimStyleTableRecord
  2
Annotative
 70
     0
 40
0.0
 41
2.5
 42
0.625
 43
3.75
 44
1.25
 73
     0
 74
     0
 77
     1
 78
     8
140
2.5
141
2.5
143
0.03937007874016
147
0.625
171
     3
172
     1
271
     2
272
     2
274
     3
278
    44
283
     0
284
     8
340
11
1001
AcadAnnotative
1000
AnnotativeData
1002
{
1070
     1
1070
     1
1002
}
1001
ACAD_DSTYLE_DIMJAG
1070
   388
1040
1.5
1001
ACAD_DSTYLE_DIMTALN
1070
   392
1070
     0
  0
DIMSTYLE
105
27
102
{ACAD_REACTORS
330
2152
330
216A
330
2182
330
219E
330
21B6
330
21CE
330
21E6
102
}
330
A
100
AcDbSymbolTableRecord
100
AcDbDimStyleTableRecord
  2
ISO-25
 70
     0
 41
2.5
 42
0.625
 43
3.75
 44
1.25
 73
     0
 74
     0
 77
     1
 78
     8
140
20.0
141
2.5
143
0.03937007874016
147
0.625
171
     3
172
     1
271
     2
272
     2
274
     3
278
    44
283
     0
284
     8
340
11
1001
ACAD_DSTYLE_DIMJAG
1070
   388
1040
1.5
1001
ACAD_DSTYLE_DIMTALN
1070
   392
1070
     0
  0
ENDTAB
  0
TABLE
  2
BLOCK_RECORD
  5
1
330
0
100
AcDbSymbolTable
 70
     8
  0
BLOCK_RECORD
  5
1F
102
{ACAD_XDICTIONARY
360
1C5
102
}
330
1
100
AcDbSymbolTableRecord
100
AcDbBlockTableRecord
  2
*Model_Space
340
22
 70
     0
280
     1
281
     0
  0
BLOCK_RECORD
  5
D2
330
1
100
AcDbSymbolTableRecord
100
AcDbBlockTableRecord
  2
*Paper_Space
340
D3
 70
     0
280
     1
281
     0
  0
BLOCK_RECORD
  5
D6
330
1
100
AcDbSymbolTableRecord
100
AcDbBlockTableRecord
  2
*Paper_Space0
340
D7
 70
     0
280
     1
281
     0
  0
BLOCK_RECORD
  5
2153
330
1
100
AcDbSymbolTableRecord
100
AcDbBlockTableRecord
  2
*D1
340
0
 70
     0
280
     1
281
     0
  0
BLOCK_RECORD
  5
216B
330
1
100
AcDbSymbolTableRecord
100
AcDbBlockTableRecord
  2
*D2
340
0
 70
     0
280
     1
281
     0
  0
BLOCK_RECORD
  5
2183
330
1
100
AcDbSymbolTableRecord
100
AcDbBlockTableRecord
  2
*D3
340
0
 70
     0
280
     1
281
     0
  0
BLOCK_RECORD
  5
219F
330
1
100
AcDbSymbolTableRecord
100
AcDbBlockTableRecord
  2
*D4
340
0
 70
     0
280
     1
281
     0
  0
BLOCK_RECORD
  5
21B7
330
1
100
AcDbSymbolTableRecord
100
AcDbBlockTableRecord
  2
*D5
340
0
 70
     0
280
     1
281
     0
  0
BLOCK_RECORD
  5
21CF
330
1
100
AcDbSymbolTableRecord
100
AcDbBlockTableRecord
  2
*D6
340
0
 70
     0
280
     1
281
     0
  0
BLOCK_RECORD
  5
21E7
330
1
100
AcDbSymbolTableRecord
100
AcDbBlockTableRecord
  2
*D7
340
0
 70
     0
280
     1
281
     0
  0
ENDTAB
  0
ENDSEC
  0
SECTION
  2
BLOCKS
  0
BLOCK
  5
20
330
1F
100
AcDbEntity
  8
0
100
AcDbBlockBegin
  2
*Model_Space
 70
     0
 10
0.0
 20
0.0
 30
0.0
  3
*Model_Space
  1

  0
ENDBLK
  5
21
330
1F
100
AcDbEntity
  8
0
100
AcDbBlockEnd
  0
BLOCK
  5
D4
330
D2
100
AcDbEntity
 67
     1
  8
0
100
AcDbBlockBegin
  2
*Paper_Space
 70
     0
 10
0.0
 20
0.0
 30
0.0
  3
*Paper_Space
  1

  0
ENDBLK
  5
D5
330
D2
100
AcDbEntity
 67
     1
  8
0
100
AcDbBlockEnd
  0
BLOCK
  5
D8
330
D6
100
AcDbEntity
 67
     1
  8
0
100
AcDbBlockBegin
  2
*Paper_Space0
 70
     0
 10
0.0
 20
0.0
 30
0.0
  3
*Paper_Space0
  1

  0
ENDBLK
  5
D9
330
D6
100
AcDbEntity
 67
     1
  8
0
100
AcDbBlockEnd
  0
BLOCK
  5
2154
330
2153
100
AcDbEntity
  8
0
100
AcDbBlockBegin
  2
*D1
 70
     1
 10
0.0
 20
0.0
 30
0.0
  3
*D1
  1

  0
LINE
  5
2A81
330
2153
100
AcDbEntity
  8
寸法線
 62
     0
440
 16777216
370
    -2
100
AcDbLine
 10
35943.92638163407
 20
29046.65277053624
 30
0.0
 11
35943.92638163407
 21
29124.55415589967
 31
0.0
  0
LINE
  5
2A82
330
2153
100
AcDbEntity
  8
寸法線
 62
     0
440
 16777216
370
    -2
100
AcDbLine
 10
36816.92638163407
 20
29045.86611259568
 30
0.0
 11
36816.92638163407
 21
29124.55415589967
 31
0.0
  0
LINE
  5
2A83
330
2153
100
AcDbEntity
  8
寸法線
 62
     0
440
 16777216
370
    -2
100
AcDbLine
 10
35946.42638163407
 20
29123.30415589968
 30
0.0
 11
36814.42638163407
 21
29123.30415589968
 31
0.0
  0
SOLID
  5
2A84
330
2153
100
AcDbEntity
  8
寸法線
 62
     0
440
 16777216
100
AcDbTrace
 10
35946.42638163407
 20
29123.72082256634
 30
0.0
 11
35946.42638163407
 21
29122.88748923301
 31
0.0
 12
35943.92638163407
 22
29123.30415589968
 32
0.0
 13
35943.92638163407
 23
29123.30415589968
 33
0.0
  0
SOLID
  5
2A85
330
2153
100
AcDbEntity
  8
寸法線
 62
     0
440
 16777216
100
AcDbTrace
 10
36814.42638163407
 20
29123.72082256634
 30
0.0
 11
36814.42638163407
 21
29122.88748923301
 31
0.0
 12
36816.92638163407
 22
29123.30415589968
 32
0.0
 13
36816.92638163407
 23
29123.30415589968
 33
0.0
  0
MTEXT
  5
2A86
330
2153
100
AcDbEntity
  8
寸法線
 62
     0
440
 16777216
100
AcDbMText
 10
36380.42638163407
 20
29134.14743693651
 30
0.0
 40
20.0
 41
0.0
 46
0.0
 71
     5
 72
     1
  1
873
 73
     1
 44
1.0
  0
POINT
  5
2A87
330
2153
100
AcDbEntity
  8
Defpoints
 62
     0
440
 16777216
100
AcDbPoint
 10
35943.92638163407
 20
29046.02777053624
 30
0.0
  0
POINT
  5
2A88
330
2153
100
AcDbEntity
  8
Defpoints
 62
     0
440
 16777216
100
AcDbPoint
 10
36816.92638163407
 20
29045.24111259568
 30
0.0
  0
POINT
  5
2A89
330
2153
100
AcDbEntity
  8
Defpoints
 62
     0
440
 16777216
100
AcDbPoint
 10
36816.92638163407
 20
29123.30415589968
 30
0.0
  0
ENDBLK
  5
2155
330
2153
100
AcDbEntity
  8
0
100
AcDbBlockEnd
  0
BLOCK
  5
216C
330
216B
100
AcDbEntity
  8
0
100
AcDbBlockBegin
  2
*D2
 70
     1
 10
0.0
 20
0.0
 30
0.0
  3
*D2
  1

  0
LINE
  5
2A8A
330
216B
100
AcDbEntity
  8
寸法線
 62
     0
440
 16777216
370
    -2
100
AcDbLine
 10
36816.55138163407
 20
28790.93594779978
 30
0.0
 11
36875.17879019347
 21
28790.93594779978
 31
0.0
  0
LINE
  5
2A8B
330
216B
100
AcDbEntity
  8
寸法線
 62
     0
440
 16777216
370
    -2
100
AcDbLine
 10
36816.55138163407
 20
28738.93594779978
 30
0.0
 11
36875.17879019347
 21
28738.93594779978
 31
0.0
  0
LINE
  5
2A8C
330
216B
100
AcDbEntity
  8
寸法線
 62
     0
440
 16777216
370
    -2
100
AcDbLine
 10
36873.92879019347
 20
28788.43594779978
 30
0.0
 11
36873.92879019347
 21
28741.43594779978
 31
0.0
  0
SOLID
  5
2A8D
330
216B
100
AcDbEntity
  8
寸法線
 62
     0
440
 16777216
100
AcDbTrace
 10
36873.5121235268
 20
28788.43594779978
 30
0.0
 11
36874.34545686013
 21
28788.43594779978
 31
0.0
 12
36873.92879019347
 22
28790.93594779978
 32
0.0
 13
36873.92879019347
 23
28790.93594779978
 33
0.0
  0
SOLID
  5
2A8E
330
216B
100
AcDbEntity
  8
寸法線
 62
     0
440
 16777216
100
AcDbTrace
 10
36873.5121235268
 20
28741.43594779978
 30
0.0
 11
36874.34545686013
 21
28741.43594779978
 31
0.0
 12
36873.92879019347
 22
28738.93594779978
 32
0.0
 13
36873.92879019347
 23
28738.93594779978
 33
0.0
  0
MTEXT
  5
2A8F
330
216B
100
AcDbEntity
  8
寸法線
 62
     0
440
 16777216
100
AcDbMText
 10
36863.09233043902
 20
28764.93594779979
 30
0.0
 40
20.0
 41
0.0
 46
0.0
 71
     5
 72
     1
  1
52
 11
0.0000000000000001
 21
1.0
 31
0.0
 73
     1
 44
1.0
  0
POINT
  5
2A90
330
216B
100
AcDbEntity
  8
Defpoints
 62
     0
440
 16777216
100
AcDbPoint
 10
36815.92638163407
 20
28790.93594779978
 30
0.0
  0
POINT
  5
2A91
330
216B
100
AcDbEntity
  8
Defpoints
 62
     0
440
 16777216
100
AcDbPoint
 10
36815.92638163407
 20
28738.93594779978
 30
0.0
  0
POINT
  5
2A92
330
216B
100
AcDbEntity
  8
Defpoints
 62
     0
440
 16777216
100
AcDbPoint
 10
36873.92879019347
 20
28738.93594779978
 30
0.0
  0
ENDBLK
  5
216D
330
216B
100
AcDbEntity
  8
0
100
AcDbBlockEnd
  0
BLOCK
  5
2184
330
2183
100
AcDbEntity
  8
0
100
AcDbBlockBegin
  2
*D3
 70
     1
 10
0.0
 20
0.0
 30
0.0
  3
*D3
  1

  0
LINE
  5
2A93
330
2183
100
AcDbEntity
  8
寸法線
 62
     0
440
 16777216
370
    -2
100
AcDbLine
 10
36816.55138163407
 20
28738.93594779978
 30
0.0
 11
36875.17879019347
 21
28738.93594779978
 31
0.0
  0
LINE
  5
2A94
330
2183
100
AcDbEntity
  8
寸法線
 62
     0
440
 16777216
370
    -2
100
AcDbLine
 10
36778.55138163407
 20
28734.93594779978
 30
0.0
 11
36875.17879019347
 21
28734.93594779978
 31
0.0
  0
LINE
  5
2A95
330
2183
100
AcDbEntity
  8
寸法線
 62
     0
440
 16777216
370
    -2
100
AcDbLine
 10
36873.92879019347
 20
28741.43594779978
 30
0.0
 11
36873.92879019347
 21
28743.93594779978
 31
0.0
  0
LINE
  5
2A96
330
2183
100
AcDbEntity
  8
寸法線
 62
     0
440
 16777216
370
    -2
100
AcDbLine
 10
36873.92879019347
 20
28732.43594779978
 30
0.0
 11
36873.92879019347
 21
28714.85238709037
 31
0.0
  0
LINE
  5
2A97
330
2183
100
AcDbEntity
  8
寸法線
 62
     0
440
 16777216
370
    -2
100
AcDbLine
 10
36873.92879019347
 20
28738.93594779978
 30
0.0
 11
36873.92879019347
 21
28734.93594779978
 31
0.0
  0
SOLID
  5
2A98
330
2183
100
AcDbEntity
  8
寸法線
 62
     0
440
 16777216
100
AcDbTrace
 10
36873.5121235268
 20
28741.43594779978
 30
0.0
 11
36874.34545686013
 21
28741.43594779978
 31
0.0
 12
36873.92879019347
 22
28738.93594779978
 32
0.0
 13
36873.92879019347
 23
28738.93594779978
 33
0.0
  0
SOLID
  5
2A99
330
2183
100
AcDbEntity
  8
寸法線
 62
     0
440
 16777216
100
AcDbTrace
 10
36873.5121235268
 20
28732.43594779978
 30
0.0
 11
36874.34545686013
 21
28732.43594779978
 31
0.0
 12
36873.92879019347
 22
28734.93594779978
 32
0.0
 13
36873.92879019347
 23
28734.93594779978
 33
0.0
  0
MTEXT
  5
2A9A
330
2183
100
AcDbEntity
  8
寸法線
 62
     0
440
 16777216
100
AcDbMText
 10
36863.30379019346
 20
28722.39416744508
 30
0.0
 40
20.0
 41
0.0
 46
0.0
 71
     5
 72
     1
  1
4
 11
0.0000000000000001
 21
1.0
 31
0.0
 73
     1
 44
1.0
  0
POINT
  5
2A9B
330
2183
100
AcDbEntity
  8
Defpoints
 62
     0
440
 16777216
100
AcDbPoint
 10
36815.92638163407
 20
28738.93594779978
 30
0.0
  0
POINT
  5
2A9C
330
2183
100
AcDbEntity
  8
Defpoints
 62
     0
440
 16777216
100
AcDbPoint
 10
36777.92638163407
 20
28734.93594779978
 30
0.0
  0
POINT
  5
2A9D
330
2183
100
AcDbEntity
  8
Defpoints
 62
     0
440
 16777216
100
AcDbPoint
 10
36873.92879019347
 20
28734.93594779978
 30
0.0
  0
ENDBLK
  5
2185
330
2183
100
AcDbEntity
  8
0
100
AcDbBlockEnd
  0
BLOCK
  5
21A0
330
219F
100
AcDbEntity
  8
0
100
AcDbBlockBegin
  2
*D4
 70
     1
 10
0.0
 20
0.0
 30
0.0
  3
*D4
  1

  0
LINE
  5
2A9E
330
219F
100
AcDbEntity
  8
寸法線
 62
     0
440
 16777216
370
    -2
100
AcDbLine
 10
37046.31742888912
 20
28790.95526152675
 30
0.0
 11
36930.85146284566
 21
28790.95526152675
 31
0.0
  0
LINE
  5
2A9F
330
219F
100
AcDbEntity
  8
寸法線
 62
     0
440
 16777216
370
    -2
100
AcDbLine
 10
37046.31742888912
 20
28734.95526152675
 30
0.0
 11
36930.85146284566
 21
28734.95526152675
 31
0.0
  0
LINE
  5
2AA0
330
219F
100
AcDbEntity
  8
寸法線
 62
     0
440
 16777216
370
    -2
100
AcDbLine
 10
36932.10146284566
 20
28788.45526152675
 30
0.0
 11
36932.10146284566
 21
28737.45526152675
 31
0.0
  0
SOLID
  5
2AA1
330
219F
100
AcDbEntity
  8
寸法線
 62
     0
440
 16777216
100
AcDbTrace
 10
36931.684796179
 20
28788.45526152675
 30
0.0
 11
36932.51812951233
 21
28788.45526152675
 31
0.0
 12
36932.10146284566
 22
28790.95526152675
 32
0.0
 13
36932.10146284566
 23
28790.95526152675
 33
0.0
  0
SOLID
  5
2AA2
330
219F
100
AcDbEntity
  8
寸法線
 62
     0
440
 16777216
100
AcDbTrace
 10
36931.684796179
 20
28737.45526152675
 30
0.0
 11
36932.51812951233
 21
28737.45526152675
 31
0.0
 12
36932.10146284566
 22
28734.95526152675
 32
0.0
 13
36932.10146284566
 23
28734.95526152675
 33
0.0
  0
MTEXT
  5
2AA3
330
219F
100
AcDbEntity
  8
寸法線
 62
     0
440
 16777216
100
AcDbMText
 10
36921.26500309122
 20
28762.95526152675
 30
0.0
 40
20.0
 41
0.0
 46
0.0
 71
     5
 72
     1
  1
56
 11
0.0000000000000001
 21
1.0
 31
0.0
 73
     1
 44
1.0
  0
POINT
  5
2AA4
330
219F
100
AcDbEntity
  8
Defpoints
 62
     0
440
 16777216
100
AcDbPoint
 10
37046.94242888912
 20
28790.95526152675
 30
0.0
  0
POINT
  5
2AA5
330
219F
100
AcDbEntity
  8
Defpoints
 62
     0
440
 16777216
100
AcDbPoint
 10
37046.94242888912
 20
28734.95526152675
 30
0.0
  0
POINT
  5
2AA6
330
219F
100
AcDbEntity
  8
Defpoints
 62
     0
440
 16777216
100
AcDbPoint
 10
36932.10146284566
 20
28734.95526152675
 30
0.0
  0
ENDBLK
  5
21A1
330
219F
100
AcDbEntity
  8
0
100
AcDbBlockEnd
  0
BLOCK
  5
21B8
330
21B7
100
AcDbEntity
  8
0
100
AcDbBlockBegin
  2
*D5
 70
     1
 10
0.0
 20
0.0
 30
0.0
  3
*D5
  1

  0
LINE
  5
2AA7
330
21B7
100
AcDbEntity
  8
寸法線
 62
     0
440
 16777216
370
    -2
100
AcDbLine
 10
36978.14242888911
 20
28759.58026152675
 30
0.0
 11
36978.14242888911
 21
28883.08430491262
 31
0.0
  0
LINE
  5
2AA8
330
21B7
100
AcDbEntity
  8
寸法線
 62
     0
440
 16777216
370
    -2
100
AcDbLine
 10
37062.94242888912
 20
28775.33026152788
 30
0.0
 11
37062.94242888912
 21
28883.08430491262
 31
0.0
  0
LINE
  5
2AA9
330
21B7
100
AcDbEntity
  8
寸法線
 62
     0
440
 16777216
370
    -2
100
AcDbLine
 10
36980.64242888912
 20
28881.83430491262
 30
0.0
 11
37060.44242888912
 21
28881.83430491262
 31
0.0
  0
SOLID
  5
2AAA
330
21B7
100
AcDbEntity
  8
寸法線
 62
     0
440
 16777216
100
AcDbTrace
 10
36980.64242888912
 20
28882.25097157929
 30
0.0
 11
36980.64242888912
 21
28881.41763824595
 31
0.0
 12
36978.14242888911
 22
28881.83430491262
 32
0.0
 13
36978.14242888911
 23
28881.83430491262
 33
0.0
  0
SOLID
  5
2AAB
330
21B7
100
AcDbEntity
  8
寸法線
 62
     0
440
 16777216
100
AcDbTrace
 10
37060.44242888912
 20
28882.25097157929
 30
0.0
 11
37060.44242888912
 21
28881.41763824595
 31
0.0
 12
37062.94242888912
 22
28881.83430491262
 32
0.0
 13
37062.94242888912
 23
28881.83430491262
 33
0.0
  0
MTEXT
  5
2AAC
330
21B7
100
AcDbEntity
  8
寸法線
 62
     0
440
 16777216
100
AcDbMText
 10
37020.54242888912
 20
28894.47840450334
 30
0.0
 40
20.0
 41
0.0
 46
0.0
 71
     5
 72
     1
  1
84,8
 73
     1
 44
1.0
  0
POINT
  5
2AAD
330
21B7
100
AcDbEntity
  8
Defpoints
 62
     0
440
 16777216
100
AcDbPoint
 10
36978.14242888911
 20
28758.95526152675
 30
0.0
  0
POINT
  5
2AAE
330
21B7
100
AcDbEntity
  8
Defpoints
 62
     0
440
 16777216
100
AcDbPoint
 10
37062.94242888912
 20
28774.70526152788
 30
0.0
  0
POINT
  5
2AAF
330
21B7
100
AcDbEntity
  8
Defpoints
 62
     0
440
 16777216
100
AcDbPoint
 10
37062.94242888912
 20
28881.83430491262
 30
0.0
  0
ENDBLK
  5
21B9
330
21B7
100
AcDbEntity
  8
0
100
AcDbBlockEnd
  0
BLOCK
  5
21D0
330
21CF
100
AcDbEntity
  8
0
100
AcDbBlockBegin
  2
*D6
 70
     1
 10
0.0
 20
0.0
 30
0.0
  3
*D6
  1

  0
LINE
  5
2AB0
330
21CF
100
AcDbEntity
  8
寸法線
 62
     0
440
 16777216
370
    -2
100
AcDbLine
 10
37046.94242888912
 20
28801.58026187576
 30
0.0
 11
37046.94242888912
 21
28833.17256041376
 31
0.0
  0
LINE
  5
2AB1
330
21CF
100
AcDbEntity
  8
寸法線
 62
     0
440
 16777216
370
    -2
100
AcDbLine
 10
36978.14242888911
 20
28759.58026152675
 30
0.0
 11
36978.14242888911
 21
28833.17256041376
 31
0.0
  0
LINE
  5
2AB2
330
21CF
100
AcDbEntity
  8
寸法線
 62
     0
440
 16777216
370
    -2
100
AcDbLine
 10
37044.44242888912
 20
28831.92256041377
 30
0.0
 11
36980.64242888912
 21
28831.92256041377
 31
0.0
  0
SOLID
  5
2AB3
330
21CF
100
AcDbEntity
  8
寸法線
 62
     0
440
 16777216
100
AcDbTrace
 10
37044.44242888912
 20
28832.33922708043
 30
0.0
 11
37044.44242888912
 21
28831.5058937471
 31
0.0
 12
37046.94242888912
 22
28831.92256041377
 32
0.0
 13
37046.94242888912
 23
28831.92256041377
 33
0.0
  0
SOLID
  5
2AB4
330
21CF
100
AcDbEntity
  8
寸法線
 62
     0
440
 16777216
100
AcDbTrace
 10
36980.64242888912
 20
28832.33922708043
 30
0.0
 11
36980.64242888912
 21
28831.5058937471
 31
0.0
 12
36978.14242888911
 22
28831.92256041377
 32
0.0
 13
36978.14242888911
 23
28831.92256041377
 33
0.0
  0
MTEXT
  5
2AB5
330
21CF
100
AcDbEntity
  8
寸法線
 62
     0
440
 16777216
100
AcDbMText
 10
37012.54242888912
 20
28844.56666000449
 30
0.0
 40
20.0
 41
0.0
 46
0.0
 71
     5
 72
     1
  1
68,8
 73
     1
 44
1.0
  0
POINT
  5
2AB6
330
21CF
100
AcDbEntity
  8
Defpoints
 62
     0
440
 16777216
100
AcDbPoint
 10
37046.94242888912
 20
28800.95526187576
 30
0.0
  0
POINT
  5
2AB7
330
21CF
100
AcDbEntity
  8
Defpoints
 62
     0
440
 16777216
100
AcDbPoint
 10
36978.14242888911
 20
28758.95526152675
 30
0.0
  0
POINT
  5
2AB8
330
21CF
100
AcDbEntity
  8
Defpoints
 62
     0
440
 16777216
100
AcDbPoint
 10
36978.14242888911
 20
28831.92256041377
 30
0.0
  0
ENDBLK
  5
21D1
330
21CF
100
AcDbEntity
  8
0
100
AcDbBlockEnd
  0
BLOCK
  5
21E8
330
21E7
100
AcDbEntity
  8
0
100
AcDbBlockBegin
  2
*D7
 70
     1
 10
0.0
 20
0.0
 30
0.0
  3
*D7
  1

  0
LINE
  5
2AB9
330
21E7
100
AcDbEntity
  8
寸法線
 62
     0
440
 16777216
370
    -2
100
AcDbLine
 10
37046.94242888912
 20
28801.58026187576
 30
0.0
 11
37046.94242888912
 21
28833.17256041376
 31
0.0
  0
LINE
  5
2ABA
330
21E7
100
AcDbEntity
  8
寸法線
 62
     0
440
 16777216
370
    -2
100
AcDbLine
 10
37062.9424288891
 20
28775.33026152678
 30
0.0
 11
37062.9424288891
 21
28833.17256041376
 31
0.0
  0
LINE
  5
2ABB
330
21E7
100
AcDbEntity
  8
寸法線
 62
     0
440
 16777216
370
    -2
100
AcDbLine
 10
37049.44242888912
 20
28831.92256041377
 30
0.0
 11
37060.4424288891
 21
28831.92256041377
 31
0.0
  0
LINE
  5
2ABC
330
21E7
100
AcDbEntity
  8
寸法線
 62
     0
440
 16777216
370
    -2
100
AcDbLine
 10
37062.9424288891
 20
28831.92256041377
 30
0.0
 11
37093.44549846619
 21
28831.92256041377
 31
0.0
  0
SOLID
  5
2ABD
330
21E7
100
AcDbEntity
  8
寸法線
 62
     0
440
 16777216
100
AcDbTrace
 10
37049.44242888912
 20
28832.33922708043
 30
0.0
 11
37049.44242888912
 21
28831.5058937471
 31
0.0
 12
37046.94242888912
 22
28831.92256041377
 32
0.0
 13
37046.94242888912
 23
28831.92256041377
 33
0.0
  0
SOLID
  5
2ABE
330
21E7
100
AcDbEntity
  8
寸法線
 62
     0
440
 16777216
100
AcDbTrace
 10
37060.4424288891
 20
28832.33922708043
 30
0.0
 11
37060.4424288891
 21
28831.5058937471
 31
0.0
 12
37062.9424288891
 22
28831.92256041377
 32
0.0
 13
37062.9424288891
 23
28831.92256041377
 33
0.0
  0
MTEXT
  5
2ABF
330
21E7
100
AcDbEntity
  8
寸法線
 62
     0
440
 16777216
100
AcDbMText
 10
37079.44396367765
 20
28842.7590201682
 30
0.0
 40
20.0
 41
0.0
 46
0.0
 71
     5
 72
     1
  1
16
 73
     1
 44
1.0
  0
POINT
  5
2AC0
330
21E7
100
AcDbEntity
  8
Defpoints
 62
     0
440
 16777216
100
AcDbPoint
 10
37046.94242888912
 20
28800.95526187576
 30
0.0
  0
POINT
  5
2AC1
330
21E7
100
AcDbEntity
  8
Defpoints
 62
     0
440
 16777216
100
AcDbPoint
 10
37062.9424288891
 20
28774.70526152679
 30
0.0
  0
POINT
  5
2AC2
330
21E7
100
AcDbEntity
  8
Defpoints
 62
     0
440
 16777216
100
AcDbPoint
 10
37062.9424288891
 20
28831.92256041377
 30
0.0
  0
ENDBLK
  5
21E9
330
21E7
100
AcDbEntity
  8
0
100
AcDbBlockEnd
  0
ENDSEC
  0
SECTION
  2
ENTITIES
  0
XLINE
  5
7DC
330
1F
100
AcDbEntity
  8
オフセット
100
AcDbXline
 10
32915.44093491146
 20
27902.11527306976
 30
0.0
 11
0.0
 21
-1.0
 31
0.0
  0
XLINE
  5
7E4
330
1F
100
AcDbEntity
  8
オフセット
100
AcDbXline
 10
32915.44093491146
 20
28102.11527306976
 30
0.0
 11
-1.0
 21
0.0
 31
0.0
  0
XLINE
  5
7E5
330
1F
100
AcDbEntity
  8
オフセット
100
AcDbXline
 10
34415.44093491146
 20
27902.11527306976
 30
0.0
 11
0.0
 21
-1.0
 31
0.0
  0
XLINE
  5
7E6
330
1F
100
AcDbEntity
  8
オフセット
100
AcDbXline
 10
33153.94093491146
 20
27902.11527306976
 30
0.0
 11
0.0
 21
-1.0
 31
0.0
  0
XLINE
  5
873
330
1F
100
AcDbEntity
  8
オフセット
100
AcDbXline
 10
32915.44093491146
 20
28273.73237812786
 30
0.0
 11
-1.0
 21
0.0
 31
0.0
  0
XLINE
  5
93D
330
1F
100
AcDbEntity
  8
オフセット
100
AcDbXline
 10
33316.24093491146
 20
27902.11527306976
 30
0.0
 11
0.0
 21
-1.0
 31
0.0
  0
XLINE
  5
998
330
1F
100
AcDbEntity
  8
オフセット
100
AcDbXline
 10
34410.44093491146
 20
27902.11527306976
 30
0.0
 11
0.0
 21
-1.0
 31
0.0
  0
XLINE
  5
999
330
1F
100
AcDbEntity
  8
オフセット
100
AcDbXline
 10
34420.44093491146
 20
27902.11527306976
 30
0.0
 11
0.0
 21
-1.0
 31
0.0
  0
XLINE
  5
99F
330
1F
100
AcDbEntity
  8
オフセット
100
AcDbXline
 10
34113.44093491146
 20
27902.11527306976
 30
0.0
 11
0.0
 21
-1.0
 31
0.0
  0
XLINE
  5
9A0
330
1F
100
AcDbEntity
  8
オフセット
100
AcDbXline
 10
32915.44093491146
 20
28288.23237812785
 30
0.0
 11
-1.0
 21
0.0
 31
0.0
  0
XLINE
  5
9A1
330
1F
100
AcDbEntity
  8
オフセット
100
AcDbXline
 10
32915.44093491146
 20
28259.23237812785
 30
0.0
 11
-1.0
 21
0.0
 31
0.0
  0
XLINE
  5
9A2
330
1F
100
AcDbEntity
  8
オフセット
100
AcDbXline
 10
32915.44093491146
 20
28288.73237812786
 30
0.0
 11
-1.0
 21
0.0
 31
0.0
  0
XLINE
  5
9A3
330
1F
100
AcDbEntity
  8
オフセット
100
AcDbXline
 10
32915.44093491146
 20
28258.73237812785
 30
0.0
 11
-1.0
 21
0.0
 31
0.0
  0
XLINE
  5
9A6
330
1F
100
AcDbEntity
  8
オフセット
100
AcDbXline
 10
32915.44093491146
 20
28289.23237812785
 30
0.0
 11
-1.0
 21
0.0
 31
0.0
  0
XLINE
  5
9A7
330
1F
100
AcDbEntity
  8
オフセット
100
AcDbXline
 10
32915.44093491146
 20
28258.23237812786
 30
0.0
 11
-1.0
 21
0.0
 31
0.0
  0
XLINE
  5
9BE
330
1F
100
AcDbEntity
  8
オフセット
100
AcDbXline
 10
34102.44093491146
 20
27902.11527306976
 30
0.0
 11
0.0
 21
-1.0
 31
0.0
  0
XLINE
  5
9C5
330
1F
100
AcDbEntity
  8
オフセット
100
AcDbXline
 10
32930.94093491146
 20
27902.11527306976
 30
0.0
 11
0.0
 21
-1.0
 31
0.0
  0
XLINE
  5
C17
330
1F
100
AcDbEntity
  8
オフセット
100
AcDbXline
 10
32915.44093491146
 20
29033.35326060758
 30
0.0
 11
-1.0
 21
0.0
 31
0.0
  0
XLINE
  5
C18
330
1F
100
AcDbEntity
  8
オフセット
100
AcDbXline
 10
32915.44093491146
 20
29197.60326060758
 30
0.0
 11
-1.0
 21
0.0
 31
0.0
  0
XLINE
  5
C19
330
1F
100
AcDbEntity
  8
オフセット
100
AcDbXline
 10
33489.19848660889
 20
27902.11527306976
 30
0.0
 11
0.0
 21
-1.0
 31
0.0
  0
XLINE
  5
C1A
330
1F
100
AcDbEntity
  8
オフセット
100
AcDbXline
 10
34731.19848660889
 20
27902.11527306976
 30
0.0
 11
0.0
 21
-1.0
 31
0.0
  0
XLINE
  5
C1B
330
1F
100
AcDbEntity
  8
オフセット
100
AcDbXline
 10
34751.19848660889
 20
27902.11527306976
 30
0.0
 11
0.0
 21
-1.0
 31
0.0
  0
XLINE
  5
C1C
330
1F
100
AcDbEntity
  8
オフセット
100
AcDbXline
 10
33469.19848660889
 20
27902.11527306976
 30
0.0
 11
0.0
 21
-1.0
 31
0.0
  0
XLINE
  5
C1E
330
1F
100
AcDbEntity
  8
オフセット
100
AcDbXline
 10
35007.19848660889
 20
27902.11527306976
 30
0.0
 11
0.0
 21
-1.0
 31
0.0
  0
XLINE
  5
C1F
330
1F
100
AcDbEntity
  8
オフセット
100
AcDbXline
 10
35017.19848660889
 20
27902.11527306976
 30
0.0
 11
0.0
 21
-1.0
 31
0.0
  0
XLINE
  5
C21
330
1F
100
AcDbEntity
  8
オフセット
100
AcDbXline
 10
34990.19848660889
 20
27902.11527306976
 30
0.0
 11
0.0
 21
-1.0
 31
0.0
  0
XLINE
  5
C22
330
1F
100
AcDbEntity
  8
オフセット
100
AcDbXline
 10
32915.44093491146
 20
29049.60326060757
 30
0.0
 11
-1.0
 21
0.0
 31
0.0
  0
XLINE
  5
C23
330
1F
100
AcDbEntity
  8
オフセット
100
AcDbXline
 10
32915.44093491146
 20
29059.60326060758
 30
0.0
 11
-1.0
 21
0.0
 31
0.0
  0
XLINE
  5
C24
330
1F
100
AcDbEntity
  8
オフセット
100
AcDbXline
 10
32915.44093491146
 20
28972.60326060758
 30
0.0
 11
-1.0
 21
0.0
 31
0.0
  0
XLINE
  5
C25
330
1F
100
AcDbEntity
  8
オフセット
100
AcDbXline
 10
32915.44093491146
 20
28962.60326060758
 30
0.0
 11
-1.0
 21
0.0
 31
0.0
  0
XLINE
  5
C27
330
1F
100
AcDbEntity
  8
オフセット
100
AcDbXline
 10
32915.44093491146
 20
29144.60326060757
 30
0.0
 11
-1.0
 21
0.0
 31
0.0
  0
XLINE
  5
C42
330
1F
100
AcDbEntity
  8
オフセット
100
AcDbXline
 10
32915.44093491146
 20
29149.60326060758
 30
0.0
 11
-1.0
 21
0.0
 31
0.0
  0
XLINE
  5
C43
330
1F
100
AcDbEntity
  8
オフセット
100
AcDbXline
 10
32915.44093491146
 20
29134.60326060758
 30
0.0
 11
-1.0
 21
0.0
 31
0.0
  0
XLINE
  5
C44
330
1F
100
AcDbEntity
  8
オフセット
100
AcDbXline
 10
32915.44093491146
 20
29154.60326060757
 30
0.0
 11
-1.0
 21
0.0
 31
0.0
  0
XLINE
  5
139A
330
1F
100
AcDbEntity
  8
オフセット
100
AcDbXline
 10
33476.72668080684
 20
27902.11527306976
 30
0.0
 11
0.0
 21
-1.0
 31
0.0
  0
XLINE
  5
139B
330
1F
100
AcDbEntity
  8
オフセット
100
AcDbXline
 10
32915.44093491146
 20
26742.6918408935
 30
0.0
 11
-1.0
 21
0.0
 31
0.0
  0
XLINE
  5
139C
330
1F
100
AcDbEntity
  8
オフセット
100
AcDbXline
 10
33473.72668080684
 20
27902.11527306976
 30
0.0
 11
0.0
 21
-1.0
 31
0.0
  0
XLINE
  5
139D
330
1F
100
AcDbEntity
  8
オフセット
100
AcDbXline
 10
33558.02668080684
 20
27902.11527306976
 30
0.0
 11
0.0
 21
-1.0
 31
0.0
  0
XLINE
  5
139E
330
1F
100
AcDbEntity
  8
オフセット
100
AcDbXline
 10
32915.44093491146
 20
27827.60024921857
 30
0.0
 11
-1.0
 21
0.0
 31
0.0
  0
XLINE
  5
13A2
330
1F
100
AcDbEntity
  8
オフセット
100
AcDbXline
 10
34881.72432892951
 20
27902.11527306976
 30
0.0
 11
0.0
 21
-1.0
 31
0.0
  0
XLINE
  5
13A3
330
1F
100
AcDbEntity
  8
オフセット
100
AcDbXline
 10
34825.72432892951
 20
27902.11527306976
 30
0.0
 11
0.0
 21
-1.0
 31
0.0
  0
XLINE
  5
13A9
330
1F
100
AcDbEntity
  8
オフセット
100
AcDbXline
 10
34827.72432892951
 20
27902.11527306976
 30
0.0
 11
0.0
 21
-1.0
 31
0.0
  0
XLINE
  5
13AA
330
1F
100
AcDbEntity
  8
オフセット
100
AcDbXline
 10
34824.72432892951
 20
27902.11527306976
 30
0.0
 11
0.0
 21
-1.0
 31
0.0
  0
XLINE
  5
1423
330
1F
100
AcDbEntity
  8
オフセット
100
AcDbXline
 10
33395.87668080683
 20
27902.11527306976
 30
0.0
 11
0.0
 21
-1.0
 31
0.0
  0
XLINE
  5
1424
330
1F
100
AcDbEntity
  8
オフセット
100
AcDbXline
 10
33396.87668080683
 20
27902.11527306976
 30
0.0
 11
0.0
 21
-1.0
 31
0.0
  0
XLINE
  5
143F
330
1F
100
AcDbEntity
  8
オフセット
100
AcDbXline
 10
32915.44093491146
 20
26985.22845980732
 30
0.0
 11
-1.0
 21
0.0
 31
0.0
  0
XLINE
  5
1440
330
1F
100
AcDbEntity
  8
オフセット
100
AcDbXline
 10
32915.44093491146
 20
26935.22845980732
 30
0.0
 11
-1.0
 21
0.0
 31
0.0
  0
XLINE
  5
1933
330
1F
100
AcDbEntity
  8
オフセット
100
AcDbXline
 10
33648.18243935384
 20
27902.11527306976
 30
0.0
 11
0.0
 21
-1.0
 31
0.0
  0
XLINE
  5
1967
330
1F
100
AcDbEntity
  8
オフセット
100
AcDbXline
 10
36005.25983477048
 20
27902.11527306976
 30
0.0
 11
0.0
 21
-1.0
 31
0.0
  0
XLINE
  5
1968
330
1F
100
AcDbEntity
  8
オフセット
100
AcDbXline
 10
37203.25983477048
 20
27902.11527306976
 30
0.0
 11
0.0
 21
-1.0
 31
0.0
  0
XLINE
  5
1969
330
1F
100
AcDbEntity
  8
オフセット
100
AcDbXline
 10
36604.25983477048
 20
27902.11527306976
 30
0.0
 11
0.0
 21
-1.0
 31
0.0
  0
XLINE
  5
196A
330
1F
100
AcDbEntity
  8
オフセット
100
AcDbXline
 10
36505.25983477048
 20
27902.11527306976
 30
0.0
 11
0.0
 21
-1.0
 31
0.0
  0
XLINE
  5
196B
330
1F
100
AcDbEntity
  8
オフセット
100
AcDbXline
 10
36703.25983477048
 20
27902.11527306976
 30
0.0
 11
0.0
 21
-1.0
 31
0.0
  0
XLINE
  5
196E
330
1F
100
AcDbEntity
  8
オフセット
100
AcDbXline
 10
36004.25983477048
 20
27902.11527306976
 30
0.0
 11
0.0
 21
-1.0
 31
0.0
  0
XLINE
  5
1A0F
330
1F
100
AcDbEntity
  8
オフセット
100
AcDbXline
 10
32915.44093491146
 20
27591.14148766218
 30
0.0
 11
-1.0
 21
0.0
 31
0.0
  0
XLINE
  5
1A4A
330
1F
100
AcDbEntity
  8
オフセット
100
AcDbXline
 10
32915.44093491146
 20
27666.14148766218
 30
0.0
 11
-1.0
 21
0.0
 31
0.0
  0
LINE
  5
1A4B
330
1F
100
AcDbEntity
  8
点線
100
AcDbLine
 10
35970.63752725207
 20
28759.58037499078
 30
0.0
 11
35971.42638163407
 21
28759.18594779978
 31
0.0
  0
ARC
  5
1A4C
330
1F
100
AcDbEntity
  8
点線
100
AcDbCircle
 10
35970.19031365657
 20
28758.68594779978
 30
0.0
 40
1.0
100
AcDbArc
 50
63.4349488229344
 51
90.0
  0
LINE
  5
1A4D
330
1F
100
AcDbEntity
  8
点線
100
AcDbLine
 10
35971.42638163407
 20
28759.18594779978
 30
0.0
 11
35971.42638163407
 21
28790.18594779978
 31
0.0
  0
LINE
  5
1A4E
330
1F
100
AcDbEntity
  8
点線
100
AcDbLine
 10
35971.42638163407
 20
28790.18594779978
 30
0.0
 11
35970.63752725207
 21
28789.79152060878
 31
0.0
  0
ARC
  5
1A4F
330
1F
100
AcDbEntity
  8
点線
100
AcDbCircle
 10
35970.19031365657
 20
28790.68594779978
 30
0.0
 40
1.0
100
AcDbArc
 50
270.0
 51
296.5650511770657
  0
LINE
  5
1A50
330
1F
100
AcDbEntity
  8
点線
100
AcDbLine
 10
35970.19031365657
 20
28789.68594779978
 30
0.0
 11
35961.42638163407
 21
28789.68594779978
 31
0.0
  0
LINE
  5
1A51
330
1F
100
AcDbEntity
  8
点線
100
AcDbLine
 10
35960.42638163407
 20
28788.68594779978
 30
0.0
 11
35960.42638163407
 21
28760.68594779978
 31
0.0
  0
ARC
  5
1A52
330
1F
100
AcDbEntity
  8
点線
100
AcDbCircle
 10
35961.42638163407
 20
28788.68594779978
 30
0.0
 40
1.0
100
AcDbArc
 50
90.0
 51
180.0
  0
LINE
  5
1A53
330
1F
100
AcDbEntity
  8
点線
100
AcDbLine
 10
35961.42638163407
 20
28759.68594779978
 30
0.0
 11
35970.19031365657
 21
28759.68594779978
 31
0.0
  0
ARC
  5
1A54
330
1F
100
AcDbEntity
  8
点線
100
AcDbCircle
 10
35961.42638163407
 20
28760.68594779978
 30
0.0
 40
1.0
100
AcDbArc
 50
180.0
 51
270.0
  0
LINE
  5
1A55
330
1F
100
AcDbEntity
  8
点線
100
AcDbLine
 10
36780.21523601607
 20
28759.58037499078
 30
0.0
 11
36779.42638163407
 21
28759.18594779978
 31
0.0
  0
ARC
  5
1A56
330
1F
100
AcDbEntity
  8
点線
100
AcDbCircle
 10
36780.66244961157
 20
28758.68594779978
 30
0.0
 40
1.0
100
AcDbArc
 50
90.0
 51
116.5650511770947
  0
LINE
  5
1A57
330
1F
100
AcDbEntity
  8
点線
100
AcDbLine
 10
36779.42638163407
 20
28759.18594779978
 30
0.0
 11
36779.42638163407
 21
28790.18594779978
 31
0.0
  0
LINE
  5
1A58
330
1F
100
AcDbEntity
  8
点線
100
AcDbLine
 10
36779.42638163407
 20
28790.18594779978
 30
0.0
 11
36780.21523601607
 21
28789.79152060878
 31
0.0
  0
ARC
  5
1A59
330
1F
100
AcDbEntity
  8
点線
100
AcDbCircle
 10
36780.66244961157
 20
28790.68594779978
 30
0.0
 40
1.0
100
AcDbArc
 50
243.4349488229052
 51
270.0
  0
LINE
  5
1A5A
330
1F
100
AcDbEntity
  8
点線
100
AcDbLine
 10
36780.66244961157
 20
28789.68594779978
 30
0.0
 11
36789.42638163407
 21
28789.68594779978
 31
0.0
  0
LINE
  5
1A5B
330
1F
100
AcDbEntity
  8
点線
100
AcDbLine
 10
36790.42638163407
 20
28788.68594779978
 30
0.0
 11
36790.42638163407
 21
28760.68594779978
 31
0.0
  0
ARC
  5
1A5C
330
1F
100
AcDbEntity
  8
点線
100
AcDbCircle
 10
36789.42638163407
 20
28788.68594779978
 30
0.0
 40
1.0
100
AcDbArc
 50
0.0
 51
90.0
  0
LINE
  5
1A5D
330
1F
100
AcDbEntity
  8
点線
100
AcDbLine
 10
36789.42638163407
 20
28759.68594779978
 30
0.0
 11
36780.66244961157
 21
28759.68594779978
 31
0.0
  0
ARC
  5
1A5E
330
1F
100
AcDbEntity
  8
点線
100
AcDbCircle
 10
36789.42638163407
 20
28760.68594779978
 30
0.0
 40
1.0
100
AcDbArc
 50
270.0
 51
0.0
  0
LINE
  5
1A5F
330
1F
100
AcDbEntity
  8
点線
100
AcDbLine
 10
35971.42638163407
 20
28789.18594779978
 30
0.0
 11
36460.42638163407
 21
28789.18594779978
 31
0.0
  0
LINE
  5
1A60
330
1F
100
AcDbEntity
  8
点線
100
AcDbLine
 10
36460.42638163407
 20
28789.18594779978
 30
0.0
 11
36779.42638163407
 21
28789.18594779978
 31
0.0
  0
LINE
  5
1A61
330
1F
100
AcDbEntity
  8
点線
100
AcDbLine
 10
36779.42638163407
 20
28760.18594779978
 30
0.0
 11
36460.42638163407
 21
28760.18594779978
 31
0.0
  0
LINE
  5
1A62
330
1F
100
AcDbEntity
  8
点線
100
AcDbLine
 10
36460.42638163407
 20
28760.18594779978
 30
0.0
 11
36248.57638163408
 21
28760.18594779978
 31
0.0
  0
LINE
  5
1A63
330
1F
100
AcDbEntity
  8
点線
100
AcDbLine
 10
36120.57638163408
 20
28760.18594779978
 30
0.0
 11
35971.42638163407
 21
28760.18594779978
 31
0.0
  0
MTEXT
  5
1A65
330
1F
100
AcDbEntity
  8
寸法線
100
AcDbMText
 10
36465.41746392094
 20
28842.63673936418
 30
0.0
 40
20.0
 41
0.0
 46
0.0
 71
     5
 72
     1
  1
{\fMS PGothic|b0|i0|c128|p50;灯具取付寸法　　最内ピッチ　}748\P{\fMS PGothic|b0|i0|c128|p50;　　　　　　　　　　　最外ピッチ　}814
 73
     1
 44
1.0
  0
LINE
  5
1A66
330
1F
100
AcDbEntity
  8
中心線
100
AcDbLine
 10
35923.92638163407
 20
28774.68594779978
 30
0.0
 11
37087.73027075851
 21
28774.68594779978
 31
0.0
  0
LINE
  5
1A67
102
{ACAD_REACTORS
330
21B5
330
21E5
330
21FF
102
}
330
1F
100
AcDbEntity
  8
中心線
100
AcDbLine
 10
37046.94242888912
 20
28800.95526187576
 30
0.0
 11
37046.94242888912
 21
28728.63173117032
 31
0.0
  0
CIRCLE
  5
1A68
330
1F
100
AcDbEntity
  8
○
100
AcDbCircle
 10
35879.24131384887
 20
28927.72478477104
 30
0.0
 40
15.0
  0
MTEXT
  5
1A69
330
1F
100
AcDbEntity
  8
寸法線
100
AcDbMText
 10
35872.74848538714
 20
28937.46863526204
 30
0.0
 40
20.0
 41
35.534113038535
 46
0.0
 71
     1
 72
     5
  1
4
 73
     1
 44
1.0
1001
ACAD
1000
ACAD_MTEXT_COLUMN_INFO_BEGIN
1070
    75
1070
     2
1070
    79
1070
     0
1070
    76
1070
     1
1070
    78
1070
     0
1070
    48
1040
35.534113038535
1070
    49
1040
12.5
1070
    50
1070
     1
1040
0.0
1000
ACAD_MTEXT_COLUMN_INFO_END
  0
CIRCLE
  5
1A6A
330
1F
100
AcDbEntity
  8
○
100
AcDbCircle
 10
35929.69666577872
 20
28927.72478477104
 30
0.0
 40
15.0
  0
MTEXT
  5
1A6B
330
1F
100
AcDbEntity
  8
寸法線
100
AcDbMText
 10
35923.203837317
 20
28937.46863526204
 30
0.0
 40
20.0
 41
35.534113038535
 46
0.0
 71
     1
 72
     5
  1
3
 73
     1
 44
1.0
1001
ACAD
1000
ACAD_MTEXT_COLUMN_INFO_BEGIN
1070
    75
1070
     2
1070
    79
1070
     0
1070
    76
1070
     1
1070
    78
1070
     0
1070
    48
1040
35.534113038535
1070
    49
1040
12.5
1070
    50
1070
     1
1040
0.0
1000
ACAD_MTEXT_COLUMN_INFO_END
  0
CIRCLE
  5
1A6C
330
1F
100
AcDbEntity
  8
○
100
AcDbCircle
 10
36678.37526231116
 20
28927.72478477104
 30
0.0
 40
15.0
  0
MTEXT
  5
1A6D
330
1F
100
AcDbEntity
  8
寸法線
100
AcDbMText
 10
36671.88243384944
 20
28937.46863526204
 30
0.0
 40
20.0
 41
35.534113038535
 46
0.0
 71
     1
 72
     5
  1
1
 73
     1
 44
1.0
1001
ACAD
1000
ACAD_MTEXT_COLUMN_INFO_BEGIN
1070
    75
1070
     2
1070
    79
1070
     0
1070
    76
1070
     1
1070
    78
1070
     0
1070
    48
1040
35.534113038535
1070
    49
1040
12.5
1070
    50
1070
     1
1040
0.0
1000
ACAD_MTEXT_COLUMN_INFO_END
  0
CIRCLE
  5
1A6E
330
1F
100
AcDbEntity
  8
○
100
AcDbCircle
 10
36011.24153515905
 20
28927.72478477104
 30
0.0
 40
15.0
  0
MTEXT
  5
1A6F
330
1F
100
AcDbEntity
  8
寸法線
100
AcDbMText
 10
36004.74870669733
 20
28937.46863526204
 30
0.0
 40
20.0
 41
35.534113038535
 46
0.0
 71
     1
 72
     5
  1
8
 73
     1
 44
1.0
1001
ACAD
1000
ACAD_MTEXT_COLUMN_INFO_BEGIN
1070
    75
1070
     2
1070
    79
1070
     0
1070
    76
1070
     1
1070
    78
1070
     0
1070
    48
1040
35.534113038535
1070
    49
1040
12.5
1070
    50
1070
     1
1040
0.0
1000
ACAD_MTEXT_COLUMN_INFO_END
  0
CIRCLE
  5
1A70
330
1F
100
AcDbEntity
  8
○
100
AcDbCircle
 10
36127.41530509159
 20
28927.72478477104
 30
0.0
 40
15.0
  0
MTEXT
  5
1A71
330
1F
100
AcDbEntity
  8
寸法線
100
AcDbMText
 10
36120.92247662987
 20
28937.46863526204
 30
0.0
 40
20.0
 41
35.534113038535
 46
0.0
 71
     1
 72
     5
  1
6
 73
     1
 44
1.0
1001
ACAD
1000
ACAD_MTEXT_COLUMN_INFO_BEGIN
1070
    75
1070
     2
1070
    79
1070
     0
1070
    76
1070
     1
1070
    78
1070
     0
1070
    48
1040
35.534113038535
1070
    49
1040
12.5
1070
    50
1070
     1
1040
0.0
1000
ACAD_MTEXT_COLUMN_INFO_END
  0
CIRCLE
  5
1A72
330
1F
100
AcDbEntity
  8
○
100
AcDbCircle
 10
36833.51484156762
 20
28927.72478477104
 30
0.0
 40
15.0
  0
MTEXT
  5
1A73
330
1F
100
AcDbEntity
  8
寸法線
100
AcDbMText
 10
36827.0220131059
 20
28937.46863526204
 30
0.0
 40
20.0
 41
35.534113038535
 46
0.0
 71
     1
 72
     5
  1
5
 73
     1
 44
1.0
1001
ACAD
1000
ACAD_MTEXT_COLUMN_INFO_BEGIN
1070
    75
1070
     2
1070
    79
1070
     0
1070
    76
1070
     1
1070
    78
1070
     0
1070
    48
1040
35.534113038535
1070
    49
1040
12.5
1070
    50
1070
     1
1040
0.0
1000
ACAD_MTEXT_COLUMN_INFO_END
  0
LINE
  5
1A74
330
1F
100
AcDbEntity
  8
○
100
AcDbLine
 10
36674.77186721939
 20
28942.28553831653
 30
0.0
 11
36597.80149867696
 21
29043.49359482838
 31
0.0
  0
LINE
  5
1A75
330
1F
100
AcDbEntity
  8
○
100
AcDbLine
 10
36671.14063928051
 20
28914.5847608135
 30
0.0
 11
36588.34035449288
 21
28743.33432911626
 31
0.0
  0
LINE
  5
1A76
330
1F
100
AcDbEntity
  8
○
100
AcDbLine
 10
36017.34916616416
 20
28941.42503453173
 30
0.0
 11
36048.69501345028
 21
28990.24370011332
 31
0.0
  0
LINE
  5
1A77
330
1F
100
AcDbEntity
  8
○
100
AcDbLine
 10
36017.20741149622
 20
28913.9622152606
 30
0.0
 11
36049.91051038037
 21
28752.68055274958
 31
0.0
  0
LINE
  5
1A78
330
1F
100
AcDbEntity
  8
○
100
AcDbLine
 10
36120.24998984873
 20
28940.9027306455
 30
0.0
 11
36091.03969350412
 21
28988.67310748237
 31
0.0
  0
LINE
  5
1A79
330
1F
100
AcDbEntity
  8
○
100
AcDbLine
 10
36122.9784554826
 20
28913.39598979214
 30
0.0
 11
36074.16114868143
 21
28738.59441162456
 31
0.0
  0
LINE
  5
1A7A
330
1F
100
AcDbEntity
  8
○
100
AcDbLine
 10
35940.87700566622
 20
28937.72478477103
 30
0.0
 11
35989.58099653044
 21
29042.59051235498
 31
0.0
  0
LINE
  5
1A7B
330
1F
100
AcDbEntity
  8
○
100
AcDbLine
 10
35940.87700566622
 20
28917.72478477104
 30
0.0
 11
35992.42638163407
 21
28737.4485054383
 31
0.0
  0
LINE
  5
1A7C
330
1F
100
AcDbEntity
  8
○
100
AcDbLine
 10
35885.94260313516
 20
28941.14464773239
 30
0.0
 11
35952.0765312411
 21
29046.16200959549
 31
0.0
  0
LINE
  5
1A7D
330
1F
100
AcDbEntity
  8
○
100
AcDbLine
 10
35883.81556499721
 20
28913.43925970431
 30
0.0
 11
35952.30225852231
 21
28775.3109858976
 31
0.0
  0
LINE
  5
1A7E
330
1F
100
AcDbEntity
  8
○
100
AcDbLine
 10
36826.68655970114
 20
28941.08047894063
 30
0.0
 11
36804.88882614633
 21
29043.72238864814
 31
0.0
  0
LINE
  5
1A7F
330
1F
100
AcDbEntity
  8
○
100
AcDbLine
 10
36829.16061109117
 20
28913.37066769759
 30
0.0
 11
36808.31987211893
 21
28784.4162237395
 31
0.0
  0
CIRCLE
  5
1A80
330
1F
100
AcDbEntity
  8
○
100
AcDbCircle
 10
36891.84197989043
 20
28927.72478477104
 30
0.0
 40
15.0
  0
MTEXT
  5
1A81
330
1F
100
AcDbEntity
  8
寸法線
100
AcDbMText
 10
36885.34915142871
 20
28937.46863526204
 30
0.0
 40
20.0
 41
35.534113038535
 46
0.0
 71
     1
 72
     5
  1
2
 73
     1
 44
1.0
1001
ACAD
1000
ACAD_MTEXT_COLUMN_INFO_BEGIN
1070
    75
1070
     2
1070
    79
1070
     0
1070
    76
1070
     1
1070
    78
1070
     0
1070
    48
1040
35.534113038535
1070
    49
1040
12.5
1070
    50
1070
     1
1040
0.0
1000
ACAD_MTEXT_COLUMN_INFO_END
  0
LINE
  5
1A82
102
{ACAD_REACTORS
330
2169
102
}
330
1F
100
AcDbEntity
  8
○
100
AcDbLine
 10
36886.55112899898
 20
28941.76069930642
 30
0.0
 11
36816.60608172333
 21
29045.71716124784
 31
0.0
  0
LINE
  5
1A83
330
1F
100
AcDbEntity
  8
○
100
AcDbLine
 10
36887.7991366291
 20
28913.27987499754
 30
0.0
 11
36812.95183457074
 21
28765.80047029407
 31
0.0
  0
LINE
  5
1A84
330
1F
100
AcDbEntity
  8
外形線
100
AcDbLine
 10
36979.14242888912
 20
28738.15526152675
 30
0.0
 11
36979.14242888912
 21
28738.95526152675
 31
0.0
  0
LINE
  5
1A85
330
1F
100
AcDbEntity
  8
外形線
100
AcDbLine
 10
36979.14242888912
 20
28738.95526152675
 30
0.0
 11
37056.14242888911
 21
28738.95526152675
 31
0.0
  0
LINE
  5
1A86
330
1F
100
AcDbEntity
  8
外形線
100
AcDbLine
 10
37038.69242888912
 20
28738.15526152675
 30
0.0
 11
36979.14242888912
 21
28738.15526152675
 31
0.0
  0
LINE
  5
1A87
330
1F
100
AcDbEntity
  8
外形線
100
AcDbLine
 10
37023.14242888911
 20
28758.95526152675
 30
0.0
 11
37015.14242888912
 21
28758.95526152675
 31
0.0
  0
LINE
  5
1A88
330
1F
100
AcDbEntity
  8
外形線
100
AcDbLine
 10
36981.14242888911
 20
28758.95526152675
 30
0.0
 11
36978.14242888911
 21
28758.95526152675
 31
0.0
  0
LINE
  5
1A89
102
{ACAD_REACTORS
330
21CD
330
21E5
102
}
330
1F
100
AcDbEntity
  8
外形線
100
AcDbLine
 10
36978.14242888911
 20
28758.95526152675
 30
0.0
 11
36978.14242888911
 21
28738.95526152675
 31
0.0
  0
LINE
  5
1A8A
330
1F
100
AcDbEntity
  8
外形線
100
AcDbLine
 10
36978.14242888911
 20
28738.95526152675
 30
0.0
 11
37023.14242888911
 21
28738.95526152675
 31
0.0
  0
LINE
  5
1A8B
330
1F
100
AcDbEntity
  8
外形線
100
AcDbLine
 10
37023.14242888911
 20
28738.95526152675
 30
0.0
 11
37023.14242888911
 21
28758.95526152675
 31
0.0
  0
LINE
  5
1A8C
330
1F
100
AcDbEntity
  8
外形線
100
AcDbLine
 10
36981.14242888911
 20
28749.95526152675
 30
0.0
 11
36978.14242888911
 21
28749.95526152675
 31
0.0
  0
LINE
  5
1A8D
330
1F
100
AcDbEntity
  8
外形線
100
AcDbLine
 10
36978.14242888911
 20
28749.95526152675
 30
0.0
 11
36978.14242888911
 21
28747.95526152675
 31
0.0
  0
LINE
  5
1A8E
330
1F
100
AcDbEntity
  8
外形線
100
AcDbLine
 10
36978.14242888911
 20
28747.95526152675
 30
0.0
 11
36981.14242888911
 21
28747.95526152675
 31
0.0
  0
LINE
  5
1A91
330
1F
100
AcDbEntity
  8
外形線
100
AcDbLine
 10
36981.14242888911
 20
28738.95526152675
 30
0.0
 11
36981.14242888911
 21
28762.95526152675
 31
0.0
  0
LINE
  5
1A92
330
1F
100
AcDbEntity
  8
外形線
100
AcDbLine
 10
36982.14242888912
 20
28763.95526152675
 30
0.0
 11
37014.14242888911
 21
28763.95526152675
 31
0.0
  0
ARC
  5
1A93
330
1F
100
AcDbEntity
  8
外形線
100
AcDbCircle
 10
37014.14242888911
 20
28762.95526152675
 30
0.0
 40
1.0
100
AcDbArc
 50
0.0
 51
90.0
  0
ARC
  5
1A94
330
1F
100
AcDbEntity
  8
外形線
100
AcDbCircle
 10
36982.14242888912
 20
28762.95526152675
 30
0.0
 40
1.0
100
AcDbArc
 50
90.0
 51
180.0
  0
LINE
  5
1A95
330
1F
100
AcDbEntity
  8
外形線
100
AcDbLine
 10
37015.14242888912
 20
28762.95526152675
 30
0.0
 11
37015.14242888912
 21
28738.95526152675
 31
0.0
  0
LINE
  5
1A96
330
1F
100
AcDbEntity
  8
外形線
100
AcDbLine
 10
37015.14242888912
 20
28738.95526152675
 30
0.0
 11
36981.14242888911
 21
28738.95526152675
 31
0.0
  0
LINE
  5
1A97
330
1F
100
AcDbEntity
  8
外形線
100
AcDbLine
 10
37004.14242888911
 20
28738.95526152675
 30
0.0
 11
37004.14242888911
 21
28740.95526152675
 31
0.0
  0
LINE
  5
1A98
330
1F
100
AcDbEntity
  8
外形線
100
AcDbLine
 10
37004.14242888911
 20
28740.95526152675
 30
0.0
 11
37000.94242888912
 21
28740.95526152675
 31
0.0
  0
ARC
  5
1A99
330
1F
100
AcDbEntity
  8
外形線
100
AcDbCircle
 10
37000.94242888912
 20
28740.45526152675
 30
0.0
 40
0.5
100
AcDbArc
 50
90.0
 51
180.0
  0
LINE
  5
1A9A
330
1F
100
AcDbEntity
  8
外形線
100
AcDbLine
 10
36992.14242888912
 20
28740.95526152675
 30
0.0
 11
36992.14242888912
 21
28738.95526152675
 31
0.0
  0
LINE
  5
1A9B
330
1F
100
AcDbEntity
  8
外形線
100
AcDbLine
 10
36995.84242888911
 20
28738.95526152675
 30
0.0
 11
36995.84242888911
 21
28740.45526152675
 31
0.0
  0
LINE
  5
1A9C
330
1F
100
AcDbEntity
  8
外形線
100
AcDbLine
 10
37000.44242888912
 20
28738.95526152675
 30
0.0
 11
37000.44242888912
 21
28740.45526152675
 31
0.0
  0
ARC
  5
1A9D
330
1F
100
AcDbEntity
  8
外形線
100
AcDbCircle
 10
36999.28587923779
 20
28743.01468646864
 30
0.0
 40
6.479445445243836
100
AcDbArc
 50
142.5430267976109
 51
198.5323287863213
  0
LINE
  5
1A9E
330
1F
100
AcDbEntity
  8
外形線
100
AcDbLine
 10
36994.14242888912
 20
28746.95526152675
 30
0.0
 11
36992.14242888912
 21
28746.95526152675
 31
0.0
  0
LINE
  5
1A9F
330
1F
100
AcDbEntity
  8
外形線
100
AcDbLine
 10
36992.14242888912
 20
28746.95526152675
 30
0.0
 11
36992.14242888912
 21
28740.95526152675
 31
0.0
  0
LINE
  5
1AA0
330
1F
100
AcDbEntity
  8
外形線
100
AcDbLine
 10
36994.14242888912
 20
28740.95526152675
 30
0.0
 11
36994.14242888912
 21
28746.95526152675
 31
0.0
  0
ARC
  5
1AA1
330
1F
100
AcDbEntity
  8
外形線
100
AcDbCircle
 10
36996.99897854044
 20
28743.01468646864
 30
0.0
 40
6.479445445243836
100
AcDbArc
 50
341.4676712136786
 51
37.45697320234992
  0
LINE
  5
1AA2
330
1F
100
AcDbEntity
  8
外形線
100
AcDbLine
 10
37002.14242888911
 20
28746.95526152675
 30
0.0
 11
37004.14242888911
 21
28746.95526152675
 31
0.0
  0
LINE
  5
1AA3
330
1F
100
AcDbEntity
  8
外形線
100
AcDbLine
 10
37004.14242888911
 20
28746.95526152675
 30
0.0
 11
37004.14242888911
 21
28740.95526152675
 31
0.0
  0
LINE
  5
1AA4
330
1F
100
AcDbEntity
  8
外形線
100
AcDbLine
 10
37002.14242888911
 20
28740.95526152675
 30
0.0
 11
37002.14242888911
 21
28746.95526152675
 31
0.0
  0
LINE
  5
1AA5
330
1F
100
AcDbEntity
  8
外形線
100
AcDbLine
 10
36995.34242888911
 20
28740.95526152675
 30
0.0
 11
36992.14242888912
 21
28740.95526152675
 31
0.0
  0
ARC
  5
1AA6
330
1F
100
AcDbEntity
  8
外形線
100
AcDbCircle
 10
36995.34242888911
 20
28740.45526152675
 30
0.0
 40
0.5
100
AcDbArc
 50
0.0
 51
90.0
  0
LINE
  5
1AA7
330
1F
100
AcDbEntity
  8
外形線
100
AcDbLine
 10
36995.34242888911
 20
28740.95526152675
 30
0.0
 11
37000.94242888912
 21
28740.95526152675
 31
0.0
  0
CIRCLE
  5
1AA8
330
1F
100
AcDbEntity
  8
○
100
AcDbCircle
 10
36231.52970594498
 20
28927.72478477104
 30
0.0
 40
15.0
  0
MTEXT
  5
1AA9
330
1F
100
AcDbEntity
  8
寸法線
100
AcDbMText
 10
36225.03687748326
 20
28937.46863526204
 30
0.0
 40
20.0
 41
35.534113038535
 46
0.0
 71
     1
 72
     5
  1
7
 73
     1
 44
1.0
1001
ACAD
1000
ACAD_MTEXT_COLUMN_INFO_BEGIN
1070
    75
1070
     2
1070
    79
1070
     0
1070
    76
1070
     1
1070
    78
1070
     0
1070
    48
1040
35.534113038535
1070
    49
1040
12.5
1070
    50
1070
     1
1040
0.0
1000
ACAD_MTEXT_COLUMN_INFO_END
  0
LINE
  5
1AAA
330
1F
100
AcDbEntity
  8
○
100
AcDbLine
 10
36224.36439070212
 20
28940.9027306455
 30
0.0
 11
36195.1540943575
 21
28988.67310748237
 31
0.0
  0
LINE
  5
1AAB
330
1F
100
AcDbEntity
  8
○
100
AcDbLine
 10
36227.09285633598
 20
28913.39598979214
 30
0.0
 11
36185.07202486315
 21
28760.34512078915
 31
0.0
  0
LINE
  5
1AB0
330
1F
100
AcDbEntity
  8
外形線
100
AcDbLine
 10
36120.57638163408
 20
28748.93594779978
 30
0.0
 11
36070.27638163407
 21
28748.93594779978
 31
0.0
  0
LINE
  5
1AB1
330
1F
100
AcDbEntity
  8
外形線
100
AcDbLine
 10
36058.77638163407
 20
28748.93594779978
 30
0.0
 11
36058.27638163408
 21
28748.93594779978
 31
0.0
  0
LINE
  5
1C4B
330
1F
100
AcDbEntity
  8
外形線
100
AcDbLine
 10
36039.27638163407
 20
29034.02777053624
 30
0.0
 11
36039.27638163407
 21
29022.02777053625
 31
0.0
  0
LINE
  5
1C4C
330
1F
100
AcDbEntity
  8
外形線
100
AcDbLine
 10
36070.27638163407
 20
28978.02777053625
 30
0.0
 11
36296.27638163408
 21
28978.02777053625
 31
0.0
  0
LINE
  5
1C4D
330
1F
100
AcDbEntity
  8
外形線
100
AcDbLine
 10
36299.27638163407
 20
28981.02777053624
 30
0.0
 11
36299.27638163407
 21
29034.02777053624
 31
0.0
  0
ARC
  5
1C4E
330
1F
100
AcDbEntity
  8
外形線
100
AcDbCircle
 10
36296.27638163408
 20
28981.02777053624
 30
0.0
 40
3.0
100
AcDbArc
 50
270.0
 51
0.0
  0
LINE
  5
1C4F
330
1F
100
AcDbEntity
  8
孔
100
AcDbLine
 10
36057.42638163406
 20
29032.87777053625
 30
0.0
 11
36061.12638163406
 21
29032.87777053625
 31
0.0
  0
ARC
  5
1C50
330
1F
100
AcDbEntity
  8
孔
100
AcDbCircle
 10
36061.12638163406
 20
29035.02777053625
 30
0.0
 40
2.150000000001455
100
AcDbArc
 50
270.0
 51
332.2822523101876
  0
ARC
  5
1C51
330
1F
100
AcDbEntity
  8
孔
100
AcDbCircle
 10
36057.42638163407
 20
29035.02777053625
 30
0.0
 40
2.150000000001455
100
AcDbArc
 50
207.7177476898124
 51
270.0
  0
LINE
  5
1C52
330
1F
100
AcDbEntity
  8
孔
100
AcDbLine
 10
36277.4263816341
 20
29032.87777053625
 30
0.0
 11
36281.12638163409
 21
29032.87777053625
 31
0.0
  0
ARC
  5
1C53
330
1F
100
AcDbEntity
  8
孔
100
AcDbCircle
 10
36281.12638163409
 20
29035.02777053625
 30
0.0
 40
2.150000000001455
100
AcDbArc
 50
270.0
 51
332.2822523101876
  0
ARC
  5
1C54
330
1F
100
AcDbEntity
  8
孔
100
AcDbCircle
 10
36277.42638163411
 20
29035.02777053625
 30
0.0
 40
2.150000000001455
100
AcDbArc
 50
207.7177476898124
 51
270.0
  0
CIRCLE
  5
1C55
330
1F
100
AcDbEntity
  8
孔
100
AcDbCircle
 10
36114.27638163407
 20
28997.02777053624
 30
0.0
 40
2.149999999999999
  0
CIRCLE
  5
1C56
330
1F
100
AcDbEntity
  8
孔
100
AcDbCircle
 10
36257.27638163407
 20
28997.02777053624
 30
0.0
 40
2.149999999999999
  0
LINE
  5
1C57
330
1F
100
AcDbEntity
  8
外形線
100
AcDbLine
 10
36036.27638163407
 20
29021.52777053624
 30
0.0
 11
36036.27638163407
 21
28977.52777053624
 31
0.0
  0
ARC
  5
1C58
330
1F
100
AcDbEntity
  8
外形線
100
AcDbCircle
 10
36036.77638163408
 20
29021.52777053624
 30
0.0
 40
0.5
100
AcDbArc
 50
90.0
 51
180.0
  0
ARC
  5
1C59
330
1F
100
AcDbEntity
  8
外形線
100
AcDbCircle
 10
36036.77638163408
 20
28977.52777053624
 30
0.0
 40
0.5
100
AcDbArc
 50
180.0
 51
270.0
  0
LINE
  5
1C5A
330
1F
100
AcDbEntity
  8
外形線
100
AcDbLine
 10
36036.77638163408
 20
28977.02777053624
 30
0.0
 11
36057.77638163408
 21
28977.02777053624
 31
0.0
  0
LINE
  5
1C5B
330
1F
100
AcDbEntity
  8
外形線
100
AcDbLine
 10
36058.27638163408
 20
28977.52777053624
 30
0.0
 11
36058.27638163408
 21
29021.52777053624
 31
0.0
  0
ARC
  5
1C5C
330
1F
100
AcDbEntity
  8
外形線
100
AcDbCircle
 10
36057.77638163408
 20
28977.52777053624
 30
0.0
 40
0.5
100
AcDbArc
 50
270.0
 51
0.0
  0
ARC
  5
1C5D
330
1F
100
AcDbEntity
  8
外形線
100
AcDbCircle
 10
36057.77638163408
 20
29021.52777053624
 30
0.0
 40
0.5
100
AcDbArc
 50
0.0
 51
90.0
  0
LINE
  5
1C5E
330
1F
100
AcDbEntity
  8
外形線
100
AcDbLine
 10
36057.77638163408
 20
29022.02777053624
 30
0.0
 11
36036.77638163408
 21
29022.02777053624
 31
0.0
  0
LINE
  5
1C5F
330
1F
100
AcDbEntity
  8
外形線
100
AcDbLine
 10
36058.27638163408
 20
29005.02777053624
 30
0.0
 11
36069.77638163407
 21
29005.02777053624
 31
0.0
  0
ARC
  5
1C60
330
1F
100
AcDbEntity
  8
外形線
100
AcDbCircle
 10
36069.77638163407
 20
29004.52777053624
 30
0.0
 40
0.5
100
AcDbArc
 50
0.0
 51
90.0
  0
LINE
  5
1C61
330
1F
100
AcDbEntity
  8
外形線
100
AcDbLine
 10
36070.27638163407
 20
29004.52777053624
 30
0.0
 11
36070.27638163407
 21
28977.52777053624
 31
0.0
  0
ARC
  5
1C62
330
1F
100
AcDbEntity
  8
外形線
100
AcDbCircle
 10
36069.77638163407
 20
28977.52777053624
 30
0.0
 40
0.5
100
AcDbArc
 50
270.0
 51
0.0
  0
LINE
  5
1C63
330
1F
100
AcDbEntity
  8
外形線
100
AcDbLine
 10
36069.77638163407
 20
28977.02777053624
 30
0.0
 11
36057.77638163408
 21
28977.02777053624
 31
0.0
  0
CIRCLE
  5
1C64
330
1F
100
AcDbEntity
  8
孔
100
AcDbCircle
 10
36040.27638163408
 20
29014.52777053624
 30
0.0
 40
2.149999999999999
  0
CIRCLE
  5
1C65
330
1F
100
AcDbEntity
  8
孔
100
AcDbCircle
 10
36054.27638163408
 20
29014.52777053624
 30
0.0
 40
2.149999999999999
  0
CIRCLE
  5
1C66
330
1F
100
AcDbEntity
  8
孔
100
AcDbCircle
 10
36040.27638163408
 20
28995.52777053624
 30
0.0
 40
2.149999999999999
  0
CIRCLE
  5
1C67
330
1F
100
AcDbEntity
  8
孔
100
AcDbCircle
 10
36054.27638163408
 20
28995.52777053624
 30
0.0
 40
2.149999999999999
  0
CIRCLE
  5
1C68
330
1F
100
AcDbEntity
  8
孔
100
AcDbCircle
 10
36040.27638163408
 20
28985.52777053625
 30
0.0
 40
2.149999999999999
  0
CIRCLE
  5
1C69
330
1F
100
AcDbEntity
  8
孔
100
AcDbCircle
 10
36054.27638163408
 20
28985.52777053625
 30
0.0
 40
2.149999999999999
  0
LINE
  5
1C6A
330
1F
100
AcDbEntity
  8
外形線
100
AcDbLine
 10
36045.27638163407
 20
29018.02777053624
 30
0.0
 11
36045.27638163407
 21
29010.02777053624
 31
0.0
  0
LINE
  5
1C6B
330
1F
100
AcDbEntity
  8
外形線
100
AcDbLine
 10
36045.27638163407
 20
29010.02777053624
 30
0.0
 11
36049.27638163407
 21
29010.02777053624
 31
0.0
  0
LINE
  5
1C6C
330
1F
100
AcDbEntity
  8
外形線
100
AcDbLine
 10
36049.27638163407
 20
29010.02777053624
 30
0.0
 11
36049.27638163407
 21
29018.02777053624
 31
0.0
  0
LINE
  5
1C6D
330
1F
100
AcDbEntity
  8
外形線
100
AcDbLine
 10
36049.27638163407
 20
29018.02777053624
 30
0.0
 11
36045.27638163407
 21
29018.02777053624
 31
0.0
  0
LINE
  5
1C6E
330
1F
100
AcDbEntity
  8
外形線
100
AcDbLine
 10
36045.27638163407
 20
28995.02777053625
 30
0.0
 11
36045.27638163407
 21
28985.02777053624
 31
0.0
  0
LINE
  5
1C6F
330
1F
100
AcDbEntity
  8
外形線
100
AcDbLine
 10
36045.27638163407
 20
28985.02777053624
 30
0.0
 11
36049.27638163407
 21
28985.02777053624
 31
0.0
  0
LINE
  5
1C70
330
1F
100
AcDbEntity
  8
外形線
100
AcDbLine
 10
36049.27638163407
 20
28985.02777053624
 30
0.0
 11
36049.27638163407
 21
28995.02777053625
 31
0.0
  0
LINE
  5
1C71
330
1F
100
AcDbEntity
  8
外形線
100
AcDbLine
 10
36049.27638163407
 20
28995.02777053625
 30
0.0
 11
36045.27638163407
 21
28995.02777053625
 31
0.0
  0
LINE
  5
1C72
330
1F
100
AcDbEntity
  8
中心線
 48
0.05
100
AcDbLine
 10
36047.27638163407
 20
29006.02777053624
 30
0.0
 11
36052.27638163408
 21
29006.02777053624
 31
0.0
  0
LINE
  5
1C73
330
1F
100
AcDbEntity
  8
中心線
 48
0.05
100
AcDbLine
 10
36047.27638163407
 20
29006.02777053624
 30
0.0
 11
36047.27638163407
 21
29011.02777053624
 31
0.0
  0
LINE
  5
1C74
330
1F
100
AcDbEntity
  8
中心線
 48
0.05
100
AcDbLine
 10
36047.27638163407
 20
29006.02777053624
 30
0.0
 11
36042.27638163408
 21
29006.02777053624
 31
0.0
  0
LINE
  5
1C75
330
1F
100
AcDbEntity
  8
中心線
 48
0.05
100
AcDbLine
 10
36047.27638163407
 20
29006.02777053624
 30
0.0
 11
36047.27638163407
 21
29001.02777053625
 31
0.0
  0
LINE
  5
1C76
330
1F
100
AcDbEntity
  8
外形線
100
AcDbLine
 10
36058.77638163407
 20
29005.02777053624
 30
0.0
 11
36058.77638163407
 21
28995.02777053625
 31
0.0
  0
LINE
  5
1C77
330
1F
100
AcDbEntity
  8
外形線
100
AcDbLine
 10
36058.77638163407
 20
28995.02777053625
 30
0.0
 11
36060.27638163407
 21
28995.02777053625
 31
0.0
  0
LINE
  5
1C78
330
1F
100
AcDbEntity
  8
外形線
100
AcDbLine
 10
36060.27638163407
 20
28995.02777053625
 30
0.0
 11
36060.27638163407
 21
28987.02777053624
 31
0.0
  0
LINE
  5
1C79
330
1F
100
AcDbEntity
  8
外形線
100
AcDbLine
 10
36060.27638163407
 20
28987.02777053624
 30
0.0
 11
36058.77638163407
 21
28987.02777053624
 31
0.0
  0
LINE
  5
1C7A
330
1F
100
AcDbEntity
  8
外形線
100
AcDbLine
 10
36058.77638163407
 20
28987.02777053624
 30
0.0
 11
36058.77638163407
 21
28977.02777053624
 31
0.0
  0
LINE
  5
1C7B
330
1F
100
AcDbEntity
  8
外形線
100
AcDbLine
 10
36065.27638163408
 20
28993.52777053625
 30
0.0
 11
36065.27638163408
 21
28988.52777053624
 31
0.0
  0
LINE
  5
1C7C
330
1F
100
AcDbEntity
  8
外形線
100
AcDbLine
 10
36065.27638163408
 20
28988.52777053624
 30
0.0
 11
36067.77638163408
 21
28988.52777053624
 31
0.0
  0
LINE
  5
1C7D
330
1F
100
AcDbEntity
  8
外形線
100
AcDbLine
 10
36067.77638163408
 20
28988.52777053624
 30
0.0
 11
36067.77638163408
 21
28993.52777053625
 31
0.0
  0
LINE
  5
1C7E
330
1F
100
AcDbEntity
  8
外形線
100
AcDbLine
 10
36067.77638163408
 20
28993.52777053625
 30
0.0
 11
36065.27638163408
 21
28993.52777053625
 31
0.0
  0
LINE
  5
1C7F
330
1F
100
AcDbEntity
  8
外形線
100
AcDbLine
 10
36120.57638163408
 20
29013.02777053624
 30
0.0
 11
36120.57638163408
 21
28981.02777053624
 31
0.0
  0
ARC
  5
1C80
330
1F
100
AcDbEntity
  8
外形線
100
AcDbCircle
 10
36121.57638163408
 20
29013.02777053624
 30
0.0
 40
1.0
100
AcDbArc
 50
90.0
 51
180.0
  0
LINE
  5
1C81
330
1F
100
AcDbEntity
  8
外形線
100
AcDbLine
 10
36121.57638163408
 20
28980.02777053624
 30
0.0
 11
36246.57638163408
 21
28980.02777053624
 31
0.0
  0
ARC
  5
1C82
330
1F
100
AcDbEntity
  8
外形線
100
AcDbCircle
 10
36121.57638163408
 20
28981.02777053624
 30
0.0
 40
1.0
100
AcDbArc
 50
180.0
 51
270.0
  0
LINE
  5
1C83
330
1F
100
AcDbEntity
  8
外形線
100
AcDbLine
 10
36247.57638163408
 20
28981.02777053624
 30
0.0
 11
36247.57638163408
 21
29013.02777053624
 31
0.0
  0
ARC
  5
1C84
330
1F
100
AcDbEntity
  8
外形線
100
AcDbCircle
 10
36246.57638163408
 20
28981.02777053624
 30
0.0
 40
1.0
100
AcDbArc
 50
270.0
 51
0.0
  0
LINE
  5
1C85
330
1F
100
AcDbEntity
  8
外形線
100
AcDbLine
 10
36246.57638163408
 20
29014.02777053624
 30
0.0
 11
36121.57638163408
 21
29014.02777053624
 31
0.0
  0
ARC
  5
1C86
330
1F
100
AcDbEntity
  8
外形線
100
AcDbCircle
 10
36246.57638163408
 20
29013.02777053624
 30
0.0
 40
1.0
100
AcDbArc
 50
0.0
 51
90.0
  0
LINE
  5
1C87
330
1F
100
AcDbEntity
  8
外形線
100
AcDbLine
 10
36120.57638163408
 20
29003.02777053624
 30
0.0
 11
36108.87638163408
 21
29003.02777053624
 31
0.0
  0
LINE
  5
1C88
330
1F
100
AcDbEntity
  8
外形線
100
AcDbLine
 10
36108.57638163408
 20
29002.72777053624
 30
0.0
 11
36108.57638163408
 21
28999.62777053625
 31
0.0
  0
ARC
  5
1C89
330
1F
100
AcDbEntity
  8
外形線
100
AcDbCircle
 10
36108.87638163408
 20
28999.62777053625
 30
0.0
 40
0.3
100
AcDbArc
 50
180.0
 51
270.0
  0
ARC
  5
1C8A
330
1F
100
AcDbEntity
  8
外形線
100
AcDbCircle
 10
36108.87638163408
 20
29002.72777053624
 30
0.0
 40
0.3
100
AcDbArc
 50
90.0
 51
180.0
  0
LINE
  5
1C8B
330
1F
100
AcDbEntity
  8
外形線
100
AcDbLine
 10
36108.87638163408
 20
28999.32777053625
 30
0.0
 11
36114.27638163407
 21
28999.32777053625
 31
0.0
  0
LINE
  5
1C8C
330
1F
100
AcDbEntity
  8
外形線
100
AcDbLine
 10
36114.27638163407
 20
28994.72777053624
 30
0.0
 11
36108.87638163408
 21
28994.72777053624
 31
0.0
  0
ARC
  5
1C8D
330
1F
100
AcDbEntity
  8
外形線
100
AcDbCircle
 10
36108.87638163408
 20
28994.42777053624
 30
0.0
 40
0.3
100
AcDbArc
 50
90.0
 51
180.0
  0
LINE
  5
1C8E
330
1F
100
AcDbEntity
  8
外形線
100
AcDbLine
 10
36108.57638163408
 20
28994.42777053624
 30
0.0
 11
36108.57638163408
 21
28991.32777053625
 31
0.0
  0
LINE
  5
1C8F
330
1F
100
AcDbEntity
  8
外形線
100
AcDbLine
 10
36108.87638163408
 20
28991.02777053624
 30
0.0
 11
36120.57638163408
 21
28991.02777053624
 31
0.0
  0
ARC
  5
1C90
330
1F
100
AcDbEntity
  8
外形線
100
AcDbCircle
 10
36108.87638163408
 20
28991.32777053625
 30
0.0
 40
0.3
100
AcDbArc
 50
180.0
 51
270.0
  0
ARC
  5
1C91
330
1F
100
AcDbEntity
  8
外形線
100
AcDbCircle
 10
36114.27638163407
 20
28997.02777053624
 30
0.0
 40
2.30000000000291
100
AcDbArc
 50
270.0
 51
90.0
  0
ARC
  5
1C92
330
1F
100
AcDbEntity
  8
外形線
100
AcDbCircle
 10
36117.24182071017
 20
28996.00335121016
 30
0.0
 40
6.030264183238933
100
AcDbArc
 50
56.42892761936619
 51
91.07027083668745
  0
ARC
  5
1C93
330
1F
100
AcDbEntity
  8
外形線
100
AcDbCircle
 10
36117.12638163408
 20
29002.18253717428
 30
0.0
 40
0.15
100
AcDbArc
 50
180.0
 51
271.0702708366874
  0
LINE
  5
1C94
330
1F
100
AcDbEntity
  8
外形線
100
AcDbLine
 10
36116.97638163408
 20
29003.02777053624
 30
0.0
 11
36116.97638163408
 21
29002.18253717428
 31
0.0
  0
ARC
  5
1C95
330
1F
100
AcDbEntity
  8
外形線
100
AcDbCircle
 10
36117.24182071017
 20
28998.05218986233
 30
0.0
 40
6.030264183238933
100
AcDbArc
 50
268.9297291633126
 51
303.5710723806338
  0
ARC
  5
1C96
330
1F
100
AcDbEntity
  8
外形線
100
AcDbCircle
 10
36117.12638163408
 20
28991.87300389821
 30
0.0
 40
0.15
100
AcDbArc
 50
88.92972916331256
 51
180.0
  0
LINE
  5
1C97
330
1F
100
AcDbEntity
  8
外形線
100
AcDbLine
 10
36116.97638163408
 20
28991.02777053624
 30
0.0
 11
36116.97638163408
 21
28991.87300389821
 31
0.0
  0
LINE
  5
1C98
330
1F
100
AcDbEntity
  8
外形線
100
AcDbLine
 10
36247.57638163408
 20
29003.02777053624
 30
0.0
 11
36259.27638163407
 21
29003.02777053624
 31
0.0
  0
LINE
  5
1C99
330
1F
100
AcDbEntity
  8
外形線
100
AcDbLine
 10
36259.57638163408
 20
29002.72777053624
 30
0.0
 11
36259.57638163408
 21
28999.62777053625
 31
0.0
  0
ARC
  5
1C9A
330
1F
100
AcDbEntity
  8
外形線
100
AcDbCircle
 10
36259.27638163407
 20
28999.62777053625
 30
0.0
 40
0.3
100
AcDbArc
 50
270.0
 51
0.0
  0
ARC
  5
1C9B
330
1F
100
AcDbEntity
  8
外形線
100
AcDbCircle
 10
36259.27638163407
 20
29002.72777053624
 30
0.0
 40
0.3
100
AcDbArc
 50
0.0
 51
90.0
  0
LINE
  5
1C9C
330
1F
100
AcDbEntity
  8
外形線
100
AcDbLine
 10
36259.27638163407
 20
28999.32777053625
 30
0.0
 11
36253.87638163408
 21
28999.32777053625
 31
0.0
  0
LINE
  5
1C9D
330
1F
100
AcDbEntity
  8
外形線
100
AcDbLine
 10
36253.87638163408
 20
28994.72777053624
 30
0.0
 11
36259.27638163407
 21
28994.72777053624
 31
0.0
  0
LINE
  5
1C9E
330
1F
100
AcDbEntity
  8
外形線
100
AcDbLine
 10
36259.57638163408
 20
28994.42777053624
 30
0.0
 11
36259.57638163408
 21
28991.32777053625
 31
0.0
  0
ARC
  5
1C9F
330
1F
100
AcDbEntity
  8
外形線
100
AcDbCircle
 10
36259.27638163407
 20
28994.42777053624
 30
0.0
 40
0.3
100
AcDbArc
 50
0.0
 51
90.0
  0
ARC
  5
1CA0
330
1F
100
AcDbEntity
  8
外形線
100
AcDbCircle
 10
36259.27638163407
 20
28991.32777053625
 30
0.0
 40
0.3
100
AcDbArc
 50
270.0
 51
0.0
  0
LINE
  5
1CA1
330
1F
100
AcDbEntity
  8
外形線
100
AcDbLine
 10
36259.27638163407
 20
28991.02777053624
 30
0.0
 11
36247.57638163408
 21
28991.02777053624
 31
0.0
  0
ARC
  5
1CA2
330
1F
100
AcDbEntity
  8
外形線
100
AcDbCircle
 10
36253.87638163408
 20
28997.02777053624
 30
0.0
 40
2.30000000000291
100
AcDbArc
 50
90.0
 51
270.0
  0
ARC
  5
1CA3
330
1F
100
AcDbEntity
  8
外形線
100
AcDbCircle
 10
36250.91094255799
 20
28996.00335121016
 30
0.0
 40
6.030264183238933
100
AcDbArc
 50
88.92972916331256
 51
123.5710723801885
  0
ARC
  5
1CA4
330
1F
100
AcDbEntity
  8
外形線
100
AcDbCircle
 10
36251.02638163407
 20
29002.18253717428
 30
0.0
 40
0.15
100
AcDbArc
 50
268.9297291633126
 51
0.0
  0
LINE
  5
1CA5
330
1F
100
AcDbEntity
  8
外形線
100
AcDbLine
 10
36251.17638163408
 20
29003.02777053624
 30
0.0
 11
36251.17638163408
 21
29002.18253717428
 31
0.0
  0
ARC
  5
1CA6
330
1F
100
AcDbEntity
  8
外形線
100
AcDbCircle
 10
36250.91094255799
 20
28998.05218986233
 30
0.0
 40
6.030264183238933
100
AcDbArc
 50
236.4289276198115
 51
271.0702708366874
  0
ARC
  5
1CA7
330
1F
100
AcDbEntity
  8
外形線
100
AcDbCircle
 10
36251.02638163407
 20
28991.87300389821
 30
0.0
 40
0.15
100
AcDbArc
 50
0.0
 51
91.07027083668745
  0
LINE
  5
1CA8
330
1F
100
AcDbEntity
  8
外形線
100
AcDbLine
 10
36251.17638163408
 20
28991.02777053624
 30
0.0
 11
36251.17638163408
 21
28991.87300389821
 31
0.0
  0
LINE
  5
1CA9
330
1F
100
AcDbEntity
  8
外形線
100
AcDbLine
 10
36134.07638163408
 20
29008.52777053625
 30
0.0
 11
36134.07638163408
 21
28985.52777053625
 31
0.0
  0
LINE
  5
1CAA
330
1F
100
AcDbEntity
  8
外形線
100
AcDbLine
 10
36135.07638163408
 20
28984.52777053624
 30
0.0
 11
36233.07638163408
 21
28984.52777053624
 31
0.0
  0
ARC
  5
1CAB
330
1F
100
AcDbEntity
  8
外形線
100
AcDbCircle
 10
36135.07638163408
 20
28985.52777053625
 30
0.0
 40
1.0
100
AcDbArc
 50
180.0
 51
270.0
  0
LINE
  5
1CAC
330
1F
100
AcDbEntity
  8
外形線
100
AcDbLine
 10
36234.07638163408
 20
28985.52777053625
 30
0.0
 11
36234.07638163408
 21
29008.52777053625
 31
0.0
  0
ARC
  5
1CAD
330
1F
100
AcDbEntity
  8
外形線
100
AcDbCircle
 10
36233.07638163408
 20
28985.52777053625
 30
0.0
 40
1.0
100
AcDbArc
 50
270.0
 51
0.0
  0
ARC
  5
1CAE
330
1F
100
AcDbEntity
  8
外形線
100
AcDbCircle
 10
36233.07638163408
 20
29008.52777053625
 30
0.0
 40
1.0
100
AcDbArc
 50
0.0
 51
90.0
  0
LINE
  5
1CAF
330
1F
100
AcDbEntity
  8
外形線
100
AcDbLine
 10
36233.07638163408
 20
29009.52777053624
 30
0.0
 11
36135.07638163408
 21
29009.52777053624
 31
0.0
  0
ARC
  5
1CB0
330
1F
100
AcDbEntity
  8
外形線
100
AcDbCircle
 10
36135.07638163408
 20
29008.52777053625
 30
0.0
 40
1.0
100
AcDbArc
 50
90.0
 51
180.0
  0
LINE
  5
1CB1
330
1F
100
AcDbEntity
  8
外形線
100
AcDbLine
 10
36039.27638163407
 20
28738.93594779978
 30
0.0
 11
36039.27638163407
 21
28738.13594779978
 31
0.0
  0
LINE
  5
1CB2
330
1F
100
AcDbEntity
  8
外形線
100
AcDbLine
 10
36039.27638163407
 20
28738.13594779978
 30
0.0
 11
36299.27638163407
 21
28738.13594779978
 31
0.0
  0
LINE
  5
1CB3
330
1F
100
AcDbEntity
  8
外形線
100
AcDbLine
 10
36299.27638163407
 20
28738.13594779978
 30
0.0
 11
36299.27638163407
 21
28738.93594779978
 31
0.0
  0
LINE
  5
1CB4
330
1F
100
AcDbEntity
  8
外形線
100
AcDbLine
 10
36291.74818743613
 20
28738.93594779978
 30
0.0
 11
36031.74818743613
 21
28738.93594779978
 31
0.0
  0
LINE
  5
1CB5
330
1F
100
AcDbEntity
  8
外形線
100
AcDbLine
 10
36036.27638163407
 20
28758.43594779978
 30
0.0
 11
36036.27638163407
 21
28739.43594779978
 31
0.0
  0
LINE
  5
1CB6
330
1F
100
AcDbEntity
  8
外形線
100
AcDbLine
 10
36036.77638163408
 20
28738.93594779978
 30
0.0
 11
36058.27638163408
 21
28738.93594779978
 31
0.0
  0
ARC
  5
1CB7
330
1F
100
AcDbEntity
  8
外形線
100
AcDbCircle
 10
36036.77638163408
 20
28739.43594779978
 30
0.0
 40
0.5
100
AcDbArc
 50
180.0
 51
270.0
  0
LINE
  5
1CB8
330
1F
100
AcDbEntity
  8
外形線
100
AcDbLine
 10
36058.27638163408
 20
28747.93594779978
 30
0.0
 11
36058.27638163408
 21
28758.43594779978
 31
0.0
  0
ARC
  5
1CB9
330
1F
100
AcDbEntity
  8
外形線
100
AcDbCircle
 10
36057.77638163408
 20
28758.43594779978
 30
0.0
 40
0.5
100
AcDbArc
 50
0.0
 51
90.0
  0
LINE
  5
1CBA
330
1F
100
AcDbEntity
  8
外形線
100
AcDbLine
 10
36057.77638163408
 20
28758.93594779978
 30
0.0
 11
36036.77638163408
 21
28758.93594779978
 31
0.0
  0
ARC
  5
1CBB
330
1F
100
AcDbEntity
  8
外形線
100
AcDbCircle
 10
36036.77638163408
 20
28758.43594779978
 30
0.0
 40
0.5
100
AcDbArc
 50
90.0
 51
180.0
  0
LINE
  5
1CBC
330
1F
100
AcDbEntity
  8
外形線
100
AcDbLine
 10
36058.27638163408
 20
28738.93594779978
 30
0.0
 11
36069.77638163407
 21
28738.93594779978
 31
0.0
  0
LINE
  5
1CBD
330
1F
100
AcDbEntity
  8
外形線
100
AcDbLine
 10
36070.27638163407
 20
28739.43594779978
 30
0.0
 11
36070.27638163407
 21
28747.43594779978
 31
0.0
  0
ARC
  5
1CBE
330
1F
100
AcDbEntity
  8
外形線
100
AcDbCircle
 10
36069.77638163407
 20
28739.43594779978
 30
0.0
 40
0.5
100
AcDbArc
 50
270.0
 51
0.0
  0
ARC
  5
1CBF
330
1F
100
AcDbEntity
  8
外形線
100
AcDbCircle
 10
36069.77638163407
 20
28747.43594779978
 30
0.0
 40
0.5
100
AcDbArc
 50
0.0
 51
90.0
  0
LINE
  5
1CC0
330
1F
100
AcDbEntity
  8
外形線
100
AcDbLine
 10
36070.27638163407
 20
28747.93594779978
 30
0.0
 11
36058.27638163408
 21
28747.93594779978
 31
0.0
  0
LINE
  5
1CC1
330
1F
100
AcDbEntity
  8
外形線
100
AcDbLine
 10
36058.77638163407
 20
28747.93594779978
 30
0.0
 11
36058.77638163407
 21
28749.43594779978
 31
0.0
  0
LINE
  5
1CC2
330
1F
100
AcDbEntity
  8
外形線
100
AcDbLine
 10
36059.27638163408
 20
28749.93594779978
 30
0.0
 11
36069.77638163407
 21
28749.93594779978
 31
0.0
  0
ARC
  5
1CC3
330
1F
100
AcDbEntity
  8
外形線
100
AcDbCircle
 10
36059.27638163408
 20
28749.43594779978
 30
0.0
 40
0.5
100
AcDbArc
 50
90.0
 51
180.0
  0
LINE
  5
1CC4
330
1F
100
AcDbEntity
  8
外形線
100
AcDbLine
 10
36070.27638163407
 20
28749.43594779978
 30
0.0
 11
36070.27638163407
 21
28747.93594779978
 31
0.0
  0
ARC
  5
1CC5
330
1F
100
AcDbEntity
  8
外形線
100
AcDbCircle
 10
36069.77638163407
 20
28749.43594779978
 30
0.0
 40
0.5
100
AcDbArc
 50
0.0
 51
90.0
  0
LINE
  5
1CC6
330
1F
100
AcDbEntity
  8
中心線
 48
0.05
100
AcDbLine
 10
36047.27638163407
 20
28741.93594779978
 30
0.0
 11
36047.27638163407
 21
28735.93594779978
 31
0.0
  0
LINE
  5
1CC7
330
1F
100
AcDbEntity
  8
外形線
100
AcDbLine
 10
36120.57638163408
 20
28748.93594779978
 30
0.0
 11
36070.27638163407
 21
28748.93594779978
 31
0.0
  0
LINE
  5
1CC8
330
1F
100
AcDbEntity
  8
外形線
100
AcDbLine
 10
36120.57638163408
 20
28762.93594779978
 30
0.0
 11
36120.57638163408
 21
28738.93594779978
 31
0.0
  0
LINE
  5
1CC9
330
1F
100
AcDbEntity
  8
外形線
100
AcDbLine
 10
36120.57638163408
 20
28738.93594779978
 30
0.0
 11
36247.57638163408
 21
28738.93594779978
 31
0.0
  0
LINE
  5
1CCA
330
1F
100
AcDbEntity
  8
外形線
100
AcDbLine
 10
36247.57638163408
 20
28738.93594779978
 30
0.0
 11
36247.57638163408
 21
28762.93594779978
 31
0.0
  0
ARC
  5
1CCB
330
1F
100
AcDbEntity
  8
外形線
100
AcDbCircle
 10
36246.57638163408
 20
28762.93594779978
 30
0.0
 40
1.0
100
AcDbArc
 50
0.0
 51
90.0
  0
LINE
  5
1CCC
330
1F
100
AcDbEntity
  8
外形線
100
AcDbLine
 10
36246.57638163408
 20
28763.93594779978
 30
0.0
 11
36121.57638163408
 21
28763.93594779978
 31
0.0
  0
ARC
  5
1CCD
330
1F
100
AcDbEntity
  8
外形線
100
AcDbCircle
 10
36121.57638163408
 20
28762.93594779978
 30
0.0
 40
1.0
100
AcDbArc
 50
90.0
 51
180.0
  0
LINE
  5
1CCE
330
1F
100
AcDbEntity
  8
外形線
100
AcDbLine
 10
36120.57638163408
 20
28746.93594779978
 30
0.0
 11
36116.97638163408
 21
28740.93594779978
 31
0.0
  0
LINE
  5
1CCF
330
1F
100
AcDbEntity
  8
外形線
100
AcDbLine
 10
36116.97638163408
 20
28740.93594779978
 30
0.0
 11
36109.07638163408
 21
28740.93594779978
 31
0.0
  0
LINE
  5
1CD0
330
1F
100
AcDbEntity
  8
外形線
100
AcDbLine
 10
36108.57638163408
 20
28740.43594779978
 30
0.0
 11
36108.57638163408
 21
28738.93594779978
 31
0.0
  0
ARC
  5
1CD1
330
1F
100
AcDbEntity
  8
外形線
100
AcDbCircle
 10
36109.07638163408
 20
28740.43594779978
 30
0.0
 40
0.5
100
AcDbArc
 50
90.0
 51
180.0
  0
LINE
  5
1CD2
330
1F
100
AcDbEntity
  8
外形線
100
AcDbLine
 10
36108.57638163408
 20
28738.93594779978
 30
0.0
 11
36120.57638163408
 21
28738.93594779978
 31
0.0
  0
LINE
  5
1CD3
330
1F
100
AcDbEntity
  8
外形線
100
AcDbLine
 10
36247.57638163408
 20
28746.93594779978
 30
0.0
 11
36251.17638163408
 21
28740.93594779978
 31
0.0
  0
LINE
  5
1CD4
330
1F
100
AcDbEntity
  8
外形線
100
AcDbLine
 10
36251.17638163408
 20
28740.93594779978
 30
0.0
 11
36259.07638163408
 21
28740.93594779978
 31
0.0
  0
LINE
  5
1CD5
330
1F
100
AcDbEntity
  8
外形線
100
AcDbLine
 10
36259.57638163408
 20
28740.43594779978
 30
0.0
 11
36259.57638163408
 21
28738.93594779978
 31
0.0
  0
ARC
  5
1CD6
330
1F
100
AcDbEntity
  8
外形線
100
AcDbCircle
 10
36259.07638163408
 20
28740.43594779978
 30
0.0
 40
0.5
100
AcDbArc
 50
0.0
 51
90.0
  0
LINE
  5
1CD7
330
1F
100
AcDbEntity
  8
外形線
100
AcDbLine
 10
36259.57638163408
 20
28738.93594779978
 30
0.0
 11
36247.57638163408
 21
28738.93594779978
 31
0.0
  0
LINE
  5
1CEA
330
1F
100
AcDbEntity
  8
中心線
100
AcDbLine
 10
36768.42638163407
 20
29067.85917595668
 30
0.0
 11
36768.42638163407
 21
28724.29776370398
 31
0.0
  0
LINE
  5
1F22
330
1F
100
AcDbEntity
  8
外形線
100
AcDbLine
 10
35944.92638163407
 20
28748.93594779978
 30
0.0
 11
35944.92638163407
 21
28738.93594779978
 31
0.0
  0
LINE
  5
1F23
330
1F
100
AcDbEntity
  8
外形線
100
AcDbLine
 10
35944.92638163407
 20
28738.93594779978
 30
0.0
 11
36815.92638163407
 21
28738.93594779978
 31
0.0
  0
LINE
  5
1F24
102
{ACAD_REACTORS
330
2181
330
219D
102
}
330
1F
100
AcDbEntity
  8
外形線
100
AcDbLine
 10
36815.92638163407
 20
28738.93594779978
 30
0.0
 11
36815.92638163407
 21
28748.93594779978
 31
0.0
  0
LINE
  5
1F25
330
1F
100
AcDbEntity
  8
外形線
100
AcDbLine
 10
36815.92638163407
 20
28748.93594779978
 30
0.0
 11
36247.57638163408
 21
28748.93594779978
 31
0.0
  0
LINE
  5
1F26
330
1F
100
AcDbEntity
  8
外形線
100
AcDbLine
 10
35944.92638163407
 20
28745.93594779978
 30
0.0
 11
35944.24310006107
 21
28747.30251094579
 31
0.0
  0
ARC
  5
1F27
330
1F
100
AcDbEntity
  8
外形線
100
AcDbCircle
 10
35946.92638163407
 20
28748.64415173228
 30
0.0
 40
3.0
100
AcDbArc
 50
180.0
 51
206.565051177078
  0
LINE
  5
1F28
330
1F
100
AcDbEntity
  8
外形線
100
AcDbLine
 10
35943.92638163407
 20
28748.64415173228
 30
0.0
 11
35943.92638163407
 21
28752.72884101859
 31
0.0
  0
ARC
  5
1F29
330
1F
100
AcDbEntity
  8
外形線
100
AcDbCircle
 10
35944.42638163407
 20
28752.72884101859
 30
0.0
 40
0.5
100
AcDbArc
 50
135.0000000000069
 51
180.0
  0
LINE
  5
1F2A
330
1F
100
AcDbEntity
  8
外形線
100
AcDbLine
 10
35944.07282824347
 20
28753.08239440918
 30
0.0
 11
35944.77993502466
 21
28753.78950119038
 31
0.0
  0
ARC
  5
1F2B
330
1F
100
AcDbEntity
  8
外形線
100
AcDbCircle
 10
35944.42638163407
 20
28754.14305458097
 30
0.0
 40
0.5
100
AcDbArc
 50
315.000000000007
 51
0.0
  0
LINE
  5
1F2C
330
1F
100
AcDbEntity
  8
外形線
100
AcDbLine
 10
35944.92638163407
 20
28754.14305458097
 30
0.0
 11
35944.92638163407
 21
28790.93594779978
 31
0.0
  0
LINE
  5
1F2D
330
1F
100
AcDbEntity
  8
外形線
100
AcDbLine
 10
35945.92638163407
 20
28770.93594779978
 30
0.0
 11
35948.20228355461
 21
28770.48076741567
 31
0.0
  0
LINE
  5
1F2E
330
1F
100
AcDbEntity
  8
外形線
100
AcDbLine
 10
35945.92638163407
 20
28770.93594779978
 30
0.0
 11
35945.92638163407
 21
28790.93594779978
 31
0.0
  0
LINE
  5
1F2F
330
1F
100
AcDbEntity
  8
外形線
100
AcDbLine
 10
35945.92638163407
 20
28790.93594779978
 30
0.0
 11
35944.92638163407
 21
28790.93594779978
 31
0.0
  0
ELLIPSE
  5
1F30
330
1F
100
AcDbEntity
  8
外形線
100
AcDbEllipse
 10
35948.28352449121
 20
28768.43594779978
 30
0.0
 11
-2.35714285713766
 21
1.5
 31
0.0
210
0.0
220
0.0
230
1.0
 40
0.6753514169109462
 41
3.682438273673346
 42
4.822127997503216
  0
ARC
  5
1F31
330
1F
100
AcDbEntity
  8
外形線
100
AcDbCircle
 10
35947.61393514912
 20
28767.53902538849
 30
0.0
 40
3.0
100
AcDbArc
 50
61.78442072581788
 51
78.69006752528486
  0
LINE
  5
1F32
330
1F
100
AcDbEntity
  8
外形線
100
AcDbLine
 10
35945.92638163407
 20
28790.43594779978
 30
0.0
 11
35946.42638163407
 21
28790.43594779978
 31
0.0
  0
LINE
  5
1F33
330
1F
100
AcDbEntity
  8
外形線
100
AcDbLine
 10
35946.42638163407
 20
28790.43594779978
 30
0.0
 11
35946.42638163407
 21
28770.83594779978
 31
0.0
  0
LINE
  5
1F34
330
1F
100
AcDbEntity
  8
外形線
100
AcDbLine
 10
35946.42638163407
 20
28790.43594779978
 30
0.0
 11
35958.42638163407
 21
28790.43594779978
 31
0.0
  0
LINE
  5
1F35
330
1F
100
AcDbEntity
  8
外形線
100
AcDbLine
 10
35959.42638163407
 20
28789.43594779978
 30
0.0
 11
35959.42638163407
 21
28759.93594779978
 31
0.0
  0
ARC
  5
1F36
330
1F
100
AcDbEntity
  8
外形線
100
AcDbCircle
 10
35958.42638163407
 20
28789.43594779978
 30
0.0
 40
1.0
100
AcDbArc
 50
0.0
 51
90.0
  0
ARC
  5
1F37
330
1F
100
AcDbEntity
  8
外形線
100
AcDbCircle
 10
35958.42638163407
 20
28759.93594779978
 30
0.0
 40
1.0
100
AcDbArc
 50
270.0
 51
0.0
  0
LINE
  5
1F38
330
1F
100
AcDbEntity
  8
外形線
100
AcDbLine
 10
35958.42638163407
 20
28758.93594779978
 30
0.0
 11
35950.82580912364
 21
28758.93594779978
 31
0.0
  0
LINE
  5
1F39
330
1F
100
AcDbEntity
  8
外形線
100
AcDbLine
 10
35950.82580912364
 20
28767.96964465455
 30
0.0
 11
35950.82580912364
 21
28758.93594779978
 31
0.0
  0
LINE
  5
1F3A
330
1F
100
AcDbEntity
  8
外形線
100
AcDbLine
 10
35950.82580912364
 20
28758.93594779978
 30
0.0
 11
35950.82580912364
 21
28753.97481968787
 31
0.0
  0
ARC
  5
1F3B
330
1F
100
AcDbEntity
  8
外形線
100
AcDbCircle
 10
35941.37839777233
 20
28755.39389827232
 30
0.0
 40
9.559246875214904
100
AcDbArc
 50
323.1356689795979
 51
350.9878324004474
  0
ARC
  5
1F3C
330
1F
100
AcDbEntity
  8
外形線
100
AcDbCircle
 10
35949.42638163406
 20
28749.35913202055
 30
0.0
 40
0.5
100
AcDbArc
 50
143.1356689792709
 51
180.0000000008337
  0
ARC
  5
1F3D
330
1F
100
AcDbEntity
  8
外形線
100
AcDbCircle
 10
35950.32580912364
 20
28753.97481968787
 30
0.0
 40
0.5
100
AcDbArc
 50
350.9878324008544
 51
0.0
  0
LINE
  5
1F3E
330
1F
100
AcDbEntity
  8
外形線
100
AcDbLine
 10
35948.92638163407
 20
28748.93594779978
 30
0.0
 11
35948.92638163407
 21
28749.35913202054
 31
0.0
  0
LINE
  5
1F3F
330
1F
100
AcDbEntity
  8
外形線
100
AcDbLine
 10
36815.92638163407
 20
28745.93594779978
 30
0.0
 11
36816.60966320707
 21
28747.30251094579
 31
0.0
  0
ARC
  5
1F40
330
1F
100
AcDbEntity
  8
外形線
100
AcDbCircle
 10
36813.92638163407
 20
28748.64415173228
 30
0.0
 40
3.0
100
AcDbArc
 50
333.434948822922
 51
0.0
  0
LINE
  5
1F41
330
1F
100
AcDbEntity
  8
外形線
100
AcDbLine
 10
36816.92638163407
 20
28748.64415173228
 30
0.0
 11
36816.92638163407
 21
28752.72884101859
 31
0.0
  0
ARC
  5
1F42
330
1F
100
AcDbEntity
  8
外形線
100
AcDbCircle
 10
36816.42638163407
 20
28752.72884101859
 30
0.0
 40
0.5
100
AcDbArc
 50
0.0
 51
44.99999999955092
  0
LINE
  5
1F43
330
1F
100
AcDbEntity
  8
外形線
100
AcDbLine
 10
36816.77993502467
 20
28753.08239440918
 30
0.0
 11
36816.07282824348
 21
28753.78950119038
 31
0.0
  0
ARC
  5
1F44
330
1F
100
AcDbEntity
  8
外形線
100
AcDbCircle
 10
36816.42638163407
 20
28754.14305458097
 30
0.0
 40
0.5
100
AcDbArc
 50
180.0
 51
224.9999999995509
  0
LINE
  5
1F45
330
1F
100
AcDbEntity
  8
外形線
100
AcDbLine
 10
36815.92638163407
 20
28754.14305458097
 30
0.0
 11
36815.92638163407
 21
28790.93594779978
 31
0.0
  0
LINE
  5
1F46
330
1F
100
AcDbEntity
  8
外形線
100
AcDbLine
 10
36814.92638163407
 20
28770.93594779978
 30
0.0
 11
36812.65047971352
 21
28770.48076741567
 31
0.0
  0
LINE
  5
1F47
330
1F
100
AcDbEntity
  8
外形線
100
AcDbLine
 10
36814.92638163407
 20
28770.93594779978
 30
0.0
 11
36814.92638163407
 21
28790.93594779978
 31
0.0
  0
LINE
  5
1F48
102
{ACAD_REACTORS
330
2181
102
}
330
1F
100
AcDbEntity
  8
外形線
100
AcDbLine
 10
36814.92638163407
 20
28790.93594779978
 30
0.0
 11
36815.92638163407
 21
28790.93594779978
 31
0.0
  0
ELLIPSE
  5
1F49
330
1F
100
AcDbEntity
  8
外形線
100
AcDbEllipse
 10
36812.56923877693
 20
28768.43594779978
 30
0.0
 11
2.35714285713766
 21
1.5
 31
0.0
210
0.0
220
0.0
230
-1.0
 40
0.6753514169109462
 41
3.682438273673346
 42
4.822127997503216
  0
ARC
  5
1F4A
330
1F
100
AcDbEntity
  8
外形線
100
AcDbCircle
 10
36813.23882811902
 20
28767.53902538849
 30
0.0
 40
3.0
100
AcDbArc
 50
101.3099324747151
 51
118.2155792741821
  0
LINE
  5
1F4B
330
1F
100
AcDbEntity
  8
外形線
100
AcDbLine
 10
36814.92638163407
 20
28790.43594779978
 30
0.0
 11
36814.42638163407
 21
28790.43594779978
 31
0.0
  0
LINE
  5
1F4C
330
1F
100
AcDbEntity
  8
外形線
100
AcDbLine
 10
36814.42638163407
 20
28790.43594779978
 30
0.0
 11
36814.42638163407
 21
28770.83594779978
 31
0.0
  0
LINE
  5
1F4D
330
1F
100
AcDbEntity
  8
外形線
100
AcDbLine
 10
36814.42638163407
 20
28790.43594779978
 30
0.0
 11
36800.42638163407
 21
28790.43594779978
 31
0.0
  0
LINE
  5
1F4E
330
1F
100
AcDbEntity
  8
外形線
100
AcDbLine
 10
36799.42638163407
 20
28789.43594779978
 30
0.0
 11
36799.42638163407
 21
28759.93594779978
 31
0.0
  0
ARC
  5
1F4F
330
1F
100
AcDbEntity
  8
外形線
100
AcDbCircle
 10
36800.42638163407
 20
28789.43594779978
 30
0.0
 40
1.0
100
AcDbArc
 50
90.0
 51
180.0
  0
ARC
  5
1F50
330
1F
100
AcDbEntity
  8
外形線
100
AcDbCircle
 10
36800.42638163407
 20
28759.93594779978
 30
0.0
 40
1.0
100
AcDbArc
 50
180.0
 51
270.0
  0
LINE
  5
1F51
330
1F
100
AcDbEntity
  8
外形線
100
AcDbLine
 10
36800.42638163407
 20
28758.93594779978
 30
0.0
 11
36810.02695414449
 21
28758.93594779978
 31
0.0
  0
LINE
  5
1F52
330
1F
100
AcDbEntity
  8
外形線
100
AcDbLine
 10
36810.02695414449
 20
28767.96964465455
 30
0.0
 11
36810.02695414449
 21
28758.93594779978
 31
0.0
  0
LINE
  5
1F53
330
1F
100
AcDbEntity
  8
外形線
100
AcDbLine
 10
36810.02695414449
 20
28758.93594779978
 30
0.0
 11
36810.0269541445
 21
28753.97481968787
 31
0.0
  0
ARC
  5
1F54
330
1F
100
AcDbEntity
  8
外形線
100
AcDbCircle
 10
36819.47436549581
 20
28755.39389827232
 30
0.0
 40
9.559246875214904
100
AcDbArc
 50
189.0121675995525
 51
216.8643310199839
  0
ARC
  5
1F55
330
1F
100
AcDbEntity
  8
外形線
100
AcDbCircle
 10
36811.42638163408
 20
28749.35913202055
 30
0.0
 40
0.5
100
AcDbArc
 50
359.9999999991662
 51
36.86433102115504
  0
ARC
  5
1F56
330
1F
100
AcDbEntity
  8
外形線
100
AcDbCircle
 10
36810.5269541445
 20
28753.97481968787
 30
0.0
 40
0.5
100
AcDbArc
 50
180.0
 51
189.0121675991455
  0
LINE
  5
1F57
330
1F
100
AcDbEntity
  8
外形線
100
AcDbLine
 10
36811.92638163407
 20
28748.93594779978
 30
0.0
 11
36811.92638163407
 21
28749.35913202054
 31
0.0
  0
LINE
  5
1F58
330
1F
100
AcDbEntity
  8
外形線
100
AcDbLine
 10
36799.42638163407
 20
28785.98594779978
 30
0.0
 11
36790.92638163407
 21
28785.98594779978
 31
0.0
  0
ARC
  5
1F59
330
1F
100
AcDbEntity
  8
外形線
100
AcDbCircle
 10
36790.92638163407
 20
28785.48594779978
 30
0.0
 40
0.5
100
AcDbArc
 50
90.0
 51
180.0
  0
LINE
  5
1F5A
330
1F
100
AcDbEntity
  8
外形線
100
AcDbLine
 10
36790.42638163407
 20
28785.48594779978
 30
0.0
 11
36790.42638163407
 21
28763.88594779978
 31
0.0
  0
LINE
  5
1F5B
330
1F
100
AcDbEntity
  8
外形線
100
AcDbLine
 10
36790.92638163407
 20
28763.38594779978
 30
0.0
 11
36799.42638163407
 21
28763.38594779978
 31
0.0
  0
ARC
  5
1F5C
330
1F
100
AcDbEntity
  8
外形線
100
AcDbCircle
 10
36790.92638163407
 20
28763.88594779978
 30
0.0
 40
0.5
100
AcDbArc
 50
180.0
 51
270.0
  0
LINE
  5
1F5D
330
1F
100
AcDbEntity
  8
外形線
100
AcDbLine
 10
35982.42638163407
 20
28738.93594779978
 30
0.0
 11
35982.42638163407
 21
28735.43594779978
 31
0.0
  0
LINE
  5
1F5E
330
1F
100
AcDbEntity
  8
外形線
100
AcDbLine
 10
35982.92638163407
 20
28734.93594779978
 30
0.0
 11
36001.92638163407
 21
28734.93594779978
 31
0.0
  0
ARC
  5
1F5F
330
1F
100
AcDbEntity
  8
外形線
100
AcDbCircle
 10
35982.92638163407
 20
28735.43594779978
 30
0.0
 40
0.5
100
AcDbArc
 50
180.0
 51
270.0
  0
LINE
  5
1F60
330
1F
100
AcDbEntity
  8
外形線
100
AcDbLine
 10
36002.42638163407
 20
28735.43594779978
 30
0.0
 11
36002.42638163407
 21
28738.93594779978
 31
0.0
  0
ARC
  5
1F61
330
1F
100
AcDbEntity
  8
外形線
100
AcDbCircle
 10
36001.92638163407
 20
28735.43594779978
 30
0.0
 40
0.5
100
AcDbArc
 50
270.0
 51
0.0
  0
LINE
  5
1F62
330
1F
100
AcDbEntity
  8
外形線
100
AcDbLine
 10
36002.42638163407
 20
28736.93594779978
 30
0.0
 11
36002.92638163407
 21
28736.93594779978
 31
0.0
  0
ARC
  5
1F63
330
1F
100
AcDbEntity
  8
外形線
100
AcDbCircle
 10
36003.39560522766
 20
28738.91191830779
 30
0.0
 40
2.030918567864959
100
AcDbArc
 50
256.6416865202889
 51
0.6779299878931823
  0
ARC
  5
1F64
330
1F
100
AcDbEntity
  8
外形線
100
AcDbCircle
 10
36003.43599787008
 20
28738.89279793565
 30
0.0
 40
1.617898346868975
100
AcDbArc
 50
251.6399975157758
 51
1.371947721248696
  0
LINE
  5
1F65
330
1F
100
AcDbEntity
  8
外形線
100
AcDbLine
 10
36002.92638163407
 20
28738.93594779978
 30
0.0
 11
36002.92638163407
 21
28737.35725687375
 31
0.0
  0
LINE
  5
1F66
330
1F
100
AcDbEntity
  8
外形線
100
AcDbLine
 10
36778.42638163407
 20
28738.93594779978
 30
0.0
 11
36778.42638163407
 21
28735.43594779978
 31
0.0
  0
LINE
  5
1F67
330
1F
100
AcDbEntity
  8
外形線
100
AcDbLine
 10
36777.92638163407
 20
28734.93594779978
 30
0.0
 11
36758.92638163407
 21
28734.93594779978
 31
0.0
  0
ARC
  5
1F68
102
{ACAD_REACTORS
330
219D
102
}
330
1F
100
AcDbEntity
  8
外形線
100
AcDbCircle
 10
36777.92638163407
 20
28735.43594779978
 30
0.0
 40
0.5
100
AcDbArc
 50
270.0
 51
0.0
  0
LINE
  5
1F69
330
1F
100
AcDbEntity
  8
外形線
100
AcDbLine
 10
36758.42638163407
 20
28735.43594779978
 30
0.0
 11
36758.42638163407
 21
28738.93594779978
 31
0.0
  0
ARC
  5
1F6A
330
1F
100
AcDbEntity
  8
外形線
100
AcDbCircle
 10
36758.92638163407
 20
28735.43594779978
 30
0.0
 40
0.5
100
AcDbArc
 50
180.0
 51
270.0
  0
LINE
  5
1F6B
330
1F
100
AcDbEntity
  8
外形線
100
AcDbLine
 10
36758.42638163407
 20
28736.93594779978
 30
0.0
 11
36757.92638163407
 21
28736.93594779978
 31
0.0
  0
ARC
  5
1F6C
330
1F
100
AcDbEntity
  8
外形線
100
AcDbCircle
 10
36757.45715804048
 20
28738.91191830779
 30
0.0
 40
2.030918567864959
100
AcDbArc
 50
179.3220700121068
 51
283.3583134801128
  0
ARC
  5
1F6D
330
1F
100
AcDbEntity
  8
外形線
100
AcDbCircle
 10
36757.41676539806
 20
28738.89279793565
 30
0.0
 40
1.617898346868975
100
AcDbArc
 50
178.6280522787513
 51
288.3600024838137
  0
LINE
  5
1F6E
330
1F
100
AcDbEntity
  8
外形線
100
AcDbLine
 10
36757.92638163407
 20
28738.93594779978
 30
0.0
 11
36757.92638163407
 21
28737.35725687375
 31
0.0
  0
LINE
  5
1F6F
330
1F
100
AcDbEntity
  8
外形線
100
AcDbLine
 10
36815.92638163407
 20
29034.02777053624
 30
0.0
 11
36815.92638163407
 21
29058.02777053624
 31
0.0
  0
LINE
  5
1F70
330
1F
100
AcDbEntity
  8
外形線
100
AcDbLine
 10
36799.42638163407
 20
29058.02777053624
 30
0.0
 11
36790.92638163407
 21
29058.02777053624
 31
0.0
  0
ARC
  5
1F71
330
1F
100
AcDbEntity
  8
外形線
100
AcDbCircle
 10
36790.92638163407
 20
29057.52777053624
 30
0.0
 40
0.5
100
AcDbArc
 50
90.0
 51
180.0
  0
LINE
  5
1F72
330
1F
100
AcDbEntity
  8
外形線
100
AcDbLine
 10
35944.92638163407
 20
29058.02777053624
 30
0.0
 11
35944.92638163407
 21
29034.02777053624
 31
0.0
  0
LINE
  5
1F73
330
1F
100
AcDbEntity
  8
外形線
100
AcDbLine
 10
36790.92638163407
 20
29034.02777053624
 30
0.0
 11
36799.42638163407
 21
29034.02777053624
 31
0.0
  0
LINE
  5
1F74
330
1F
100
AcDbEntity
  8
外形線
100
AcDbLine
 10
36790.42638163407
 20
29057.02777053624
 30
0.0
 11
35959.42638163408
 21
29057.02777053624
 31
0.0
  0
LINE
  5
1F75
330
1F
100
AcDbEntity
  8
外形線
100
AcDbLine
 10
35959.42638163408
 20
29035.02777053624
 30
0.0
 11
36790.42638163407
 21
29035.02777053624
 31
0.0
  0
LINE
  5
1F76
330
1F
100
AcDbEntity
  8
外形線
100
AcDbLine
 10
35944.92638163407
 20
29055.02777053624
 30
0.0
 11
35943.92932296536
 21
29049.21159109932
 31
0.0
  0
ARC
  5
1F77
330
1F
100
AcDbEntity
  8
外形線
100
AcDbCircle
 10
35944.17592144632
 20
29049.17049135249
 30
0.0
 40
0.25
100
AcDbArc
 50
170.5376777920472
 51
176.5230231830236
  0
ARC
  5
1F78
330
1F
100
AcDbEntity
  8
外形線
100
AcDbCircle
 10
35944.17592144632
 20
29049.17049135249
 30
0.0
 40
0.25
100
AcDbArc
 50
183.4769768169764
 51
243.4349488229322
  0
LINE
  5
1F79
102
{ACAD_REACTORS
330
2169
102
}
330
1F
100
AcDbEntity
  8
外形線
100
AcDbLine
 10
35943.92638163407
 20
29049.18565321593
 30
0.0
 11
35943.92638163407
 21
29042.86988785655
 31
0.0
  0
LINE
  5
1F7A
330
1F
100
AcDbEntity
  8
外形線
100
AcDbLine
 10
35944.06411804744
 20
29048.94688455474
 30
0.0
 11
35944.92638163407
 21
29048.52777053624
 31
0.0
  0
LINE
  5
1F7B
330
1F
100
AcDbEntity
  8
外形線
100
AcDbLine
 10
35944.92638163407
 20
29037.02777053625
 30
0.0
 11
35943.92932296536
 21
29042.84394997317
 31
0.0
  0
ARC
  5
1F7C
330
1F
100
AcDbEntity
  8
外形線
100
AcDbCircle
 10
35944.17592144632
 20
29042.88504971999
 30
0.0
 40
0.25
100
AcDbArc
 50
183.4769768169764
 51
189.4623222084282
  0
ARC
  5
1F7D
330
1F
100
AcDbEntity
  8
外形線
100
AcDbCircle
 10
35944.17592144632
 20
29042.88504971999
 30
0.0
 40
0.25
100
AcDbArc
 50
116.5650511770678
 51
176.5230231830236
  0
LINE
  5
1F7E
330
1F
100
AcDbEntity
  8
外形線
100
AcDbLine
 10
35944.06411804744
 20
29043.10865651774
 30
0.0
 11
35944.92638163407
 21
29043.52777053624
 31
0.0
  0
LINE
  5
1F7F
330
1F
100
AcDbEntity
  8
外形線
100
AcDbLine
 10
35944.92638163407
 20
29058.02777053624
 30
0.0
 11
35944.92638163407
 21
29062.02777053625
 31
0.0
  0
LINE
  5
1F80
330
1F
100
AcDbEntity
  8
外形線
100
AcDbLine
 10
35944.92638163407
 20
29062.02777053625
 30
0.0
 11
35945.92638163407
 21
29062.02777053625
 31
0.0
  0
LINE
  5
1F81
330
1F
100
AcDbEntity
  8
外形線
100
AcDbLine
 10
35945.92638163407
 20
29062.02777053625
 30
0.0
 11
35945.92638163407
 21
29030.02777053624
 31
0.0
  0
LINE
  5
1F82
330
1F
100
AcDbEntity
  8
外形線
100
AcDbLine
 10
35945.92638163407
 20
29030.02777053624
 30
0.0
 11
35944.92638163407
 21
29030.02777053624
 31
0.0
  0
LINE
  5
1F83
330
1F
100
AcDbEntity
  8
外形線
100
AcDbLine
 10
35944.92638163407
 20
29030.02777053624
 30
0.0
 11
35944.92638163407
 21
29037.02777053625
 31
0.0
  0
LINE
  5
1F84
330
1F
100
AcDbEntity
  8
外形線
100
AcDbLine
 10
35945.92638163407
 20
29030.02777053624
 30
0.0
 11
35946.42638163407
 21
29030.02777053624
 31
0.0
  0
LINE
  5
1F85
330
1F
100
AcDbEntity
  8
外形線
100
AcDbLine
 10
35946.42638163407
 20
29030.02777053624
 30
0.0
 11
35946.42638163407
 21
29062.02777053625
 31
0.0
  0
LINE
  5
1F86
330
1F
100
AcDbEntity
  8
外形線
100
AcDbLine
 10
35946.42638163407
 20
29062.02777053625
 30
0.0
 11
35945.92638163407
 21
29062.02777053625
 31
0.0
  0
LINE
  5
1F87
330
1F
100
AcDbEntity
  8
外形線
100
AcDbLine
 10
35946.42638163407
 20
29030.02777053624
 30
0.0
 11
35958.42638163407
 21
29030.02777053624
 31
0.0
  0
LINE
  5
1F88
330
1F
100
AcDbEntity
  8
外形線
100
AcDbLine
 10
35959.42638163407
 20
29031.02777053624
 30
0.0
 11
35959.42638163407
 21
29061.02777053624
 31
0.0
  0
ARC
  5
1F89
330
1F
100
AcDbEntity
  8
外形線
100
AcDbCircle
 10
35958.42638163407
 20
29031.02777053624
 30
0.0
 40
1.0
100
AcDbArc
 50
270.0
 51
0.0
  0
LINE
  5
1F8A
330
1F
100
AcDbEntity
  8
外形線
100
AcDbLine
 10
35958.42638163407
 20
29062.02777053625
 30
0.0
 11
35946.42638163407
 21
29062.02777053625
 31
0.0
  0
ARC
  5
1F8B
330
1F
100
AcDbEntity
  8
外形線
100
AcDbCircle
 10
35958.42638163407
 20
29061.02777053624
 30
0.0
 40
1.0
100
AcDbArc
 50
0.0
 51
90.0
  0
LINE
  5
1F8C
330
1F
100
AcDbEntity
  8
外形線
100
AcDbLine
 10
36815.92638163407
 20
29058.02777053624
 30
0.0
 11
36815.92638163407
 21
29034.02777053624
 31
0.0
  0
LINE
  5
1F8D
330
1F
100
AcDbEntity
  8
外形線
100
AcDbLine
 10
36815.92638163407
 20
29055.02777053624
 30
0.0
 11
36816.92344030278
 21
29049.21159109932
 31
0.0
  0
ARC
  5
1F8E
330
1F
100
AcDbEntity
  8
外形線
100
AcDbCircle
 10
36816.67684182182
 20
29049.17049135249
 30
0.0
 40
0.25
100
AcDbArc
 50
3.476976816976417
 51
9.4623222079528
  0
ARC
  5
1F8F
330
1F
100
AcDbEntity
  8
外形線
100
AcDbCircle
 10
36816.67684182182
 20
29049.17049135249
 30
0.0
 40
0.25
100
AcDbArc
 50
296.5650511770677
 51
356.5230231830236
  0
LINE
  5
1F90
102
{ACAD_REACTORS
330
2169
102
}
330
1F
100
AcDbEntity
  8
外形線
100
AcDbLine
 10
36816.92638163407
 20
29049.18565321593
 30
0.0
 11
36816.92638163407
 21
29042.86988785655
 31
0.0
  0
LINE
  5
1F91
330
1F
100
AcDbEntity
  8
外形線
100
AcDbLine
 10
36816.7886452207
 20
29048.94688455474
 30
0.0
 11
36815.92638163407
 21
29048.52777053624
 31
0.0
  0
LINE
  5
1F92
330
1F
100
AcDbEntity
  8
外形線
100
AcDbLine
 10
36815.92638163407
 20
29037.02777053625
 30
0.0
 11
36816.92344030278
 21
29042.84394997317
 31
0.0
  0
ARC
  5
1F93
330
1F
100
AcDbEntity
  8
外形線
100
AcDbCircle
 10
36816.67684182182
 20
29042.88504971999
 30
0.0
 40
0.25
100
AcDbArc
 50
350.5376777915718
 51
356.5230231830236
  0
ARC
  5
1F94
330
1F
100
AcDbEntity
  8
外形線
100
AcDbCircle
 10
36816.67684182182
 20
29042.88504971999
 30
0.0
 40
0.25
100
AcDbArc
 50
3.476976816976417
 51
63.43494882293221
  0
LINE
  5
1F95
330
1F
100
AcDbEntity
  8
外形線
100
AcDbLine
 10
36816.7886452207
 20
29043.10865651774
 30
0.0
 11
36815.92638163407
 21
29043.52777053624
 31
0.0
  0
LINE
  5
1F96
330
1F
100
AcDbEntity
  8
外形線
100
AcDbLine
 10
36815.92638163407
 20
29058.02777053624
 30
0.0
 11
36815.92638163407
 21
29062.02777053625
 31
0.0
  0
LINE
  5
1F97
330
1F
100
AcDbEntity
  8
外形線
100
AcDbLine
 10
36815.92638163407
 20
29062.02777053625
 30
0.0
 11
36814.92638163407
 21
29062.02777053625
 31
0.0
  0
LINE
  5
1F98
330
1F
100
AcDbEntity
  8
外形線
100
AcDbLine
 10
36814.92638163407
 20
29062.02777053625
 30
0.0
 11
36814.92638163407
 21
29030.02777053624
 31
0.0
  0
LINE
  5
1F99
330
1F
100
AcDbEntity
  8
外形線
100
AcDbLine
 10
36814.92638163407
 20
29030.02777053624
 30
0.0
 11
36815.92638163407
 21
29030.02777053624
 31
0.0
  0
LINE
  5
1F9A
330
1F
100
AcDbEntity
  8
外形線
100
AcDbLine
 10
36815.92638163407
 20
29030.02777053624
 30
0.0
 11
36815.92638163407
 21
29037.02777053625
 31
0.0
  0
LINE
  5
1F9B
330
1F
100
AcDbEntity
  8
外形線
100
AcDbLine
 10
36814.92638163407
 20
29030.02777053624
 30
0.0
 11
36814.42638163407
 21
29030.02777053624
 31
0.0
  0
LINE
  5
1F9C
330
1F
100
AcDbEntity
  8
外形線
100
AcDbLine
 10
36814.42638163407
 20
29030.02777053624
 30
0.0
 11
36814.42638163407
 21
29062.02777053625
 31
0.0
  0
LINE
  5
1F9D
330
1F
100
AcDbEntity
  8
外形線
100
AcDbLine
 10
36814.42638163407
 20
29062.02777053625
 30
0.0
 11
36814.92638163407
 21
29062.02777053625
 31
0.0
  0
LINE
  5
1F9E
330
1F
100
AcDbEntity
  8
外形線
100
AcDbLine
 10
36814.42638163407
 20
29062.02777053625
 30
0.0
 11
36800.42638163407
 21
29062.02777053625
 31
0.0
  0
LINE
  5
1F9F
330
1F
100
AcDbEntity
  8
外形線
100
AcDbLine
 10
36799.42638163407
 20
29061.02777053624
 30
0.0
 11
36799.42638163407
 21
29031.02777053624
 31
0.0
  0
ARC
  5
1FA0
330
1F
100
AcDbEntity
  8
外形線
100
AcDbCircle
 10
36800.42638163407
 20
29061.02777053624
 30
0.0
 40
1.0
100
AcDbArc
 50
90.0
 51
180.0
  0
ARC
  5
1FA1
330
1F
100
AcDbEntity
  8
外形線
100
AcDbCircle
 10
36800.42638163407
 20
29031.02777053624
 30
0.0
 40
1.0
100
AcDbArc
 50
180.0
 51
270.0
  0
LINE
  5
1FA2
330
1F
100
AcDbEntity
  8
外形線
100
AcDbLine
 10
36800.42638163407
 20
29030.02777053624
 30
0.0
 11
36814.42638163407
 21
29030.02777053624
 31
0.0
  0
LINE
  5
1FA3
330
1F
100
AcDbEntity
  8
外形線
100
AcDbLine
 10
36790.42638163407
 20
29057.52777053624
 30
0.0
 11
36790.42638163407
 21
29049.27777053624
 31
0.0
  0
ARC
  5
1FA4
330
1F
100
AcDbEntity
  8
外形線
100
AcDbCircle
 10
36790.92638163407
 20
29049.27777053624
 30
0.0
 40
0.5
100
AcDbArc
 50
180.0
 51
270.0
  0
ARC
  5
1FA5
330
1F
100
AcDbEntity
  8
外形線
100
AcDbCircle
 10
36790.92638163407
 20
29034.52777053624
 30
0.0
 40
0.5
100
AcDbArc
 50
180.0
 51
270.0
  0
LINE
  5
1FA6
330
1F
100
AcDbEntity
  8
外形線
100
AcDbLine
 10
36791.92638163407
 20
29058.02777053624
 30
0.0
 11
35959.42638163408
 21
29058.02777053624
 31
0.0
  0
LINE
  5
1FA7
330
1F
100
AcDbEntity
  8
外形線
100
AcDbLine
 10
35959.42638163408
 20
29034.02777053624
 30
0.0
 11
36791.92638163407
 21
29034.02777053624
 31
0.0
  0
LINE
  5
1FA8
330
1F
100
AcDbEntity
  8
外形線
100
AcDbLine
 10
36799.42638163407
 20
29048.77777053624
 30
0.0
 11
36790.92638163407
 21
29048.77777053624
 31
0.0
  0
LINE
  5
1FA9
330
1F
100
AcDbEntity
  8
外形線
100
AcDbLine
 10
36799.42638163407
 20
29043.27777053624
 30
0.0
 11
36790.92638163407
 21
29043.27777053624
 31
0.0
  0
LINE
  5
1FAA
330
1F
100
AcDbEntity
  8
外形線
100
AcDbLine
 10
36791.92638163407
 20
29048.77777053624
 30
0.0
 11
36791.92638163407
 21
29043.27777053624
 31
0.0
  0
LINE
  5
1FAB
330
1F
100
AcDbEntity
  8
外形線
100
AcDbLine
 10
36790.42638163407
 20
29042.77777053625
 30
0.0
 11
36790.42638163407
 21
29034.52777053624
 31
0.0
  0
ARC
  5
1FAC
330
1F
100
AcDbEntity
  8
外形線
100
AcDbCircle
 10
36790.92638163407
 20
29042.77777053625
 30
0.0
 40
0.5
100
AcDbArc
 50
90.0
 51
180.0
  0
ARC
  5
1FAD
330
1F
100
AcDbEntity
  8
孔
100
AcDbCircle
 10
36011.92638163407
 20
29046.02777053624
 30
0.0
 40
5.0
100
AcDbArc
 50
270.0
 51
90.0
  0
ARC
  5
1FAE
330
1F
100
AcDbEntity
  8
孔
100
AcDbCircle
 10
35967.92638163407
 20
29046.02777053624
 30
0.0
 40
5.0
100
AcDbArc
 50
90.0
 51
143.1301023543175
  0
ARC
  5
1FAF
330
1F
100
AcDbEntity
  8
孔
100
AcDbCircle
 10
35967.92638163407
 20
29046.02777053624
 30
0.0
 40
5.0
100
AcDbArc
 50
216.8698976456825
 51
270.0
  0
LINE
  5
1FB0
330
1F
100
AcDbEntity
  8
孔
100
AcDbLine
 10
35959.42638163407
 20
29049.02777053624
 30
0.0
 11
35963.92638163407
 21
29049.02777053624
 31
0.0
  0
LINE
  5
1FB1
330
1F
100
AcDbEntity
  8
孔
100
AcDbLine
 10
35959.42638163407
 20
29043.02777053624
 30
0.0
 11
35963.92638163407
 21
29043.02777053624
 31
0.0
  0
LINE
  5
1FB2
330
1F
100
AcDbEntity
  8
孔
100
AcDbLine
 10
35967.92638163407
 20
29051.02777053624
 30
0.0
 11
35982.42638163407
 21
29051.02777053624
 31
0.0
  0
LINE
  5
1FB3
330
1F
100
AcDbEntity
  8
孔
100
AcDbLine
 10
36002.42638163407
 20
29051.02777053624
 30
0.0
 11
36011.92638163407
 21
29051.02777053624
 31
0.0
  0
LINE
  5
1FB4
330
1F
100
AcDbEntity
  8
孔
100
AcDbLine
 10
35967.92638163407
 20
29041.02777053624
 30
0.0
 11
35982.42638163407
 21
29041.02777053624
 31
0.0
  0
LINE
  5
1FB5
330
1F
100
AcDbEntity
  8
孔
100
AcDbLine
 10
36002.42638163407
 20
29041.02777053624
 30
0.0
 11
36011.92638163407
 21
29041.02777053624
 31
0.0
  0
LINE
  5
1FB6
330
1F
100
AcDbEntity
  8
外形線
100
AcDbLine
 10
35982.42638163407
 20
29050.02777053624
 30
0.0
 11
35982.42638163407
 21
29042.02777053624
 31
0.0
  0
LINE
  5
1FB7
330
1F
100
AcDbEntity
  8
外形線
100
AcDbLine
 10
35985.92638163407
 20
29038.52777053624
 30
0.0
 11
35994.92638163407
 21
29038.52777053624
 31
0.0
  0
ARC
  5
1FB8
330
1F
100
AcDbEntity
  8
外形線
100
AcDbCircle
 10
35998.92638163407
 20
29042.02777053624
 30
0.0
 40
3.5
100
AcDbArc
 50
270.0
 51
0.0
  0
ARC
  5
1FB9
330
1F
100
AcDbEntity
  8
外形線
100
AcDbCircle
 10
35985.92638163407
 20
29042.02777053624
 30
0.0
 40
3.5
100
AcDbArc
 50
180.0
 51
270.0
  0
LINE
  5
1FBA
330
1F
100
AcDbEntity
  8
外形線
100
AcDbLine
 10
36002.42638163407
 20
29042.02777053624
 30
0.0
 11
36002.42638163407
 21
29050.02777053624
 31
0.0
  0
ARC
  5
1FBB
330
1F
100
AcDbEntity
  8
外形線
100
AcDbCircle
 10
35998.92638163407
 20
29050.02777053624
 30
0.0
 40
3.5
100
AcDbArc
 50
0.0
 51
90.0
  0
LINE
  5
1FBC
330
1F
100
AcDbEntity
  8
外形線
100
AcDbLine
 10
35994.92638163407
 20
29053.52777053624
 30
0.0
 11
35985.92638163407
 21
29053.52777053624
 31
0.0
  0
ARC
  5
1FBD
330
1F
100
AcDbEntity
  8
外形線
100
AcDbCircle
 10
35985.92638163407
 20
29050.02777053624
 30
0.0
 40
3.5
100
AcDbArc
 50
90.0
 51
180.0
  0
LINE
  5
1FBE
330
1F
100
AcDbEntity
  8
外形線
100
AcDbLine
 10
35982.42638163407
 20
29050.02777053624
 30
0.0
 11
35984.42638163407
 21
29050.02777053624
 31
0.0
  0
LINE
  5
1FBF
330
1F
100
AcDbEntity
  8
外形線
100
AcDbLine
 10
35984.42638163407
 20
29050.02777053624
 30
0.0
 11
35984.42638163407
 21
29042.02777053624
 31
0.0
  0
LINE
  5
1FC0
330
1F
100
AcDbEntity
  8
外形線
100
AcDbLine
 10
35984.42638163407
 20
29042.02777053624
 30
0.0
 11
35982.42638163407
 21
29042.02777053624
 31
0.0
  0
LINE
  5
1FC1
330
1F
100
AcDbEntity
  8
外形線
100
AcDbLine
 10
35994.92638163407
 20
29039.52777053624
 30
0.0
 11
35994.92638163407
 21
29037.02777053625
 31
0.0
  0
LINE
  5
1FC2
330
1F
100
AcDbEntity
  8
外形線
100
AcDbLine
 10
35994.92638163407
 20
29037.02777053625
 30
0.0
 11
35998.92638163407
 21
29037.02777053625
 31
0.0
  0
LINE
  5
1FC3
330
1F
100
AcDbEntity
  8
外形線
100
AcDbLine
 10
35998.92638163407
 20
29037.02777053625
 30
0.0
 11
35998.92638163407
 21
29039.52777053624
 31
0.0
  0
LINE
  5
1FC4
330
1F
100
AcDbEntity
  8
外形線
100
AcDbLine
 10
35998.92638163407
 20
29039.52777053624
 30
0.0
 11
35994.92638163407
 21
29039.52777053624
 31
0.0
  0
LINE
  5
1FC5
330
1F
100
AcDbEntity
  8
外形線
100
AcDbLine
 10
35994.92638163407
 20
29052.52777053624
 30
0.0
 11
35994.92638163407
 21
29055.02777053624
 31
0.0
  0
LINE
  5
1FC6
330
1F
100
AcDbEntity
  8
外形線
100
AcDbLine
 10
35994.92638163407
 20
29055.02777053624
 30
0.0
 11
35998.92638163407
 21
29055.02777053624
 31
0.0
  0
LINE
  5
1FC7
330
1F
100
AcDbEntity
  8
外形線
100
AcDbLine
 10
35998.92638163407
 20
29055.02777053624
 30
0.0
 11
35998.92638163407
 21
29052.52777053624
 31
0.0
  0
LINE
  5
1FC8
330
1F
100
AcDbEntity
  8
外形線
100
AcDbLine
 10
35998.92638163407
 20
29052.52777053624
 30
0.0
 11
35994.92638163407
 21
29052.52777053624
 31
0.0
  0
LINE
  5
1FC9
330
1F
100
AcDbEntity
  8
外形線
100
AcDbLine
 10
36002.42638163407
 20
29049.02777053624
 30
0.0
 11
36005.42638163407
 21
29049.02777053624
 31
0.0
  0
LINE
  5
1FCA
330
1F
100
AcDbEntity
  8
外形線
100
AcDbLine
 10
36005.42638163407
 20
29049.02777053624
 30
0.0
 11
36005.42638163407
 21
29043.02777053624
 31
0.0
  0
LINE
  5
1FCB
330
1F
100
AcDbEntity
  8
外形線
100
AcDbLine
 10
36005.42638163407
 20
29043.02777053624
 30
0.0
 11
36002.42638163407
 21
29043.02777053624
 31
0.0
  0
LINE
  5
1FCC
330
1F
100
AcDbEntity
  8
外形線
100
AcDbLine
 10
35998.42638163407
 20
29048.02777053624
 30
0.0
 11
35987.42638163407
 21
29048.02777053624
 31
0.0
  0
LINE
  5
1FCD
330
1F
100
AcDbEntity
  8
外形線
100
AcDbLine
 10
35987.42638163407
 20
29048.02777053624
 30
0.0
 11
35987.42638163407
 21
29044.02777053624
 31
0.0
  0
LINE
  5
1FCE
330
1F
100
AcDbEntity
  8
外形線
100
AcDbLine
 10
35987.42638163407
 20
29044.02777053624
 30
0.0
 11
35998.42638163407
 21
29044.02777053624
 31
0.0
  0
ARC
  5
1FCF
330
1F
100
AcDbEntity
  8
外形線
100
AcDbCircle
 10
35998.42638163407
 20
29046.02777053624
 30
0.0
 40
2.0
100
AcDbArc
 50
270.0
 51
90.0
  0
LINE
  5
1FD0
330
1F
100
AcDbEntity
  8
外形線
100
AcDbLine
 10
35982.42638163407
 20
29042.77777053625
 30
0.0
 11
35983.42638163407
 21
29042.77777053625
 31
0.0
  0
LINE
  5
1FD1
330
1F
100
AcDbEntity
  8
外形線
100
AcDbLine
 10
35983.42638163407
 20
29042.77777053625
 30
0.0
 11
35983.42638163407
 21
29049.27777053624
 31
0.0
  0
LINE
  5
1FD2
330
1F
100
AcDbEntity
  8
外形線
100
AcDbLine
 10
35983.42638163407
 20
29049.27777053624
 30
0.0
 11
35982.42638163407
 21
29049.27777053624
 31
0.0
  0
LINE
  5
1FD3
330
1F
100
AcDbEntity
  8
外形線
100
AcDbLine
 10
35959.42638163407
 20
29055.52777053624
 30
0.0
 11
36027.92638163407
 21
29055.52777053624
 31
0.0
  0
LINE
  5
1FD4
330
1F
100
AcDbEntity
  8
外形線
100
AcDbLine
 10
36027.92638163407
 20
29055.52777053624
 30
0.0
 11
36027.92638163407
 21
29048.33036415949
 31
0.0
  0
LINE
  5
1FD5
330
1F
100
AcDbEntity
  8
外形線
100
AcDbLine
 10
36027.92638163407
 20
29043.725176913
 30
0.0
 11
36027.92638163407
 21
29036.52777053624
 31
0.0
  0
LINE
  5
1FD6
330
1F
100
AcDbEntity
  8
外形線
100
AcDbLine
 10
36027.92638163407
 20
29036.52777053624
 30
0.0
 11
35959.42638163407
 21
29036.52777053624
 31
0.0
  0
LINE
  5
1FD7
330
1F
100
AcDbEntity
  8
外形線
100
AcDbLine
 10
35959.42638163408
 20
29037.52777053624
 30
0.0
 11
35994.92638163407
 21
29037.52777053624
 31
0.0
  0
LINE
  5
1FD8
330
1F
100
AcDbEntity
  8
外形線
100
AcDbLine
 10
35998.92638163407
 20
29037.52777053624
 30
0.0
 11
36027.92638163407
 21
29037.52777053624
 31
0.0
  0
LINE
  5
1FD9
330
1F
100
AcDbEntity
  8
外形線
100
AcDbLine
 10
36027.92638163407
 20
29054.52777053625
 30
0.0
 11
35998.92638163407
 21
29054.52777053625
 31
0.0
  0
LINE
  5
1FDA
330
1F
100
AcDbEntity
  8
外形線
100
AcDbLine
 10
35959.42638163408
 20
29054.52777053625
 30
0.0
 11
35994.92638163407
 21
29054.52777053625
 31
0.0
  0
LINE
  5
1FDB
330
1F
100
AcDbEntity
  8
外形線
100
AcDbLine
 10
36023.92638163407
 20
29049.52777053624
 30
0.0
 11
36019.92638163407
 21
29049.52777053624
 31
0.0
  0
LINE
  5
1FDC
330
1F
100
AcDbEntity
  8
外形線
100
AcDbLine
 10
36019.92638163407
 20
29049.52777053624
 30
0.0
 11
36019.92638163407
 21
29042.52777053624
 31
0.0
  0
LINE
  5
1FDD
330
1F
100
AcDbEntity
  8
外形線
100
AcDbLine
 10
36019.92638163407
 20
29042.52777053624
 30
0.0
 11
36023.92638163407
 21
29042.52777053624
 31
0.0
  0
LINE
  5
1FDE
330
1F
100
AcDbEntity
  8
外形線
100
AcDbLine
 10
36023.42638163407
 20
29042.52777053624
 30
0.0
 11
36023.42638163407
 21
29049.52777053624
 31
0.0
  0
LINE
  5
1FDF
330
1F
100
AcDbEntity
  8
外形線
100
AcDbLine
 10
36023.42638163407
 20
29049.52777053624
 30
0.0
 11
36031.0276098851
 21
29047.4020065386
 31
0.0
  0
LINE
  5
1FE0
330
1F
100
AcDbEntity
  8
外形線
100
AcDbLine
 10
36031.0276098851
 20
29044.65353453389
 30
0.0
 11
36023.42638163407
 21
29042.52777053624
 31
0.0
  0
ARC
  5
1FE1
330
1F
100
AcDbEntity
  8
外形線
100
AcDbCircle
 10
36030.42638163407
 20
29046.02777053624
 30
0.0
 40
1.5
100
AcDbArc
 50
293.6293777308662
 51
66.37062226913376
  0
LINE
  5
1FE2
330
1F
100
AcDbEntity
  8
外形線
100
AcDbLine
 10
36023.92638163407
 20
29049.52777053624
 30
0.0
 11
36023.92638163407
 21
29049.38794023991
 31
0.0
  0
LINE
  5
1FE3
330
1F
100
AcDbEntity
  8
外形線
100
AcDbLine
 10
36023.92638163407
 20
29042.52777053624
 30
0.0
 11
36023.92638163407
 21
29042.66760083257
 31
0.0
  0
LINE
  5
1FE4
330
1F
100
AcDbEntity
  8
孔
100
AcDbLine
 10
36044.92638163407
 20
29041.52777053624
 30
0.0
 11
36045.95057676892
 21
29049.66084377792
 31
0.0
  0
LINE
  5
1FE5
330
1F
100
AcDbEntity
  8
孔
100
AcDbLine
 10
36048.90218649922
 20
29049.66084377792
 30
0.0
 11
36049.92638163407
 21
29041.52777053624
 31
0.0
  0
ARC
  5
1FE6
330
1F
100
AcDbEntity
  8
孔
100
AcDbCircle
 10
36047.42638163407
 20
29049.39251562062
 30
0.0
 40
1.5
100
AcDbArc
 50
10.30484646891285
 51
169.6951535310871
  0
LINE
  5
1FE7
330
1F
100
AcDbEntity
  8
孔
100
AcDbLine
 10
36044.92638163407
 20
29041.52777053624
 30
0.0
 11
36049.92638163407
 21
29041.52777053624
 31
0.0
  0
LINE
  5
1FE8
330
1F
100
AcDbEntity
  8
孔
100
AcDbLine
 10
36044.92638163407
 20
29041.52777053624
 30
0.0
 11
36044.92638163407
 21
29041.02777053624
 31
0.0
  0
LINE
  5
1FE9
330
1F
100
AcDbEntity
  8
孔
100
AcDbLine
 10
36044.92638163407
 20
29041.02777053624
 30
0.0
 11
36049.92638163407
 21
29041.02777053624
 31
0.0
  0
LINE
  5
1FEA
330
1F
100
AcDbEntity
  8
孔
100
AcDbLine
 10
36049.92638163407
 20
29041.02777053624
 30
0.0
 11
36049.92638163407
 21
29041.52777053624
 31
0.0
  0
CIRCLE
  5
1FEB
330
1F
100
AcDbEntity
  8
孔
100
AcDbCircle
 10
36057.42638163407
 20
29046.02777053624
 30
0.0
 40
2.1
  0
CIRCLE
  5
1FEC
330
1F
100
AcDbEntity
  8
孔
100
AcDbCircle
 10
36085.42638163407
 20
29046.02777053624
 30
0.0
 40
2.1
  0
LINE
  5
1FED
330
1F
100
AcDbEntity
  8
孔
100
AcDbLine
 10
36064.42638163407
 20
29049.52777053624
 30
0.0
 11
36064.42638163407
 21
29042.52777053624
 31
0.0
  0
LINE
  5
1FEE
330
1F
100
AcDbEntity
  8
孔
100
AcDbLine
 10
36064.42638163407
 20
29042.52777053624
 30
0.0
 11
36078.42638163407
 21
29042.52777053624
 31
0.0
  0
LINE
  5
1FEF
330
1F
100
AcDbEntity
  8
孔
100
AcDbLine
 10
36078.42638163407
 20
29042.52777053624
 30
0.0
 11
36078.42638163407
 21
29049.52777053624
 31
0.0
  0
LINE
  5
1FF0
330
1F
100
AcDbEntity
  8
孔
100
AcDbLine
 10
36078.42638163407
 20
29049.52777053624
 30
0.0
 11
36064.42638163407
 21
29049.52777053624
 31
0.0
  0
LINE
  5
1FF1
330
1F
100
AcDbEntity
  8
孔
100
AcDbLine
 10
36094.42638163407
 20
29041.52777053624
 30
0.0
 11
36095.45057676892
 21
29049.66084377792
 31
0.0
  0
LINE
  5
1FF2
330
1F
100
AcDbEntity
  8
孔
100
AcDbLine
 10
36098.40218649922
 20
29049.66084377792
 30
0.0
 11
36099.42638163407
 21
29041.52777053624
 31
0.0
  0
ARC
  5
1FF3
330
1F
100
AcDbEntity
  8
孔
100
AcDbCircle
 10
36096.92638163407
 20
29049.39251562062
 30
0.0
 40
1.5
100
AcDbArc
 50
10.30484646891285
 51
169.6951535310871
  0
LINE
  5
1FF4
330
1F
100
AcDbEntity
  8
孔
100
AcDbLine
 10
36094.42638163407
 20
29041.52777053624
 30
0.0
 11
36099.42638163407
 21
29041.52777053624
 31
0.0
  0
LINE
  5
1FF5
330
1F
100
AcDbEntity
  8
孔
100
AcDbLine
 10
36094.42638163407
 20
29041.52777053624
 30
0.0
 11
36094.42638163407
 21
29041.02777053624
 31
0.0
  0
LINE
  5
1FF6
330
1F
100
AcDbEntity
  8
孔
100
AcDbLine
 10
36094.42638163407
 20
29041.02777053624
 30
0.0
 11
36099.42638163407
 21
29041.02777053624
 31
0.0
  0
LINE
  5
1FF7
330
1F
100
AcDbEntity
  8
孔
100
AcDbLine
 10
36099.42638163407
 20
29041.02777053624
 30
0.0
 11
36099.42638163407
 21
29041.52777053624
 31
0.0
  0
LINE
  5
1FF8
330
1F
100
AcDbEntity
  8
孔
100
AcDbLine
 10
36677.92638163407
 20
29041.52777053624
 30
0.0
 11
36678.95057676892
 21
29049.66084377792
 31
0.0
  0
LINE
  5
1FF9
330
1F
100
AcDbEntity
  8
孔
100
AcDbLine
 10
36681.90218649922
 20
29049.66084377792
 30
0.0
 11
36682.92638163407
 21
29041.52777053624
 31
0.0
  0
ARC
  5
1FFA
330
1F
100
AcDbEntity
  8
孔
100
AcDbCircle
 10
36680.42638163407
 20
29049.39251562062
 30
0.0
 40
1.5
100
AcDbArc
 50
10.30484646891285
 51
169.6951535310871
  0
LINE
  5
1FFB
330
1F
100
AcDbEntity
  8
孔
100
AcDbLine
 10
36677.92638163407
 20
29041.52777053624
 30
0.0
 11
36682.92638163407
 21
29041.52777053624
 31
0.0
  0
LINE
  5
1FFC
330
1F
100
AcDbEntity
  8
孔
100
AcDbLine
 10
36677.92638163407
 20
29041.52777053624
 30
0.0
 11
36677.92638163407
 21
29041.02777053624
 31
0.0
  0
LINE
  5
1FFD
330
1F
100
AcDbEntity
  8
孔
100
AcDbLine
 10
36677.92638163407
 20
29041.02777053624
 30
0.0
 11
36682.92638163407
 21
29041.02777053624
 31
0.0
  0
LINE
  5
1FFE
330
1F
100
AcDbEntity
  8
孔
100
AcDbLine
 10
36682.92638163407
 20
29041.02777053624
 30
0.0
 11
36682.92638163407
 21
29041.52777053624
 31
0.0
  0
CIRCLE
  5
1FFF
330
1F
100
AcDbEntity
  8
孔
100
AcDbCircle
 10
36116.42638163407
 20
29046.02777053624
 30
0.0
 40
4.0
  0
CIRCLE
  5
2000
330
1F
100
AcDbEntity
  8
孔
100
AcDbCircle
 10
36116.42638163407
 20
29046.02777053624
 30
0.0
 40
5.0
  0
LINE
  5
2001
330
1F
100
AcDbEntity
  8
孔
100
AcDbLine
 10
36133.5263816341
 20
29048.12777053626
 30
0.0
 11
36143.32638163411
 21
29048.12777053626
 31
0.0
  0
LINE
  5
2002
330
1F
100
AcDbEntity
  8
孔
100
AcDbLine
 10
36133.5263816341
 20
29043.92777053626
 30
0.0
 11
36143.32638163411
 21
29043.92777053626
 31
0.0
  0
ARC
  5
2003
330
1F
100
AcDbEntity
  8
孔
100
AcDbCircle
 10
36133.52638163408
 20
29046.02777053624
 30
0.0
 40
2.100000000013096
100
AcDbArc
 50
89.99999999958312
 51
270.0000000004169
  0
ARC
  5
2004
330
1F
100
AcDbEntity
  8
孔
100
AcDbCircle
 10
36143.32638163411
 20
29046.02777053626
 30
0.0
 40
2.099999999998544
100
AcDbArc
 50
270.0
 51
90.0
  0
CIRCLE
  5
2005
330
1F
100
AcDbEntity
  8
孔
100
AcDbCircle
 10
36308.42638163407
 20
29046.02777053624
 30
0.0
 40
4.0
  0
CIRCLE
  5
2006
330
1F
100
AcDbEntity
  8
孔
100
AcDbCircle
 10
36308.42638163407
 20
29046.02777053624
 30
0.0
 40
5.0
  0
CIRCLE
  5
2007
330
1F
100
AcDbEntity
  8
孔
100
AcDbCircle
 10
36642.92638163405
 20
29050.02777053624
 30
0.0
 40
2.1
  0
CIRCLE
  5
2008
330
1F
100
AcDbEntity
  8
孔
100
AcDbCircle
 10
36642.92638163405
 20
29041.02777053624
 30
0.0
 40
1.5
  0
LINE
  5
2009
330
1F
100
AcDbEntity
  8
孔
100
AcDbLine
 10
36661.02638163407
 20
29048.12777053624
 30
0.0
 11
36670.82638163407
 21
29048.12777053624
 31
0.0
  0
LINE
  5
200A
330
1F
100
AcDbEntity
  8
孔
100
AcDbLine
 10
36661.02638163407
 20
29043.92777053624
 30
0.0
 11
36670.82638163407
 21
29043.92777053624
 31
0.0
  0
ARC
  5
200B
330
1F
100
AcDbEntity
  8
孔
100
AcDbCircle
 10
36661.02638163405
 20
29046.02777053624
 30
0.0
 40
2.099999999998544
100
AcDbArc
 50
89.99999999958312
 51
270.0000000004169
  0
ARC
  5
200C
330
1F
100
AcDbEntity
  8
孔
100
AcDbCircle
 10
36670.82638163407
 20
29046.02777053623
 30
0.0
 40
2.100000000013096
100
AcDbArc
 50
270.0
 51
90.0
  0
LINE
  5
200D
330
1F
100
AcDbEntity
  8
孔
100
AcDbLine
 10
36698.42638163407
 20
29049.52777053624
 30
0.0
 11
36704.42638163407
 21
29049.52777053624
 31
0.0
  0
LINE
  5
200E
330
1F
100
AcDbEntity
  8
孔
100
AcDbLine
 10
36698.42638163407
 20
29042.52777053624
 30
0.0
 11
36704.42638163407
 21
29042.52777053624
 31
0.0
  0
ARC
  5
200F
330
1F
100
AcDbEntity
  8
孔
100
AcDbCircle
 10
36704.42638163408
 20
29046.02777053624
 30
0.0
 40
3.5
100
AcDbArc
 50
269.9999999995831
 51
90.00000000041687
  0
ARC
  5
2010
330
1F
100
AcDbEntity
  8
孔
100
AcDbCircle
 10
36698.42638163408
 20
29046.02777053624
 30
0.0
 40
3.5
100
AcDbArc
 50
90.00000000041687
 51
269.9999999995831
  0
CIRCLE
  5
2011
330
1F
100
AcDbEntity
  8
孔
100
AcDbCircle
 10
36717.92638163407
 20
29046.02777053624
 30
0.0
 40
2.75
  0
ARC
  5
2012
330
1F
100
AcDbEntity
  8
孔
100
AcDbCircle
 10
36748.92638163407
 20
29046.02777053624
 30
0.0
 40
5.0
100
AcDbArc
 50
90.0
 51
270.0
  0
LINE
  5
2013
330
1F
100
AcDbEntity
  8
孔
100
AcDbLine
 10
36790.42638163407
 20
29051.02777053624
 30
0.0
 11
36778.42638163407
 21
29051.02777053624
 31
0.0
  0
LINE
  5
2014
330
1F
100
AcDbEntity
  8
孔
100
AcDbLine
 10
36758.42638163407
 20
29051.02777053624
 30
0.0
 11
36748.92638163407
 21
29051.02777053624
 31
0.0
  0
LINE
  5
2015
330
1F
100
AcDbEntity
  8
孔
100
AcDbLine
 10
36790.42638163407
 20
29041.02777053624
 30
0.0
 11
36778.42638163407
 21
29041.02777053624
 31
0.0
  0
LINE
  5
2016
330
1F
100
AcDbEntity
  8
孔
100
AcDbLine
 10
36758.42638163407
 20
29041.02777053624
 30
0.0
 11
36748.92638163407
 21
29041.02777053624
 31
0.0
  0
LINE
  5
2017
330
1F
100
AcDbEntity
  8
外形線
100
AcDbLine
 10
36778.42638163407
 20
29050.02777053624
 30
0.0
 11
36778.42638163407
 21
29042.02777053624
 31
0.0
  0
LINE
  5
2018
330
1F
100
AcDbEntity
  8
外形線
100
AcDbLine
 10
36774.92638163407
 20
29038.52777053624
 30
0.0
 11
36765.92638163407
 21
29038.52777053624
 31
0.0
  0
ARC
  5
2019
330
1F
100
AcDbEntity
  8
外形線
100
AcDbCircle
 10
36761.92638163407
 20
29042.02777053624
 30
0.0
 40
3.5
100
AcDbArc
 50
180.0
 51
270.0
  0
ARC
  5
201A
330
1F
100
AcDbEntity
  8
外形線
100
AcDbCircle
 10
36774.92638163407
 20
29042.02777053624
 30
0.0
 40
3.5
100
AcDbArc
 50
270.0
 51
0.0
  0
LINE
  5
201B
330
1F
100
AcDbEntity
  8
外形線
100
AcDbLine
 10
36758.42638163407
 20
29042.02777053624
 30
0.0
 11
36758.42638163407
 21
29050.02777053624
 31
0.0
  0
ARC
  5
201C
330
1F
100
AcDbEntity
  8
外形線
100
AcDbCircle
 10
36761.92638163407
 20
29050.02777053624
 30
0.0
 40
3.5
100
AcDbArc
 50
90.0
 51
180.0
  0
LINE
  5
201D
330
1F
100
AcDbEntity
  8
外形線
100
AcDbLine
 10
36765.92638163407
 20
29053.52777053624
 30
0.0
 11
36774.92638163407
 21
29053.52777053624
 31
0.0
  0
ARC
  5
201E
330
1F
100
AcDbEntity
  8
外形線
100
AcDbCircle
 10
36774.92638163407
 20
29050.02777053624
 30
0.0
 40
3.5
100
AcDbArc
 50
0.0
 51
90.0
  0
LINE
  5
201F
330
1F
100
AcDbEntity
  8
外形線
100
AcDbLine
 10
36778.42638163407
 20
29050.02777053624
 30
0.0
 11
36776.42638163407
 21
29050.02777053624
 31
0.0
  0
LINE
  5
2020
330
1F
100
AcDbEntity
  8
外形線
100
AcDbLine
 10
36776.42638163407
 20
29050.02777053624
 30
0.0
 11
36776.42638163407
 21
29042.02777053624
 31
0.0
  0
LINE
  5
2021
330
1F
100
AcDbEntity
  8
外形線
100
AcDbLine
 10
36776.42638163407
 20
29042.02777053624
 30
0.0
 11
36778.42638163407
 21
29042.02777053624
 31
0.0
  0
LINE
  5
2022
330
1F
100
AcDbEntity
  8
外形線
100
AcDbLine
 10
36765.92638163407
 20
29039.52777053624
 30
0.0
 11
36765.92638163407
 21
29037.02777053625
 31
0.0
  0
LINE
  5
2023
330
1F
100
AcDbEntity
  8
外形線
100
AcDbLine
 10
36765.92638163407
 20
29037.02777053625
 30
0.0
 11
36761.92638163407
 21
29037.02777053625
 31
0.0
  0
LINE
  5
2024
330
1F
100
AcDbEntity
  8
外形線
100
AcDbLine
 10
36761.92638163407
 20
29037.02777053625
 30
0.0
 11
36761.92638163407
 21
29039.52777053624
 31
0.0
  0
LINE
  5
2025
330
1F
100
AcDbEntity
  8
外形線
100
AcDbLine
 10
36761.92638163407
 20
29039.52777053624
 30
0.0
 11
36765.92638163407
 21
29039.52777053624
 31
0.0
  0
LINE
  5
2026
330
1F
100
AcDbEntity
  8
外形線
100
AcDbLine
 10
36765.92638163407
 20
29052.52777053624
 30
0.0
 11
36765.92638163407
 21
29055.02777053624
 31
0.0
  0
LINE
  5
2027
330
1F
100
AcDbEntity
  8
外形線
100
AcDbLine
 10
36765.92638163407
 20
29055.02777053624
 30
0.0
 11
36761.92638163407
 21
29055.02777053624
 31
0.0
  0
LINE
  5
2028
330
1F
100
AcDbEntity
  8
外形線
100
AcDbLine
 10
36761.92638163407
 20
29055.02777053624
 30
0.0
 11
36761.92638163407
 21
29052.52777053624
 31
0.0
  0
LINE
  5
2029
330
1F
100
AcDbEntity
  8
外形線
100
AcDbLine
 10
36761.92638163407
 20
29052.52777053624
 30
0.0
 11
36765.92638163407
 21
29052.52777053624
 31
0.0
  0
LINE
  5
202A
330
1F
100
AcDbEntity
  8
外形線
100
AcDbLine
 10
36758.42638163407
 20
29049.02777053624
 30
0.0
 11
36755.42638163407
 21
29049.02777053624
 31
0.0
  0
LINE
  5
202B
330
1F
100
AcDbEntity
  8
外形線
100
AcDbLine
 10
36755.42638163407
 20
29049.02777053624
 30
0.0
 11
36755.42638163407
 21
29043.02777053624
 31
0.0
  0
LINE
  5
202C
330
1F
100
AcDbEntity
  8
外形線
100
AcDbLine
 10
36755.42638163407
 20
29043.02777053624
 30
0.0
 11
36758.42638163407
 21
29043.02777053624
 31
0.0
  0
LINE
  5
202D
330
1F
100
AcDbEntity
  8
外形線
100
AcDbLine
 10
36762.42638163407
 20
29048.02777053624
 30
0.0
 11
36773.42638163407
 21
29048.02777053624
 31
0.0
  0
LINE
  5
202E
330
1F
100
AcDbEntity
  8
外形線
100
AcDbLine
 10
36773.42638163407
 20
29048.02777053624
 30
0.0
 11
36773.42638163407
 21
29044.02777053624
 31
0.0
  0
LINE
  5
202F
330
1F
100
AcDbEntity
  8
外形線
100
AcDbLine
 10
36773.42638163407
 20
29044.02777053624
 30
0.0
 11
36762.42638163407
 21
29044.02777053624
 31
0.0
  0
ARC
  5
2030
330
1F
100
AcDbEntity
  8
外形線
100
AcDbCircle
 10
36762.42638163407
 20
29046.02777053624
 30
0.0
 40
2.0
100
AcDbArc
 50
90.0
 51
270.0
  0
LINE
  5
2031
330
1F
100
AcDbEntity
  8
外形線
100
AcDbLine
 10
36778.42638163407
 20
29042.77777053625
 30
0.0
 11
36777.42638163407
 21
29042.77777053625
 31
0.0
  0
LINE
  5
2032
330
1F
100
AcDbEntity
  8
外形線
100
AcDbLine
 10
36777.42638163407
 20
29042.77777053625
 30
0.0
 11
36777.42638163407
 21
29049.27777053624
 31
0.0
  0
LINE
  5
2033
330
1F
100
AcDbEntity
  8
外形線
100
AcDbLine
 10
36777.42638163407
 20
29049.27777053624
 30
0.0
 11
36778.42638163407
 21
29049.27777053624
 31
0.0
  0
LINE
  5
2034
330
1F
100
AcDbEntity
  8
外形線
100
AcDbLine
 10
36790.42638163407
 20
29055.52777053624
 30
0.0
 11
36732.92638163407
 21
29055.52777053624
 31
0.0
  0
LINE
  5
2035
330
1F
100
AcDbEntity
  8
外形線
100
AcDbLine
 10
36732.92638163407
 20
29055.52777053624
 30
0.0
 11
36732.92638163407
 21
29048.33036415949
 31
0.0
  0
LINE
  5
2036
330
1F
100
AcDbEntity
  8
外形線
100
AcDbLine
 10
36732.92638163407
 20
29043.725176913
 30
0.0
 11
36732.92638163407
 21
29036.52777053624
 31
0.0
  0
LINE
  5
2037
330
1F
100
AcDbEntity
  8
外形線
100
AcDbLine
 10
36732.92638163407
 20
29036.52777053624
 30
0.0
 11
36790.42638163407
 21
29036.52777053624
 31
0.0
  0
LINE
  5
2038
330
1F
100
AcDbEntity
  8
外形線
100
AcDbLine
 10
36790.42638163407
 20
29037.52777053624
 30
0.0
 11
36765.92638163407
 21
29037.52777053624
 31
0.0
  0
LINE
  5
2039
330
1F
100
AcDbEntity
  8
外形線
100
AcDbLine
 10
36761.92638163407
 20
29037.52777053624
 30
0.0
 11
36732.92638163407
 21
29037.52777053624
 31
0.0
  0
LINE
  5
203A
330
1F
100
AcDbEntity
  8
外形線
100
AcDbLine
 10
36732.92638163407
 20
29054.52777053625
 30
0.0
 11
36761.92638163407
 21
29054.52777053625
 31
0.0
  0
LINE
  5
203B
330
1F
100
AcDbEntity
  8
外形線
100
AcDbLine
 10
36790.42638163407
 20
29054.52777053625
 30
0.0
 11
36765.92638163407
 21
29054.52777053625
 31
0.0
  0
LINE
  5
203C
330
1F
100
AcDbEntity
  8
外形線
100
AcDbLine
 10
36736.92638163407
 20
29049.52777053624
 30
0.0
 11
36740.92638163407
 21
29049.52777053624
 31
0.0
  0
LINE
  5
203D
330
1F
100
AcDbEntity
  8
外形線
100
AcDbLine
 10
36740.92638163407
 20
29049.52777053624
 30
0.0
 11
36740.92638163407
 21
29042.52777053624
 31
0.0
  0
LINE
  5
203E
330
1F
100
AcDbEntity
  8
外形線
100
AcDbLine
 10
36740.92638163407
 20
29042.52777053624
 30
0.0
 11
36736.92638163407
 21
29042.52777053624
 31
0.0
  0
LINE
  5
203F
330
1F
100
AcDbEntity
  8
外形線
100
AcDbLine
 10
36737.42638163407
 20
29042.52777053624
 30
0.0
 11
36737.42638163407
 21
29049.52777053624
 31
0.0
  0
LINE
  5
2040
330
1F
100
AcDbEntity
  8
外形線
100
AcDbLine
 10
36737.42638163407
 20
29049.52777053624
 30
0.0
 11
36729.82515338304
 21
29047.4020065386
 31
0.0
  0
LINE
  5
2041
330
1F
100
AcDbEntity
  8
外形線
100
AcDbLine
 10
36729.82515338304
 20
29044.65353453389
 30
0.0
 11
36737.42638163407
 21
29042.52777053624
 31
0.0
  0
ARC
  5
2042
330
1F
100
AcDbEntity
  8
外形線
100
AcDbCircle
 10
36730.42638163407
 20
29046.02777053624
 30
0.0
 40
1.5
100
AcDbArc
 50
113.6293777308662
 51
246.3706222691338
  0
LINE
  5
2043
330
1F
100
AcDbEntity
  8
外形線
100
AcDbLine
 10
36736.92638163407
 20
29049.52777053624
 30
0.0
 11
36736.92638163407
 21
29049.38794023991
 31
0.0
  0
LINE
  5
2044
330
1F
100
AcDbEntity
  8
外形線
100
AcDbLine
 10
36736.92638163407
 20
29042.52777053624
 30
0.0
 11
36736.92638163407
 21
29042.66760083257
 31
0.0
  0
CIRCLE
  5
2045
330
1F
100
AcDbEntity
  8
孔
100
AcDbCircle
 10
36162.42638163407
 20
29046.02777053624
 30
0.0
 40
2.1
  0
CIRCLE
  5
2046
330
1F
100
AcDbEntity
  8
孔
100
AcDbCircle
 10
36219.42638163407
 20
29046.02777053624
 30
0.0
 40
2.1
  0
CIRCLE
  5
2047
330
1F
100
AcDbEntity
  8
孔
100
AcDbCircle
 10
36232.42638163407
 20
29046.02777053624
 30
0.0
 40
2.1
  0
CIRCLE
  5
2048
330
1F
100
AcDbEntity
  8
孔
100
AcDbCircle
 10
36247.42638163407
 20
29046.02777053624
 30
0.0
 40
2.1
  0
CIRCLE
  5
2049
330
1F
100
AcDbEntity
  8
孔
100
AcDbCircle
 10
36277.42638163407
 20
29046.02777053624
 30
0.0
 40
2.1
  0
CIRCLE
  5
204A
330
1F
100
AcDbEntity
  8
孔
100
AcDbCircle
 10
36292.42638163407
 20
29046.02777053624
 30
0.0
 40
2.1
  0
CIRCLE
  5
204B
330
1F
100
AcDbEntity
  8
孔
100
AcDbCircle
 10
36338.42638163407
 20
29046.02777053624
 30
0.0
 40
2.1
  0
CIRCLE
  5
204C
330
1F
100
AcDbEntity
  8
孔
100
AcDbCircle
 10
36350.42638163407
 20
29046.02777053624
 30
0.0
 40
2.1
  0
CIRCLE
  5
204D
330
1F
100
AcDbEntity
  8
孔
100
AcDbCircle
 10
36364.42638163407
 20
29046.02777053624
 30
0.0
 40
2.1
  0
CIRCLE
  5
204E
330
1F
100
AcDbEntity
  8
孔
100
AcDbCircle
 10
36400.42638163407
 20
29046.02777053624
 30
0.0
 40
2.1
  0
CIRCLE
  5
204F
330
1F
100
AcDbEntity
  8
孔
100
AcDbCircle
 10
36469.42638163407
 20
29046.02777053624
 30
0.0
 40
2.1
  0
CIRCLE
  5
2050
330
1F
100
AcDbEntity
  8
孔
100
AcDbCircle
 10
36479.42638163407
 20
29046.02777053624
 30
0.0
 40
2.1
  0
CIRCLE
  5
2051
330
1F
100
AcDbEntity
  8
孔
100
AcDbCircle
 10
36494.42638163407
 20
29046.02777053624
 30
0.0
 40
2.1
  0
CIRCLE
  5
2052
330
1F
100
AcDbEntity
  8
孔
100
AcDbCircle
 10
36554.42638163407
 20
29046.02777053624
 30
0.0
 40
2.1
  0
LINE
  5
2053
330
1F
100
AcDbEntity
  8
孔
100
AcDbLine
 10
36150.42638163407
 20
29041.52777053624
 30
0.0
 11
36151.45057676892
 21
29049.66084377792
 31
0.0
  0
LINE
  5
2054
330
1F
100
AcDbEntity
  8
孔
100
AcDbLine
 10
36154.40218649922
 20
29049.66084377792
 30
0.0
 11
36155.42638163407
 21
29041.52777053624
 31
0.0
  0
ARC
  5
2055
330
1F
100
AcDbEntity
  8
孔
100
AcDbCircle
 10
36152.92638163407
 20
29049.39251562062
 30
0.0
 40
1.5
100
AcDbArc
 50
10.30484646891285
 51
169.6951535310871
  0
LINE
  5
2056
330
1F
100
AcDbEntity
  8
孔
100
AcDbLine
 10
36150.42638163407
 20
29041.52777053624
 30
0.0
 11
36155.42638163407
 21
29041.52777053624
 31
0.0
  0
LINE
  5
2057
330
1F
100
AcDbEntity
  8
孔
100
AcDbLine
 10
36150.42638163407
 20
29041.52777053624
 30
0.0
 11
36150.42638163407
 21
29041.02777053624
 31
0.0
  0
LINE
  5
2058
330
1F
100
AcDbEntity
  8
孔
100
AcDbLine
 10
36150.42638163407
 20
29041.02777053624
 30
0.0
 11
36155.42638163407
 21
29041.02777053624
 31
0.0
  0
LINE
  5
2059
330
1F
100
AcDbEntity
  8
孔
100
AcDbLine
 10
36155.42638163407
 20
29041.02777053624
 30
0.0
 11
36155.42638163407
 21
29041.52777053624
 31
0.0
  0
LINE
  5
205A
330
1F
100
AcDbEntity
  8
孔
100
AcDbLine
 10
36282.42638163407
 20
29041.52777053624
 30
0.0
 11
36283.45057676892
 21
29049.66084377792
 31
0.0
  0
LINE
  5
205B
330
1F
100
AcDbEntity
  8
孔
100
AcDbLine
 10
36286.40218649922
 20
29049.66084377792
 30
0.0
 11
36287.42638163407
 21
29041.52777053624
 31
0.0
  0
ARC
  5
205C
330
1F
100
AcDbEntity
  8
孔
100
AcDbCircle
 10
36284.92638163407
 20
29049.39251562062
 30
0.0
 40
1.5
100
AcDbArc
 50
10.30484646891285
 51
169.6951535310871
  0
LINE
  5
205D
330
1F
100
AcDbEntity
  8
孔
100
AcDbLine
 10
36282.42638163407
 20
29041.52777053624
 30
0.0
 11
36287.42638163407
 21
29041.52777053624
 31
0.0
  0
LINE
  5
205E
330
1F
100
AcDbEntity
  8
孔
100
AcDbLine
 10
36282.42638163407
 20
29041.52777053624
 30
0.0
 11
36282.42638163407
 21
29041.02777053624
 31
0.0
  0
LINE
  5
205F
330
1F
100
AcDbEntity
  8
孔
100
AcDbLine
 10
36282.42638163407
 20
29041.02777053624
 30
0.0
 11
36287.42638163407
 21
29041.02777053624
 31
0.0
  0
LINE
  5
2060
330
1F
100
AcDbEntity
  8
孔
100
AcDbLine
 10
36287.42638163407
 20
29041.02777053624
 30
0.0
 11
36287.42638163407
 21
29041.52777053624
 31
0.0
  0
LINE
  5
2061
330
1F
100
AcDbEntity
  8
孔
100
AcDbLine
 10
36323.42638163407
 20
29041.52777053624
 30
0.0
 11
36324.45057676892
 21
29049.66084377792
 31
0.0
  0
LINE
  5
2062
330
1F
100
AcDbEntity
  8
孔
100
AcDbLine
 10
36327.40218649922
 20
29049.66084377792
 30
0.0
 11
36328.42638163407
 21
29041.52777053624
 31
0.0
  0
ARC
  5
2063
330
1F
100
AcDbEntity
  8
孔
100
AcDbCircle
 10
36325.92638163407
 20
29049.39251562062
 30
0.0
 40
1.5
100
AcDbArc
 50
10.30484646891285
 51
169.6951535310871
  0
LINE
  5
2064
330
1F
100
AcDbEntity
  8
孔
100
AcDbLine
 10
36323.42638163407
 20
29041.52777053624
 30
0.0
 11
36328.42638163407
 21
29041.52777053624
 31
0.0
  0
LINE
  5
2065
330
1F
100
AcDbEntity
  8
孔
100
AcDbLine
 10
36323.42638163407
 20
29041.52777053624
 30
0.0
 11
36323.42638163407
 21
29041.02777053624
 31
0.0
  0
LINE
  5
2066
330
1F
100
AcDbEntity
  8
孔
100
AcDbLine
 10
36323.42638163407
 20
29041.02777053624
 30
0.0
 11
36328.42638163407
 21
29041.02777053624
 31
0.0
  0
LINE
  5
2067
330
1F
100
AcDbEntity
  8
孔
100
AcDbLine
 10
36328.42638163407
 20
29041.02777053624
 30
0.0
 11
36328.42638163407
 21
29041.52777053624
 31
0.0
  0
LINE
  5
2068
330
1F
100
AcDbEntity
  8
孔
100
AcDbLine
 10
36419.42638163407
 20
29041.52777053624
 30
0.0
 11
36420.45057676892
 21
29049.66084377792
 31
0.0
  0
LINE
  5
2069
330
1F
100
AcDbEntity
  8
孔
100
AcDbLine
 10
36423.40218649922
 20
29049.66084377792
 30
0.0
 11
36424.42638163407
 21
29041.52777053624
 31
0.0
  0
ARC
  5
206A
330
1F
100
AcDbEntity
  8
孔
100
AcDbCircle
 10
36421.92638163407
 20
29049.39251562062
 30
0.0
 40
1.5
100
AcDbArc
 50
10.30484646891285
 51
169.6951535310871
  0
LINE
  5
206B
330
1F
100
AcDbEntity
  8
孔
100
AcDbLine
 10
36419.42638163407
 20
29041.52777053624
 30
0.0
 11
36424.42638163407
 21
29041.52777053624
 31
0.0
  0
LINE
  5
206C
330
1F
100
AcDbEntity
  8
孔
100
AcDbLine
 10
36419.42638163407
 20
29041.52777053624
 30
0.0
 11
36419.42638163407
 21
29041.02777053624
 31
0.0
  0
LINE
  5
206D
330
1F
100
AcDbEntity
  8
孔
100
AcDbLine
 10
36419.42638163407
 20
29041.02777053624
 30
0.0
 11
36424.42638163407
 21
29041.02777053624
 31
0.0
  0
LINE
  5
206E
330
1F
100
AcDbEntity
  8
孔
100
AcDbLine
 10
36424.42638163407
 20
29041.02777053624
 30
0.0
 11
36424.42638163407
 21
29041.52777053624
 31
0.0
  0
LINE
  5
206F
330
1F
100
AcDbEntity
  8
孔
100
AcDbLine
 10
36564.42638163407
 20
29041.52777053624
 30
0.0
 11
36565.45057676892
 21
29049.66084377792
 31
0.0
  0
LINE
  5
2070
330
1F
100
AcDbEntity
  8
孔
100
AcDbLine
 10
36568.40218649922
 20
29049.66084377792
 30
0.0
 11
36569.42638163407
 21
29041.52777053624
 31
0.0
  0
ARC
  5
2071
330
1F
100
AcDbEntity
  8
孔
100
AcDbCircle
 10
36566.92638163407
 20
29049.39251562062
 30
0.0
 40
1.5
100
AcDbArc
 50
10.30484646891285
 51
169.6951535310871
  0
LINE
  5
2072
330
1F
100
AcDbEntity
  8
孔
100
AcDbLine
 10
36564.42638163407
 20
29041.52777053624
 30
0.0
 11
36569.42638163407
 21
29041.52777053624
 31
0.0
  0
LINE
  5
2073
330
1F
100
AcDbEntity
  8
孔
100
AcDbLine
 10
36564.42638163407
 20
29041.52777053624
 30
0.0
 11
36564.42638163407
 21
29041.02777053624
 31
0.0
  0
LINE
  5
2074
330
1F
100
AcDbEntity
  8
孔
100
AcDbLine
 10
36564.42638163407
 20
29041.02777053624
 30
0.0
 11
36569.42638163407
 21
29041.02777053624
 31
0.0
  0
LINE
  5
2075
330
1F
100
AcDbEntity
  8
孔
100
AcDbLine
 10
36569.42638163407
 20
29041.02777053624
 30
0.0
 11
36569.42638163407
 21
29041.52777053624
 31
0.0
  0
CIRCLE
  5
2076
330
1F
100
AcDbEntity
  8
点線
100
AcDbCircle
 10
36182.42638163407
 20
29050.02777053624
 30
0.0
 40
2.0
  0
CIRCLE
  5
2077
330
1F
100
AcDbEntity
  8
点線
100
AcDbCircle
 10
36182.42638163407
 20
29041.02777053624
 30
0.0
 40
1.149999999999999
  0
LINE
  5
2078
330
1F
100
AcDbEntity
  8
孔
100
AcDbLine
 10
36262.52638163407
 20
29048.12777053624
 30
0.0
 11
36266.32638163407
 21
29048.12777053624
 31
0.0
  0
LINE
  5
2079
330
1F
100
AcDbEntity
  8
孔
100
AcDbLine
 10
36262.52638163407
 20
29043.92777053624
 30
0.0
 11
36266.32638163407
 21
29043.92777053624
 31
0.0
  0
ARC
  5
207A
330
1F
100
AcDbEntity
  8
孔
100
AcDbCircle
 10
36262.52638163405
 20
29046.02777053624
 30
0.0
 40
2.099999999998544
100
AcDbArc
 50
89.99999999958312
 51
270.0000000004169
  0
ARC
  5
207B
330
1F
100
AcDbEntity
  8
孔
100
AcDbCircle
 10
36266.32638163407
 20
29046.02777053623
 30
0.0
 40
2.100000000013096
100
AcDbArc
 50
270.0
 51
90.0
  0
LINE
  5
207C
330
1F
100
AcDbEntity
  8
孔
100
AcDbLine
 10
36446.52638163407
 20
29048.12777053624
 30
0.0
 11
36456.32638163407
 21
29048.12777053624
 31
0.0
  0
LINE
  5
207D
330
1F
100
AcDbEntity
  8
孔
100
AcDbLine
 10
36446.52638163407
 20
29043.92777053624
 30
0.0
 11
36456.32638163407
 21
29043.92777053624
 31
0.0
  0
ARC
  5
207E
330
1F
100
AcDbEntity
  8
孔
100
AcDbCircle
 10
36446.52638163405
 20
29046.02777053624
 30
0.0
 40
2.099999999998544
100
AcDbArc
 50
89.99999999958312
 51
270.0000000004169
  0
ARC
  5
207F
330
1F
100
AcDbEntity
  8
孔
100
AcDbCircle
 10
36456.32638163407
 20
29046.02777053624
 30
0.0
 40
2.099999999998544
100
AcDbArc
 50
270.0
 51
90.0
  0
LINE
  5
2080
330
1F
100
AcDbEntity
  8
孔
100
AcDbLine
 10
36510.42638163407
 20
29050.02777053624
 30
0.0
 11
36537.42638163407
 21
29050.02777053624
 31
0.0
  0
LINE
  5
2081
330
1F
100
AcDbEntity
  8
孔
100
AcDbLine
 10
36510.42638163407
 20
29042.02777053624
 30
0.0
 11
36537.42638163407
 21
29042.02777053624
 31
0.0
  0
ARC
  5
2082
330
1F
100
AcDbEntity
  8
孔
100
AcDbCircle
 10
36510.42638163407
 20
29046.02777053624
 30
0.0
 40
4.0
100
AcDbArc
 50
90.0
 51
270.0
  0
ARC
  5
2083
330
1F
100
AcDbEntity
  8
孔
100
AcDbCircle
 10
36537.42638163407
 20
29046.02777053624
 30
0.0
 40
4.0
100
AcDbArc
 50
270.0
 51
90.0
  0
LINE
  5
2084
330
1F
100
AcDbEntity
  8
外形線
100
AcDbLine
 10
37030.94242888912
 20
28774.70526152675
 30
0.0
 11
37030.94242888912
 21
28772.68969708968
 31
0.0
  0
LINE
  5
2085
102
{ACAD_REACTORS
330
21CD
102
}
330
1F
100
AcDbEntity
  8
外形線
100
AcDbLine
 10
37062.94242888912
 20
28771.86580735385
 30
0.0
 11
37062.94242888912
 21
28774.70526152785
 31
0.0
  0
ARC
  5
2086
102
{ACAD_REACTORS
330
21B5
330
21CD
330
21FF
102
}
330
1F
100
AcDbEntity
  8
外形線
100
AcDbCircle
 10
37046.94242888911
 20
28774.95333844983
 30
0.0
 40
16.00192307691588
100
AcDbArc
 50
359.1117111338804
 51
180.8882888661196
  0
ARC
  5
2087
330
1F
100
AcDbEntity
  8
外形線
100
AcDbCircle
 10
37046.94242888912
 20
28774.70526152675
 30
0.0
 40
16.24999999999987
100
AcDbArc
 50
194.1411102338067
 51
217.6271906288074
  0
ARC
  5
2088
330
1F
100
AcDbEntity
  8
外形線
100
AcDbCircle
 10
37022.19242888912
 20
28755.62647749841
 30
0.0
 40
15.0
100
AcDbArc
 50
0.0
 51
37.62719062880743
  0
ARC
  5
2089
330
1F
100
AcDbEntity
  8
外形線
100
AcDbCircle
 10
37038.94242888912
 20
28772.68969708968
 30
0.0
 40
8.0
100
AcDbArc
 50
180.0
 51
194.1411102338067
  0
ARC
  5
208A
330
1F
100
AcDbEntity
  8
外形線
100
AcDbCircle
 10
37046.94242888912
 20
28774.70526152675
 30
0.0
 40
16.24999999999987
100
AcDbArc
 50
322.3728093711926
 51
349.936725556369
  0
ARC
  5
208B
330
1F
100
AcDbEntity
  8
外形線
100
AcDbCircle
 10
37071.69242888912
 20
28755.62647749841
 30
0.0
 40
15.0
100
AcDbArc
 50
142.3728093711925
 51
180.0
  0
LINE
  5
208C
330
1F
100
AcDbEntity
  8
外形線
100
AcDbLine
 10
37037.19242888912
 20
28755.62647749841
 30
0.0
 11
37037.19242888912
 21
28740.95526152675
 31
0.0
  0
LINE
  5
208D
330
1F
100
AcDbEntity
  8
外形線
100
AcDbLine
 10
37037.19242888912
 20
28740.95526152675
 30
0.0
 11
37043.94242888912
 21
28740.95526152675
 31
0.0
  0
LINE
  5
208E
330
1F
100
AcDbEntity
  8
外形線
100
AcDbLine
 10
37049.94242888912
 20
28740.95526152675
 30
0.0
 11
37056.69242888912
 21
28740.95526152675
 31
0.0
  0
LINE
  5
208F
330
1F
100
AcDbEntity
  8
外形線
100
AcDbLine
 10
37056.69242888912
 20
28740.95526152675
 30
0.0
 11
37056.69242888912
 21
28755.62647749841
 31
0.0
  0
LINE
  5
2090
330
1F
100
AcDbEntity
  8
外形線
100
AcDbLine
 10
37035.14242888911
 20
28748.95526152675
 30
0.0
 11
37035.14242888911
 21
28738.95526152675
 31
0.0
  0
LINE
  5
2091
330
1F
100
AcDbEntity
  8
外形線
100
AcDbLine
 10
37035.14242888911
 20
28738.95526152675
 30
0.0
 11
37058.74242888912
 21
28738.95526152675
 31
0.0
  0
LINE
  5
2092
330
1F
100
AcDbEntity
  8
外形線
100
AcDbLine
 10
37058.74242888912
 20
28738.95526152675
 30
0.0
 11
37058.74242888912
 21
28748.95526152675
 31
0.0
  0
LINE
  5
2093
330
1F
100
AcDbEntity
  8
外形線
100
AcDbLine
 10
37035.14242888911
 20
28748.95526152675
 30
0.0
 11
37037.19242888912
 21
28748.95526152675
 31
0.0
  0
LINE
  5
2094
330
1F
100
AcDbEntity
  8
外形線
100
AcDbLine
 10
37037.19242888912
 20
28748.95526152675
 30
0.0
 11
37037.19242888912
 21
28744.65526152675
 31
0.0
  0
LINE
  5
2095
330
1F
100
AcDbEntity
  8
外形線
100
AcDbLine
 10
37037.19242888912
 20
28744.65526152675
 30
0.0
 11
37036.59242888912
 21
28744.65526152675
 31
0.0
  0
LINE
  5
2096
330
1F
100
AcDbEntity
  8
外形線
100
AcDbLine
 10
37036.59242888912
 20
28744.65526152675
 30
0.0
 11
37036.59242888912
 21
28748.35526152675
 31
0.0
  0
LINE
  5
2097
330
1F
100
AcDbEntity
  8
外形線
100
AcDbLine
 10
37036.59242888912
 20
28748.35526152675
 30
0.0
 11
37035.74242888911
 21
28748.35526152675
 31
0.0
  0
LINE
  5
2098
330
1F
100
AcDbEntity
  8
外形線
100
AcDbLine
 10
37035.74242888911
 20
28748.35526152675
 30
0.0
 11
37035.74242888911
 21
28739.55526152675
 31
0.0
  0
LINE
  5
2099
330
1F
100
AcDbEntity
  8
外形線
100
AcDbLine
 10
37035.74242888911
 20
28739.55526152675
 30
0.0
 11
37043.94242888912
 21
28739.55526152675
 31
0.0
  0
LINE
  5
209A
330
1F
100
AcDbEntity
  8
外形線
100
AcDbLine
 10
37049.94242888912
 20
28739.55526152675
 30
0.0
 11
37058.14242888912
 21
28739.55526152675
 31
0.0
  0
LINE
  5
209B
330
1F
100
AcDbEntity
  8
外形線
100
AcDbLine
 10
37058.14242888912
 20
28739.55526152675
 30
0.0
 11
37058.14242888912
 21
28748.35526152675
 31
0.0
  0
LINE
  5
209C
330
1F
100
AcDbEntity
  8
外形線
100
AcDbLine
 10
37058.14242888912
 20
28748.35526152675
 30
0.0
 11
37057.29242888912
 21
28748.35526152675
 31
0.0
  0
LINE
  5
209D
330
1F
100
AcDbEntity
  8
外形線
100
AcDbLine
 10
37057.29242888912
 20
28748.35526152675
 30
0.0
 11
37057.29242888912
 21
28744.65526152675
 31
0.0
  0
LINE
  5
209E
330
1F
100
AcDbEntity
  8
外形線
100
AcDbLine
 10
37057.29242888912
 20
28744.65526152675
 30
0.0
 11
37056.69242888912
 21
28744.65526152675
 31
0.0
  0
LINE
  5
209F
330
1F
100
AcDbEntity
  8
外形線
100
AcDbLine
 10
37056.69242888912
 20
28744.65526152675
 30
0.0
 11
37056.69242888912
 21
28748.95526152675
 31
0.0
  0
LINE
  5
20A0
330
1F
100
AcDbEntity
  8
外形線
100
AcDbLine
 10
37056.69242888912
 20
28748.95526152675
 30
0.0
 11
37058.74242888912
 21
28748.95526152675
 31
0.0
  0
LINE
  5
20A1
330
1F
100
AcDbEntity
  8
外形線
100
AcDbLine
 10
37043.94242888912
 20
28740.95526152675
 30
0.0
 11
37043.94242888912
 21
28738.95526152675
 31
0.0
  0
LINE
  5
20A2
330
1F
100
AcDbEntity
  8
外形線
100
AcDbLine
 10
37049.94242888912
 20
28740.95526152675
 30
0.0
 11
37049.94242888912
 21
28738.95526152675
 31
0.0
  0
LINE
  5
20A3
330
1F
100
AcDbEntity
  8
外形線
100
AcDbLine
 10
37038.69242888912
 20
28738.95526152675
 30
0.0
 11
37038.69242888912
 21
28734.95526152675
 31
0.0
  0
LINE
  5
20A4
102
{ACAD_REACTORS
330
21B5
102
}
330
1F
100
AcDbEntity
  8
外形線
100
AcDbLine
 10
37038.69242888912
 20
28734.95526152675
 30
0.0
 11
37055.19242888912
 21
28734.95526152675
 31
0.0
  0
LINE
  5
20A5
330
1F
100
AcDbEntity
  8
外形線
100
AcDbLine
 10
37055.19242888912
 20
28734.95526152675
 30
0.0
 11
37055.19242888912
 21
28738.95526152675
 31
0.0
  0
LINE
  5
20A6
330
1F
100
AcDbEntity
  8
孔
100
AcDbLine
 10
37045.29242888912
 20
28787.30526152675
 30
0.0
 11
37045.29242888912
 21
28785.60526152675
 31
0.0
  0
LINE
  5
20A7
330
1F
100
AcDbEntity
  8
孔
100
AcDbLine
 10
37048.59242888912
 20
28787.30526152675
 30
0.0
 11
37048.59242888912
 21
28785.60526152675
 31
0.0
  0
ARC
  5
20A8
330
1F
100
AcDbEntity
  8
孔
100
AcDbCircle
 10
37046.94242888912
 20
28787.30526152676
 30
0.0
 40
1.650000000001455
100
AcDbArc
 50
359.9999999995831
 51
180.0000000004169
  0
ARC
  5
20A9
330
1F
100
AcDbEntity
  8
孔
100
AcDbCircle
 10
37046.94242888912
 20
28785.60526152675
 30
0.0
 40
1.650000000001455
100
AcDbArc
 50
180.0
 51
0.0
  0
CIRCLE
  5
20AA
330
1F
100
AcDbEntity
  8
孔
100
AcDbCircle
 10
37046.94242888912
 20
28775.95526152675
 30
0.0
 40
1.6
  0
LINE
  5
20AB
330
1F
100
AcDbEntity
  8
孔
100
AcDbLine
 10
37045.29242888912
 20
28767.30526152675
 30
0.0
 11
37045.29242888912
 21
28763.60526152675
 31
0.0
  0
LINE
  5
20AC
330
1F
100
AcDbEntity
  8
孔
100
AcDbLine
 10
37048.59242888912
 20
28767.30526152675
 30
0.0
 11
37048.59242888912
 21
28763.60526152675
 31
0.0
  0
ARC
  5
20AD
330
1F
100
AcDbEntity
  8
孔
100
AcDbCircle
 10
37046.94242888912
 20
28767.30526152675
 30
0.0
 40
1.650000000008731
100
AcDbArc
 50
359.9999999995831
 51
180.0000000004169
  0
ARC
  5
20AE
330
1F
100
AcDbEntity
  8
孔
100
AcDbCircle
 10
37046.94242888912
 20
28763.60526152674
 30
0.0
 40
1.650000000001455
100
AcDbArc
 50
179.9999999995831
 51
0.0000000004168817
  0
LINE
  5
20AF
330
1F
100
AcDbEntity
  8
孔
100
AcDbLine
 10
37044.44242888912
 20
28755.45526152675
 30
0.0
 11
37044.44242888912
 21
28748.45526152675
 31
0.0
  0
LINE
  5
20B0
330
1F
100
AcDbEntity
  8
孔
100
AcDbLine
 10
37049.44242888912
 20
28755.45526152675
 30
0.0
 11
37049.44242888912
 21
28748.45526152675
 31
0.0
  0
ARC
  5
20B1
330
1F
100
AcDbEntity
  8
孔
100
AcDbCircle
 10
37046.94242888912
 20
28755.45526152675
 30
0.0
 40
2.500000000007275
100
AcDbArc
 50
0.0
 51
180.0
  0
ARC
  5
20B2
330
1F
100
AcDbEntity
  8
孔
100
AcDbCircle
 10
37046.94242888912
 20
28748.45526152675
 30
0.0
 40
2.499999999992724
100
AcDbArc
 50
180.0
 51
0.0
  0
LINE
  5
20B3
330
1F
100
AcDbEntity
  8
外形線
100
AcDbLine
 10
37037.19242888912
 20
28754.95526152675
 30
0.0
 11
37044.44242888912
 21
28754.95526152675
 31
0.0
  0
LINE
  5
20B4
330
1F
100
AcDbEntity
  8
外形線
100
AcDbLine
 10
37049.44242888912
 20
28754.95526152675
 30
0.0
 11
37056.69242888912
 21
28754.95526152675
 31
0.0
  0
LINE
  5
20B5
330
1F
100
AcDbEntity
  8
外形線
100
AcDbLine
 10
37037.19242888912
 20
28744.95526152675
 30
0.0
 11
37056.69242888912
 21
28744.95526152675
 31
0.0
  0
LINE
  5
20B6
330
1F
100
AcDbEntity
  8
外形線
100
AcDbLine
 10
37037.94242888912
 20
28780.70526152675
 30
0.0
 11
37037.94242888912
 21
28770.20526152675
 31
0.0
  0
LINE
  5
20B7
330
1F
100
AcDbEntity
  8
外形線
100
AcDbLine
 10
37042.44242888912
 20
28780.70526152675
 30
0.0
 11
37042.44242888912
 21
28770.20526152675
 31
0.0
  0
ARC
  5
20B8
330
1F
100
AcDbEntity
  8
外形線
100
AcDbCircle
 10
37040.19242888913
 20
28780.70526152675
 30
0.0
 40
2.250000000007275
100
AcDbArc
 50
0.0
 51
180.0
  0
ARC
  5
20B9
330
1F
100
AcDbEntity
  8
外形線
100
AcDbCircle
 10
37040.19242888913
 20
28770.20526152675
 30
0.0
 40
2.250000000007275
100
AcDbArc
 50
180.0
 51
0.0
  0
LINE
  5
20BA
330
1F
100
AcDbEntity
  8
外形線
100
AcDbLine
 10
37051.44242888911
 20
28780.70526152675
 30
0.0
 11
37051.44242888911
 21
28770.20526152675
 31
0.0
  0
LINE
  5
20BB
330
1F
100
AcDbEntity
  8
外形線
100
AcDbLine
 10
37055.94242888911
 20
28780.70526152675
 30
0.0
 11
37055.94242888911
 21
28770.20526152675
 31
0.0
  0
ARC
  5
20BC
330
1F
100
AcDbEntity
  8
外形線
100
AcDbCircle
 10
37053.69242888912
 20
28780.70526152675
 30
0.0
 40
2.250000000007275
100
AcDbArc
 50
0.0
 51
180.0
  0
ARC
  5
20BD
330
1F
100
AcDbEntity
  8
外形線
100
AcDbCircle
 10
37053.69242888912
 20
28770.20526152675
 30
0.0
 40
2.250000000007275
100
AcDbArc
 50
180.0
 51
0.0
  0
XLINE
  5
2109
330
1F
100
AcDbEntity
  8
オフセット
100
AcDbXline
 10
33743.53243935385
 20
27902.11527306976
 30
0.0
 11
0.0
 21
-1.0
 31
0.0
  0
LINE
  5
210A
330
1F
100
AcDbEntity
  8
外形線
100
AcDbLine
 10
36036.27638163407
 20
28748.93594779978
 30
0.0
 11
35944.92638163407
 21
28748.93594779978
 31
0.0
  0
LINE
  5
210B
330
1F
100
AcDbEntity
  8
外形線
100
AcDbLine
 10
36058.77638163407
 20
28748.93594779978
 30
0.0
 11
36058.27638163408
 21
28748.93594779978
 31
0.0
  0
LINE
  5
210C
330
1F
100
AcDbEntity
  8
外形線
100
AcDbLine
 10
36120.57638163408
 20
28748.93594779978
 30
0.0
 11
36070.27638163407
 21
28748.93594779978
 31
0.0
  0
LINE
  5
2128
330
1F
100
AcDbEntity
  8
中心線
100
AcDbLine
 10
35992.42638163407
 20
29067.85917595668
 30
0.0
 11
35992.42638163407
 21
28724.29776370398
 31
0.0
  0
XLINE
  5
2129
330
1F
100
AcDbEntity
  8
オフセット
100
AcDbXline
 10
37275.23680287379
 20
27902.11527306976
 30
0.0
 11
0.0
 21
-1.0
 31
0.0
  0
XLINE
  5
212A
330
1F
100
AcDbEntity
  8
オフセット
100
AcDbXline
 10
38275.23680287379
 20
27902.11527306976
 30
0.0
 11
0.0
 21
-1.0
 31
0.0
  0
XLINE
  5
212B
330
1F
100
AcDbEntity
  8
オフセット
100
AcDbXline
 10
37775.23680287379
 20
27902.11527306976
 30
0.0
 11
0.0
 21
-1.0
 31
0.0
  0
XLINE
  5
212C
330
1F
100
AcDbEntity
  8
オフセット
100
AcDbXline
 10
37945.23680287379
 20
27902.11527306976
 30
0.0
 11
0.0
 21
-1.0
 31
0.0
  0
XLINE
  5
212E
330
1F
100
AcDbEntity
  8
オフセット
100
AcDbXline
 10
37274.23680287379
 20
27902.11527306976
 30
0.0
 11
0.0
 21
-1.0
 31
0.0
  0
XLINE
  5
2132
330
1F
100
AcDbEntity
  8
オフセット
100
AcDbXline
 10
32915.44093491146
 20
27420.72496568053
 30
0.0
 11
-1.0
 21
0.0
 31
0.0
  0
XLINE
  5
2133
330
1F
100
AcDbEntity
  8
オフセット
100
AcDbXline
 10
32915.44093491146
 20
27535.83850189697
 30
0.0
 11
-1.0
 21
0.0
 31
0.0
  0
LINE
  5
214C
330
1F
100
AcDbEntity
  8
寸法線
100
AcDbLine
 10
35992.42638163407
 20
28813.23624855459
 30
0.0
 11
35992.42638163407
 21
28821.51623561672
 31
0.0
  0
LINE
  5
214D
330
1F
100
AcDbEntity
  8
寸法線
100
AcDbLine
 10
36768.42638163407
 20
28813.23624855459
 30
0.0
 11
36768.42638163407
 21
28821.51623561672
 31
0.0
  0
LINE
  5
214E
330
1F
100
AcDbEntity
  8
寸法線
100
AcDbLine
 10
35994.92638163407
 20
28841.74255455712
 30
0.0
 11
36765.92638163407
 21
28841.74255455712
 31
0.0
  0
SOLID
  5
214F
330
1F
100
AcDbEntity
  8
寸法線
100
AcDbTrace
 10
35994.92638163407
 20
28842.15922122379
 30
0.0
 11
35994.92638163407
 21
28841.32588789046
 31
0.0
 12
35992.42638163407
 22
28841.74255455712
 32
0.0
 13
35992.42638163407
 23
28841.74255455712
 33
0.0
  0
SOLID
  5
2150
330
1F
100
AcDbEntity
  8
寸法線
100
AcDbTrace
 10
36765.92638163407
 20
28842.15922122379
 30
0.0
 11
36765.92638163407
 21
28841.32588789046
 31
0.0
 12
36768.42638163407
 22
28841.74255455712
 32
0.0
 13
36768.42638163407
 23
28841.74255455712
 33
0.0
  0
DIMENSION
  5
2152
102
{ACAD_XDICTIONARY
360
215F
102
}
102
{ACAD_REACTORS
330
2169
102
}
330
1F
100
AcDbEntity
  8
寸法線
100
AcDbDimension
280
     0
  2
*D1
 10
36816.92638163407
 20
29123.30415589968
 30
0.0
 11
36380.42638163407
 21
29134.14743693651
 31
0.0
 70
    32
 71
     5
 42
873.0
 73
     0
 74
     0
 75
     0
  3
ISO-25
100
AcDbAlignedDimension
 13
35943.92638163407
 23
29046.02777053624
 33
0.0
 14
36816.92638163407
 24
29045.24111259568
 34
0.0
100
AcDbRotatedDimension
  0
DIMENSION
  5
216A
102
{ACAD_XDICTIONARY
360
2177
102
}
102
{ACAD_REACTORS
330
2181
102
}
330
1F
100
AcDbEntity
  8
寸法線
100
AcDbDimension
280
     0
  2
*D2
 10
36873.92879019347
 20
28738.93594779978
 30
0.0
 11
36863.09233043902
 21
28764.93594779979
 31
0.0
 70
    32
 71
     5
 42
52.0
 73
     0
 74
     0
 75
     0
  3
ISO-25
100
AcDbAlignedDimension
 13
36815.92638163407
 23
28790.93594779978
 33
0.0
 14
36815.92638163407
 24
28738.93594779978
 34
0.0
 50
90.0
100
AcDbRotatedDimension
  0
DIMENSION
  5
2182
102
{ACAD_XDICTIONARY
360
2191
102
}
102
{ACAD_REACTORS
330
219D
102
}
330
1F
100
AcDbEntity
  8
寸法線
100
AcDbDimension
280
     0
  2
*D3
 10
36873.92879019347
 20
28734.93594779978
 30
0.0
 11
36863.30379019346
 21
28722.39416744508
 31
0.0
 70
    32
 71
     5
 42
4.0
 73
     0
 74
     0
 75
     0
  3
ISO-25
100
AcDbAlignedDimension
 13
36815.92638163407
 23
28738.93594779978
 33
0.0
 14
36777.92638163407
 24
28734.93594779978
 34
0.0
 50
90.0
100
AcDbRotatedDimension
  0
DIMENSION
  5
219E
102
{ACAD_XDICTIONARY
360
21AB
102
}
102
{ACAD_REACTORS
330
21B5
102
}
330
1F
100
AcDbEntity
  8
寸法線
100
AcDbDimension
280
     0
  2
*D4
 10
36932.10146284566
 20
28734.95526152675
 30
0.0
 11
36921.26500309122
 21
28762.95526152675
 31
0.0
 70
    32
 71
     5
 42
56.0
 73
     0
 74
     0
 75
     0
  3
ISO-25
100
AcDbAlignedDimension
 13
37046.94242888912
 23
28790.95526152675
 33
0.0
 14
37046.94242888912
 24
28734.95526152675
 34
0.0
 50
90.0
100
AcDbRotatedDimension
  0
DIMENSION
  5
21B6
102
{ACAD_XDICTIONARY
360
21C3
102
}
102
{ACAD_REACTORS
330
21CD
102
}
330
1F
100
AcDbEntity
  8
寸法線
100
AcDbDimension
280
     0
  2
*D5
 10
37062.94242888912
 20
28881.83430491262
 30
0.0
 11
37020.54242888912
 21
28894.47840450334
 31
0.0
 70
    32
 71
     5
 42
84.80000000000291
 73
     0
 74
     0
 75
     0
  3
ISO-25
100
AcDbAlignedDimension
 13
36978.14242888911
 23
28758.95526152675
 33
0.0
 14
37062.94242888912
 24
28774.70526152788
 34
0.0
100
AcDbRotatedDimension
  0
DIMENSION
  5
21CE
102
{ACAD_XDICTIONARY
360
21DB
102
}
102
{ACAD_REACTORS
330
21E5
102
}
330
1F
100
AcDbEntity
  8
寸法線
100
AcDbDimension
280
     0
  2
*D6
 10
36978.14242888911
 20
28831.92256041377
 30
0.0
 11
37012.54242888912
 21
28844.56666000449
 31
0.0
 70
    32
 71
     5
 42
68.80000000000291
 73
     0
 74
     0
 75
     0
  3
ISO-25
100
AcDbAlignedDimension
 13
37046.94242888912
 23
28800.95526187576
 33
0.0
 14
36978.14242888911
 24
28758.95526152675
 34
0.0
100
AcDbRotatedDimension
  0
DIMENSION
  5
21E6
102
{ACAD_XDICTIONARY
360
21F4
102
}
102
{ACAD_REACTORS
330
21FF
102
}
330
1F
100
AcDbEntity
  8
寸法線
100
AcDbDimension
280
     0
  2
*D7
 10
37062.9424288891
 20
28831.92256041377
 30
0.0
 11
37079.44396367765
 21
28842.7590201682
 31
0.0
 70
    32
 71
     5
 42
15.99999999998544
 73
     0
 74
     0
 75
     0
  3
ISO-25
100
AcDbAlignedDimension
 13
37046.94242888912
 23
28800.95526187576
 33
0.0
 14
37062.9424288891
 24
28774.70526152679
 34
0.0
100
AcDbRotatedDimension
  0
LINE
  5
2664
330
1F
100
AcDbEntity
  8
枠線
100
AcDbLine
 10
36997.82830891649
 20
28310.30141662592
 30
0.0
 11
36997.82830891649
 21
28700.30141662591
 31
0.0
  0
LINE
  5
2665
330
1F
100
AcDbEntity
  8
枠線
100
AcDbLine
 10
36997.82830891649
 20
28700.30141662591
 30
0.0
 11
37417.82830891649
 21
28700.30141662591
 31
0.0
  0
LINE
  5
2666
330
1F
100
AcDbEntity
  8
枠線
100
AcDbLine
 10
36997.82830891649
 20
28352.30141662592
 30
0.0
 11
37417.82830891649
 21
28352.30141662592
 31
0.0
  0
LINE
  5
2667
330
1F
100
AcDbEntity
  8
枠線
100
AcDbLine
 10
36997.82830891649
 20
28394.30141662591
 30
0.0
 11
37417.82830891649
 21
28394.30141662591
 31
0.0
  0
LINE
  5
2668
330
1F
100
AcDbEntity
  8
枠線
100
AcDbLine
 10
36997.82830891649
 20
28436.30141662591
 30
0.0
 11
37417.82830891649
 21
28436.30141662591
 31
0.0
  0
LINE
  5
2669
330
1F
100
AcDbEntity
  8
枠線
100
AcDbLine
 10
36997.82830891649
 20
28478.30141662591
 30
0.0
 11
37417.82830891649
 21
28478.30141662591
 31
0.0
  0
LINE
  5
266A
330
1F
100
AcDbEntity
  8
枠線
100
AcDbLine
 10
36997.82830891649
 20
28520.30141662591
 30
0.0
 11
37417.82830891649
 21
28520.30141662591
 31
0.0
  0
LINE
  5
266B
330
1F
100
AcDbEntity
  8
枠線
100
AcDbLine
 10
36997.82830891649
 20
28562.30141662591
 30
0.0
 11
37417.82830891649
 21
28562.30141662591
 31
0.0
  0
LINE
  5
266C
330
1F
100
AcDbEntity
  8
枠線
100
AcDbLine
 10
36997.82830891649
 20
28604.30141662591
 30
0.0
 11
37417.82830891649
 21
28604.30141662591
 31
0.0
  0
LINE
  5
266D
330
1F
100
AcDbEntity
  8
枠線
100
AcDbLine
 10
36997.82830891649
 20
28646.30141662591
 30
0.0
 11
37417.82830891649
 21
28646.30141662591
 31
0.0
  0
LINE
  5
266E
330
1F
100
AcDbEntity
  8
枠線
100
AcDbLine
 10
37099.82830891649
 20
28700.30141662591
 30
0.0
 11
37099.82830891649
 21
28310.30141662592
 31
0.0
  0
LINE
  5
266F
330
1F
100
AcDbEntity
  8
枠線
100
AcDbLine
 10
37105.82830891649
 20
28700.30141662591
 30
0.0
 11
37105.82830891649
 21
28310.30141662592
 31
0.0
  0
LINE
  5
2670
330
1F
100
AcDbEntity
  8
枠線
100
AcDbLine
 10
37165.82830891649
 20
28436.30141662591
 30
0.0
 11
37165.82830891649
 21
28394.30141662591
 31
0.0
  0
LINE
  5
2671
330
1F
100
AcDbEntity
  8
枠線
100
AcDbLine
 10
37171.82830891649
 20
28436.30141662591
 30
0.0
 11
37171.82830891649
 21
28394.30141662591
 31
0.0
  0
LINE
  5
2672
330
1F
100
AcDbEntity
  8
枠線
100
AcDbLine
 10
37291.82830891649
 20
28436.30141662591
 30
0.0
 11
37291.82830891649
 21
28394.30141662591
 31
0.0
  0
LINE
  5
2673
330
1F
100
AcDbEntity
  8
枠線
100
AcDbLine
 10
37297.82830891649
 20
28436.30141662591
 30
0.0
 11
37297.82830891649
 21
28394.30141662591
 31
0.0
  0
LINE
  5
2674
330
1F
100
AcDbEntity
  8
枠線
100
AcDbLine
 10
37357.82830891649
 20
28436.30141662591
 30
0.0
 11
37357.82830891649
 21
28394.30141662591
 31
0.0
  0
LINE
  5
2675
330
1F
100
AcDbEntity
  8
枠線
100
AcDbLine
 10
37231.82830891649
 20
28436.30141662591
 30
0.0
 11
37231.82830891649
 21
28394.30141662591
 31
0.0
  0
LINE
  5
2676
330
1F
100
AcDbEntity
  8
枠線
100
AcDbLine
 10
36937.82830891649
 20
29432.30141662591
 30
0.0
 11
36937.82830891649
 21
29192.30141662591
 31
0.0
  0
LINE
  5
2677
330
1F
100
AcDbEntity
  8
枠線
100
AcDbLine
 10
36997.82830891649
 20
29432.30141662591
 30
0.0
 11
36997.82830891649
 21
29192.30141662591
 31
0.0
  0
LINE
  5
2678
330
1F
100
AcDbEntity
  8
枠線
100
AcDbLine
 10
37003.82830891649
 20
29192.30141662591
 30
0.0
 11
37003.82830891649
 21
29432.30141662591
 31
0.0
  0
LINE
  5
2679
330
1F
100
AcDbEntity
  8
枠線
100
AcDbLine
 10
36937.82830891649
 20
29372.30141662591
 30
0.0
 11
37417.82830891649
 21
29372.30141662591
 31
0.0
  0
LINE
  5
267A
330
1F
100
AcDbEntity
  8
枠線
100
AcDbLine
 10
36937.82830891649
 20
29336.30141662591
 30
0.0
 11
37417.82830891649
 21
29336.30141662591
 31
0.0
  0
LINE
  5
267B
330
1F
100
AcDbEntity
  8
枠線
100
AcDbLine
 10
36937.82830891649
 20
29300.30141662591
 30
0.0
 11
37417.82830891649
 21
29300.30141662591
 31
0.0
  0
LINE
  5
267C
330
1F
100
AcDbEntity
  8
枠線
100
AcDbLine
 10
36937.82830891649
 20
29264.30141662591
 30
0.0
 11
37417.82830891649
 21
29264.30141662591
 31
0.0
  0
LINE
  5
267D
330
1F
100
AcDbEntity
  8
枠線
100
AcDbLine
 10
36937.82830891649
 20
29228.30141662591
 30
0.0
 11
37417.82830891649
 21
29228.30141662591
 31
0.0
  0
LINE
  5
267E
330
1F
100
AcDbEntity
  8
枠線
100
AcDbLine
 10
36937.82830891649
 20
29192.30141662591
 30
0.0
 11
37417.82830891649
 21
29192.30141662591
 31
0.0
  0
LINE
  5
267F
330
1F
100
AcDbEntity
  8
枠線
100
AcDbLine
 10
37183.82830891649
 20
29432.30141662591
 30
0.0
 11
37183.82830891649
 21
29192.30141662591
 31
0.0
  0
LINE
  5
2680
330
1F
100
AcDbEntity
  8
枠線
100
AcDbLine
 10
37300.82830891649
 20
29432.30141662591
 30
0.0
 11
37300.82830891649
 21
29192.30141662591
 31
0.0
  0
LINE
  5
2681
330
1F
100
AcDbEntity
  8
外形線
100
AcDbLine
 10
35815.82830891649
 20
29450.30141662591
 30
0.0
 11
35815.82830891649
 21
28292.30141662591
 31
0.0
  0
LINE
  5
2682
330
1F
100
AcDbEntity
  8
外形線
100
AcDbLine
 10
37435.82830891649
 20
29450.30141662591
 30
0.0
 11
35815.82830891649
 21
29450.30141662591
 31
0.0
  0
LINE
  5
2683
330
1F
100
AcDbEntity
  8
枠線
100
AcDbLine
 10
35833.82830891649
 20
29432.30141662591
 30
0.0
 11
35833.82830891649
 21
28310.30141662592
 31
0.0
  0
LINE
  5
2684
330
1F
100
AcDbEntity
  8
枠線
100
AcDbLine
 10
35833.82830891649
 20
28310.30141662592
 30
0.0
 11
37417.82830891649
 21
28310.30141662592
 31
0.0
  0
LINE
  5
2685
330
1F
100
AcDbEntity
  8
枠線
100
AcDbLine
 10
37417.82830891649
 20
28310.30141662592
 30
0.0
 11
37417.82830891649
 21
29432.30141662591
 31
0.0
  0
LINE
  5
2686
330
1F
100
AcDbEntity
  8
枠線
100
AcDbLine
 10
37417.82830891649
 20
29432.30141662591
 30
0.0
 11
35833.82830891649
 21
29432.30141662591
 31
0.0
  0
LINE
  5
2687
330
1F
100
AcDbEntity
  8
枠線
100
AcDbLine
 10
36931.82830891649
 20
29432.30141662591
 30
0.0
 11
36931.82830891649
 21
29192.30141662591
 31
0.0
  0
LINE
  5
2688
330
1F
100
AcDbEntity
  8
枠線
100
AcDbLine
 10
36937.82830891649
 20
29192.30141662591
 30
0.0
 11
36937.82830891649
 21
29432.30141662591
 31
0.0
  0
LINE
  5
2689
330
1F
100
AcDbEntity
  8
枠線
100
AcDbLine
 10
36451.82830891649
 20
29432.30141662591
 30
0.0
 11
36451.82830891649
 21
29192.30141662591
 31
0.0
  0
LINE
  5
268A
330
1F
100
AcDbEntity
  8
枠線
100
AcDbLine
 10
36511.82830891649
 20
29432.30141662591
 30
0.0
 11
36511.82830891649
 21
29192.30141662591
 31
0.0
  0
LINE
  5
268B
330
1F
100
AcDbEntity
  8
枠線
100
AcDbLine
 10
36517.82830891649
 20
29192.30141662591
 30
0.0
 11
36517.82830891649
 21
29432.30141662591
 31
0.0
  0
LINE
  5
268C
330
1F
100
AcDbEntity
  8
枠線
100
AcDbLine
 10
36451.82830891649
 20
29372.30141662591
 30
0.0
 11
36931.82830891649
 21
29372.30141662591
 31
0.0
  0
LINE
  5
268D
330
1F
100
AcDbEntity
  8
枠線
100
AcDbLine
 10
36451.82830891649
 20
29336.30141662591
 30
0.0
 11
36931.82830891649
 21
29336.30141662591
 31
0.0
  0
LINE
  5
268E
330
1F
100
AcDbEntity
  8
枠線
100
AcDbLine
 10
36451.82830891649
 20
29300.30141662591
 30
0.0
 11
36931.82830891649
 21
29300.30141662591
 31
0.0
  0
LINE
  5
268F
330
1F
100
AcDbEntity
  8
枠線
100
AcDbLine
 10
36451.82830891649
 20
29264.30141662591
 30
0.0
 11
36931.82830891649
 21
29264.30141662591
 31
0.0
  0
LINE
  5
2690
330
1F
100
AcDbEntity
  8
枠線
100
AcDbLine
 10
36451.82830891649
 20
29228.30141662591
 30
0.0
 11
36931.82830891649
 21
29228.30141662591
 31
0.0
  0
LINE
  5
2691
330
1F
100
AcDbEntity
  8
枠線
100
AcDbLine
 10
36451.82830891649
 20
29192.30141662591
 30
0.0
 11
36931.82830891649
 21
29192.30141662591
 31
0.0
  0
LINE
  5
2692
330
1F
100
AcDbEntity
  8
枠線
100
AcDbLine
 10
36697.82830891649
 20
29432.30141662591
 30
0.0
 11
36697.82830891649
 21
29192.30141662591
 31
0.0
  0
LINE
  5
2693
330
1F
100
AcDbEntity
  8
枠線
100
AcDbLine
 10
36814.82830891649
 20
29432.30141662591
 30
0.0
 11
36814.82830891649
 21
29192.30141662591
 31
0.0
  0
LINE
  5
2694
330
1F
100
AcDbEntity
  8
枠線
100
AcDbLine
 10
36451.82830891649
 20
29192.30141662591
 30
0.0
 11
36451.82830891649
 21
29432.30141662591
 31
0.0
  0
LINE
  5
2695
330
1F
100
AcDbEntity
  8
外形線
100
AcDbLine
 10
37435.82830891649
 20
29450.30141662591
 30
0.0
 11
37435.82830891649
 21
28292.30141662591
 31
0.0
  0
LINE
  5
2696
330
1F
100
AcDbEntity
  8
外形線
100
AcDbLine
 10
37435.82830891649
 20
28292.30141662591
 30
0.0
 11
35815.82830891649
 21
28292.30141662591
 31
0.0
  0
MTEXT
  5
2697
330
1F
100
AcDbEntity
  8
寸法線
100
AcDbMText
 10
36606.70376299323
 20
29402.26287970344
 30
0.0
 40
30.00000000000001
 41
174.8674808517826
 46
0.0
 71
     5
 72
     5
  1
{\fMS PGothic|b0|i0|c128|p50;部品名}
 73
     1
 44
1.0
1001
ACAD
1000
ACAD_MTEXT_COLUMN_INFO_BEGIN
1070
    75
1070
     2
1070
    79
1070
     0
1070
    76
1070
     1
1070
    78
1070
     0
1070
    48
1040
174.8674808517826
1070
    49
1040
12.5
1070
    50
1070
     1
1040
0.0
1000
ACAD_MTEXT_COLUMN_INFO_END
  0
MTEXT
  5
2698
330
1F
100
AcDbEntity
  8
寸法線
100
AcDbMText
 10
36755.20376299314
 20
29402.34810697621
 30
0.0
 40
30.00000000000001
 41
109.1764692682045
 46
0.0
 71
     5
 72
     5
  1
{\fMS PGothic|b0|i0|c128|p50;材質}
 73
     1
 44
1.0
1001
ACAD
1000
ACAD_MTEXT_COLUMN_INFO_BEGIN
1070
    75
1070
     2
1070
    79
1070
     0
1070
    76
1070
     1
1070
    78
1070
     0
1070
    48
1040
109.1764692682045
1070
    49
1040
12.5
1070
    50
1070
     1
1040
0.0
1000
ACAD_MTEXT_COLUMN_INFO_END
  0
MTEXT
  5
2699
330
1F
100
AcDbEntity
  8
寸法線
100
AcDbMText
 10
36872.20376299323
 20
29402.17765243074
 30
0.0
 40
30.00000000000001
 41
115.2368875816973
 46
0.0
 71
     5
 72
     5
  1
{\fMS PGothic|b0|i0|c128|p50;摘要}
 73
     1
 44
1.0
1001
ACAD
1000
ACAD_MTEXT_COLUMN_INFO_BEGIN
1070
    75
1070
     2
1070
    79
1070
     0
1070
    76
1070
     1
1070
    78
1070
     0
1070
    48
1040
115.2368875816973
1070
    49
1040
12.5
1070
    50
1070
     1
1040
0.0
1000
ACAD_MTEXT_COLUMN_INFO_END
  0
MTEXT
  5
269A
330
1F
100
AcDbEntity
  8
寸法線
100
AcDbMText
 10
36482.95285483987
 20
29401.09595620095
 30
0.0
 40
18.0
 41
10.0
 46
0.0
 71
     5
 72
     5
  1
{\fMS PGothic|b0|i0|c128|p50;部番}
 73
     1
 44
1.0
1001
ACAD
1000
ACAD_MTEXT_COLUMN_INFO_BEGIN
1070
    75
1070
     2
1070
    79
1070
     0
1070
    76
1070
     1
1070
    78
1070
     0
1070
    48
1040
10.0
1070
    49
1040
12.5
1070
    50
1070
     1
1040
0.0
1000
ACAD_MTEXT_COLUMN_INFO_END
  0
MTEXT
  5
269B
330
1F
100
AcDbEntity
  8
寸法線
100
AcDbMText
 10
36481.82830891649
 20
29354.31369210659
 30
0.0
 40
21.00000000000001
 41
10.0
 46
0.0
 71
     5
 72
     5
  1
{\fMS PGothic|b0|i0|c128|p50;①}
 73
     1
 44
1.0
1001
ACAD
1000
ACAD_MTEXT_COLUMN_INFO_BEGIN
1070
    75
1070
     2
1070
    79
1070
     0
1070
    76
1070
     1
1070
    78
1070
     0
1070
    48
1040
10.0
1070
    49
1040
12.5
1070
    50
1070
     1
1040
0.0
1000
ACAD_MTEXT_COLUMN_INFO_END
  0
MTEXT
  5
269C
330
1F
100
AcDbEntity
  8
寸法線
100
AcDbMText
 10
36481.82830891649
 20
29318.31369210659
 30
0.0
 40
21.00000000000001
 41
10.0
 46
0.0
 71
     5
 72
     5
  1
{\fMS PGothic|b0|i0|c128|p50;②}
 73
     1
 44
1.0
1001
ACAD
1000
ACAD_MTEXT_COLUMN_INFO_BEGIN
1070
    75
1070
     2
1070
    79
1070
     0
1070
    76
1070
     1
1070
    78
1070
     0
1070
    48
1040
10.0
1070
    49
1040
12.5
1070
    50
1070
     1
1040
0.0
1000
ACAD_MTEXT_COLUMN_INFO_END
  0
MTEXT
  5
269D
330
1F
100
AcDbEntity
  8
寸法線
100
AcDbMText
 10
36481.82830891649
 20
29282.31369210662
 30
0.0
 40
21.00000000000001
 41
10.0
 46
0.0
 71
     5
 72
     5
  1
{\fMS PGothic|b0|i0|c128|p50;③}
 73
     1
 44
1.0
1001
ACAD
1000
ACAD_MTEXT_COLUMN_INFO_BEGIN
1070
    75
1070
     2
1070
    79
1070
     0
1070
    76
1070
     1
1070
    78
1070
     0
1070
    48
1040
10.0
1070
    49
1040
12.5
1070
    50
1070
     1
1040
0.0
1000
ACAD_MTEXT_COLUMN_INFO_END
  0
MTEXT
  5
269E
330
1F
100
AcDbEntity
  8
寸法線
100
AcDbMText
 10
36481.82830891649
 20
29246.3136921066
 30
0.0
 40
21.00000000000001
 41
10.0
 46
0.0
 71
     5
 72
     5
  1
{\fMS PGothic|b0|i0|c128|p50;④}
 73
     1
 44
1.0
1001
ACAD
1000
ACAD_MTEXT_COLUMN_INFO_BEGIN
1070
    75
1070
     2
1070
    79
1070
     0
1070
    76
1070
     1
1070
    78
1070
     0
1070
    48
1040
10.0
1070
    49
1040
12.5
1070
    50
1070
     1
1040
0.0
1000
ACAD_MTEXT_COLUMN_INFO_END
  0
MTEXT
  5
269F
330
1F
100
AcDbEntity
  8
寸法線
100
AcDbMText
 10
36481.82830891649
 20
29210.31369210659
 30
0.0
 40
21.00000000000001
 41
10.0
 46
0.0
 71
     5
 72
     5
  1
{\fMS PGothic|b0|i0|c128|p50;⑤}
 73
     1
 44
1.0
1001
ACAD
1000
ACAD_MTEXT_COLUMN_INFO_BEGIN
1070
    75
1070
     2
1070
    79
1070
     0
1070
    76
1070
     1
1070
    78
1070
     0
1070
    48
1040
10.0
1070
    49
1040
12.5
1070
    50
1070
     1
1040
0.0
1000
ACAD_MTEXT_COLUMN_INFO_END
  0
MTEXT
  5
26A0
330
1F
100
AcDbEntity
  8
寸法線
100
AcDbMText
 10
37092.70376299314
 20
29402.26287970344
 30
0.0
 40
30.00000000000001
 41
208.789682174116
 46
0.0
 71
     5
 72
     5
  1
{\fMS PGothic|b0|i0|c128|p50;部品名}
 73
     1
 44
1.0
1001
ACAD
1000
ACAD_MTEXT_COLUMN_INFO_BEGIN
1070
    75
1070
     2
1070
    79
1070
     0
1070
    76
1070
     1
1070
    78
1070
     0
1070
    48
1040
208.789682174116
1070
    49
1040
12.5
1070
    50
1070
     1
1040
0.0
1000
ACAD_MTEXT_COLUMN_INFO_END
  0
MTEXT
  5
26A1
330
1F
100
AcDbEntity
  8
寸法線
100
AcDbMText
 10
37241.20376299314
 20
29402.34810697621
 30
0.0
 40
30.00000000000001
 41
121.2416595124814
 46
0.0
 71
     5
 72
     5
  1
{\fMS PGothic|b0|i0|c128|p50;材質}
 73
     1
 44
1.0
1001
ACAD
1000
ACAD_MTEXT_COLUMN_INFO_BEGIN
1070
    75
1070
     2
1070
    79
1070
     0
1070
    76
1070
     1
1070
    78
1070
     0
1070
    48
1040
121.2416595124814
1070
    49
1040
12.5
1070
    50
1070
     1
1040
0.0
1000
ACAD_MTEXT_COLUMN_INFO_END
  0
MTEXT
  5
26A2
330
1F
100
AcDbEntity
  8
寸法線
100
AcDbMText
 10
37358.20376299315
 20
29402.17765243074
 30
0.0
 40
30.00000000000001
 41
124.8927565777121
 46
0.0
 71
     5
 72
     5
  1
{\fMS PGothic|b0|i0|c128|p50;摘要}
 73
     1
 44
1.0
1001
ACAD
1000
ACAD_MTEXT_COLUMN_INFO_BEGIN
1070
    75
1070
     2
1070
    79
1070
     0
1070
    76
1070
     1
1070
    78
1070
     0
1070
    48
1040
124.8927565777121
1070
    49
1040
12.5
1070
    50
1070
     1
1040
0.0
1000
ACAD_MTEXT_COLUMN_INFO_END
  0
MTEXT
  5
26A3
330
1F
100
AcDbEntity
  8
寸法線
100
AcDbMText
 10
36968.95285483992
 20
29401.09595620095
 30
0.0
 40
18.0
 41
10.0
 46
0.0
 71
     5
 72
     5
  1
{\fMS PGothic|b0|i0|c128|p50;部番}
 73
     1
 44
1.0
1001
ACAD
1000
ACAD_MTEXT_COLUMN_INFO_BEGIN
1070
    75
1070
     2
1070
    79
1070
     0
1070
    76
1070
     1
1070
    78
1070
     0
1070
    48
1040
10.0
1070
    49
1040
12.5
1070
    50
1070
     1
1040
0.0
1000
ACAD_MTEXT_COLUMN_INFO_END
  0
MTEXT
  5
26A4
330
1F
100
AcDbEntity
  8
寸法線
100
AcDbMText
 10
36967.82830891655
 20
29354.31369210659
 30
0.0
 40
21.00000000000001
 41
10.0
 46
0.0
 71
     5
 72
     5
  1
{\fMS PGothic|b0|i0|c128|p50;⑥}
 73
     1
 44
1.0
1001
ACAD
1000
ACAD_MTEXT_COLUMN_INFO_BEGIN
1070
    75
1070
     2
1070
    79
1070
     0
1070
    76
1070
     1
1070
    78
1070
     0
1070
    48
1040
10.0
1070
    49
1040
12.5
1070
    50
1070
     1
1040
0.0
1000
ACAD_MTEXT_COLUMN_INFO_END
  0
MTEXT
  5
26A5
330
1F
100
AcDbEntity
  8
寸法線
100
AcDbMText
 10
36967.82830891655
 20
29318.31369210659
 30
0.0
 40
21.00000000000001
 41
10.0
 46
0.0
 71
     5
 72
     5
  1
{\fMS PGothic|b0|i0|c128|p50;⑦}
 73
     1
 44
1.0
1001
ACAD
1000
ACAD_MTEXT_COLUMN_INFO_BEGIN
1070
    75
1070
     2
1070
    79
1070
     0
1070
    76
1070
     1
1070
    78
1070
     0
1070
    48
1040
10.0
1070
    49
1040
12.5
1070
    50
1070
     1
1040
0.0
1000
ACAD_MTEXT_COLUMN_INFO_END
  0
MTEXT
  5
26A6
330
1F
100
AcDbEntity
  8
寸法線
100
AcDbMText
 10
36967.82830891655
 20
29282.31369210662
 30
0.0
 40
21.00000000000001
 41
10.0
 46
0.0
 71
     5
 72
     5
  1
{\fMS PGothic|b0|i0|c128|p50;⑧}
 73
     1
 44
1.0
1001
ACAD
1000
ACAD_MTEXT_COLUMN_INFO_BEGIN
1070
    75
1070
     2
1070
    79
1070
     0
1070
    76
1070
     1
1070
    78
1070
     0
1070
    48
1040
10.0
1070
    49
1040
12.5
1070
    50
1070
     1
1040
0.0
1000
ACAD_MTEXT_COLUMN_INFO_END
  0
MTEXT
  5
26A7
330
1F
100
AcDbEntity
  8
寸法線
100
AcDbMText
 10
36967.82830891655
 20
29246.3136921066
 30
0.0
 40
21.00000000000001
 41
10.0
 46
0.0
 71
     5
 72
     5
  1
{\fMS PGothic|b0|i0|c128|p50;⑨}
 73
     1
 44
1.0
1001
ACAD
1000
ACAD_MTEXT_COLUMN_INFO_BEGIN
1070
    75
1070
     2
1070
    79
1070
     0
1070
    76
1070
     1
1070
    78
1070
     0
1070
    48
1040
10.0
1070
    49
1040
12.5
1070
    50
1070
     1
1040
0.0
1000
ACAD_MTEXT_COLUMN_INFO_END
  0
MTEXT
  5
26A8
330
1F
100
AcDbEntity
  8
寸法線
100
AcDbMText
 10
36967.82830891655
 20
29210.31369210659
 30
0.0
 40
21.00000000000001
 41
10.0
 46
0.0
 71
     5
 72
     5
  1
{\fMS PGothic|b0|i0|c128|p50;⑩}
 73
     1
 44
1.0
1001
ACAD
1000
ACAD_MTEXT_COLUMN_INFO_BEGIN
1070
    75
1070
     2
1070
    79
1070
     0
1070
    76
1070
     1
1070
    78
1070
     0
1070
    48
1040
10.0
1070
    49
1040
12.5
1070
    50
1070
     1
1040
0.0
1000
ACAD_MTEXT_COLUMN_INFO_END
  0
TEXT
  5
26A9
330
1F
100
AcDbEntity
  8
寸法線
100
AcDbText
 10
37111.88236234935
 20
28677.98951439416
 30
0.0
 40
12.9
  1
広告灯内用放電灯器具（LEDランプ用）
100
AcDbText
  0
TEXT
  5
26AA
330
1F
100
AcDbEntity
  8
寸法線
100
AcDbText
 10
37112.42862418752
 20
28658.87406487858
 30
0.0
 40
9.0
  1
AC100/200V　　50/60Hz
100
AcDbText
  0
MTEXT
  5
26AB
330
1F
100
AcDbEntity
  8
寸法線
100
AcDbMText
 10
37048.82830891649
 20
28623.4683444088
 30
0.0
 40
21.00000000000001
 41
134.5371276319638
 46
0.0
 71
     5
 72
     5
  1
{\fMS PGothic|b0|i0|c128|p50;品名}
 73
     1
 44
1.0
1001
ACAD
1000
ACAD_MTEXT_COLUMN_INFO_BEGIN
1070
    75
1070
     2
1070
    79
1070
     0
1070
    76
1070
     1
1070
    78
1070
     0
1070
    48
1040
134.5371276319638
1070
    49
1040
12.5
1070
    50
1070
     1
1040
0.0
1000
ACAD_MTEXT_COLUMN_INFO_END
  0
MTEXT
  5
26AC
330
1F
100
AcDbEntity
  8
寸法線
100
AcDbMText
 10
37048.82830891649
 20
28581.40868531792
 30
0.0
 40
21.00000000000001
 41
107.3977478795059
 46
0.0
 71
     5
 72
     5
  1
{\fMS PGothic|b0|i0|c128|p50;型番}
 73
     1
 44
1.0
1001
ACAD
1000
ACAD_MTEXT_COLUMN_INFO_BEGIN
1070
    75
1070
     2
1070
    79
1070
     0
1070
    76
1070
     1
1070
    78
1070
     0
1070
    48
1040
107.3977478795059
1070
    49
1040
12.5
1070
    50
1070
     1
1040
0.0
1000
ACAD_MTEXT_COLUMN_INFO_END
  0
MTEXT
  5
26AD
330
1F
100
AcDbEntity
  8
寸法線
100
AcDbMText
 10
37048.82830891649
 20
28539.40868531792
 30
0.0
 40
21.00000000000001
 41
111.0985654956457
 46
0.0
 71
     5
 72
     5
  1
{\fMS PGothic|b0|i0|c128|p50;図番}
 73
     1
 44
1.0
1001
ACAD
1000
ACAD_MTEXT_COLUMN_INFO_BEGIN
1070
    75
1070
     2
1070
    79
1070
     0
1070
    76
1070
     1
1070
    78
1070
     0
1070
    48
1040
111.0985654956457
1070
    49
1040
12.5
1070
    50
1070
     1
1040
0.0
1000
ACAD_MTEXT_COLUMN_INFO_END
  0
MTEXT
  5
26AE
330
1F
100
AcDbEntity
  8
寸法線
100
AcDbMText
 10
37048.82830891649
 20
28497.17004895428
 30
0.0
 40
21.00000000000001
 41
79.75
 46
0.0
 71
     5
 72
     5
  1
{\fMS PGothic|b0|i0|c128|p50;尺度}
 73
     1
 44
1.0
1001
ACAD
1000
ACAD_MTEXT_COLUMN_INFO_BEGIN
1070
    75
1070
     2
1070
    79
1070
     0
1070
    76
1070
     1
1070
    78
1070
     0
1070
    48
1040
79.75
1070
    49
1040
12.5
1070
    50
1070
     1
1040
0.0
1000
ACAD_MTEXT_COLUMN_INFO_END
  0
MTEXT
  5
26AF
330
1F
100
AcDbEntity
  8
寸法線
100
AcDbMText
 10
37048.82830891649
 20
28455.82629895428
 30
0.0
 40
21.00000000000001
 41
79.75
 46
0.0
 71
     5
 72
     5
  1
{\fMS PGothic|b0|i0|c128|p50;日付}
 73
     1
 44
1.0
1001
ACAD
1000
ACAD_MTEXT_COLUMN_INFO_BEGIN
1070
    75
1070
     2
1070
    79
1070
     0
1070
    76
1070
     1
1070
    78
1070
     0
1070
    48
1040
79.75
1070
    49
1040
12.5
1070
    50
1070
     1
1040
0.0
1000
ACAD_MTEXT_COLUMN_INFO_END
  0
MTEXT
  5
26B0
330
1F
100
AcDbEntity
  8
寸法線
100
AcDbMText
 10
37048.82830891649
 20
28413.34902622701
 30
0.0
 40
21.00000000000001
 41
79.75
 46
0.0
 71
     5
 72
     5
  1
{\fMS PGothic|b0|i0|c128|p50;設計}
 73
     1
 44
1.0
1001
ACAD
1000
ACAD_MTEXT_COLUMN_INFO_BEGIN
1070
    75
1070
     2
1070
    79
1070
     0
1070
    76
1070
     1
1070
    78
1070
     0
1070
    48
1040
79.75
1070
    49
1040
12.5
1070
    50
1070
     1
1040
0.0
1000
ACAD_MTEXT_COLUMN_INFO_END
  0
MTEXT
  5
26B1
330
1F
100
AcDbEntity
  8
寸法線
100
AcDbMText
 10
37201.82830891655
 20
28415.68766259063
 30
0.0
 40
16.8
 41
77.95127031754964
 46
0.0
 71
     5
 72
     5
  1
{\fMS PGothic|b0|i0|c128|p50;製図}
 73
     1
 44
1.0
1001
ACAD
1000
ACAD_MTEXT_COLUMN_INFO_BEGIN
1070
    75
1070
     2
1070
    79
1070
     0
1070
    76
1070
     1
1070
    78
1070
     0
1070
    48
1040
77.95127031754964
1070
    49
1040
12.5
1070
    50
1070
     1
1040
0.0
1000
ACAD_MTEXT_COLUMN_INFO_END
  0
MTEXT
  5
26B2
330
1F
100
AcDbEntity
  8
寸法線
100
AcDbMText
 10
37327.82830891655
 20
28416.30811713614
 30
0.0
 40
16.8
 41
64.78344696047134
 46
0.0
 71
     5
 72
     5
  1
{\fMS PGothic|b0|i0|c128|p50;承認}
 73
     1
 44
1.0
1001
ACAD
1000
ACAD_MTEXT_COLUMN_INFO_BEGIN
1070
    75
1070
     2
1070
    79
1070
     0
1070
    76
1070
     1
1070
    78
1070
     0
1070
    48
1040
64.78344696047134
1070
    49
1040
12.5
1070
    50
1070
     1
1040
0.0
1000
ACAD_MTEXT_COLUMN_INFO_END
  0
MTEXT
  5
26B3
330
1F
100
AcDbEntity
  8
寸法線
100
AcDbMText
 10
37261.82830891655
 20
28333.09811859801
 30
0.0
 40
21.00000000000001
 41
479.1527611076308
 46
0.0
 71
     5
 72
     5
  1
{\fMS PGothic|b0|i0|c128|p50;高村電機工業株式会社}
 73
     1
 44
1.0
1001
ACAD
1000
ACAD_MTEXT_COLUMN_INFO_BEGIN
1070
    75
1070
     2
1070
    79
1070
     0
1070
    76
1070
     1
1070
    78
1070
     0
1070
    48
1040
479.1527611076308
1070
    49
1040
12.5
1070
    50
1070
     1
1040
0.0
1000
ACAD_MTEXT_COLUMN_INFO_END
  0
MTEXT
  5
26B4
330
1F
100
AcDbEntity
  8
寸法線
100
AcDbMText
 10
37114.25169909965
 20
28644.29661452644
 30
0.0
 40
24.00000000000002
 41
379.4707622710557
 46
0.0
 71
     1
 72
     5
  1
{\fMS PGothic|b0|i0|c128|p50;ゼブライト・V　}32W
 73
     1
 44
1.0
1001
ACAD
1000
ACAD_MTEXT_COLUMN_INFO_BEGIN
1070
    75
1070
     2
1070
    79
1070
     0
1070
    76
1070
     1
1070
    78
1070
     0
1070
    48
1040
379.4707622710557
1070
    49
1040
12.5
1070
    50
1070
     1
1040
0.0
1000
ACAD_MTEXT_COLUMN_INFO_END
  0
MTEXT
  5
26B5
330
1F
100
AcDbEntity
  8
寸法線
100
AcDbMText
 10
37115.18764923142
 20
28597.13393415125
 30
0.0
 40
24.00000000000002
 41
326.790400944592
 46
0.0
 71
     1
 72
     5
  1
CSG{\fMS PGothic|b0|i0|c128|p50;‐}320KB-V
 73
     1
 44
1.0
1001
ACAD
1000
ACAD_MTEXT_COLUMN_INFO_BEGIN
1070
    75
1070
     2
1070
    79
1070
     0
1070
    76
1070
     1
1070
    78
1070
     0
1070
    48
1040
326.790400944592
1070
    49
1040
12.5
1070
    50
1070
     1
1040
0.0
1000
ACAD_MTEXT_COLUMN_INFO_END
  0
LINE
  5
26B6
330
1F
100
AcDbEntity
  8
枠線
100
AcDbLine
 10
37258.82830891649
 20
28520.30141662591
 30
0.0
 11
37258.82830891649
 21
28478.30141662591
 31
0.0
  0
LINE
  5
26B7
330
1F
100
AcDbEntity
  8
枠線
100
AcDbLine
 10
37264.82830891649
 20
28520.30141662591
 30
0.0
 11
37264.82830891649
 21
28478.30141662591
 31
0.0
  0
CIRCLE
  5
26B8
330
1F
100
AcDbEntity
  8
枠線
100
AcDbCircle
 10
37309.82830891649
 20
28499.30141662591
 30
0.0
 40
12.0
  0
CIRCLE
  5
26B9
330
1F
100
AcDbEntity
  8
枠線
100
AcDbCircle
 10
37309.82830891649
 20
28499.30141662591
 30
0.0
 40
6.0
  0
LINE
  5
26BA
330
1F
100
AcDbEntity
  8
枠線
100
AcDbLine
 10
37354.82830891649
 20
28505.30141662591
 30
0.0
 11
37354.82830891649
 21
28493.30141662592
 31
0.0
  0
LINE
  5
26BB
330
1F
100
AcDbEntity
  8
枠線
100
AcDbLine
 10
37354.82830891649
 20
28493.30141662592
 30
0.0
 11
37384.82830891649
 21
28487.30141662591
 31
0.0
  0
LINE
  5
26BC
330
1F
100
AcDbEntity
  8
枠線
100
AcDbLine
 10
37384.82830891649
 20
28487.30141662591
 30
0.0
 11
37384.82830891649
 21
28511.30141662591
 31
0.0
  0
LINE
  5
26BD
330
1F
100
AcDbEntity
  8
枠線
100
AcDbLine
 10
37384.82830891649
 20
28511.30141662591
 30
0.0
 11
37354.82830891649
 21
28505.30141662591
 31
0.0
  0
LINE
  5
26BE
330
1F
100
AcDbEntity
  8
中心線
 48
0.5
100
AcDbLine
 10
37294.82830891649
 20
28499.30141662591
 30
0.0
 11
37387.82830891649
 21
28499.30141662591
 31
0.0
  0
LINE
  5
26BF
330
1F
100
AcDbEntity
  8
中心線
 48
0.5
100
AcDbLine
 10
37309.82830891649
 20
28514.30141662591
 30
0.0
 11
37309.82830891649
 21
28484.30141662591
 31
0.0
  0
MTEXT
  5
26C0
330
1F
100
AcDbEntity
  8
中心線
100
AcDbMText
 10
37182.51968511713
 20
28499.53293398297
 30
0.0
 40
24.00000000000002
 41
137.1373031534895
 46
0.0
 71
     5
 72
     5
  1
1  :  4
 73
     1
 44
1.0
1001
ACAD
1000
ACAD_MTEXT_COLUMN_INFO_BEGIN
1070
    75
1070
     2
1070
    79
1070
     0
1070
    76
1070
     1
1070
    78
1070
     0
1070
    48
1040
137.1373031534895
1070
    49
1040
12.5
1070
    50
1070
     1
1040
0.0
1000
ACAD_MTEXT_COLUMN_INFO_END
  0
MTEXT
  5
26C1
330
1F
100
AcDbEntity
  8
寸法線
100
AcDbMText
 10
36523.40281600472
 20
29365.24191340207
 30
0.0
 40
9.600000000000001
 41
151.6297294085016
 46
0.0
 71
     1
 72
     5
  1
{\fMS PGothic|b0|i0|c128|p50;器具本体}
 73
     1
 44
1.0
1001
ACAD
1000
ACAD_MTEXT_COLUMN_INFO_BEGIN
1070
    75
1070
     2
1070
    79
1070
     0
1070
    76
1070
     1
1070
    78
1070
     0
1070
    48
1040
151.6297294085016
1070
    49
1040
12.5
1070
    50
1070
     1
1040
0.0
1000
ACAD_MTEXT_COLUMN_INFO_END
  0
MTEXT
  5
26C2
330
1F
100
AcDbEntity
  8
寸法線
100
AcDbMText
 10
36704.28547051201
 20
29369.76522699309
 30
0.0
 40
8.0
 41
163.0743348696414
 46
0.0
 71
     1
 72
     5
  1
{\fMS PGothic|b0|i0|c128|p50;鋼鈑　}0.6{\fMS PGothic|b0|i0|c128|p50;ｔ}\P{\fMS PGothic|b0|i0|c128|p50;（亜鉛メッキ板）}
 73
     1
 44
1.0
1001
ACAD
1000
ACAD_MTEXT_COLUMN_INFO_BEGIN
1070
    75
1070
     2
1070
    79
1070
     0
1070
    76
1070
     1
1070
    78
1070
     0
1070
    48
1040
163.0743348696414
1070
    49
1040
12.5
1070
    50
1070
     1
1040
0.0
1000
ACAD_MTEXT_COLUMN_INFO_END
  0
MTEXT
  5
26C3
330
1F
100
AcDbEntity
  8
寸法線
100
AcDbMText
 10
36818.16107180064
 20
29361.19467280749
 30
0.0
 40
8.0
 41
127.6574633589698
 46
0.0
 71
     1
 72
     5
  1
{\fMS PGothic|b0|i0|c128|p50;ホーミング加工}
 73
     1
 44
1.0
1001
ACAD
1000
ACAD_MTEXT_COLUMN_INFO_BEGIN
1070
    75
1070
     2
1070
    79
1070
     0
1070
    76
1070
     1
1070
    78
1070
     0
1070
    48
1040
127.6574633589698
1070
    49
1040
12.5
1070
    50
1070
     1
1040
0.0
1000
ACAD_MTEXT_COLUMN_INFO_END
  0
MTEXT
  5
26C4
330
1F
100
AcDbEntity
  8
寸法線
100
AcDbMText
 10
36523.39490179897
 20
29291.64416089737
 30
0.0
 40
9.600000000000001
 41
177.2417588968819
 46
0.0
 71
     1
 72
     5
  1
{\fMS PGothic|b0|i0|c128|p50;絶縁ブッシング}
 73
     1
 44
1.0
1001
ACAD
1000
ACAD_MTEXT_COLUMN_INFO_BEGIN
1070
    75
1070
     2
1070
    79
1070
     0
1070
    76
1070
     1
1070
    78
1070
     0
1070
    48
1040
177.2417588968819
1070
    49
1040
12.5
1070
    50
1070
     1
1040
0.0
1000
ACAD_MTEXT_COLUMN_INFO_END
  0
MTEXT
  5
26C5
330
1F
100
AcDbEntity
  8
寸法線
100
AcDbMText
 10
36706.48743610138
 20
29296.59115944601
 30
0.0
 40
8.0
 41
112.0581813088574
 46
0.0
 71
     1
 72
     5
  1
P.P{\fMS PGothic|b0|i0|c128|p50;樹脂}
 73
     1
 44
1.0
1001
ACAD
1000
ACAD_MTEXT_COLUMN_INFO_BEGIN
1070
    75
1070
     2
1070
    79
1070
     0
1070
    76
1070
     1
1070
    78
1070
     0
1070
    48
1040
112.0581813088574
1070
    49
1040
12.5
1070
    50
1070
     1
1040
0.0
1000
ACAD_MTEXT_COLUMN_INFO_END
  0
MTEXT
  5
26C6
330
1F
100
AcDbEntity
  8
寸法線
100
AcDbMText
 10
36521.5393708381
 20
29258.11764363513
 30
0.0
 40
9.600000000000001
 41
209.7639475286996
 46
0.0
 71
     1
 72
     5
  1
{\fMS PGothic|b0|i0|c128|p50;ランプソケット（固定側）}
 73
     1
 44
1.0
1001
ACAD
1000
ACAD_MTEXT_COLUMN_INFO_BEGIN
1070
    75
1070
     2
1070
    79
1070
     0
1070
    76
1070
     1
1070
    78
1070
     0
1070
    48
1040
209.7639475286996
1070
    49
1040
12.5
1070
    50
1070
     1
1040
0.0
1000
ACAD_MTEXT_COLUMN_INFO_END
  0
MTEXT
  5
26C7
330
1F
100
AcDbEntity
  8
寸法線
100
AcDbMText
 10
36705.25043275965
 20
29260.59117598269
 30
0.0
 40
8.0
 41
114.358547341013
 46
0.0
 71
     1
 72
     5
  1
{\fMS PGothic|b0|i0|c128|p50;P.P樹脂\P黄銅}
 73
     1
 44
1.0
1001
ACAD
1000
ACAD_MTEXT_COLUMN_INFO_BEGIN
1070
    75
1070
     2
1070
    79
1070
     0
1070
    76
1070
     1
1070
    78
1070
     0
1070
    48
1040
114.358547341013
1070
    49
1040
12.5
1070
    50
1070
     1
1040
0.0
1000
ACAD_MTEXT_COLUMN_INFO_END
  0
MTEXT
  5
26C8
330
1F
100
AcDbEntity
  8
寸法線
100
AcDbMText
 10
36523.39490179897
 20
29221.49928948727
 30
0.0
 40
9.600000000000001
 41
210.5417588968994
 46
0.0
 71
     1
 72
     5
  1
{\fMS PGothic|b0|i0|c128|p50;ランプソケット（スプリング側）}
 73
     1
 44
1.0
1001
ACAD
1000
ACAD_MTEXT_COLUMN_INFO_BEGIN
1070
    75
1070
     2
1070
    79
1070
     0
1070
    76
1070
     1
1070
    78
1070
     0
1070
    48
1040
210.5417588968994
1070
    49
1040
12.5
1070
    50
1070
     1
1040
0.0
1000
ACAD_MTEXT_COLUMN_INFO_END
  0
MTEXT
  5
26C9
330
1F
100
AcDbEntity
  8
寸法線
100
AcDbMText
 10
36702.15787250899
 20
29225.20954666714
 30
0.0
 40
8.0
 41
140.8380455093865
 46
0.0
 71
     1
 72
     5
  1
P.P{\fMS PGothic|b0|i0|c128|p50;樹脂}\P{\fMS PGothic|b0|i0|c128|p50;黄銅}
 73
     1
 44
1.0
1001
ACAD
1000
ACAD_MTEXT_COLUMN_INFO_BEGIN
1070
    75
1070
     2
1070
    79
1070
     0
1070
    76
1070
     1
1070
    78
1070
     0
1070
    48
1040
140.8380455093865
1070
    49
1040
12.5
1070
    50
1070
     1
1040
0.0
1000
ACAD_MTEXT_COLUMN_INFO_END
  0
LINE
  5
26CA
330
1F
100
AcDbEntity
  8
外形線
100
AcDbLine
 10
35785.82830891649
 20
29465.30141662591
 30
0.0
 11
35785.82830891649
 21
28277.30141662591
 31
0.0
  0
LINE
  5
26CB
330
1F
100
AcDbEntity
  8
外形線
100
AcDbLine
 10
35785.82830891649
 20
28277.30141662591
 30
0.0
 11
37465.82830891649
 21
28277.30141662591
 31
0.0
  0
LINE
  5
26CC
330
1F
100
AcDbEntity
  8
外形線
100
AcDbLine
 10
37465.82830891649
 20
28277.30141662591
 30
0.0
 11
37465.82830891649
 21
29465.30141662591
 31
0.0
  0
LINE
  5
26CD
330
1F
100
AcDbEntity
  8
外形線
100
AcDbLine
 10
37465.82830891649
 20
29465.30141662591
 30
0.0
 11
35785.82830891649
 21
29465.30141662591
 31
0.0
  0
TEXT
  5
26CE
330
1F
100
AcDbEntity
  8
1
 62
     3
100
AcDbText
 10
36408.92236418952
 20
28557.26963856752
 30
0.0
 40
13.5
  1
１．左記の様にランプをセットしてください
 41
0.6666666666670002
  7
BIGFONT
100
AcDbText
  0
TEXT
  5
26CF
330
1F
100
AcDbEntity
  8
1
 62
     3
100
AcDbText
 10
36426.60107512702
 20
28537.23401031231
 30
0.0
 40
13.5
  1
器具側の電極はスプリングソケット側になっています。
 41
0.6666666666670002
  7
BIGFONT
100
AcDbText
  0
TEXT
  5
26D0
330
1F
100
AcDbEntity
  8
1
 62
     3
100
AcDbText
 10
36427.18994231453
 20
28518.37658843731
 30
0.0
 40
13.5
  1
ランプの電極はマーク（シール）側になっています。
 41
0.6666666666670002
  7
BIGFONT
100
AcDbText
  0
TEXT
  5
26D1
330
1F
100
AcDbEntity
  8
1
 62
     3
100
AcDbText
 10
36427.18994231453
 20
28500.10901031232
 30
0.0
 40
13.5
  1
セット方向はランプはマーク（シール）が正面方向を
 41
0.6666666666670002
  7
BIGFONT
100
AcDbText
  0
TEXT
  5
26D2
330
1F
100
AcDbEntity
  8
1
 62
     3
100
AcDbText
 10
36411.07601002284
 20
28452.52011057273
 30
0.0
 40
13.5
  1
２．精密部品を使用しておりますので衝撃等を与えますと
 41
0.6666666666670002
  7
BIGFONT
100
AcDbText
  0
TEXT
  5
26D3
330
1F
100
AcDbEntity
  8
1
 62
     3
100
AcDbText
 10
36429.93343189784
 20
28433.0733006769
 30
0.0
 40
13.5
  1
誤動作もしくは不点の恐れがあります。
 41
0.6666666666670002
  7
BIGFONT
100
AcDbText
  0
TEXT
  5
26D4
330
1F
100
AcDbEntity
  8
1
 62
     3
100
AcDbText
 10
36410.48714283534
 20
28406.5557225519
 30
0.0
 40
13.5
  1
３．この製品は定電流式２４Ｖ仕様です。
 41
0.6666666666670002
  7
BIGFONT
100
AcDbText
  0
TEXT
  5
26D5
330
1F
100
AcDbEntity
  8
1
 62
     3
100
AcDbText
 10
36427.57601002284
 20
28386.52008615866
 30
0.0
 40
13.5
  1
必ず専用のランプと安定器のセットでご使用下さい。
 41
0.6666666666670002
  7
BIGFONT
100
AcDbText
  0
TEXT
  5
26D6
330
1F
100
AcDbEntity
  8
1
 62
     3
100
AcDbText
 10
36428.01168710616
 20
28481.68003895815
 30
0.0
 40
13.5
  1
向く様にして下さい。
 41
0.6666666666670002
  7
BIGFONT
100
AcDbText
  0
TEXT
  5
26D7
330
1F
100
AcDbEntity
  8
1
 62
     3
100
AcDbText
 10
36137.10127043951
 20
28551.62090809878
 30
0.0
 40
12.0
  1
取扱い説明及び注意事項
 41
0.6666666666670002
  7
BIGFONT
100
AcDbText
  0
LINE
  5
26D8
330
1F
100
AcDbEntity
  8
1
  6
Continuous
 62
     3
100
AcDbLine
 10
36264.16320504659
 20
28509.00183430027
 30
0.0
 11
36264.16320504659
 21
28494.00183430027
 31
0.0
  0
LINE
  5
26D9
330
1F
100
AcDbEntity
  8
1
  6
Continuous
 62
     3
100
AcDbLine
 10
36264.16320504659
 20
28494.00183430027
 30
0.0
 11
36117.234633618
 21
28494.00183430027
 31
0.0
  0
LINE
  5
26DA
330
1F
100
AcDbEntity
  8
1
  6
Continuous
 62
     3
100
AcDbLine
 10
36117.234633618
 20
28494.00183430027
 30
0.0
 11
36114.16320504658
 21
28494.00183430027
 31
0.0
  0
LINE
  5
26DB
330
1F
100
AcDbEntity
  8
1
  6
Continuous
 62
     3
100
AcDbLine
 10
36114.16320504658
 20
28494.00183430027
 30
0.0
 11
36114.16320504658
 21
28509.00183430027
 31
0.0
  0
LINE
  5
26DC
330
1F
100
AcDbEntity
  8
1
  6
Continuous
 62
     3
100
AcDbLine
 10
36114.16320504658
 20
28509.00183430027
 30
0.0
 11
36264.16320504659
 21
28509.00183430027
 31
0.0
  0
LINE
  5
26DD
330
1F
100
AcDbEntity
  8
1
  6
Continuous
 62
     3
100
AcDbLine
 10
36264.16320504659
 20
28509.00183430027
 30
0.0
 11
36268.66320504658
 21
28509.00183430027
 31
0.0
  0
LINE
  5
26DE
330
1F
100
AcDbEntity
  8
1
  6
Continuous
 62
     3
100
AcDbLine
 10
36268.66320504658
 20
28509.00183430027
 30
0.0
 11
36268.66320504658
 21
28494.00183430027
 31
0.0
  0
LINE
  5
26DF
330
1F
100
AcDbEntity
  8
1
  6
Continuous
 62
     3
100
AcDbLine
 10
36268.66320504658
 20
28494.00183430027
 30
0.0
 11
36264.16320504659
 21
28494.00183430027
 31
0.0
  0
LINE
  5
26E0
330
1F
100
AcDbEntity
  8
1
  6
Continuous
 62
     3
100
AcDbLine
 10
36114.16320504658
 20
28509.00183430027
 30
0.0
 11
36109.66320504659
 21
28509.00183430027
 31
0.0
  0
LINE
  5
26E1
330
1F
100
AcDbEntity
  8
1
  6
Continuous
 62
     3
100
AcDbLine
 10
36109.66320504659
 20
28509.00183430027
 30
0.0
 11
36109.66320504659
 21
28494.00183430027
 31
0.0
  0
LINE
  5
26E2
330
1F
100
AcDbEntity
  8
1
  6
Continuous
 62
     3
100
AcDbLine
 10
36109.66320504659
 20
28494.00183430027
 30
0.0
 11
36114.16320504658
 21
28494.00183430027
 31
0.0
  0
LINE
  5
26E3
330
1F
100
AcDbEntity
  8
1
  6
Continuous
 62
     3
100
AcDbLine
 10
36109.66320504659
 20
28504.50183430027
 30
0.0
 11
36105.16320504659
 21
28504.50183430027
 31
0.0
  0
LINE
  5
26E4
330
1F
100
AcDbEntity
  8
1
  6
Continuous
 62
     3
100
AcDbLine
 10
36109.66320504659
 20
28498.50183430028
 30
0.0
 11
36105.16320504659
 21
28498.50183430028
 31
0.0
  0
LINE
  5
26E5
330
1F
100
AcDbEntity
  8
1
  6
Continuous
 62
     3
100
AcDbLine
 10
36268.66320504658
 20
28504.50183430027
 30
0.0
 11
36273.16320504659
 21
28504.50183430027
 31
0.0
  0
LINE
  5
26E6
330
1F
100
AcDbEntity
  8
1
  6
Continuous
 62
     3
100
AcDbLine
 10
36268.66320504658
 20
28498.50183430028
 30
0.0
 11
36273.16320504659
 21
28498.50183430028
 31
0.0
  0
LINE
  5
26E7
330
1F
100
AcDbEntity
  8
1
  6
Continuous
 62
     3
100
AcDbLine
 10
36295.34177647517
 20
28504.50183430027
 30
0.0
 11
36332.84177647516
 21
28504.50183430027
 31
0.0
  0
LINE
  5
26E8
330
1F
100
AcDbEntity
  8
1
  6
Continuous
 62
     3
100
AcDbLine
 10
36332.84177647516
 20
28504.50183430027
 30
0.0
 11
36332.84177647516
 21
28449.71612001456
 31
0.0
  0
LINE
  5
26E9
330
1F
100
AcDbEntity
  8
1
  6
Continuous
 62
     3
100
AcDbLine
 10
36332.84177647516
 20
28449.71612001456
 30
0.0
 11
36224.48463361801
 21
28449.71612001456
 31
0.0
  0
LINE
  5
26EA
330
1F
100
AcDbEntity
  8
1
  6
Continuous
 62
     3
100
AcDbLine
 10
36295.34177647517
 20
28498.50183430028
 30
0.0
 11
36317.84177647517
 21
28498.50183430028
 31
0.0
  0
LINE
  5
26EB
330
1F
100
AcDbEntity
  8
1
  6
Continuous
 62
     3
100
AcDbLine
 10
36317.84177647517
 20
28498.50183430028
 30
0.0
 11
36317.84177647517
 21
28455.71612001457
 31
0.0
  0
LINE
  5
26EC
330
1F
100
AcDbEntity
  8
1
  6
Continuous
 62
     3
100
AcDbLine
 10
36317.84177647517
 20
28455.71612001457
 30
0.0
 11
36224.48463361801
 21
28455.71612001457
 31
0.0
  0
LINE
  5
26ED
330
1F
100
AcDbEntity
  8
1
  6
Continuous
 62
     3
100
AcDbLine
 10
36224.48463361801
 20
28460.21612001456
 30
0.0
 11
36224.48463361801
 21
28445.21612001456
 31
0.0
  0
LINE
  5
26EE
330
1F
100
AcDbEntity
  8
1
  6
Continuous
 62
     3
100
AcDbLine
 10
36224.48463361801
 20
28445.21612001456
 30
0.0
 11
36164.48463361801
 21
28445.21612001456
 31
0.0
  0
LINE
  5
26EF
330
1F
100
AcDbEntity
  8
1
  6
Continuous
 62
     3
100
AcDbLine
 10
36164.48463361801
 20
28445.21612001456
 30
0.0
 11
36164.48463361801
 21
28460.21612001456
 31
0.0
  0
LINE
  5
26F0
330
1F
100
AcDbEntity
  8
1
  6
Continuous
 62
     3
100
AcDbLine
 10
36164.48463361801
 20
28460.21612001456
 30
0.0
 11
36224.48463361801
 21
28460.21612001456
 31
0.0
  0
LINE
  5
26F1
330
1F
100
AcDbEntity
  8
1
  6
Continuous
 62
     3
100
AcDbLine
 10
36167.25844314182
 20
28445.21612001456
 30
0.0
 11
36167.25844314182
 21
28430.21612001456
 31
0.0
  0
LINE
  5
26F2
330
1F
100
AcDbEntity
  8
1
  6
Continuous
 62
     3
100
AcDbLine
 10
36167.25844314182
 20
28430.21612001456
 30
0.0
 11
36119.61558599898
 21
28430.21612001456
 31
0.0
  0
TEXT
  5
26F3
330
1F
100
AcDbEntity
  8
1
 62
     3
100
AcDbText
 10
36239.37558684577
 20
28458.06887359357
 30
0.0
 40
7.466666666666665
  1
赤
 41
0.6666666666670002
  7
BIGFONT
100
AcDbText
  0
TEXT
  5
26F4
330
1F
100
AcDbEntity
  8
1
 62
     3
100
AcDbText
 10
36241.35089609056
 20
28436.34046376284
 30
0.0
 40
7.466666666666665
  1
白
 41
0.6666666666670002
  7
BIGFONT
100
AcDbText
  0
TEXT
  5
26F5
330
1F
100
AcDbEntity
  8
1
 62
     3
100
AcDbText
 10
36297.64720142909
 20
28485.72317046857
 30
0.0
 40
7.466666666666665
  1
赤
 41
0.6666666666670002
  7
BIGFONT
100
AcDbText
  0
TEXT
  5
26F6
330
1F
100
AcDbEntity
  8
1
 62
     3
100
AcDbText
 10
36297.64720142909
 20
28508.43921864565
 30
0.0
 40
7.466666666666665
  1
白
 41
0.6666666666670002
  7
BIGFONT
100
AcDbText
  0
LINE
  5
26F7
330
1F
100
AcDbEntity
  8
1
  6
Continuous
 62
     3
100
AcDbLine
 10
36259.66320504659
 20
28504.50183430027
 30
0.0
 11
36259.66320504659
 21
28498.50183430028
 31
0.0
  0
LINE
  5
26F8
330
1F
100
AcDbEntity
  8
1
  6
Continuous
 62
     3
100
AcDbLine
 10
36259.66320504659
 20
28498.50183430028
 30
0.0
 11
36244.66320504659
 21
28498.50183430028
 31
0.0
  0
LINE
  5
26F9
330
1F
100
AcDbEntity
  8
1
  6
Continuous
 62
     3
100
AcDbLine
 10
36244.66320504659
 20
28498.50183430028
 30
0.0
 11
36244.66320504659
 21
28504.50183430027
 31
0.0
  0
LINE
  5
26FA
330
1F
100
AcDbEntity
  8
1
  6
Continuous
 62
     3
100
AcDbLine
 10
36244.66320504659
 20
28504.50183430027
 30
0.0
 11
36259.66320504659
 21
28504.50183430027
 31
0.0
  0
TEXT
  5
26FB
330
1F
100
AcDbEntity
  8
1
 62
     3
100
AcDbText
 10
36246.87745859055
 20
28498.71610666649
 30
0.0
 40
5.107133992513066
  1
マーク
 41
0.692308381786
  7
BIGFONT
100
AcDbText
  0
TEXT
  5
26FC
330
1F
100
AcDbEntity
  8
1
 62
     3
100
AcDbText
 10
36131.92496835618
 20
28457.85901031232
 30
0.0
 40
7.466666666666665
  1
白
 41
0.6666666666670002
  7
BIGFONT
100
AcDbText
  0
TEXT
  5
26FD
330
1F
100
AcDbEntity
  8
1
 62
     3
100
AcDbText
 10
36131.92496835618
 20
28439.52565256492
 30
0.0
 40
7.466666666666665
  1
黒
 41
0.6666666666670002
  7
BIGFONT
100
AcDbText
  0
TEXT
  5
26FE
330
1F
100
AcDbEntity
  8
1
 62
     3
100
AcDbText
 10
36147.57861349612
 20
28431.18510348623
 30
0.0
 40
7.466666666666665
  1
アース
 41
0.6666666666670002
  7
BIGFONT
100
AcDbText
  0
TEXT
  5
26FF
330
1F
100
AcDbEntity
  8
1
 62
     3
100
AcDbText
 10
36152.35372812179
 20
28419.62087554669
 30
0.0
 40
7.466666666666665
  1
緑
 41
0.6666666666670002
  7
BIGFONT
100
AcDbText
  0
LINE
  5
2700
330
1F
100
AcDbEntity
  8
1
  6
Continuous
 62
     3
100
AcDbLine
 10
36295.34177647517
 20
28509.00183430027
 30
0.0
 11
36295.34177647517
 21
28494.00183430027
 31
0.0
  0
LINE
  5
2701
330
1F
100
AcDbEntity
  8
1
  6
Continuous
 62
     3
100
AcDbLine
 10
36295.34177647517
 20
28494.00183430027
 30
0.0
 11
36278.34177647517
 21
28494.00183430027
 31
0.0
  0
LINE
  5
2702
330
1F
100
AcDbEntity
  8
1
  6
Continuous
 62
     3
100
AcDbLine
 10
36278.34177647517
 20
28494.00183430027
 30
0.0
 11
36278.34177647517
 21
28509.00183430027
 31
0.0
  0
LINE
  5
2703
330
1F
100
AcDbEntity
  8
1
  6
Continuous
 62
     3
100
AcDbLine
 10
36278.34177647517
 20
28509.00183430027
 30
0.0
 11
36295.34177647517
 21
28509.00183430027
 31
0.0
  0
LINE
  5
2704
330
1F
100
AcDbEntity
  8
1
  6
Continuous
 62
     3
100
AcDbLine
 10
36083.16614787351
 20
28494.00183430027
 30
0.0
 11
36083.16614787351
 21
28509.00183430027
 31
0.0
  0
TEXT
  5
2705
330
1F
100
AcDbEntity
  8
1
 62
     3
100
AcDbText
 10
36205.30620208013
 20
28516.52567697898
 30
0.0
 40
9.0
  1
防沫ソケット配線接続側
 41
0.6666666666670002
  7
BIGFONT
100
AcDbText
  0
LINE
  5
2706
330
1F
100
AcDbEntity
  8
1
  6
Continuous
 62
     3
100
AcDbLine
 10
36289.30606218946
 20
28509.00183430027
 30
0.0
 11
36285.7804211638
 21
28514.95421525266
 31
0.0
  0
LINE
  5
2707
330
1F
100
AcDbEntity
  8
1
  6
Continuous
 62
     3
100
AcDbLine
 10
36083.16614787351
 20
28504.50183430027
 30
0.0
 11
36072.13043358777
 21
28504.50183430027
 31
0.0
  0
LINE
  5
2708
330
1F
100
AcDbEntity
  8
1
  6
Continuous
 62
     3
100
AcDbLine
 10
36083.16614787351
 20
28498.50183430028
 30
0.0
 11
36072.13043358777
 21
28498.50183430028
 31
0.0
  0
LINE
  5
2709
330
1F
100
AcDbEntity
  8
1
  6
Continuous
 62
     3
100
AcDbLine
 10
36075.66614787351
 20
28507.75183430028
 30
0.0
 11
36069.77329073064
 21
28502.25183430028
 31
0.0
  0
LINE
  5
270A
330
1F
100
AcDbEntity
  8
1
  6
Continuous
 62
     3
100
AcDbLine
 10
36070.16614787351
 20
28508.14469144313
 30
0.0
 11
36075.66614787351
 21
28501.85897715742
 31
0.0
  0
LINE
  5
270B
330
1F
100
AcDbEntity
  8
1
  6
Continuous
 62
     3
100
AcDbLine
 10
36075.27329073064
 20
28501.07326287171
 30
0.0
 11
36069.77329073064
 21
28494.78754858599
 31
0.0
  0
LINE
  5
270C
330
1F
100
AcDbEntity
  8
1
  6
Continuous
 62
     3
100
AcDbLine
 10
36070.55900501634
 20
28500.68040572885
 30
0.0
 11
36074.09471930206
 21
28495.57326287171
 31
0.0
  0
TEXT
  5
270D
330
1F
100
AcDbEntity
  8
1
 62
     3
100
AcDbText
 10
36305.54843840827
 20
28484.73550770814
 30
0.0
 40
7.466666666666665
  1
＋
 41
0.6666666666670002
  7
BIGFONT
100
AcDbText
  0
TEXT
  5
270E
330
1F
100
AcDbEntity
  8
1
 62
     3
100
AcDbText
 10
36304.56077564784
 20
28508.43921864565
 30
0.0
 40
7.466666666666665
  1
－
 41
0.6666666666670002
  7
BIGFONT
100
AcDbText
  0
TEXT
  5
270F
330
1F
100
AcDbEntity
  8
1
 62
     3
100
AcDbText
 10
36248.26445403326
 20
28435.35280100242
 30
0.0
 40
7.466666666666665
  1
－
 41
0.6666666666670002
  7
BIGFONT
100
AcDbText
  0
TEXT
  5
2710
330
1F
100
AcDbEntity
  8
1
 62
     3
100
AcDbText
 10
36247.27682382491
 20
28458.06887359357
 30
0.0
 40
7.466666666666665
  1
＋
 41
0.6666666666670002
  7
BIGFONT
100
AcDbText
  0
TEXT
  5
2711
330
1F
100
AcDbEntity
  8
1
 62
     3
100
AcDbText
 10
36157.35372812179
 20
28495.57320302066
 30
0.0
 40
12.0
  1
ＬＥＤ　ランプ
 41
0.6666666666670002
  7
BIGFONT
100
AcDbText
  0
TEXT
  5
2712
330
1F
100
AcDbEntity
  8
1
 62
     3
100
AcDbText
 10
36172.67449605026
 20
28447.85541432041
 30
0.0
 40
9.600000000000001
  1
ＬＥＤ用電源
 41
0.6666666666670002
  7
BIGFONT
100
AcDbText
  0
LINE
  5
2713
330
1F
100
AcDbEntity
  8
1
  6
Continuous
 62
     3
100
AcDbLine
 10
36164.48463361801
 20
28455.71612001457
 30
0.0
 11
36130.06796695135
 21
28455.76373906218
 31
0.0
  0
LINE
  5
2714
330
1F
100
AcDbEntity
  8
1
  6
Continuous
 62
     3
100
AcDbLine
 10
36164.48463361801
 20
28449.71612001456
 30
0.0
 11
36131.11558599898
 21
28449.71612001456
 31
0.0
  0
TEXT
  5
2715
330
1F
100
AcDbEntity
  8
1
 62
     3
100
AcDbText
 10
36108.30624277022
 20
28446.33524729148
 30
0.0
 40
12.0
  1
電源
 41
0.6666666666670002
  7
BIGFONT
100
AcDbText
  0
LINE
  5
2716
330
1F
100
AcDbEntity
  8
1
  6
Continuous
 62
     3
100
AcDbLine
 10
36293.66991549952
 20
28506.6474116643
 30
0.0
 11
36288.3365821662
 21
28506.6474116643
 31
0.0
  0
LINE
  5
2717
330
1F
100
AcDbEntity
  8
1
  6
Continuous
 62
     3
100
AcDbLine
 10
36288.3365821662
 20
28506.6474116643
 30
0.0
 11
36288.3365821662
 21
28496.26265797857
 31
0.0
  0
LINE
  5
2718
330
1F
100
AcDbEntity
  8
1
  6
Continuous
 62
     3
100
AcDbLine
 10
36288.3365821662
 20
28496.26265797857
 30
0.0
 11
36293.66991549952
 21
28496.26265797857
 31
0.0
  0
LINE
  5
2719
330
1F
100
AcDbEntity
  8
1
  6
Continuous
 62
     3
100
AcDbLine
 10
36293.66991549952
 20
28506.6474116643
 30
0.0
 11
36293.66991549952
 21
28496.26265797857
 31
0.0
  0
LINE
  5
271A
330
1F
100
AcDbEntity
  8
1
  6
Continuous
 62
     3
100
AcDbLine
 10
36083.16614787351
 20
28494.00183430027
 30
0.0
 11
36083.16614787351
 21
28509.00183430027
 31
0.0
  0
LINE
  5
271B
330
1F
100
AcDbEntity
  8
1
  6
Continuous
 62
     3
100
AcDbLine
 10
36083.16614787351
 20
28509.00183430027
 30
0.0
 11
36100.16614787351
 21
28509.00183430027
 31
0.0
  0
LINE
  5
271C
330
1F
100
AcDbEntity
  8
1
  6
Continuous
 62
     3
100
AcDbLine
 10
36100.16614787351
 20
28509.00183430027
 30
0.0
 11
36100.16614787351
 21
28494.00183430027
 31
0.0
  0
LINE
  5
271D
330
1F
100
AcDbEntity
  8
1
  6
Continuous
 62
     3
100
AcDbLine
 10
36100.16614787351
 20
28494.00183430027
 30
0.0
 11
36083.16614787351
 21
28494.00183430027
 31
0.0
  0
LINE
  5
271E
330
1F
100
AcDbEntity
  8
1
  6
Continuous
 62
     3
100
AcDbLine
 10
36084.83800884913
 20
28496.35625693625
 30
0.0
 11
36090.17134218247
 21
28496.35625693625
 31
0.0
  0
LINE
  5
271F
330
1F
100
AcDbEntity
  8
1
  6
Continuous
 62
     3
100
AcDbLine
 10
36090.17134218247
 20
28496.35625693625
 30
0.0
 11
36090.17134218247
 21
28506.74101062198
 31
0.0
  0
LINE
  5
2720
330
1F
100
AcDbEntity
  8
1
  6
Continuous
 62
     3
100
AcDbLine
 10
36090.17134218247
 20
28506.74101062198
 30
0.0
 11
36084.83800884913
 21
28506.74101062198
 31
0.0
  0
LINE
  5
2721
330
1F
100
AcDbEntity
  8
1
  6
Continuous
 62
     3
100
AcDbLine
 10
36084.83800884913
 20
28496.35625693625
 30
0.0
 11
36084.83800884913
 21
28506.74101062198
 31
0.0
  0
MTEXT
  5
2722
330
1F
100
AcDbEntity
  8
寸法線
100
AcDbMText
 10
36523.40281600472
 20
29329.24191340207
 30
0.0
 40
9.600000000000001
 41
206.0602204717434
 46
0.0
 71
     1
 72
     5
  1
{\fMS PGothic|b0|i0|c128|p50;ランプソケット取付金具}
 73
     1
 44
1.0
1001
ACAD
1000
ACAD_MTEXT_COLUMN_INFO_BEGIN
1070
    75
1070
     2
1070
    79
1070
     0
1070
    76
1070
     1
1070
    78
1070
     0
1070
    48
1040
206.0602204717434
1070
    49
1040
12.5
1070
    50
1070
     1
1040
0.0
1000
ACAD_MTEXT_COLUMN_INFO_END
  0
MTEXT
  5
2723
330
1F
100
AcDbEntity
  8
寸法線
100
AcDbMText
 10
36704.28547051201
 20
29333.76522699309
 30
0.0
 40
8.0
 41
163.0743348696414
 46
0.0
 71
     1
 72
     5
  1
{\fMS PGothic|b0|i0|c128|p50;鋼鈑　}1{\fMS PGothic|b0|i0|c128|p50;ｔ}\P{\fMS PGothic|b0|i0|c128|p50;（亜鉛メッキ板）}
 73
     1
 44
1.0
1001
ACAD
1000
ACAD_MTEXT_COLUMN_INFO_BEGIN
1070
    75
1070
     2
1070
    79
1070
     0
1070
    76
1070
     1
1070
    78
1070
     0
1070
    48
1040
163.0743348696414
1070
    49
1040
12.5
1070
    50
1070
     1
1040
0.0
1000
ACAD_MTEXT_COLUMN_INFO_END
  0
MTEXT
  5
2A05
330
1F
100
AcDbEntity
  8
寸法線
100
AcDbMText
 10
37007.43114546603
 20
29367.91013411685
 30
0.0
 40
9.599999999999999
 41
181.3710989523388
 46
0.0
 71
     1
 72
     5
  1
{\fMS PGothic|b0|i0|c128|p50;電源装置取付鋼鈑}
 73
     1
 44
1.0
1001
ACAD
1000
ACAD_MTEXT_COLUMN_INFO_BEGIN
1070
    75
1070
     2
1070
    79
1070
     0
1070
    76
1070
     1
1070
    78
1070
     0
1070
    48
1040
181.3710989523388
1070
    49
1040
12.5
1070
    50
1070
     1
1040
0.0
1000
ACAD_MTEXT_COLUMN_INFO_END
  0
MTEXT
  5
2A07
330
1F
100
AcDbEntity
  8
寸法線
100
AcDbMText
 10
37007.43114546603
 20
29327.93366885921
 30
0.0
 40
9.599999999999999
 41
181.3710989523388
 46
0.0
 71
     1
 72
     5
  1
{\fMS PGothic|b0|i0|c128|p50;専用電源装置}
 73
     1
 44
1.0
1001
ACAD
1000
ACAD_MTEXT_COLUMN_INFO_BEGIN
1070
    75
1070
     2
1070
    79
1070
     0
1070
    76
1070
     1
1070
    78
1070
     0
1070
    48
1040
181.3710989523388
1070
    49
1040
12.5
1070
    50
1070
     1
1040
0.0
1000
ACAD_MTEXT_COLUMN_INFO_END
  0
MTEXT
  5
2A08
330
1F
100
AcDbEntity
  8
寸法線
100
AcDbMText
 10
37305.01529630548
 20
29328.86262093258
 30
0.0
 40
6.4
 41
162.8281777420561
 46
0.0
 71
     1
 72
     5
  1
{\fMS PGothic|b0|i0|c128|p50;レシップ製定電流電源装置}\PK68-026C110-206
 73
     1
 44
1.0
1001
ACAD
1000
ACAD_MTEXT_COLUMN_INFO_BEGIN
1070
    75
1070
     2
1070
    79
1070
     0
1070
    76
1070
     1
1070
    78
1070
     0
1070
    48
1040
162.8281777420561
1070
    49
1040
12.5
1070
    50
1070
     1
1040
0.0
1000
ACAD_MTEXT_COLUMN_INFO_END
  0
MTEXT
  5
2A09
330
1F
100
AcDbEntity
  8
寸法線
100
AcDbMText
 10
37007.48515536144
 20
29292.77959782836
 30
0.0
 40
9.599999999999999
 41
199.244644231323
 46
0.0
 71
     1
 72
     5
  1
{\fMS PGothic|b0|i0|c128|p50;電源用　アース付端子台}
 73
     1
 44
1.0
1001
ACAD
1000
ACAD_MTEXT_COLUMN_INFO_BEGIN
1070
    75
1070
     2
1070
    79
1070
     0
1070
    76
1070
     1
1070
    78
1070
     0
1070
    48
1040
199.244644231323
1070
    49
1040
12.5
1070
    50
1070
     1
1040
0.0
1000
ACAD_MTEXT_COLUMN_INFO_END
  0
MTEXT
  5
2AC3
330
1F
100
AcDbEntity
  8
寸法線
100
AcDbMText
 10
37190.28547051201
 20
29369.76522699309
 30
0.0
 40
8.0
 41
163.0743348696414
 46
0.0
 71
     1
 72
     5
  1
{\fMS PGothic|b0|i0|c128|p50;鋼鈑　}0.8{\fMS PGothic|b0|i0|c128|p50;ｔ}\P{\fMS PGothic|b0|i0|c128|p50;（亜鉛メッキ板）}
 73
     1
 44
1.0
1001
ACAD
1000
ACAD_MTEXT_COLUMN_INFO_BEGIN
1070
    75
1070
     2
1070
    79
1070
     0
1070
    76
1070
     1
1070
    78
1070
     0
1070
    48
1040
163.0743348696414
1070
    49
1040
12.5
1070
    50
1070
     1
1040
0.0
1000
ACAD_MTEXT_COLUMN_INFO_END
  0
VIEWPORT
  5
318
102
{ACAD_XDICTIONARY
360
319
102
}
330
D2
100
AcDbEntity
 67
     1
  8
0
100
AcDbViewport
 10
211.3853471294841
 20
143.5205755233764
 30
0.0
 40
524.1411654859327
 41
314.237268371582
 68
     1
 69
     1
 12
211.3853471294841
 22
143.5205755233764
 13
0.0
 23
0.0
 14
10.0
 24
10.0
 15
10.0
 25
10.0
 16
0.0
 26
0.0
 36
1.0
 17
0.0
 27
0.0
 37
0.0
 42
50.0
 43
0.0
 44
0.0
 45
314.237268371582
 50
0.0
 51
0.0
 72
  1000
 90
   557088
  1

281
     0
 71
     1
 74
     0
110
0.0
120
0.0
130
0.0
111
1.0
121
0.0
131
0.0
112
0.0
122
1.0
132
0.0
 79
     0
146
0.0
170
     0
 61
     5
348
EC
292
     1
282
     1
141
0.0
142
0.0
 63
   250
421
  3355443
  0
VIEWPORT
  5
31C
102
{ACAD_XDICTIONARY
360
31D
102
}
330
D2
100
AcDbEntity
 67
     1
  8
外形線②
100
AcDbViewport
 10
128.5
 20
97.5
 30
0.0
 40
205.6
 41
156.0
 68
     2
 69
     2
 12
210.0
 22
148.5
 13
0.0
 23
0.0
 14
10.0
 24
10.0
 15
10.0
 25
10.0
 16
0.0
 26
0.0
 36
1.0
 17
0.0
 27
0.0
 37
0.0
 42
50.0
 43
0.0
 44
0.0
 45
321.3253284758076
 50
0.0
 51
0.0
 72
  1000
 90
   819808
  1

281
     0
 71
     1
 74
     0
110
0.0
120
0.0
130
0.0
111
1.0
121
0.0
131
0.0
112
0.0
122
1.0
132
0.0
 79
     0
146
0.0
170
     0
 61
     5
348
EC
292
     1
282
     1
141
0.0
142
0.0
 63
   250
421
  3355443
  0
ENDSEC
  0
SECTION
  2
OBJECTS
  0
DICTIONARY
  5
C
330
0
100
AcDbDictionary
281
     1
  3
ACAD_CIP_PREVIOUS_PRODUCT_INFO
350
20D
  3
ACAD_COLOR
350
79
  3
ACAD_DETAILVIEWSTYLE
350
212
  3
ACAD_GROUP
350
D
  3
ACAD_LAYOUT
350
1A
  3
ACAD_MATERIAL
350
78
  3
ACAD_MLEADERSTYLE
350
124
  3
ACAD_MLINESTYLE
350
17
  3
ACAD_PLOTSETTINGS
350
19
  3
ACAD_PLOTSTYLENAME
350
E
  3
ACAD_SCALELIST
350
103
  3
ACAD_SECTIONVIEWSTYLE
350
210
  3
ACAD_TABLESTYLE
350
97
  3
ACAD_VISUALSTYLE
350
E6
  3
ACDB_RECOMPOSE_DATA
350
2B03
  3
AcDbVariableDictionary
350
67
  0
DICTIONARY
  5
1F6
330
2
100
AcDbDictionary
280
     1
281
     1
  3
ACAD_LAYERSTATES
360
1F7
  0
DICTIONARY
  5
133
330
10
100
AcDbDictionary
280
     1
281
     1
  0
DICTIONARY
  5
CEB
330
CEA
100
AcDbDictionary
280
     1
281
     1
  0
DICTIONARY
  5
1C5
330
1F
100
AcDbDictionary
280
     1
281
     1
  3
ACAD_SORTENTS
360
35E
  0
DICTIONARY
  5
215F
330
2152
100
AcDbDictionary
280
     1
281
     1
  3
ACAD_DIMASSOC
360
2169
  0
DICTIONARY
  5
2177
330
216A
100
AcDbDictionary
280
     1
281
     1
  3
ACAD_DIMASSOC
360
2181
  0
DICTIONARY
  5
2191
330
2182
100
AcDbDictionary
280
     1
281
     1
  3
ACAD_DIMASSOC
360
219D
  0
DICTIONARY
  5
21AB
330
219E
100
AcDbDictionary
280
     1
281
     1
  3
ACAD_DIMASSOC
360
21B5
  0
DICTIONARY
  5
21C3
330
21B6
100
AcDbDictionary
280
     1
281
     1
  3
ACAD_DIMASSOC
360
21CD
  0
DICTIONARY
  5
21DB
330
21CE
100
AcDbDictionary
280
     1
281
     1
  3
ACAD_DIMASSOC
360
21E5
  0
DICTIONARY
  5
21F4
330
21E6
100
AcDbDictionary
280
     1
281
     1
  3
ACAD_DIMASSOC
360
21FF
  0
DICTIONARY
  5
319
330
318
100
AcDbDictionary
280
     1
281
     1
  3
ASDK_XREC_ANNOTATION_SCALE_INFO
360
31A
  0
DICTIONARY
  5
31D
330
31C
100
AcDbDictionary
280
     1
281
     1
  3
ASDK_XREC_ANNOTATION_SCALE_INFO
360
31E
  0
XRECORD
  5
20D
102
{ACAD_REACTORS
330
C
102
}
330
C
100
AcDbXrecord
280
     1
300
ACDLT
300
2016
300
ACDLT_F_S
  0
DICTIONARY
  5
79
102
{ACAD_REACTORS
330
C
102
}
330
C
100
AcDbDictionary
281
     1
  0
DICTIONARY
  5
212
102
{ACAD_REACTORS
330
C
102
}
330
C
100
AcDbDictionary
281
     1
  3
Metric50
350
213
  0
DICTIONARY
  5
D
102
{ACAD_REACTORS
330
C
102
}
330
C
100
AcDbDictionary
281
     1
  0
DICTIONARY
  5
1A
102
{ACAD_REACTORS
330
C
102
}
330
C
100
AcDbDictionary
281
     1
  3
Model
350
22
  3
レイアウト1
350
D3
  3
レイアウト2
350
D7
  0
DICTIONARY
  5
78
102
{ACAD_REACTORS
330
C
102
}
330
C
100
AcDbDictionary
281
     1
  3
ByBlock
350
E4
  3
ByLayer
350
E3
  3
Global
350
E5
  0
DICTIONARY
  5
124
102
{ACAD_REACTORS
330
C
102
}
330
C
100
AcDbDictionary
281
     1
  3
Annotative
350
132
  3
Standard
350
125
  0
DICTIONARY
  5
17
102
{ACAD_REACTORS
330
C
102
}
330
C
100
AcDbDictionary
281
     1
  3
Standard
350
18
  0
DICTIONARY
  5
19
102
{ACAD_REACTORS
330
C
102
}
330
C
100
AcDbDictionary
281
     1
  0
ACDBDICTIONARYWDFLT
  5
E
102
{ACAD_REACTORS
330
C
102
}
330
C
100
AcDbDictionary
281
     1
  3
Normal
350
F
100
AcDbDictionaryWithDefault
340
F
  0
DICTIONARY
  5
103
102
{ACAD_REACTORS
330
C
102
}
330
C
100
AcDbDictionary
281
     1
  3
A0
350
104
  3
A1
350
1B5
  3
A2
350
1B6
  3
A3
350
1B7
  3
A4
350
1B8
  3
A5
350
1B9
  3
A6
350
1BA
  3
A7
350
1BB
  3
A8
350
1BC
  3
A9
350
1BD
  3
B0
350
1BE
  3
B1
350
1BF
  3
B2
350
1C0
  3
B3
350
1C1
  3
B4
350
1C2
  3
B5
350
1C3
  3
B6
350
1C4
  0
DICTIONARY
  5
210
102
{ACAD_REACTORS
330
C
102
}
330
C
100
AcDbDictionary
281
     1
  3
Metric50
350
211
  0
DICTIONARY
  5
97
102
{ACAD_REACTORS
330
C
102
}
330
C
100
AcDbDictionary
281
     1
  3
Standard
350
98
  0
DICTIONARY
  5
E6
102
{ACAD_REACTORS
330
C
102
}
330
C
100
AcDbDictionary
281
     1
  3
2dWireframe
350
EC
  3
Basic
350
EB
  3
Brighten
350
F2
  3
ColorChange
350
F6
  3
Conceptual
350
EF
  3
Dim
350
F1
  3
EdgeColorOff
350
1DD
  3
Facepattern
350
F5
  3
Flat
350
E7
  3
FlatWithEdges
350
E8
  3
Gouraud
350
E9
  3
GouraudWithEdges
350
EA
  3
Hidden
350
EE
  3
JitterOff
350
1DB
  3
Linepattern
350
F4
  3
OverhangOff
350
1DC
  3
Realistic
350
F0
  3
Shaded
350
1EA
  3
Shaded with edges
350
1E9
  3
Shades of Gray
350
1E6
  3
Sketchy
350
1E7
  3
Thicken
350
F3
  3
Wireframe
350
ED
  3
X-Ray
350
1E8
  0
XRECORD
  5
2B03
102
{ACAD_REACTORS
330
C
102
}
330
C
100
AcDbXrecord
280
     1
 90
        1
330
98
330
211
330
213
330
1A69
330
1A6B
330
1A6D
330
1A6F
330
1A71
330
1A73
330
1A81
330
1AA9
330
2697
330
2698
330
2699
330
269A
330
269B
330
269C
330
269D
330
269E
330
269F
330
26A0
330
26A1
330
26A2
330
26A3
330
26A4
330
26A5
330
26A6
330
26A7
330
26A8
330
26AB
330
26AC
330
26AD
330
26AE
330
26AF
330
26B0
330
26B1
330
26B2
330
26B3
330
26B4
330
26B5
330
26C0
330
26C1
330
26C2
330
26C3
330
26C4
330
26C5
330
26C6
330
26C7
330
26C8
330
26C9
330
2722
330
2723
330
2A05
330
2A07
330
2A08
330
2A09
330
2AC3
  0
DICTIONARY
  5
67
102
{ACAD_REACTORS
330
C
102
}
330
C
100
AcDbDictionary
281
     1
  3
ANNOALLVISIBLE
350
1D65
  3
CANNOSCALE
350
13D
  3
CMLEADERSTYLE
350
13C
  3
CTABLESTYLE
350
C5
  3
CVIEWDETAILSTYLE
350
21E
  3
CVIEWSECTIONSTYLE
350
21F
  3
DIMASSOC
350
68
  3
EXPORTMODELSPACE
350
DA8
  3
HIDETEXT
350
6C
  3
LAYEREVAL
350
1A5
  3
LAYERNOTIFY
350
1A6
  0
DICTIONARY
  5
1F7
102
{ACAD_REACTORS
330
1F6
102
}
330
1F6
100
AcDbDictionary
281
     1
  0
SORTENTSTABLE
  5
35E
102
{ACAD_REACTORS
330
1C5
102
}
330
1C5
100
AcDbSortentsTable
330
1F
331
1AA7
  5
1AB0
331
1A68
  5
1A71
331
7E4
  5
908
331
1CA9
  5
1CB2
331
1F5F
  5
1F6B
331
1A70
  5
1A79
331
1969
  5
8A4
331
139A
  5
83F
331
1C6A
  5
1C73
331
1CB1
  5
1CBA
331
1C72
  5
1C7B
331
C1B
  5
861
331
1F28
  5
1F34
331
1F67
  5
1F73
331
13A2
  5
862
331
1A78
  5
1A81
331
1CB9
  5
1CC2
331
1C7A
  5
1C83
331
1F6F
  5
1F7B
331
1F30
  5
1F3C
331
1C82
  5
1C8B
331
200E
  5
201A
331
204D
  5
2059
331
1F90
  5
1F9C
331
2055
  5
2061
331
2016
  5
2022
331
1F98
  5
1FA4
331
205D
  5
2069
331
201E
  5
202A
331
1FD7
  5
1FE3
331
2026
  5
2032
331
1FA0
  5
1FAC
331
1FDF
  5
1FEB
331
1FE7
  5
1FF3
331
1FA8
  5
1FB4
331
2065
  5
2071
331
20A4
  5
20B0
331
20AC
  5
20B8
331
206D
  5
2079
331
2075
  5
2081
331
20B4
  5
210B
331
1A80
  5
1A89
331
13AA
  5
864
331
C23
  5
B28
331
207D
  5
2089
331
20BC
  5
212E
331
1F38
  5
1F44
331
1A88
  5
1A91
331
C43
  5
B4F
331
1CC1
  5
1CCA
331
1C8A
  5
1C93
331
1F40
  5
1F4C
331
1A51
  5
1A59
331
1CC9
  5
1CD2
331
1C4B
  5
1C54
331
1C92
  5
1C9B
331
1C53
  5
1C5C
331
1CD1
  5
1CDE
331
1F48
  5
1F54
331
1A98
  5
1AA1
331
1A59
  5
1A61
331
1C9A
  5
1CA3
331
1C5B
  5
1C64
331
1F50
  5
1F5C
331
1CA2
  5
1CAB
331
1C63
  5
1C6C
331
1FEF
  5
1FFB
331
202E
  5
203A
331
1FB0
  5
1FBC
331
1F71
  5
1F7D
331
2036
  5
2042
331
1FF7
  5
2003
331
1F79
  5
1F85
331
203E
  5
204A
331
1FFF
  5
200B
331
1FB8
  5
1FC4
331
1F81
  5
1F8D
331
2046
  5
2052
331
2007
  5
2013
331
1FC0
  5
1FCC
331
1FC8
  5
1FD4
331
1F89
  5
1F95
331
2085
  5
2091
331
210C
  5
1F2F
331
212C
  5
870
331
208D
  5
2099
331
2095
  5
20A1
331
1AA0
  5
1AA9
331
1A61
  5
1A69
331
209D
  5
20A9
331
1F58
  5
1F64
331
1AA8
  5
1AB1
331
1A69
  5
1A72
331
7E5
  5
8C6
331
1CAA
  5
1CB3
331
1F60
  5
1F6C
331
1AB0
  5
1AB9
331
1A71
  5
1A7A
331
196A
  5
8B8
331
139B
  5
909
331
1C6B
  5
1C74
331
1CB2
  5
1CBB
331
1C73
  5
1C7C
331
1F68
  5
1F74
331
C1C
  5
83E
331
93D
  5
8BA
331
1F29
  5
1F35
331
1A79
  5
1A82
331
13A3
  5
863
331
1CBA
  5
1CC3
331
1C7B
  5
1C84
331
1F31
  5
1F3D
331
1C83
  5
1C8C
331
200F
  5
201B
331
204E
  5
205A
331
1FD0
  5
1FDC
331
1F91
  5
1F9D
331
2056
  5
2062
331
2017
  5
2023
331
1F99
  5
1FA5
331
205E
  5
206A
331
201F
  5
202B
331
1FD8
  5
1FE4
331
1FE0
  5
1FEC
331
2027
  5
2033
331
1FA1
  5
1FAD
331
1FA9
  5
1FB5
331
2066
  5
2072
331
20A5
  5
20B1
331
214C
  5
214C
331
20AD
  5
20B9
331
206E
  5
207A
331
2076
  5
2082
331
20B5
  5
210C
331
1A81
  5
1A8A
331
C24
  5
B25
331
207E
  5
208A
331
20BD
  5
2132
331
1F39
  5
1F45
331
1A89
  5
1A92
331
1A4A
  5
911
331
1423
  5
8C4
331
C44
  5
B4E
331
1CC2
  5
1CCB
331
1C8B
  5
1C94
331
1F41
  5
1F4D
331
1A91
  5
1A9A
331
1A52
  5
1A5A
331
1CCA
  5
1CD3
331
1C4C
  5
1C55
331
1C93
  5
1C9C
331
1C54
  5
1C5D
331
9C5
  5
7E5
331
1CD2
  5
1CE1
331
1F49
  5
1F55
331
1A99
  5
1AA2
331
1A5A
  5
1A62
331
1C9B
  5
1CA4
331
1C5C
  5
1C65
331
1CEA
  5
1F24
331
1F51
  5
1F5D
331
1CA3
  5
1CAC
331
1C64
  5
1C6D
331
1FE8
  5
1FF4
331
1FF0
  5
1FFC
331
202F
  5
203B
331
1FB1
  5
1FBD
331
1F72
  5
1F7E
331
2037
  5
2043
331
1FF8
  5
2004
331
1F7A
  5
1F86
331
203F
  5
204B
331
2000
  5
200C
331
1FB9
  5
1FC5
331
1FC1
  5
1FCD
331
2047
  5
2053
331
1F82
  5
1F8E
331
1FC9
  5
1FD5
331
1F8A
  5
1F96
331
2086
  5
2092
331
208E
  5
209A
331
2096
  5
20A2
331
1AA1
  5
1AAA
331
1A62
  5
1A6A
331
1933
  5
83A
331
209E
  5
20AA
331
1F59
  5
1F65
331
1AA9
  5
1AB2
331
1A6A
  5
1A73
331
7E6
  5
83B
331
1CAB
  5
1CB4
331
1F61
  5
1F6D
331
1AB1
  5
1ABA
331
1A72
  5
1A7B
331
196B
  5
8A5
331
139C
  5
840
331
1F22
  5
1F2B
331
1C6C
  5
1C75
331
1CB3
  5
1CBC
331
1C74
  5
1C7D
331
1F69
  5
1F75
331
1F2A
  5
1F36
331
1A7A
  5
1A83
331
1CBB
  5
1CC4
331
1C7C
  5
1C85
331
1F32
  5
1F3E
331
1C84
  5
1C8D
331
2008
  5
2014
331
2010
  5
201C
331
204F
  5
205B
331
1FD1
  5
1FDD
331
1F92
  5
1F9E
331
2018
  5
2024
331
2057
  5
2063
331
1F9A
  5
1FA6
331
205F
  5
206B
331
2020
  5
202C
331
1FD9
  5
1FE5
331
1FE1
  5
1FED
331
1FA2
  5
1FAE
331
1FAA
  5
1FB6
331
2067
  5
2073
331
20A6
  5
20B2
331
214D
  5
214D
331
20AE
  5
20BA
331
206F
  5
207B
331
2077
  5
2083
331
20B6
  5
2128
331
1A82
  5
1A8B
331
207F
  5
208B
331
C25
  5
B26
331
1F3A
  5
1F46
331
1A8A
  5
1A93
331
1A4B
  5
1A53
331
1424
  5
8C5
331
9A6
  5
B23
331
1CC3
  5
1CCC
331
1C8C
  5
1C95
331
1F42
  5
1F4E
331
1A92
  5
1A9B
331
1A53
  5
1A5B
331
9BE
  5
831
331
1CCB
  5
1CD4
331
1C4D
  5
1C56
331
1C94
  5
1C9D
331
1C55
  5
1C5E
331
1CD3
  5
1CEB
331
1F4A
  5
1F56
331
1A9A
  5
1AA3
331
1A5B
  5
1A63
331
1C9C
  5
1CA5
331
1C5D
  5
1C66
331
1F52
  5
1F5E
331
1CA4
  5
1CAD
331
1C65
  5
1C6E
331
2028
  5
2034
331
1FE9
  5
1FF5
331
1FF1
  5
1FFD
331
2030
  5
203C
331
1FB2
  5
1FBE
331
1F73
  5
1F7F
331
2038
  5
2044
331
1FF9
  5
2005
331
1F7B
  5
1F87
331
2040
  5
204C
331
2001
  5
200D
331
1FBA
  5
1FC6
331
1FC2
  5
1FCE
331
1F83
  5
1F8F
331
1FCA
  5
1FD6
331
1F8B
  5
1F97
331
2087
  5
2093
331
212E
  5
86D
331
208F
  5
209B
331
2097
  5
20A3
331
1AA2
  5
1AAB
331
1A63
  5
1A6B
331
209F
  5
20AB
331
1F5A
  5
1F66
331
1AAA
  5
1AB3
331
1A6B
  5
1A74
331
1CAC
  5
1CB5
331
1F62
  5
1F6E
331
1A73
  5
1A7C
331
139D
  5
83D
331
1F23
  5
1F2C
331
1C6D
  5
1C76
331
1CB4
  5
1CBD
331
1C75
  5
1C7E
331
1F6A
  5
1F76
331
C1E
  5
866
331
1F2B
  5
1F37
331
1A7B
  5
1A84
331
1CBC
  5
1CC5
331
1C7D
  5
1C86
331
1F33
  5
1F3F
331
99F
  5
830
331
1C85
  5
1C8E
331
2048
  5
2054
331
2009
  5
2015
331
2011
  5
201D
331
2050
  5
205C
331
1FD2
  5
1FDE
331
1F93
  5
1F9F
331
2058
  5
2064
331
2019
  5
2025
331
1F9B
  5
1FA7
331
2021
  5
202D
331
1FDA
  5
1FE6
331
1FE2
  5
1FEE
331
1FA3
  5
1FAF
331
1FAB
  5
1FB7
331
2060
  5
206C
331
2068
  5
2074
331
20A7
  5
20B3
331
214E
  5
214E
331
20AF
  5
20BB
331
2070
  5
207C
331
2078
  5
2084
331
20B7
  5
2129
331
1A83
  5
1A8C
331
1F3B
  5
1F47
331
1A8B
  5
1A94
331
1A4C
  5
1A54
331
9A7
  5
B22
331
1CC4
  5
1CCD
331
1C8D
  5
1C96
331
1F43
  5
1F4F
331
1A93
  5
1A9C
331
1A54
  5
1A5C
331
1CCC
  5
1CD5
331
1C4E
  5
1C57
331
1C95
  5
1C9E
331
1C56
  5
1C5F
331
1CD4
  5
1CEC
331
1F4B
  5
1F57
331
1A9B
  5
1AA4
331
1A5C
  5
1A64
331
1C9D
  5
1CA6
331
1C5E
  5
1C67
331
1F53
  5
1F5F
331
1CA5
  5
1CAE
331
1C66
  5
1C6F
331
2029
  5
2035
331
1FEA
  5
1FF6
331
1FF2
  5
1FFE
331
2031
  5
203D
331
1FB3
  5
1FBF
331
1F74
  5
1F80
331
2039
  5
2045
331
1FFA
  5
2006
331
1F7C
  5
1F88
331
2041
  5
204D
331
2002
  5
200E
331
1FBB
  5
1FC7
331
1FC3
  5
1FCF
331
1F84
  5
1F90
331
1FCB
  5
1FD7
331
1F8C
  5
1F98
331
2080
  5
208C
331
2088
  5
2094
331
2090
  5
209C
331
2098
  5
20A4
331
1AA3
  5
1AAC
331
1F5B
  5
1F67
331
1AAB
  5
1AB4
331
1A6C
  5
1A75
331
1CAD
  5
1CB6
331
1C6E
  5
1C77
331
1F24
  5
1F2D
331
1A74
  5
1A7D
331
139E
  5
90C
331
C17
  5
B24
331
1F63
  5
1F6F
331
1CB5
  5
1CBE
331
1C76
  5
1C7F
331
1F6B
  5
1F77
331
C1F
  5
868
331
998
  5
906
331
1F2C
  5
1F38
331
1A7C
  5
1A85
331
1CBD
  5
1CC6
331
1C7E
  5
1C87
331
1F34
  5
1F40
331
1C86
  5
1C8F
331
2049
  5
2055
331
200A
  5
2016
331
2012
  5
201E
331
2051
  5
205D
331
1FD3
  5
1FDF
331
1F94
  5
1FA0
331
2059
  5
2065
331
201A
  5
2026
331
1F9C
  5
1FA8
331
2022
  5
202E
331
1FDB
  5
1FE7
331
1FE3
  5
1FEF
331
1FA4
  5
1FB0
331
1FAC
  5
1FB8
331
2061
  5
206D
331
20A0
  5
20AC
331
2069
  5
2075
331
20A8
  5
20B4
331
214F
  5
214F
331
2071
  5
207D
331
20B0
  5
20BC
331
2079
  5
2085
331
20B8
  5
212A
331
1A84
  5
1A8D
331
C27
  5
B29
331
9A0
  5
B55
331
1F3C
  5
1F48
331
1A8C
  5
1A95
331
1A4D
  5
1A55
331
1CC5
  5
1CCE
331
1C8E
  5
1C97
331
1C4F
  5
1C58
331
1A94
  5
1A9D
331
1A55
  5
1A5D
331
1CCD
  5
1CD6
331
1F44
  5
1F50
331
1C96
  5
1C9F
331
1C57
  5
1C60
331
1CD5
  5
1CED
331
1F4C
  5
1F58
331
1A9C
  5
1AA5
331
1A5D
  5
1A65
331
1C9E
  5
1CA7
331
1C5F
  5
1C68
331
1F54
  5
1F60
331
1CA6
  5
1CAF
331
1C67
  5
1C70
331
202A
  5
2036
331
1FEB
  5
1FF7
331
1FF3
  5
1FFF
331
2032
  5
203E
331
1FB4
  5
1FC0
331
1F75
  5
1F81
331
203A
  5
2046
331
1FFB
  5
2007
331
1F7D
  5
1F89
331
2042
  5
204E
331
2003
  5
200F
331
1FBC
  5
1FC8
331
1FC4
  5
1FD0
331
1F85
  5
1F91
331
1FCC
  5
1FD8
331
1F8D
  5
1F99
331
2081
  5
208D
331
2128
  5
2133
331
2089
  5
2095
331
2091
  5
209D
331
2099
  5
20A5
331
1AA4
  5
1AAD
331
1A65
  5
1A6E
331
1F5C
  5
1F68
331
1A6D
  5
1A76
331
1CAE
  5
1CB7
331
1C6F
  5
1C78
331
1F25
  5
1F2E
331
1A75
  5
1A7E
331
196E
  5
86A
331
C18
  5
B51
331
1F64
  5
1F70
331
1CB6
  5
1CBF
331
1C77
  5
1C80
331
1F6C
  5
1F78
331
999
  5
8C7
331
1F2D
  5
1F39
331
1A7D
  5
1A86
331
1CBE
  5
1CC7
331
1C7F
  5
1C88
331
1F35
  5
1F41
331
1C87
  5
1C90
331
204A
  5
2056
331
200B
  5
2017
331
2013
  5
201F
331
2052
  5
205E
331
1FD4
  5
1FE0
331
1F95
  5
1FA1
331
205A
  5
2066
331
201B
  5
2027
331
1F9D
  5
1FA9
331
2023
  5
202F
331
1FDC
  5
1FE8
331
1FE4
  5
1FF0
331
1FA5
  5
1FB1
331
1FAD
  5
1FB9
331
2062
  5
206E
331
20A1
  5
20AD
331
20A9
  5
20B5
331
2150
  5
2150
331
206A
  5
2076
331
2072
  5
207E
331
20B1
  5
20BD
331
207A
  5
2086
331
20B9
  5
212B
331
1A85
  5
1A8E
331
9A1
  5
B54
331
1F3D
  5
1F49
331
1A8D
  5
1A96
331
1A4E
  5
1A56
331
1CC6
  5
1CCF
331
1C8F
  5
1C98
331
1C50
  5
1C59
331
1A95
  5
1A9E
331
1A56
  5
1A5E
331
143F
  5
90A
331
1CCE
  5
1CD7
331
1F45
  5
1F51
331
1C97
  5
1CA0
331
1C58
  5
1C61
331
1CD6
  5
1CEE
331
1F4D
  5
1F59
331
1A9D
  5
1AA6
331
1A5E
  5
1A66
331
1C9F
  5
1CA8
331
1C60
  5
1C69
331
1F55
  5
1F61
331
1CA7
  5
1CB0
331
202B
  5
2037
331
1FEC
  5
1FF8
331
1FF4
  5
2000
331
2033
  5
203F
331
1FB5
  5
1FC1
331
1F76
  5
1F82
331
203B
  5
2047
331
1FFC
  5
2008
331
1F7E
  5
1F8A
331
2043
  5
204F
331
2004
  5
2010
331
1FBD
  5
1FC9
331
1FC5
  5
1FD1
331
1F86
  5
1F92
331
1FCD
  5
1FD9
331
1F8E
  5
1F9A
331
2082
  5
208E
331
2109
  5
839
331
2129
  5
86C
331
208A
  5
2096
331
2092
  5
209E
331
209A
  5
20A6
331
1AA5
  5
1AAE
331
1A66
  5
1A6F
331
1F5D
  5
1F69
331
1A6E
  5
1A77
331
1967
  5
869
331
1C68
  5
1C71
331
1CAF
  5
1CB8
331
1C70
  5
1C79
331
1F26
  5
1F32
331
1A76
  5
1A7F
331
C19
  5
83C
331
1F65
  5
1F71
331
1CB7
  5
1CC0
331
1C78
  5
1C81
331
1F6D
  5
1F79
331
1F2E
  5
1F3A
331
1A7E
  5
1A87
331
1CBF
  5
1CC8
331
1C80
  5
1C89
331
1F36
  5
1F42
331
200C
  5
2018
331
204B
  5
2057
331
2014
  5
2020
331
2053
  5
205F
331
1FD5
  5
1FE1
331
1F96
  5
1FA2
331
205B
  5
2067
331
201C
  5
2028
331
1F9E
  5
1FAA
331
2024
  5
2030
331
1FDD
  5
1FE9
331
1FE5
  5
1FF1
331
1FA6
  5
1FB2
331
1FAE
  5
1FBA
331
2063
  5
206F
331
20A2
  5
20AE
331
20AA
  5
20B6
331
206B
  5
2077
331
2073
  5
207F
331
20B2
  5
2109
331
C21
  5
867
331
207B
  5
2087
331
20BA
  5
212C
331
1A86
  5
1A8F
331
1A0F
  5
90E
331
9A2
  5
B53
331
1F3E
  5
1F4A
331
1A8E
  5
1A97
331
1A4F
  5
1A57
331
1CC7
  5
1CD0
331
1C88
  5
1C91
331
1C90
  5
1C99
331
1C51
  5
1C5A
331
1CCF
  5
1CD8
331
1F46
  5
1F52
331
1A57
  5
1A5F
331
1440
  5
90B
331
1A96
  5
1A9F
331
1C98
  5
1CA1
331
1C59
  5
1C62
331
1CD7
  5
1CEF
331
1F4E
  5
1F5A
331
1A9E
  5
1AA7
331
1A5F
  5
1A67
331
1CA0
  5
1CA9
331
1C61
  5
1C6A
331
1F56
  5
1F62
331
1FED
  5
1FF9
331
202C
  5
2038
331
1FF5
  5
2001
331
2034
  5
2040
331
1FB6
  5
1FC2
331
1F77
  5
1F83
331
203C
  5
2048
331
1FFD
  5
2009
331
1F7F
  5
1F8B
331
2044
  5
2050
331
2005
  5
2011
331
1FBE
  5
1FCA
331
1FC6
  5
1FD2
331
1F87
  5
1F93
331
1FCE
  5
1FDA
331
1F8F
  5
1F9B
331
2083
  5
208F
331
210A
  5
1F31
331
212A
  5
86E
331
208B
  5
2097
331
2132
  5
90F
331
2093
  5
209F
331
209B
  5
20A7
331
1AA6
  5
1AAF
331
1A67
  5
1A70
331
1CA8
  5
1CB1
331
1F5E
  5
1F6A
331
1A6F
  5
1A78
331
1968
  5
86B
331
873
  5
B21
331
1C69
  5
1C72
331
1CB0
  5
1CB9
331
1C71
  5
1C7A
331
1F27
  5
1F33
331
C1A
  5
860
331
1F66
  5
1F72
331
1A77
  5
1A80
331
1CB8
  5
1CC1
331
1C79
  5
1C82
331
1F6E
  5
1F7A
331
1F2F
  5
1F3B
331
1A7F
  5
1A88
331
1C81
  5
1C8A
331
1F37
  5
1F43
331
200D
  5
2019
331
204C
  5
2058
331
2054
  5
2060
331
2015
  5
2021
331
1FD6
  5
1FE2
331
1F97
  5
1FA3
331
205C
  5
2068
331
201D
  5
2029
331
1F9F
  5
1FAB
331
2025
  5
2031
331
1FDE
  5
1FEA
331
1FE6
  5
1FF2
331
1FA7
  5
1FB3
331
1FAF
  5
1FBB
331
2064
  5
2070
331
20A3
  5
20AF
331
20AB
  5
20B7
331
206C
  5
2078
331
2074
  5
2080
331
20B3
  5
210A
331
13A9
  5
865
331
C22
  5
B27
331
207C
  5
2088
331
20BB
  5
212D
331
1A87
  5
1A90
331
C42
  5
B50
331
9A3
  5
B52
331
1CC0
  5
1CC9
331
1F3F
  5
1F4B
331
1A50
  5
1A58
331
1CC8
  5
1CD1
331
1C89
  5
1C92
331
1C91
  5
1C9A
331
1C52
  5
1C5B
331
1CD0
  5
1CDB
331
1F47
  5
1F53
331
1A97
  5
1AA0
331
1A58
  5
1A60
331
1C99
  5
1CA2
331
1C5A
  5
1C63
331
7DC
  5
7DC
331
1F4F
  5
1F5B
331
1A9F
  5
1AA8
331
1CA1
  5
1CAA
331
1C62
  5
1C6B
331
1F57
  5
1F63
331
1FEE
  5
1FFA
331
202D
  5
2039
331
1F70
  5
1F7C
331
2035
  5
2041
331
1FF6
  5
2002
331
1FB7
  5
1FC3
331
1F78
  5
1F84
331
203D
  5
2049
331
1FFE
  5
200A
331
1F80
  5
1F8C
331
2045
  5
2051
331
2006
  5
2012
331
1FBF
  5
1FCB
331
1FC7
  5
1FD3
331
1F88
  5
1F94
331
1FCF
  5
1FDB
331
2084
  5
2090
331
210B
  5
1F30
331
212B
  5
86F
331
208C
  5
2098
331
2133
  5
910
331
2094
  5
20A0
331
1A60
  5
1A68
331
209C
  5
20A8
  0
DIMASSOC
  5
2169
102
{ACAD_REACTORS
330
215F
102
}
330
215F
100
AcDbDimAssoc
330
2152
 90
        3
 70
     0
 71
     0
  1
AcDbOsnapPointRef
 72
     2
331
1F79
 73
     2
 91
        0
 40
0.5000000000000001
 10
33648.18243935384
 20
27654.14148766218
 30
0.0
 75
     0
  1
AcDbOsnapPointRef
 72
     6
331
1F90
 73
     2
 91
        0
 40
0.6245546494844342
 10
34521.18243935384
 20
27653.35482972162
 30
0.0
332
1A82
 74
     2
 92
        0
 75
     0
  0
DIMASSOC
  5
2181
102
{ACAD_REACTORS
330
2177
102
}
330
2177
100
AcDbDimAssoc
330
216A
 90
        3
 70
     0
 71
     0
  1
AcDbOsnapPointRef
 72
     1
331
1F48
 73
     2
 91
        0
 40
1.0
 10
34520.18243935384
 20
27399.04966492571
 30
0.0
 75
     0
  1
AcDbOsnapPointRef
 72
    13
331
1F24
 73
     2
 91
        0
 40
0.0
 10
34520.18243935384
 20
27347.04966492571
 30
0.0
 75
     0
  0
DIMASSOC
  5
219D
102
{ACAD_REACTORS
330
2191
102
}
330
2191
100
AcDbDimAssoc
330
2182
 90
        3
 70
     0
 71
     0
  1
AcDbOsnapPointRef
 72
    13
331
1F24
 73
     2
 91
        0
 40
0.0
 10
34520.18243935384
 20
27347.04966492571
 30
0.0
 75
     0
  1
AcDbOsnapPointRef
 72
    13
331
1F68
 73
     2
 91
        0
 40
4.712388980384689
 10
34482.18243935384
 20
27343.04966492572
 30
0.0
 75
     0
  0
DIMASSOC
  5
21B5
102
{ACAD_REACTORS
330
21AB
102
}
330
21AB
100
AcDbDimAssoc
330
219E
 90
        3
 70
     0
 71
     0
  1
AcDbOsnapPointRef
 72
     6
331
1A67
 73
     2
 91
        0
 40
0.1382675908030744
 10
34751.19848660889
 20
27399.06897865269
 30
0.0
332
2086
 74
     2
 92
        0
 75
     0
  1
AcDbOsnapPointRef
 72
     2
331
20A4
 73
     2
 91
        0
 40
0.5
 10
34751.19848660889
 20
27343.06897865268
 30
0.0
 75
     0
  0
DIMASSOC
  5
21CD
102
{ACAD_REACTORS
330
21C3
102
}
330
21C3
100
AcDbDimAssoc
330
21B6
 90
        3
 70
     0
 71
     0
  1
AcDbOsnapPointRef
 72
    13
331
1A89
 73
     2
 91
        0
 40
0.0
 10
34682.39848660889
 20
27367.06897865269
 30
0.0
 75
     0
  1
AcDbOsnapPointRef
 72
     6
331
2085
 73
     2
 91
        0
 40
1.0
 10
34767.19848660889
 20
27382.81897865382
 30
0.0
332
2086
 74
     2
 92
        0
 75
     0
  0
DIMASSOC
  5
21E5
102
{ACAD_REACTORS
330
21DB
102
}
330
21DB
100
AcDbDimAssoc
330
21CE
 90
        3
 70
     0
 71
     0
  1
AcDbOsnapPointRef
 72
    13
331
1A67
 73
     2
 91
        0
 40
0.0
 10
34751.19848660889
 20
27409.0689790017
 30
0.0
 75
     0
  1
AcDbOsnapPointRef
 72
    13
331
1A89
 73
     2
 91
        0
 40
0.0
 10
34682.39848660889
 20
27367.06897865269
 30
0.0
 75
     0
  0
DIMASSOC
  5
21FF
102
{ACAD_REACTORS
330
21F4
102
}
330
21F4
100
AcDbDimAssoc
330
21E6
 90
        3
 70
     0
 71
     0
  1
AcDbOsnapPointRef
 72
    13
331
1A67
 73
     2
 91
        0
 40
0.0
 10
34751.19848660889
 20
27409.0689790017
 30
0.0
 75
     0
  1
AcDbOsnapPointRef
 72
    13
331
2086
 73
     2
 91
        0
 40
6.267681741756868
 10
34767.19848660887
 20
27382.81897865272
 30
0.0
 75
     0
  0
XRECORD
  5
31A
102
{ACAD_REACTORS
330
319
102
}
330
319
100
AcDbXrecord
280
     1
 90
        1
340
104
  0
XRECORD
  5
31E
102
{ACAD_REACTORS
330
31D
102
}
330
31D
100
AcDbXrecord
280
     1
 90
        1
340
104
  0
ACDBDETAILVIEWSTYLE
  5
213
102
{ACAD_XDICTIONARY
360
22D
102
}
102
{ACAD_REACTORS
330
212
102
}
330
212
100
AcDbModelDocViewStyle
 70
     0
  3
Metric50
290
     0
100
AcDbDetailViewStyle
 70
     0
 71
     0
 90
        3
 71
     1
340
11
 62
   256
 40
5.0
340
0
 62
   256
 40
5.0
300

 40
0.0
280
     1
 71
     2
340
16
 90
       25
 62
   256
 71
     3
340
11
 62
   256
 40
5.0
 90
        0
 40
15.0
 90
        1
300
%<\AcVar ViewDetailId>% (%<\AcVar ViewScale \f "%sn">%)
 71
     4
340
16
 90
       25
 62
   256
340
16
 90
       25
 62
   256
280
     0
  0
LAYOUT
  5
22
102
{ACAD_XDICTIONARY
360
1FC
102
}
102
{ACAD_REACTORS
330
1A
102
}
330
1A
100
AcDbPlotSettings
  1

  2
Kyocera TASKalfa 3252ci(J) KX
  4
A3
  6

 40
4.984749794006347
 41
5.111724853515625
 42
5.154083251953125
 43
4.9847412109375
 44
297.0106506347656
 45
419.9889831542968
 46
0.0
 47
0.0
 48
0.0
 49
0.0
140
0.0
141
0.0
142
1.0
143
9.806410578662045
 70
 11952
 72
     1
 73
     1
 74
     0
  7
monochrome.stb
 75
     0
147
0.1019741109122964
 76
     0
 77
     2
 78
   300
148
-32876.12478992212
149
-27320.92452532269
100
AcDbLayout
  1
Model
 70
     1
 71
     0
 10
0.0
 20
0.0
 11
12.0
 21
9.0
 12
0.0
 22
0.0
 32
0.0
 14
0.0
 24
0.0
 34
0.0
 15
0.0
 25
0.0
 35
0.0
146
0.0
 13
0.0
 23
0.0
 33
0.0
 16
1.0
 26
0.0
 36
0.0
 17
0.0
 27
1.0
 37
0.0
 76
     0
330
1F
331
E1
1001
ACAD_PSEXT
1000
Kyocera TASKalfa 3252ci(J) KX
1000
Kyocera TASKalfa 3252ci(J) KX
1000
192.168.11.123
1000

1070
     0
  0
LAYOUT
  5
D3
102
{ACAD_REACTORS
330
1A
102
}
330
1A
100
AcDbPlotSettings
  1

  2
Kyocera TASKalfa 3050ci(J) KX
  4
A3
  6

 40
4.984749794006347
 41
5.111724853515625
 42
5.154083251953125
 43
4.9847412109375
 44
297.0106506347656
 45
419.9889831542968
 46
0.0
 47
0.0
 48
0.0
 49
0.0
140
0.0
141
0.0
142
1.0
143
1.0
 70
   688
 72
     1
 73
     1
 74
     5
  7
monochrome.stb
 75
    16
147
1.0
 76
     0
 77
     2
 78
   300
148
0.0
149
0.0
100
AcDbLayout
  1
レイアウト1
 70
     1
 71
     1
 10
-4.9847412109375
 20
-4.984749794006347
 11
415.0042419433593
 21
292.0259008407593
 12
0.0
 22
0.0
 32
0.0
 14
25.69999999999999
 24
19.5
 34
0.0
 15
231.3
 25
175.5
 35
0.0
146
0.0
 13
0.0
 23
0.0
 33
0.0
 16
1.0
 26
0.0
 36
0.0
 17
0.0
 27
1.0
 37
0.0
 76
     0
330
D2
331
318
1001
ACAD_PSEXT
1000
Kyocera TASKalfa 3050ci(J) KX
1000
Kyocera TASKalfa 3050ci(J) KX
1000
192.168.11.123
1000

1070
     0
  0
LAYOUT
  5
D7
102
{ACAD_REACTORS
330
1A
102
}
330
1A
100
AcDbPlotSettings
  1

  2
C:\Documents and Settings\basas\Application Data\Autodesk\AutoCAD 2005\R16.1\enu\plotters\Default Windows System Printer.pc3
  4

  6

 40
0.0
 41
0.0
 42
0.0
 43
0.0
 44
0.0
 45
0.0
 46
0.0
 47
0.0
 48
0.0
 49
0.0
140
0.0
141
0.0
142
1.0
143
1.0
 70
   688
 72
     0
 73
     0
 74
     5
  7
monochrome.stb
 75
    16
147
1.0
 76
     0
 77
     2
 78
   300
148
0.0
149
0.0
100
AcDbLayout
  1
レイアウト2
 70
     1
 71
     2
 10
0.0
 20
0.0
 11
12.0
 21
9.0
 12
0.0
 22
0.0
 32
0.0
 14
0.0
 24
0.0
 34
0.0
 15
0.0
 25
0.0
 35
0.0
146
0.0
 13
0.0
 23
0.0
 33
0.0
 16
1.0
 26
0.0
 36
0.0
 17
0.0
 27
1.0
 37
0.0
 76
     0
330
D6
  0
MATERIAL
  5
E4
102
{ACAD_XDICTIONARY
360
1F0
102
}
102
{ACAD_REACTORS
330
78
102
}
330
78
100
AcDbMaterial
  1
ByBlock
 94
       63
  0
MATERIAL
  5
E3
102
{ACAD_XDICTIONARY
360
1EE
102
}
102
{ACAD_REACTORS
330
78
102
}
330
78
100
AcDbMaterial
  1
ByLayer
 94
       63
  0
MATERIAL
  5
E5
102
{ACAD_XDICTIONARY
360
16A
102
}
102
{ACAD_REACTORS
330
78
102
}
330
78
100
AcDbMaterial
  1
Global
 43
0.0007999999797903
 43
0.0
 43
0.0
 43
0.0
 43
0.0
 43
0.0007999999797903
 43
0.0
 43
0.0
 43
0.0
 43
0.0
 43
1.0
 43
0.0
 43
0.0
 43
0.0
 43
0.0
 43
1.0
 49
0.0007999999797903
 49
0.0
 49
0.0
 49
0.0
 49
0.0
 49
0.0007999999797903
 49
0.0
 49
0.0
 49
0.0
 49
0.0
 49
1.0
 49
0.0
 49
0.0
 49
0.0
 49
0.0
 49
1.0
142
0.0007999999797903
142
0.0
142
0.0
142
0.0
142
0.0
142
0.0007999999797903
142
0.0
142
0.0
142
0.0
142
0.0
142
1.0
142
0.0
142
0.0
142
0.0
142
0.0
142
1.0
144
0.0007999999797903
144
0.0
144
0.0
144
0.0
144
0.0
144
0.0007999999797903
144
0.0
144
0.0
144
0.0
144
0.0
144
1.0
144
0.0
144
0.0
144
0.0
144
0.0
144
1.0
 94
       63
1001
ACAD
1070
    -1
1070
     3
1070
     0
1000

1071
        0
1070
     0
  0
MLEADERSTYLE
  5
132
102
{ACAD_REACTORS
330
124
102
}
330
124
100
AcDbMLeaderStyle
179
     2
170
     2
171
     1
172
     0
 90
        2
 40
0.0
 41
0.0
173
     1
 91
-1056964608
340
14
 92
       -2
290
     1
 42
2.0
291
     1
 43
8.0
  3
Standard
 44
4.0
300

342
11
174
     1
178
     1
175
     1
176
     0
 93
-1056964608
 45
4.0
292
     0
297
     0
 46
4.0
 94
-1056964608
 47
1.0
 49
1.0
140
1.0
293
     1
141
0.0
294
     1
177
     0
142
1.0
295
     0
296
     1
143
3.75
271
     0
272
     9
273
     9
298
     0
  0
MLEADERSTYLE
  5
125
102
{ACAD_REACTORS
330
124
102
}
330
124
100
AcDbMLeaderStyle
179
     2
170
     2
171
     1
172
     0
 90
        2
 40
0.0
 41
0.0
173
     1
 91
-1056964608
340
14
 92
       -2
290
     1
 42
2.0
291
     1
 43
8.0
  3
Standard
 44
4.0
300

342
11
174
     1
178
     1
175
     1
176
     0
 93
-1056964608
 45
4.0
292
     0
297
     0
 46
4.0
 94
-1056964608
 47
1.0
 49
1.0
140
1.0
293
     1
141
0.0
294
     1
177
     0
142
1.0
295
     0
296
     0
143
3.75
271
     0
272
     9
273
     9
298
     0
  0
MLINESTYLE
  5
18
102
{ACAD_REACTORS
330
17
102
}
330
17
100
AcDbMlineStyle
  2
STANDARD
 70
     0
  3

 62
   256
 51
90.0
 52
90.0
 71
     2
 49
0.5
 62
   256
  6
BYLAYER
 49
-0.5
 62
   256
  6
BYLAYER
  0
ACDBPLACEHOLDER
  5
F
102
{ACAD_REACTORS
330
E
102
}
330
E
  0
SCALE
  5
104
102
{ACAD_REACTORS
330
103
102
}
330
103
100
AcDbScale
 70
     0
300
1:1
140
1.0
141
1.0
290
     1
  0
SCALE
  5
1B5
102
{ACAD_REACTORS
330
103
102
}
330
103
100
AcDbScale
 70
     0
300
1:2
140
1.0
141
2.0
290
     0
  0
SCALE
  5
1B6
102
{ACAD_REACTORS
330
103
102
}
330
103
100
AcDbScale
 70
     0
300
1:4
140
1.0
141
4.0
290
     0
  0
SCALE
  5
1B7
102
{ACAD_REACTORS
330
103
102
}
330
103
100
AcDbScale
 70
     0
300
1:5
140
1.0
141
5.0
290
     0
  0
SCALE
  5
1B8
102
{ACAD_REACTORS
330
103
102
}
330
103
100
AcDbScale
 70
     0
300
1:8
140
1.0
141
8.0
290
     0
  0
SCALE
  5
1B9
102
{ACAD_REACTORS
330
103
102
}
330
103
100
AcDbScale
 70
     0
300
1:10
140
1.0
141
10.0
290
     0
  0
SCALE
  5
1BA
102
{ACAD_REACTORS
330
103
102
}
330
103
100
AcDbScale
 70
     0
300
1:16
140
1.0
141
16.0
290
     0
  0
SCALE
  5
1BB
102
{ACAD_REACTORS
330
103
102
}
330
103
100
AcDbScale
 70
     0
300
1:20
140
1.0
141
20.0
290
     0
  0
SCALE
  5
1BC
102
{ACAD_REACTORS
330
103
102
}
330
103
100
AcDbScale
 70
     0
300
1:30
140
1.0
141
30.0
290
     0
  0
SCALE
  5
1BD
102
{ACAD_REACTORS
330
103
102
}
330
103
100
AcDbScale
 70
     0
300
1:40
140
1.0
141
40.0
290
     0
  0
SCALE
  5
1BE
102
{ACAD_REACTORS
330
103
102
}
330
103
100
AcDbScale
 70
     0
300
1:50
140
1.0
141
50.0
290
     0
  0
SCALE
  5
1BF
102
{ACAD_REACTORS
330
103
102
}
330
103
100
AcDbScale
 70
     0
300
1:100
140
1.0
141
100.0
290
     0
  0
SCALE
  5
1C0
102
{ACAD_REACTORS
330
103
102
}
330
103
100
AcDbScale
 70
     0
300
2:1
140
2.0
141
1.0
290
     0
  0
SCALE
  5
1C1
102
{ACAD_REACTORS
330
103
102
}
330
103
100
AcDbScale
 70
     0
300
4:1
140
4.0
141
1.0
290
     0
  0
SCALE
  5
1C2
102
{ACAD_REACTORS
330
103
102
}
330
103
100
AcDbScale
 70
     0
300
8:1
140
8.0
141
1.0
290
     0
  0
SCALE
  5
1C3
102
{ACAD_REACTORS
330
103
102
}
330
103
100
AcDbScale
 70
     0
300
10:1
140
10.0
141
1.0
290
     0
  0
SCALE
  5
1C4
102
{ACAD_REACTORS
330
103
102
}
330
103
100
AcDbScale
 70
     0
300
100:1
140
100.0
141
1.0
290
     0
  0
ACDBSECTIONVIEWSTYLE
  5
211
102
{ACAD_XDICTIONARY
360
22B
102
}
102
{ACAD_REACTORS
330
210
102
}
330
210
100
AcDbModelDocViewStyle
 70
     0
  3
Metric50
290
     0
100
AcDbSectionViewStyle
 70
     0
 71
     0
 90
      102
 71
     1
340
11
 62
   256
 40
5.0
340
0
340
0
 62
   256
 40
5.0
300
I, O, Q, S, X, Z
 40
10.0
 90
        0
 40
2.5
 90
        0
 71
     2
340
16
 90
       25
 62
   256
340
16
 90
       50
 62
   256
 40
5.0
 40
2.5
 40
5.0
 71
     3
340
11
 62
   256
 40
5.0
 90
        0
 40
15.0
 90
        1
300
%<\AcVar ViewSectionStartId>%-%<\AcVar ViewSectionEndId>% (%<\AcVar ViewScale \f "%sn">%)
 71
     4
 62
   256
 62
   257
300
ANSI31
 40
1.0
 90
        0
290
     0
290
     0
 90
        6
 40
0.0
 40
1.570796326794896
 40
0.2617993877991494
 40
1.308996938995747
 40
-0.2617993877991494
 40
1.832595714594046
  0
TABLESTYLE
  5
98
102
{ACAD_XDICTIONARY
360
159
102
}
102
{ACAD_REACTORS
330
97
102
}
330
97
100
AcDbTableStyle
280
     0
  3
Standard
 70
     0
 71
     0
 40
1.5
 41
1.5
280
     0
281
     0
  7
Standard
140
4.5
170
     2
 62
     0
 63
     7
283
     0
 90
      512
 91
        0
  1

274
    -2
284
     1
 64
     0
275
    -2
285
     1
 65
     0
276
    -2
286
     1
 66
     0
277
    -2
287
     1
 67
     0
278
    -2
288
     1
 68
     0
279
    -2
289
     1
 69
     0
  7
Standard
140
6.0
170
     5
 62
     0
 63
     7
283
     0
 90
      512
 91
        0
  1

274
    -2
284
     1
 64
     0
275
    -2
285
     1
 65
     0
276
    -2
286
     1
 66
     0
277
    -2
287
     1
 67
     0
278
    -2
288
     1
 68
     0
279
    -2
289
     1
 69
     0
  7
Standard
140
4.5
170
     5
 62
     0
 63
     7
283
     0
 90
      512
 91
        0
  1

274
    -2
284
     1
 64
     0
275
    -2
285
     1
 65
     0
276
    -2
286
     1
 66
     0
277
    -2
287
     1
 67
     0
278
    -2
288
     1
 68
     0
279
    -2
289
     1
 69
     0
  0
VISUALSTYLE
  5
EC
102
{ACAD_REACTORS
330
E6
102
}
330
E6
100
AcDbVisualStyle
  2
2dWireframe
 70
     4
177
     3
291
     0
 70
    58
 90
        0
176
     1
 90
        2
176
     1
 90
        1
176
     1
 90
        0
176
     1
 40
0.6
176
     1
 40
30.0
176
     1
 62
     7
420
 16777215
176
     1
 90
        1
176
     1
 90
        4
176
     1
 62
     7
176
     1
 62
   257
176
     1
 90
        1
176
     1
 90
        1
176
     1
 40
1.0
176
     1
 90
        0
176
     1
 62
   257
176
     1
 40
1.0
176
     1
 90
        1
176
     1
 90
        6
176
     1
 90
        2
176
     1
 62
     7
176
     1
 90
        5
176
     1
 90
        0
176
     1
 90
        0
176
     1
290
     0
176
     1
 90
        1
176
     1
 40
0.0
176
     1
 90
        0
176
     1
290
     1
176
     1
290
     1
176
     1
290
     0
176
     1
290
     0
176
     1
290
     0
176
     1
290
     0
176
     1
290
     0
176
     1
290
     0
176
     1
290
     0
176
     1
 90
       50
176
     1
 40
0.0
176
     1
 40
1.0
176
     1
 90
        0
176
     1
 62
    18
420
        0
176
     1
 90
       50
176
     1
 90
        3
176
     1
 62
     5
420
      255
176
     1
290
     0
176
     1
 90
       50
176
     1
 90
       50
176
     1
 90
       50
176
     1
290
     0
176
     1
 90
       50
176
     1
 62
   256
176
     0
 40
1.0
176
     0
 90
        2
176
     1
  1
strokes_ogs.tif
176
     1
290
     0
176
     1
 40
1.0
176
     1
 40
1.0
176
     1
  0
VISUALSTYLE
  5
EB
102
{ACAD_REACTORS
330
E6
102
}
330
E6
100
AcDbVisualStyle
  2
Basic
 70
     7
177
     3
291
     1
 70
    58
 90
        1
176
     1
 90
        0
176
     1
 90
        1
176
     1
 90
        0
176
     1
 40
0.6
176
     1
 40
30.0
176
     1
 62
     7
420
 16777215
176
     1
 90
        0
176
     1
 90
        4
176
     1
 62
     7
176
     1
 62
   257
176
     1
 90
        1
176
     1
 90
        1
176
     1
 40
1.0
176
     1
 90
        8
176
     1
 62
     7
176
     1
 40
1.0
176
     1
 90
        1
176
     1
 90
        6
176
     1
 90
        2
176
     1
 62
     7
176
     1
 90
        5
176
     1
 90
        0
176
     1
 90
        0
176
     1
290
     0
176
     1
 90
        1
176
     1
 40
0.0
176
     1
 90
        0
176
     1
290
     0
176
     1
290
     1
176
     1
290
     1
176
     1
290
     0
176
     1
290
     0
176
     1
290
     0
176
     1
290
     0
176
     1
290
     0
176
     1
290
     0
176
     1
 90
       50
176
     1
 40
0.0
176
     1
 40
1.0
176
     1
 90
        0
176
     1
 62
    18
420
        0
176
     1
 90
       50
176
     1
 90
        3
176
     1
 62
     5
420
      255
176
     1
290
     0
176
     1
 90
       50
176
     1
 90
       50
176
     1
 90
       50
176
     1
290
     0
176
     1
 90
       50
176
     1
 62
   256
176
     0
 40
1.0
176
     0
 90
        2
176
     1
  1
strokes_ogs.tif
176
     1
290
     0
176
     1
 40
1.0
176
     1
 40
1.0
176
     1
  0
VISUALSTYLE
  5
F2
102
{ACAD_REACTORS
330
E6
102
}
330
E6
100
AcDbVisualStyle
  2
Brighten
 70
    12
177
     3
291
     1
 70
    58
 90
        2
176
     1
 90
        2
176
     1
 90
        1
176
     1
 90
        0
176
     1
 40
0.6
176
     1
 40
30.0
176
     1
 62
     7
420
 16777215
176
     1
 90
        1
176
     1
 90
        4
176
     1
 62
     7
176
     1
 62
   257
176
     1
 90
        1
176
     1
 90
        1
176
     1
 40
1.0
176
     1
 90
        8
176
     1
 62
     7
176
     1
 40
1.0
176
     1
 90
        1
176
     1
 90
        6
176
     1
 90
        2
176
     1
 62
     7
176
     1
 90
        5
176
     1
 90
        0
176
     1
 90
        0
176
     1
290
     0
176
     1
 90
        1
176
     1
 40
50.0
176
     1
 90
        0
176
     1
290
     0
176
     1
290
     1
176
     1
290
     1
176
     1
290
     0
176
     1
290
     0
176
     1
290
     0
176
     1
290
     0
176
     1
290
     0
176
     1
290
     0
176
     1
 90
       50
176
     1
 40
0.0
176
     1
 40
1.0
176
     1
 90
        0
176
     1
 62
    18
420
        0
176
     1
 90
       50
176
     1
 90
        3
176
     1
 62
     5
420
      255
176
     1
290
     0
176
     1
 90
       50
176
     1
 90
       50
176
     1
 90
       50
176
     1
290
     0
176
     1
 90
       50
176
     1
 62
   256
176
     0
 40
1.0
176
     0
 90
        2
176
     1
  1
strokes_ogs.tif
176
     1
290
     0
176
     1
 40
1.0
176
     1
 40
1.0
176
     1
  0
VISUALSTYLE
  5
F6
102
{ACAD_REACTORS
330
E6
102
}
330
E6
100
AcDbVisualStyle
  2
ColorChange
 70
    16
177
     3
291
     1
 70
    58
 90
        2
176
     1
 90
        2
176
     1
 90
        3
176
     1
 90
        0
176
     1
 40
0.6
176
     1
 40
30.0
176
     1
 62
     8
420
  8421504
176
     1
 90
        1
176
     1
 90
        4
176
     1
 62
     7
176
     1
 62
   257
176
     1
 90
        1
176
     1
 90
        1
176
     1
 40
1.0
176
     1
 90
        8
176
     1
 62
     8
420
  8421504
176
     1
 40
1.0
176
     1
 90
        1
176
     1
 90
        6
176
     1
 90
        2
176
     1
 62
     7
176
     1
 90
        5
176
     1
 90
        0
176
     1
 90
        0
176
     1
290
     0
176
     1
 90
        1
176
     1
 40
0.0
176
     1
 90
        0
176
     1
290
     0
176
     1
290
     1
176
     1
290
     1
176
     1
290
     0
176
     1
290
     0
176
     1
290
     0
176
     1
290
     0
176
     1
290
     0
176
     1
290
     0
176
     1
 90
       50
176
     1
 40
0.0
176
     1
 40
1.0
176
     1
 90
        0
176
     1
 62
    18
420
        0
176
     1
 90
       50
176
     1
 90
        3
176
     1
 62
     5
420
      255
176
     1
290
     0
176
     1
 90
       50
176
     1
 90
       50
176
     1
 90
       50
176
     1
290
     0
176
     1
 90
       50
176
     1
 62
   256
176
     0
 40
1.0
176
     0
 90
        2
176
     1
  1
strokes_ogs.tif
176
     1
290
     0
176
     1
 40
1.0
176
     1
 40
1.0
176
     1
  0
VISUALSTYLE
  5
EF
102
{ACAD_REACTORS
330
E6
102
}
330
E6
100
AcDbVisualStyle
  2
Conceptual
 70
     9
177
     3
291
     0
 70
    58
 90
        3
176
     1
 90
        2
176
     1
 90
        1
176
     1
 90
        0
176
     1
 40
0.6
176
     1
 40
30.0
176
     1
 62
     7
420
 16777215
176
     1
 90
        2
176
     1
 90
        2
176
     1
 62
     7
176
     1
 62
   257
176
     1
 90
        1
176
     1
 90
        1
176
     1
 40
40.0
176
     1
 90
        8
176
     1
 62
     7
176
     1
 40
1.0
176
     1
 90
        1
176
     1
 90
        6
176
     1
 90
        2
176
     1
 62
     7
176
     1
 90
        3
176
     1
 90
        0
176
     1
 90
        0
176
     1
290
     0
176
     1
 90
        1
176
     1
 40
0.0
176
     1
 90
        0
176
     1
290
     0
176
     1
290
     1
176
     1
290
     1
176
     1
290
     0
176
     1
290
     0
176
     1
290
     0
176
     1
290
     0
176
     1
290
     0
176
     1
290
     0
176
     1
 90
       50
176
     1
 40
0.0
176
     1
 40
1.0
176
     1
 90
        0
176
     1
 62
    18
420
        0
176
     1
 90
       50
176
     1
 90
        3
176
     1
 62
     5
420
      255
176
     1
290
     0
176
     1
 90
       50
176
     1
 90
       50
176
     1
 90
       50
176
     1
290
     0
176
     1
 90
       50
176
     1
 62
   256
176
     0
 40
1.0
176
     0
 90
        2
176
     1
  1
strokes_ogs.tif
176
     1
290
     0
176
     1
 40
1.0
176
     1
 40
1.0
176
     1
  0
VISUALSTYLE
  5
F1
102
{ACAD_REACTORS
330
E6
102
}
330
E6
100
AcDbVisualStyle
  2
Dim
 70
    11
177
     3
291
     1
 70
    58
 90
        2
176
     1
 90
        2
176
     1
 90
        1
176
     1
 90
        0
176
     1
 40
0.6
176
     1
 40
30.0
176
     1
 62
     7
420
 16777215
176
     1
 90
        1
176
     1
 90
        4
176
     1
 62
     7
176
     1
 62
   257
176
     1
 90
        1
176
     1
 90
        1
176
     1
 40
1.0
176
     1
 90
        8
176
     1
 62
     7
176
     1
 40
1.0
176
     1
 90
        1
176
     1
 90
        6
176
     1
 90
        2
176
     1
 62
     7
176
     1
 90
        5
176
     1
 90
        0
176
     1
 90
        0
176
     1
290
     0
176
     1
 90
        1
176
     1
 40
-50.0
176
     1
 90
        0
176
     1
290
     0
176
     1
290
     1
176
     1
290
     1
176
     1
290
     0
176
     1
290
     0
176
     1
290
     0
176
     1
290
     0
176
     1
290
     0
176
     1
290
     0
176
     1
 90
       50
176
     1
 40
0.0
176
     1
 40
1.0
176
     1
 90
        0
176
     1
 62
    18
420
        0
176
     1
 90
       50
176
     1
 90
        3
176
     1
 62
     5
420
      255
176
     1
290
     0
176
     1
 90
       50
176
     1
 90
       50
176
     1
 90
       50
176
     1
290
     0
176
     1
 90
       50
176
     1
 62
   256
176
     0
 40
1.0
176
     0
 90
        2
176
     1
  1
strokes_ogs.tif
176
     1
290
     0
176
     1
 40
1.0
176
     1
 40
1.0
176
     1
  0
VISUALSTYLE
  5
1DD
102
{ACAD_REACTORS
330
E6
102
}
330
E6
100
AcDbVisualStyle
  2
EdgeColorOff
 70
    22
177
     3
291
     1
 70
    58
 90
        2
176
     0
 90
        2
176
     0
 90
        0
176
     0
 90
        0
176
     0
 40
0.6
176
     0
 40
30.0
176
     0
 62
     7
420
 16777215
176
     0
 90
        1
176
     0
 90
        4
176
     0
 62
     7
176
     0
 62
   257
176
     0
 90
        1
176
     0
 90
        1
176
     0
 40
1.0
176
     0
 90
        8
176
     2
 62
     7
176
     0
 40
1.0
176
     0
 90
        1
176
     0
 90
        6
176
     0
 90
        2
176
     0
 62
     7
176
     0
 90
        5
176
     0
 90
        0
176
     0
 90
        0
176
     0
290
     0
176
     0
 90
        1
176
     0
 40
0.0
176
     0
 90
        0
176
     0
290
     0
176
     1
290
     1
176
     1
290
     1
176
     1
290
     0
176
     1
290
     0
176
     1
290
     0
176
     1
290
     0
176
     1
290
     0
176
     1
290
     0
176
     1
 90
       50
176
     1
 40
0.0
176
     1
 40
1.0
176
     1
 90
        0
176
     1
 62
    18
420
        0
176
     1
 90
       50
176
     1
 90
        3
176
     1
 62
     5
420
      255
176
     1
290
     0
176
     1
 90
       50
176
     1
 90
       50
176
     1
 90
       50
176
     1
290
     0
176
     1
 90
       50
176
     1
 62
   256
176
     0
 40
1.0
176
     0
 90
        2
176
     1
  1
strokes_ogs.tif
176
     1
290
     0
176
     1
 40
1.0
176
     1
 40
1.0
176
     1
  0
VISUALSTYLE
  5
F5
102
{ACAD_REACTORS
330
E6
102
}
330
E6
100
AcDbVisualStyle
  2
Facepattern
 70
    15
177
     3
291
     1
 70
    58
 90
        2
176
     1
 90
        2
176
     1
 90
        1
176
     1
 90
        0
176
     1
 40
0.6
176
     1
 40
30.0
176
     1
 62
     7
420
 16777215
176
     1
 90
        1
176
     1
 90
        4
176
     1
 62
     7
176
     1
 62
   257
176
     1
 90
        1
176
     1
 90
        1
176
     1
 40
1.0
176
     1
 90
        8
176
     1
 62
     7
176
     1
 40
1.0
176
     1
 90
        1
176
     1
 90
        6
176
     1
 90
        2
176
     1
 62
     7
176
     1
 90
        5
176
     1
 90
        0
176
     1
 90
        0
176
     1
290
     0
176
     1
 90
        1
176
     1
 40
0.0
176
     1
 90
        0
176
     1
290
     0
176
     1
290
     1
176
     1
290
     1
176
     1
290
     0
176
     1
290
     0
176
     1
290
     0
176
     1
290
     0
176
     1
290
     0
176
     1
290
     0
176
     1
 90
       50
176
     1
 40
0.0
176
     1
 40
1.0
176
     1
 90
        0
176
     1
 62
    18
420
        0
176
     1
 90
       50
176
     1
 90
        3
176
     1
 62
     5
420
      255
176
     1
290
     0
176
     1
 90
       50
176
     1
 90
       50
176
     1
 90
       50
176
     1
290
     0
176
     1
 90
       50
176
     1
 62
   256
176
     0
 40
1.0
176
     0
 90
        2
176
     1
  1
strokes_ogs.tif
176
     1
290
     0
176
     1
 40
1.0
176
     1
 40
1.0
176
     1
  0
VISUALSTYLE
  5
E7
102
{ACAD_REACTORS
330
E6
102
}
330
E6
100
AcDbVisualStyle
  2
Flat
 70
     0
177
     3
291
     1
 70
    58
 90
        2
176
     1
 90
        1
176
     1
 90
        1
176
     1
 90
        2
176
     1
 40
0.6
176
     1
 40
30.0
176
     1
 62
     7
420
 16777215
176
     1
 90
        0
176
     1
 90
        0
176
     1
 62
     7
176
     1
 62
   257
176
     1
 90
        1
176
     1
 90
        1
176
     1
 40
1.0
176
     1
 90
        8
176
     1
 62
     7
176
     1
 40
1.0
176
     1
 90
        1
176
     1
 90
        6
176
     1
 90
        2
176
     1
 62
     7
176
     1
 90
        5
176
     1
 90
        0
176
     1
 90
        0
176
     1
290
     0
176
     1
 90
       13
176
     1
 40
0.0
176
     1
 90
        0
176
     1
290
     0
176
     1
290
     1
176
     1
290
     1
176
     1
290
     0
176
     1
290
     0
176
     1
290
     0
176
     1
290
     0
176
     1
290
     0
176
     1
290
     0
176
     1
 90
       50
176
     1
 40
0.0
176
     1
 40
1.0
176
     1
 90
        0
176
     1
 62
    18
420
        0
176
     1
 90
       50
176
     1
 90
        3
176
     1
 62
     5
420
      255
176
     1
290
     0
176
     1
 90
       50
176
     1
 90
       50
176
     1
 90
       50
176
     1
290
     0
176
     1
 90
       50
176
     1
 62
   256
176
     0
 40
1.0
176
     0
 90
        2
176
     1
  1
strokes_ogs.tif
176
     1
290
     0
176
     1
 40
1.0
176
     1
 40
1.0
176
     1
  0
VISUALSTYLE
  5
E8
102
{ACAD_REACTORS
330
E6
102
}
330
E6
100
AcDbVisualStyle
  2
FlatWithEdges
 70
     1
177
     3
291
     1
 70
    58
 90
        2
176
     1
 90
        1
176
     1
 90
        1
176
     1
 90
        2
176
     1
 40
0.6
176
     1
 40
30.0
176
     1
 62
     7
420
 16777215
176
     1
 90
        1
176
     1
 90
        0
176
     1
 62
     7
176
     1
 62
   257
176
     1
 90
        1
176
     1
 90
        1
176
     1
 40
1.0
176
     1
 90
        0
176
     1
 62
   257
176
     1
 40
1.0
176
     1
 90
        1
176
     1
 90
        6
176
     1
 90
        2
176
     1
 62
     7
176
     1
 90
        5
176
     1
 90
        0
176
     1
 90
        0
176
     1
290
     0
176
     1
 90
       13
176
     1
 40
0.0
176
     1
 90
        0
176
     1
290
     0
176
     1
290
     1
176
     1
290
     1
176
     1
290
     0
176
     1
290
     0
176
     1
290
     0
176
     1
290
     0
176
     1
290
     0
176
     1
290
     0
176
     1
 90
       50
176
     1
 40
0.0
176
     1
 40
1.0
176
     1
 90
        0
176
     1
 62
    18
420
        0
176
     1
 90
       50
176
     1
 90
        3
176
     1
 62
     5
420
      255
176
     1
290
     0
176
     1
 90
       50
176
     1
 90
       50
176
     1
 90
       50
176
     1
290
     0
176
     1
 90
       50
176
     1
 62
   256
176
     0
 40
1.0
176
     0
 90
        2
176
     1
  1
strokes_ogs.tif
176
     1
290
     0
176
     1
 40
1.0
176
     1
 40
1.0
176
     1
  0
VISUALSTYLE
  5
E9
102
{ACAD_REACTORS
330
E6
102
}
330
E6
100
AcDbVisualStyle
  2
Gouraud
 70
     2
177
     3
291
     1
 70
    58
 90
        2
176
     1
 90
        2
176
     1
 90
        1
176
     1
 90
        2
176
     1
 40
0.6
176
     1
 40
30.0
176
     1
 62
     7
420
 16777215
176
     1
 90
        0
176
     1
 90
        0
176
     1
 62
     7
176
     1
 62
   257
176
     1
 90
        1
176
     1
 90
        1
176
     1
 40
1.0
176
     1
 90
        0
176
     1
 62
     7
176
     1
 40
1.0
176
     1
 90
        1
176
     1
 90
        6
176
     1
 90
        2
176
     1
 62
     7
176
     1
 90
        5
176
     1
 90
        0
176
     1
 90
        0
176
     1
290
     0
176
     1
 90
       13
176
     1
 40
0.0
176
     1
 90
        0
176
     1
290
     0
176
     1
290
     1
176
     1
290
     1
176
     1
290
     0
176
     1
290
     0
176
     1
290
     0
176
     1
290
     0
176
     1
290
     0
176
     1
290
     0
176
     1
 90
       50
176
     1
 40
0.0
176
     1
 40
1.0
176
     1
 90
        0
176
     1
 62
    18
420
        0
176
     1
 90
       50
176
     1
 90
        3
176
     1
 62
     5
420
      255
176
     1
290
     0
176
     1
 90
       50
176
     1
 90
       50
176
     1
 90
       50
176
     1
290
     0
176
     1
 90
       50
176
     1
 62
   256
176
     0
 40
1.0
176
     0
 90
        2
176
     1
  1
strokes_ogs.tif
176
     1
290
     0
176
     1
 40
1.0
176
     1
 40
1.0
176
     1
  0
VISUALSTYLE
  5
EA
102
{ACAD_REACTORS
330
E6
102
}
330
E6
100
AcDbVisualStyle
  2
GouraudWithEdges
 70
     3
177
     3
291
     1
 70
    58
 90
        2
176
     1
 90
        2
176
     1
 90
        1
176
     1
 90
        2
176
     1
 40
0.6
176
     1
 40
30.0
176
     1
 62
     7
420
 16777215
176
     1
 90
        1
176
     1
 90
        0
176
     1
 62
     7
176
     1
 62
   257
176
     1
 90
        1
176
     1
 90
        1
176
     1
 40
1.0
176
     1
 90
        0
176
     1
 62
   257
176
     1
 40
1.0
176
     1
 90
        1
176
     1
 90
        6
176
     1
 90
        2
176
     1
 62
     7
176
     1
 90
        5
176
     1
 90
        0
176
     1
 90
        0
176
     1
290
     0
176
     1
 90
       13
176
     1
 40
0.0
176
     1
 90
        0
176
     1
290
     0
176
     1
290
     1
176
     1
290
     1
176
     1
290
     0
176
     1
290
     0
176
     1
290
     0
176
     1
290
     0
176
     1
290
     0
176
     1
290
     0
176
     1
 90
       50
176
     1
 40
0.0
176
     1
 40
1.0
176
     1
 90
        0
176
     1
 62
    18
420
        0
176
     1
 90
       50
176
     1
 90
        3
176
     1
 62
     5
420
      255
176
     1
290
     0
176
     1
 90
       50
176
     1
 90
       50
176
     1
 90
       50
176
     1
290
     0
176
     1
 90
       50
176
     1
 62
   256
176
     0
 40
1.0
176
     0
 90
        2
176
     1
  1
strokes_ogs.tif
176
     1
290
     0
176
     1
 40
1.0
176
     1
 40
1.0
176
     1
  0
VISUALSTYLE
  5
EE
102
{ACAD_REACTORS
330
E6
102
}
330
E6
100
AcDbVisualStyle
  2
Hidden
 70
     6
177
     3
291
     0
 70
    58
 90
        1
176
     1
 90
        2
176
     1
 90
        2
176
     1
 90
        0
176
     1
 40
0.6
176
     1
 40
30.0
176
     1
 62
     7
420
 16777215
176
     1
 90
        2
176
     1
 90
        2
176
     1
 62
     7
176
     1
 62
   257
176
     1
 90
        2
176
     1
 90
        1
176
     1
 40
40.0
176
     1
 90
        0
176
     1
 62
   257
176
     1
 40
1.0
176
     1
 90
        1
176
     1
 90
        6
176
     1
 90
        2
176
     1
 62
     7
176
     1
 90
        3
176
     1
 90
        0
176
     1
 90
        0
176
     1
290
     0
176
     1
 90
        1
176
     1
 40
0.0
176
     1
 90
        0
176
     1
290
     0
176
     1
290
     1
176
     1
290
     1
176
     1
290
     0
176
     1
290
     0
176
     1
290
     0
176
     1
290
     0
176
     1
290
     0
176
     1
290
     0
176
     1
 90
       50
176
     1
 40
0.0
176
     1
 40
1.0
176
     1
 90
        0
176
     1
 62
    18
420
        0
176
     1
 90
       50
176
     1
 90
        3
176
     1
 62
     5
420
      255
176
     1
290
     0
176
     1
 90
       50
176
     1
 90
       50
176
     1
 90
       50
176
     1
290
     0
176
     1
 90
       50
176
     1
 62
   256
176
     0
 40
1.0
176
     0
 90
        2
176
     1
  1
strokes_ogs.tif
176
     1
290
     0
176
     1
 40
1.0
176
     1
 40
1.0
176
     1
  0
VISUALSTYLE
  5
1DB
102
{ACAD_REACTORS
330
E6
102
}
330
E6
100
AcDbVisualStyle
  2
JitterOff
 70
    20
177
     3
291
     1
 70
    58
 90
        2
176
     0
 90
        2
176
     0
 90
        0
176
     0
 90
        0
176
     0
 40
0.6
176
     0
 40
30.0
176
     0
 62
     7
420
 16777215
176
     0
 90
        1
176
     0
 90
        4
176
     0
 62
     7
176
     0
 62
   257
176
     0
 90
        1
176
     0
 90
        1
176
     0
 40
1.0
176
     0
 90
       10
176
     2
 62
     7
176
     0
 40
1.0
176
     0
 90
        1
176
     0
 90
        6
176
     0
 90
        2
176
     0
 62
     7
176
     0
 90
        5
176
     0
 90
        0
176
     0
 90
        0
176
     0
290
     0
176
     0
 90
        1
176
     0
 40
0.0
176
     0
 90
        0
176
     0
290
     0
176
     1
290
     1
176
     1
290
     1
176
     1
290
     0
176
     1
290
     0
176
     1
290
     0
176
     1
290
     0
176
     1
290
     0
176
     1
290
     0
176
     1
 90
       50
176
     1
 40
0.0
176
     1
 40
1.0
176
     1
 90
        0
176
     1
 62
    18
420
        0
176
     1
 90
       50
176
     1
 90
        3
176
     1
 62
     5
420
      255
176
     1
290
     0
176
     1
 90
       50
176
     1
 90
       50
176
     1
 90
       50
176
     1
290
     0
176
     1
 90
       50
176
     1
 62
   256
176
     0
 40
1.0
176
     0
 90
        2
176
     1
  1
strokes_ogs.tif
176
     1
290
     0
176
     1
 40
1.0
176
     1
 40
1.0
176
     1
  0
VISUALSTYLE
  5
F4
102
{ACAD_REACTORS
330
E6
102
}
330
E6
100
AcDbVisualStyle
  2
Linepattern
 70
    14
177
     3
291
     1
 70
    58
 90
        2
176
     1
 90
        2
176
     1
 90
        1
176
     1
 90
        0
176
     1
 40
0.6
176
     1
 40
30.0
176
     1
 62
     7
420
 16777215
176
     1
 90
        1
176
     1
 90
        4
176
     1
 62
     7
176
     1
 62
   257
176
     1
 90
        7
176
     1
 90
        7
176
     1
 40
1.0
176
     1
 90
        8
176
     1
 62
     7
176
     1
 40
1.0
176
     1
 90
        1
176
     1
 90
        6
176
     1
 90
        2
176
     1
 62
     7
176
     1
 90
        5
176
     1
 90
        0
176
     1
 90
        0
176
     1
290
     0
176
     1
 90
        1
176
     1
 40
0.0
176
     1
 90
        0
176
     1
290
     0
176
     1
290
     1
176
     1
290
     1
176
     1
290
     0
176
     1
290
     0
176
     1
290
     0
176
     1
290
     0
176
     1
290
     0
176
     1
290
     0
176
     1
 90
       50
176
     1
 40
0.0
176
     1
 40
1.0
176
     1
 90
        0
176
     1
 62
    18
420
        0
176
     1
 90
       50
176
     1
 90
        3
176
     1
 62
     5
420
      255
176
     1
290
     0
176
     1
 90
       50
176
     1
 90
       50
176
     1
 90
       50
176
     1
290
     0
176
     1
 90
       50
176
     1
 62
   256
176
     0
 40
1.0
176
     0
 90
        2
176
     1
  1
strokes_ogs.tif
176
     1
290
     0
176
     1
 40
1.0
176
     1
 40
1.0
176
     1
  0
VISUALSTYLE
  5
1DC
102
{ACAD_REACTORS
330
E6
102
}
330
E6
100
AcDbVisualStyle
  2
OverhangOff
 70
    21
177
     3
291
     1
 70
    58
 90
        2
176
     0
 90
        2
176
     0
 90
        0
176
     0
 90
        0
176
     0
 40
0.6
176
     0
 40
30.0
176
     0
 62
     7
420
 16777215
176
     0
 90
        1
176
     0
 90
        4
176
     0
 62
     7
176
     0
 62
   257
176
     0
 90
        1
176
     0
 90
        1
176
     0
 40
1.0
176
     0
 90
        9
176
     2
 62
     7
176
     0
 40
1.0
176
     0
 90
        1
176
     0
 90
        6
176
     0
 90
        2
176
     0
 62
     7
176
     0
 90
        5
176
     0
 90
        0
176
     0
 90
        0
176
     0
290
     0
176
     0
 90
        1
176
     0
 40
0.0
176
     0
 90
        0
176
     0
290
     0
176
     1
290
     1
176
     1
290
     1
176
     1
290
     0
176
     1
290
     0
176
     1
290
     0
176
     1
290
     0
176
     1
290
     0
176
     1
290
     0
176
     1
 90
       50
176
     1
 40
0.0
176
     1
 40
1.0
176
     1
 90
        0
176
     1
 62
    18
420
        0
176
     1
 90
       50
176
     1
 90
        3
176
     1
 62
     5
420
      255
176
     1
290
     0
176
     1
 90
       50
176
     1
 90
       50
176
     1
 90
       50
176
     1
290
     0
176
     1
 90
       50
176
     1
 62
   256
176
     0
 40
1.0
176
     0
 90
        2
176
     1
  1
strokes_ogs.tif
176
     1
290
     0
176
     1
 40
1.0
176
     1
 40
1.0
176
     1
  0
VISUALSTYLE
  5
F0
102
{ACAD_REACTORS
330
E6
102
}
330
E6
100
AcDbVisualStyle
  2
Realistic
 70
     8
177
     3
291
     0
 70
    58
 90
        2
176
     1
 90
        3
176
     1
 90
        0
176
     1
 90
        2
176
     1
 40
0.6
176
     1
 40
30.0
176
     1
 62
     7
420
 16777215
176
     1
 90
        0
176
     1
 90
        0
176
     1
 62
     7
176
     1
 62
   257
176
     1
 90
        1
176
     1
 90
        1
176
     1
 40
1.0
176
     1
 90
        8
176
     1
 62
   257
176
     1
 40
1.0
176
     1
 90
        1
176
     1
 90
        6
176
     1
 90
        2
176
     1
 62
     7
176
     1
 90
        3
176
     1
 90
        0
176
     1
 90
        0
176
     1
290
     0
176
     1
 90
       13
176
     1
 40
0.0
176
     1
 90
        0
176
     1
290
     0
176
     1
290
     1
176
     1
290
     1
176
     1
290
     0
176
     1
290
     0
176
     1
290
     0
176
     1
290
     0
176
     1
290
     0
176
     1
290
     0
176
     1
 90
       50
176
     1
 40
0.0
176
     1
 40
1.0
176
     1
 90
        0
176
     1
 62
    18
420
        0
176
     1
 90
       50
176
     1
 90
        3
176
     1
 62
     5
420
      255
176
     1
290
     0
176
     1
 90
       50
176
     1
 90
       50
176
     1
 90
       50
176
     1
290
     0
176
     1
 90
       50
176
     1
 62
   256
176
     0
 40
1.0
176
     0
 90
        2
176
     1
  1
strokes_ogs.tif
176
     1
290
     0
176
     1
 40
1.0
176
     1
 40
1.0
176
     1
  0
VISUALSTYLE
  5
1EA
102
{ACAD_REACTORS
330
E6
102
}
330
E6
100
AcDbVisualStyle
  2
Shaded
 70
    27
177
     3
291
     0
 70
    58
 90
        2
176
     1
 90
        2
176
     1
 90
        1
176
     1
 90
        2
176
     1
 40
0.6
176
     1
 40
30.0
176
     1
 62
     7
420
 16777215
176
     1
 90
        0
176
     1
 90
        4
176
     1
 62
     7
176
     1
 62
   257
176
     1
 90
        1
176
     1
 90
        1
176
     1
 40
1.0
176
     1
 90
        8
176
     1
 62
   257
176
     1
 40
1.0
176
     1
 90
        1
176
     1
 90
        6
176
     1
 90
        2
176
     1
 62
     8
420
  7895160
176
     1
 90
        3
176
     1
 90
        0
176
     1
 90
        0
176
     1
290
     0
176
     1
 90
        5
176
     1
 40
0.0
176
     1
 90
        0
176
     1
290
     0
176
     1
290
     1
176
     1
290
     1
176
     1
290
     0
176
     1
290
     0
176
     1
290
     0
176
     1
290
     0
176
     1
290
     0
176
     1
290
     0
176
     1
 90
       50
176
     1
 40
0.0
176
     1
 40
1.0
176
     1
 90
        0
176
     1
 62
    18
420
        0
176
     1
 90
       50
176
     1
 90
        3
176
     1
 62
     5
420
      255
176
     1
290
     0
176
     1
 90
       50
176
     1
 90
       50
176
     1
 90
       50
176
     1
290
     0
176
     1
 90
       50
176
     1
 62
   256
176
     0
 40
1.0
176
     0
 90
        2
176
     1
  1
strokes_ogs.tif
176
     1
290
     0
176
     1
 40
1.0
176
     1
 40
1.0
176
     1
  0
VISUALSTYLE
  5
1E9
102
{ACAD_REACTORS
330
E6
102
}
330
E6
100
AcDbVisualStyle
  2
Shaded with edges
 70
    26
177
     3
291
     0
 70
    58
 90
        2
176
     1
 90
        2
176
     1
 90
        1
176
     1
 90
        2
176
     1
 40
0.6
176
     1
 40
30.0
176
     1
 62
     7
420
 16777215
176
     1
 90
        1
176
     1
 90
       10
176
     1
 62
     7
176
     1
 62
   257
176
     1
 90
        2
176
     1
 90
        1
176
     1
 40
1.0
176
     1
 90
        8
176
     1
 62
   257
176
     1
 40
1.0
176
     1
 90
        1
176
     1
 90
        6
176
     1
 90
        2
176
     1
 62
     7
176
     1
 90
        3
176
     1
 90
        0
176
     1
 90
        0
176
     1
290
     0
176
     1
 90
        5
176
     1
 40
0.0
176
     1
 90
        0
176
     1
290
     0
176
     1
290
     1
176
     1
290
     1
176
     1
290
     0
176
     1
290
     0
176
     1
290
     0
176
     1
290
     0
176
     1
290
     0
176
     1
290
     0
176
     1
 90
       50
176
     1
 40
0.0
176
     1
 40
1.0
176
     1
 90
        0
176
     1
 62
    18
420
        0
176
     1
 90
       50
176
     1
 90
        3
176
     1
 62
     5
420
      255
176
     1
290
     0
176
     1
 90
       50
176
     1
 90
       50
176
     1
 90
       50
176
     1
290
     0
176
     1
 90
       50
176
     1
 62
   256
176
     0
 40
1.0
176
     0
 90
        2
176
     1
  1
strokes_ogs.tif
176
     1
290
     0
176
     1
 40
1.0
176
     1
 40
1.0
176
     1
  0
VISUALSTYLE
  5
1E6
102
{ACAD_REACTORS
330
E6
102
}
330
E6
100
AcDbVisualStyle
  2
Shades of Gray
 70
    23
177
     3
291
     0
 70
    58
 90
        2
176
     1
 90
        2
176
     1
 90
        3
176
     1
 90
        0
176
     1
 40
0.6
176
     1
 40
30.0
176
     1
 62
     7
420
 16777215
176
     1
 90
        2
176
     1
 90
        2
176
     1
 62
     7
176
     1
 62
     7
176
     1
 90
        1
176
     1
 90
        1
176
     1
 40
40.0
176
     1
 90
        8
176
     1
 62
     7
176
     1
 40
1.0
176
     1
 90
        1
176
     1
 90
        6
176
     1
 90
        2
176
     1
 62
     7
176
     1
 90
        3
176
     1
 90
        0
176
     1
 90
        0
176
     1
290
     0
176
     1
 90
        1
176
     1
 40
0.0
176
     1
 90
        0
176
     1
290
     0
176
     1
290
     1
176
     1
290
     1
176
     1
290
     0
176
     1
290
     0
176
     1
290
     0
176
     1
290
     0
176
     1
290
     0
176
     1
290
     0
176
     1
 90
       50
176
     1
 40
0.0
176
     1
 40
1.0
176
     1
 90
        0
176
     1
 62
    18
420
        0
176
     1
 90
       50
176
     1
 90
        3
176
     1
 62
     5
420
      255
176
     1
290
     0
176
     1
 90
       50
176
     1
 90
       50
176
     1
 90
       50
176
     1
290
     0
176
     1
 90
       50
176
     1
 62
   256
176
     0
 40
1.0
176
     0
 90
        2
176
     1
  1
strokes_ogs.tif
176
     1
290
     0
176
     1
 40
1.0
176
     1
 40
1.0
176
     1
  0
VISUALSTYLE
  5
1E7
102
{ACAD_REACTORS
330
E6
102
}
330
E6
100
AcDbVisualStyle
  2
Sketchy
 70
    24
177
     3
291
     0
 70
    58
 90
        1
176
     1
 90
        2
176
     1
 90
        2
176
     1
 90
        0
176
     1
 40
0.6
176
     1
 40
30.0
176
     1
 62
     7
420
 16777215
176
     1
 90
        2
176
     1
 90
        2
176
     1
 62
     7
176
     1
 62
     7
176
     1
 90
        1
176
     1
 90
        1
176
     1
 40
40.0
176
     1
 90
       11
176
     1
 62
     7
176
     1
 40
1.0
176
     1
 90
        1
176
     1
 90
        6
176
     1
 90
        2
176
     1
 62
     7
176
     1
 90
        6
176
     1
 90
        0
176
     1
 90
        0
176
     1
290
     0
176
     1
 90
        1
176
     1
 40
0.0
176
     1
 90
        0
176
     1
290
     0
176
     1
290
     1
176
     1
290
     1
176
     1
290
     0
176
     1
290
     0
176
     1
290
     0
176
     1
290
     0
176
     1
290
     0
176
     1
290
     0
176
     1
 90
       50
176
     1
 40
0.0
176
     1
 40
1.0
176
     1
 90
        0
176
     1
 62
    18
420
        0
176
     1
 90
       50
176
     1
 90
        3
176
     1
 62
     5
420
      255
176
     1
290
     0
176
     1
 90
       50
176
     1
 90
       50
176
     1
 90
       50
176
     1
290
     0
176
     1
 90
       50
176
     1
 62
   256
176
     0
 40
1.0
176
     0
 90
        2
176
     1
  1
strokes_ogs.tif
176
     1
290
     0
176
     1
 40
1.0
176
     1
 40
1.0
176
     1
  0
VISUALSTYLE
  5
F3
102
{ACAD_REACTORS
330
E6
102
}
330
E6
100
AcDbVisualStyle
  2
Thicken
 70
    13
177
     3
291
     1
 70
    58
 90
        2
176
     1
 90
        2
176
     1
 90
        1
176
     1
 90
        0
176
     1
 40
0.6
176
     1
 40
30.0
176
     1
 62
     7
420
 16777215
176
     1
 90
        1
176
     1
 90
        4
176
     1
 62
     7
176
     1
 62
   257
176
     1
 90
        1
176
     1
 90
        1
176
     1
 40
1.0
176
     1
 90
       12
176
     1
 62
     7
176
     1
 40
1.0
176
     1
 90
        1
176
     1
 90
        6
176
     1
 90
        2
176
     1
 62
     7
176
     1
 90
        5
176
     1
 90
        0
176
     1
 90
        0
176
     1
290
     0
176
     1
 90
        1
176
     1
 40
0.0
176
     1
 90
        0
176
     1
290
     0
176
     1
290
     1
176
     1
290
     1
176
     1
290
     0
176
     1
290
     0
176
     1
290
     0
176
     1
290
     0
176
     1
290
     0
176
     1
290
     0
176
     1
 90
       50
176
     1
 40
0.0
176
     1
 40
1.0
176
     1
 90
        0
176
     1
 62
    18
420
        0
176
     1
 90
       50
176
     1
 90
        3
176
     1
 62
     5
420
      255
176
     1
290
     0
176
     1
 90
       50
176
     1
 90
       50
176
     1
 90
       50
176
     1
290
     0
176
     1
 90
       50
176
     1
 62
   256
176
     0
 40
1.0
176
     0
 90
        2
176
     1
  1
strokes_ogs.tif
176
     1
290
     0
176
     1
 40
1.0
176
     1
 40
1.0
176
     1
  0
VISUALSTYLE
  5
ED
102
{ACAD_REACTORS
330
E6
102
}
330
E6
100
AcDbVisualStyle
  2
Wireframe
 70
     5
177
     3
291
     0
 70
    58
 90
        0
176
     1
 90
        2
176
     1
 90
        0
176
     1
 90
        0
176
     1
 40
0.6
176
     1
 40
30.0
176
     1
 62
     7
420
 16777215
176
     1
 90
        1
176
     1
 90
        4
176
     1
 62
     7
176
     1
 62
   257
176
     1
 90
        1
176
     1
 90
        1
176
     1
 40
1.0
176
     1
 90
        0
176
     1
 62
   257
176
     1
 40
1.0
176
     1
 90
        1
176
     1
 90
        6
176
     1
 90
        2
176
     1
 62
     7
176
     1
 90
        3
176
     1
 90
        0
176
     1
 90
        0
176
     1
290
     0
176
     1
 90
        1
176
     1
 40
0.0
176
     1
 90
        0
176
     1
290
     0
176
     1
290
     1
176
     1
290
     1
176
     1
290
     0
176
     1
290
     0
176
     1
290
     0
176
     1
290
     0
176
     1
290
     0
176
     1
290
     0
176
     1
 90
       50
176
     1
 40
0.0
176
     1
 40
1.0
176
     1
 90
        0
176
     1
 62
    18
420
        0
176
     1
 90
       50
176
     1
 90
        3
176
     1
 62
     5
420
      255
176
     1
290
     0
176
     1
 90
       50
176
     1
 90
       50
176
     1
 90
       50
176
     1
290
     0
176
     1
 90
       50
176
     1
 62
   256
176
     0
 40
1.0
176
     0
 90
        2
176
     1
  1
strokes_ogs.tif
176
     1
290
     0
176
     1
 40
1.0
176
     1
 40
1.0
176
     1
  0
VISUALSTYLE
  5
1E8
102
{ACAD_REACTORS
330
E6
102
}
330
E6
100
AcDbVisualStyle
  2
X-Ray
 70
    25
177
     3
291
     0
 70
    58
 90
        2
176
     1
 90
        2
176
     1
 90
        1
176
     1
 90
        1
176
     1
 40
0.5
176
     1
 40
30.0
176
     1
 62
     7
420
 16777215
176
     1
 90
        1
176
     1
 90
        0
176
     1
 62
     7
176
     1
 62
   257
176
     1
 90
        1
176
     1
 90
        1
176
     1
 40
1.0
176
     1
 90
        8
176
     1
 62
     7
176
     1
 40
1.0
176
     1
 90
        1
176
     1
 90
        6
176
     1
 90
        2
176
     1
 62
     7
176
     1
 90
        3
176
     1
 90
        0
176
     1
 90
        0
176
     1
290
     0
176
     1
 90
       13
176
     1
 40
0.0
176
     1
 90
        0
176
     1
290
     0
176
     1
290
     1
176
     1
290
     1
176
     1
290
     0
176
     1
290
     0
176
     1
290
     0
176
     1
290
     0
176
     1
290
     0
176
     1
290
     0
176
     1
 90
       50
176
     1
 40
0.0
176
     1
 40
1.0
176
     1
 90
        0
176
     1
 62
    18
420
        0
176
     1
 90
       50
176
     1
 90
        3
176
     1
 62
     5
420
      255
176
     1
290
     0
176
     1
 90
       50
176
     1
 90
       50
176
     1
 90
       50
176
     1
290
     0
176
     1
 90
       50
176
     1
 62
   256
176
     0
 40
1.0
176
     0
 90
        2
176
     1
  1
strokes_ogs.tif
176
     1
290
     0
176
     1
 40
1.0
176
     1
 40
1.0
176
     1
  0
DICTIONARYVAR
  5
1D65
102
{ACAD_REACTORS
330
67
102
}
330
67
100
DictionaryVariables
280
     0
  1
0
  0
DICTIONARYVAR
  5
13D
102
{ACAD_REACTORS
330
67
102
}
330
67
100
DictionaryVariables
280
     0
  1
1:1
  0
DICTIONARYVAR
  5
13C
102
{ACAD_REACTORS
330
67
102
}
330
67
100
DictionaryVariables
280
     0
  1
STANDARD
  0
DICTIONARYVAR
  5
C5
102
{ACAD_REACTORS
330
67
102
}
330
67
100
DictionaryVariables
280
     0
  1
STANDARD
  0
DICTIONARYVAR
  5
21E
102
{ACAD_REACTORS
330
67
102
}
330
67
100
DictionaryVariables
280
     0
  1
Metric50
  0
DICTIONARYVAR
  5
21F
102
{ACAD_REACTORS
330
67
102
}
330
67
100
DictionaryVariables
280
     0
  1
Metric50
  0
DICTIONARYVAR
  5
68
102
{ACAD_REACTORS
330
67
102
}
330
67
100
DictionaryVariables
280
     0
  1
2
  0
DICTIONARYVAR
  5
DA8
102
{ACAD_REACTORS
330
67
102
}
330
67
100
DictionaryVariables
280
     0
  1
2
  0
DICTIONARYVAR
  5
6C
102
{ACAD_REACTORS
330
67
102
}
330
67
100
DictionaryVariables
280
     0
  1
1
  0
DICTIONARYVAR
  5
1A5
102
{ACAD_REACTORS
330
67
102
}
330
67
100
DictionaryVariables
280
     0
  1
0
  0
DICTIONARYVAR
  5
1A6
102
{ACAD_REACTORS
330
67
102
}
330
67
100
DictionaryVariables
280
     0
  1
0
  0
DICTIONARY
  5
22D
330
213
100
AcDbDictionary
280
     1
281
     1
  3
ACAD_XREC_ROUNDTRIP
360
2B02
  0
DICTIONARY
  5
1FC
330
22
100
AcDbDictionary
280
     1
281
     1
  3
AcPublish_PlotSettingsOverride
360
DA7
  0
DICTIONARY
  5
1F0
330
E4
100
AcDbDictionary
280
     1
281
     1
  3
FBXASSET
360
1F1
  0
DICTIONARY
  5
1EE
330
E3
100
AcDbDictionary
280
     1
281
     1
  3
FBXASSET
360
1EF
  0
DICTIONARY
  5
16A
330
E5
100
AcDbDictionary
280
     1
281
     1
  3
BUMPTILE
360
16C
  3
DIFFUSETILE
360
16B
  3
FBXASSET
360
1F2
  3
OPACITYTILE
360
16D
  3
REFLECTIONTILE
360
16E
  0
DICTIONARY
  5
22B
330
211
100
AcDbDictionary
280
     1
281
     1
  3
ACAD_XREC_ROUNDTRIP
360
2B01
  0
DICTIONARY
  5
159
330
98
100
AcDbDictionary
280
     1
281
     1
  3
ACAD_ROUNDTRIP_2008_TABLESTYLE_CELLSTYLEMAP
360
2B00
  0
XRECORD
  5
2B02
102
{ACAD_REACTORS
330
22D
102
}
330
22D
100
AcDbXrecord
280
     1
102
DISPLAYNAME
  1
Metric50
102
FLAGS
 90
        0
  0
PLOTSETTINGS
  5
DA7
102
{ACAD_REACTORS
330
1FC
102
}
330
1FC
100
AcDbPlotSettings
  1

  2
Kyocera TASKalfa 3050ci(J) KX
  4
ANSI_A_(8.50_x_11.00_Inches)
  6

 40
4.984749794006347
 41
5.111724853515625
 42
5.154083251953125
 43
4.9847412109375
 44
297.0106506347656
 45
419.9889831542968
 46
0.0
 47
0.0
 48
35785.82830891649
 49
28277.30141662591
140
37465.82830891649
141
29465.30141662591
142
1.0
143
1.0
 70
 11952
 72
     1
 73
     1
 74
     4
  7

 75
    16
147
1.0
 76
     0
 77
     2
 78
   300
148
-35785.82830891649
149
-28277.30141662591
1001
ACAD_PSEXT
1000
Kyocera TASKalfa 3050ci(J) KX
1000
Kyocera TASKalfa 3050ci(J) KX
1000
192.168.11.123
1000

1070
     0
  0
XRECORD
  5
1F1
102
{ACAD_REACTORS
330
1F0
102
}
330
1F0
100
AcDbXrecord
280
     1
 70
     1
 90
429727718
  1
F226E010-5D7B-4EF0-9E0F-00A2E58668EA
310
504B03040A0000080000C270623B3DEE336E79000000790000001B0000006175746F6465736B2D64657369676E2D7061636B6167652E786D6C3C3F786D6C2076657273696F6E3D22312E302220656E636F64696E673D227574662D3822203F3E3C666F726D6174733E3C666F726D61743E687474703A2F2F736368656D612E
310
6175746F6465736B2E636F6D2F64657369676E2D7061636B6167652F323030393C2F666F726D61743E3C2F666F726D6174733E504B0304140006080800C270623BD486FD9CA0000000F4000000130000005B436F6E74656E745F54797065735D2E786D6C7D8EC10E82300C865F65E91D8A1E8C310C0EEA1BF002731658846E
310
D98AC1B77784ABF1D8FE5FBFBF75BBCE937A534CCEB38643598122B6FEE978D0B0485F9C41B54DDD7D022595594E1A469170414C76A4D9A4D207E29CF43ECE46F218070CC6BECC4078ACAA135ACF422C856C0E68EA1BF5669944DDD7BCDE7B1F8E415D77AECB980613C2E4AC91FC167A2B244592486606FC29C8FD7F045B9A
310
EF7053A7E60B504B0304140006080800C270623B132FA9F8EA0000007C01000008000000636F72652E786D6C8D90DD6EC3200C855F05F976223169D2D18850ADDDF6047B010434436D200A30EDF147FA236D77BBB2757C3EDB3A62FF3D5DC8975DA20B7E00562110EB7530CE8F03E474A21CC85E8A2584F4CB06C4ABC90EB0
310
CA20C5B8843CDF251D7CB23E15D50763EFA28AD12620FA529A01A2FEB493AA544EC511CFD5ACF4598DB6628FAEC0393B436E479C29FBDCC9D905E486BFBF1D5ED8336D78D7D2961F90F2233FD2572C8316D9B6EB1A51AFB014C94D8FFB7AB12A5903B241DC51C628361FACED71DB63FB84BC4714F56AFF03E5D9FC13CACEA7
310
4D737FF7864590AC3C721D4851AF5994720DAAD43537F903504B0304140006080800C270623B55019EA25F0000007C00000007000000636E782E786D6C4DCB3B0E80201045D1AD90E915ED2CF8AC45050C11660C8261F98AB1B07AC9C97D42D718D865D3E909258CFD00CCE24AC6E326A164D74DC0B4128928FF326038472B
310
A13128B1252AC747C6BAB984FC68F0B87FE8960A5C09FE86CFB69FBA01504B0304140006080800C270623B0B97CEAB6F010000D40300000C0000006662782F636F72652E786D6CC553ED6E8320147D15C2DF05416B3BD720CDDA6D4FB017A04A1DA98241307DFC5D3F9AAE4BB774BFE60F25E7DCCB3DE7207C736A6AD42BD7
310
696B721C470C23650A5B6A53E538F803C930DA08EEACF55FCA3032B251391E602C78E56C6867A8B0C62BE30135B6543328BB4E798C8A1A1639EE8A0FD5C848060F15DD316A657194958AE20868A813BCF30E04A069C8F0C6E2B03F713AE18287A0CB99D5254CD307AD1C168BECED75FB1C3F92245BA624CDB68C64BB6C475E
310
1810298B57CB65C2E9D02CB8D7CD595DE194F4AAC42261EC89C43161C97B9CAED96ACDD20796AD19E37428BF6A0A6D796753D0C62F9259EED4D66111839091F8E61622F2A8933DE8A182D32144F88C095F070D8140C85EEEEBB38F2340BD2ABC752930A50D17AA9775503095456C7CD0CF0B4EA74E983A6E0EAE6FCE48EE9E
310
F1FB8E70D4D25460427A58EE831F74F249C31C5AAB1CE9FD0919EB1A59DF67E317877FA22EE26F4A2A6C6DDD7F29A2F301D1F9F7A0C37D149F504B0304140006080800C270623BD9317DDA7D0000009D0000000B0000006662782F636E782E786D6C4DCCD10AC2201886E15B91FFDC966B53037588D27D8CE686E4344CA3CB
310
6F8B1D74F4C1C3C72B86CF1AD0DBE5974F5102399D01B9784F938F8B845A66CC010D4AE494CADF0D501C572761675062C9A93E0F9ADC3CD650360D3E3E0E34BDE1DA901EDFAE96E18ED00E6BC65A6C29B78651DEB28B864689E657DA760FAB2F504B0304140006080800C270623B609261632A010000120200003100000066
310
62782F43354338414331352D463944372D343136342D413737322D4436384443373638323733412F636F72652E786D6C8D515B6EC32010BC0AE22B55850D0E7E24C24491A39EA0172086A42831583CAA1CBF503B52FB971F16CDCECC0E2C3B3CA63BF856CE6B6B7A480A0C8132A395DA5C7B18C30575101C3873D6863F3408
310
8C98540F330C39BB3A1BE7151AAD09CA84841A2BD50A0AEF558060BCA74B0FFDF8A52651881812C3DF8A598C3771550529523BF138F3C1A5006019924FC8877AE88E03A9D1C7EED4224A1A8A8E6D5BA153D39D86B6E9AA767B64E522E42C462D57B996298EBE68E55E35C962CE829E9EF147A7445012F20AE31D2204E1EA93
310
D03D6EF698BEE36E8F312B33FD9F28CEF24551D4266CAB35EE22F39013562E0DCEA48DE7FB338C7ACCD60590E76DBC1ADF20C705C635D951562EC4F4FCE4D8D0D5D107EBD2F76E6EE7C425F562DB50CECABCA1547ED7976ADE26FF01504B0304140006080800C270623BAB1CAE584E01000033030000300000006662782F43
310
354338414331352D463944372D343136342D413737322D4436384443373638323733412F636E782E786D6CD593CD6EC32010845F0571AD6CE3D48AD20813A9873E410FBD12D82434182C7EAAE6EDBB2424CD25871E7B41D6EC30B3FA84F9E67BB2E40B4234DE8DB46F1925E094D7C6ED479AD3AE5951B2113C789FEE6C9438
310
39C1488B4C05DF079FE72A69D8C96C13AAD6B8631503449F83828872B949AC57D26200B826A308D316B4064D6E46FCDA41C05550DC9E483A00797BFD207EFB092A45DE9514C1BBD22178396BD39D891265658C238DEA00936C654E5E433CB65A26D9F6EDB5EBC14EBF49A45CB856E66048291F6939A9A81BB5C8917738143C
310
A680F4AA299D66A042CEB3354A2684DC9D8D178FE0D9B8B41CAAD720F880EE7EF93C0C18769E099ECC04D5A102C8049A8A05632F4DDF376CF1DE0F6BB65CB3E189ADD68CF1AED805DF7A6FEB258C81E067A2BC4BE012153DEFCAF811BEEA23DA0464EDC3E90F2011406DBDD0B965FC673EDDF97D23AE807F81F801504B0304
310
140006080800C270623BCB23EE24670500003C100000340000006662782F43354338414331352D463944372D343136342D413737322D4436384443373638323733412F6F626A656374732E786D6CAD575B8F9B3818FD2B887DE69664A6332B866A72ABA26ADAAA51AB7D182932E030EC0046B69966F6D7EF31180224D3662F
310
7908D8D8DFF57CC79FFDF7873C335E2817292BEE4CCF764D8316118BD322B9332BB9B76E4CE37DE073C6646F99691424A777A69A36033FE1AC2AF5544CF7A4CAE468763DFFC310112DA869441911E2CE14D113CD894D2AC9622A9EED98486227FB83EDD9CDC2A1D88493F26924B4249C16129662BE8014A331CA1B0E5DD309
310
7C477D0F7CF5AF574DDF5EE5D4FE0CF5A78590A4884E948DC44CBDD97235B9BAB5AE66B3A935BB9E78D67C3D5F5ADEBBA9BBB85E2C6EEF57B7502C2487246D09A77B33F880D8F034F29DE65367B136FC9C49112B0A1AD5FEC3C3DA662D31A6252D62E431A502DA7A5EBBC3A1A762D3FB3C5563ADB23F7D9957FD1D3D41ADED
310
EDB36F290BFF840BE21254704115AA9AF868471BFCB9C7A8858C65FA5B2A8C9C48CA539219591A72C25FCD004BD592C01F8851E8E40AE1CA0333F08EF2FAB6A2347E8DDD7356EEAB2C53D034831AD93BE09F4A515B96FE45F9796DB009B9AAD242DE6887E46B49CDE0D677EAC9C0578FE9447F6C0269EC339220E570B3F93A
310
7274A16A6FB334838FEBF0B055F5785E79C95949B954F001B4DAC4B54F1525ADD6BB28736A039C19C4FC1894AF88FC2794EFD114E48DA787D961A6B5484E0AB1673C476E6CB7FE196EFB62756FA72FE0B3D1EAD335DDCCBF5AEC3B9DB143C2782B7F00974ACDCD7FCFDF30667DA4F6D217F82F2830C6A73A94DB8864A09E87
310
B4404214288D8C610A5CBE0F0F66B0015382D9B18B644117909317DF79C177FC37B2C156B5FADEB34042477C7B01F323967559C0B637C072C293B562EDDC5B31BFFA5F6AE67EB9FDB8ADF89E44F44113CB92EED32295383B8FE0ED1B3448C4C0A367FAFA83F1188E9E2661DB4F42AE5509445BC55C053E690F0B35386A1E28
310
88B02F618AF3FC5F6878484544B38C149455AD96EE185258ED4846F709A8C226A0D3C908C59CBEA4AA9318AC189885B33EE269A942D61D7A1D4FDB6FF8F26DF309A03483F9EB1C687D3EAE0A8F741FB18CF15DF8BA6B98D004F8B06788EEEF4378EB883A4A0A105F63B9A51C1DE25D9CEEF79500EF9E89E2F7CDA29FA98E48
310
4E5FDA026A35363539033BA3F608D7F06D75A221E004073B2B76298E7194E559E57DDD6305A296FB86FCB0CACB1DC95955C84BC2E4B6FEB4D677C2FB5D8CF84164F46406DBFA69CD41D9318D8FA91AA0401D41677C1AA4673D995CAF5CCFB5AE96EFE6D66CB576ADDB95BBB65CF77EB2BABAB9BEBE59DD7716D596047E7B42
310
F56B10D1C489E8573CD561FEB63996AD193C10299C0F4D413949F3FCB6B1D116FB0EF600E0DDC64D5E6634A785240ABE0FEA25FB4AD0550C6434F39B9C24F402299F3F6C473660E6827D5F54A9D11FA3BD7A76A16AE1AC10F954E56141D26CB4513B6E9745A2DD6E43D93D1B466F876AA4E3893E54B02C8D4138B191509653
310
09DAB980ED794E0510D3EFCA637D7BB860F74BD30F4A1266B4B5E489A025CE04500DB855911CCE1BBFA185535DD49D89C3CE7EC69F2E44D340AAEF4CF09B4C232AEC10C7A36A7C6AE18000BAB08E0401355224193AEB665337EE76A9D8807E70026AFDDD924BBA25EDD7807873529638B507B45ADBA61544FFC8F1D61C8348
310
BC8695EC7C394E74CED46A50598D53FA6E8016E259AB3EA0BE7EEE9667D76B0611B9E89EF4531034522D497852DF0B947DDAA4FBE51707AD80B1F96C9459952097974BB23805982B55E0401150A165964402AA8BDF1FBF7086BB686EAC5340E071C1F29C157A70AFEFB2C6F60937D3F811B440D5F5434C5CCF7BACBB7E7D11
310
D98544509BC4E219136DC1290F465803204F8E539D0247E560B47CB334F4813183D01AB4274D69730D37503CEAE6A84AA54F96E54F1B7FA75E0A3070B4ECC1DF504B0304140006080000C270623B000000000000000000000000350000006662782F43354338414331352D463944372D343136342D413737322D4436384443
310
373638323733412F76657274696365732E62696E504B0304140006080800C270623BF270F1330600000004000000360000006662782F43354338414331352D463944372D343136342D413737322D4436384443373638323733412F747269616E676C65732E62696E636660600000504B0304140006080000C270623B000000
310
000000000000000000370000006662782F43354338414331352D463944372D343136342D413737322D4436384443373638323733412F617474726962757465732E62696E504B0304140006080800C270623B08DA0BD19000000041010000360000006662782F43354338414331352D463944372D343136342D413737322D44
310
36384443373638323733412F6469726563746F72792E786D6C858F410AC3201045AF22B36F53E9A60B35CBEEBAE80D244E44489C6234F4F835464A48035D0DF398FF9F8AF63D0E6CC63039F212F8F9020C7D47C6792B21C5FE7403D62A1188E2E60C98D7234A5830286103A55745067B9D86B8A3CF9C7F90C11DE607FB1443
310
96D7B6A82D282E9A152AD114D5EF2CB866EEE831B8EEA07A7BB5A8D7D61A2BAAEB7FD5F70921FF497D00504B0304140006080800C270623B00848760FC000000A00100003B0000006662782F43354338414331352D463944372D343136342D413737322D4436384443373638323733412F7265736F75726365732F636F7265
310
2E786D6C8D504B6E833010BD0A9A6D65B009201719474DDA9EA017B0CC84580936F2A7EAF16B0295DA5D3733A3F7D13C3D71FC9AEFC527FA609C1D8095140AB4DA8DC64E03A478211C8AA314DEB9F84B068555330EB0C220C5E45D5A76483B1BD1C68C5A37E20EAA103042A1EFF91820E82BCEAA54296645B8958BD2373561
310
C9CA4C679D1421FA1CA0D89EAC13A4C7E092D71844B5B152A464C65D63C6FCD35C0C7A9007FEFE767A611DA979DB90869F28E1677E26AF34130D655DDBD6A25ACD524433FF64D41E55C411644DE933618CD0FA83353DED7ADA3C51DE532AAA55FEC79496F19FA6646C3CD47BDCCD1640B21CE4414851AD7DE5F52833EFB55B
310
F90D504B010214000A0000080000C270623B3DEE336E79000000790000001B00000000000000000000000000000000006175746F6465736B2D64657369676E2D7061636B6167652E786D6C504B01021400140006080800C270623BD486FD9CA0000000F40000001300000000000000000000000000B20000005B436F6E7465
310
6E745F54797065735D2E786D6C504B01021400140006080800C270623B132FA9F8EA0000007C010000080000000000000000000000000083010000636F72652E786D6C504B01021400140006080800C270623B55019EA25F0000007C000000070000000000000000000000000093020000636E782E786D6C504B0102140014
310
0006080800C270623B0B97CEAB6F010000D40300000C00000000000000000000000000170300006662782F636F72652E786D6C504B01021400140006080800C270623BD9317DDA7D0000009D0000000B00000000000000000000000000B00400006662782F636E782E786D6C504B01021400140006080800C270623B609261
310
632A010000120200003100000000000000000000000000560500006662782F43354338414331352D463944372D343136342D413737322D4436384443373638323733412F636F72652E786D6C504B01021400140006080800C270623BAB1CAE584E010000330300003000000000000000000000000000CF0600006662782F43
310
354338414331352D463944372D343136342D413737322D4436384443373638323733412F636E782E786D6C504B01021400140006080800C270623BCB23EE24670500003C10000034000000000000000000000000006B0800006662782F43354338414331352D463944372D343136342D413737322D44363844433736383237
310
33412F6F626A656374732E786D6C504B01021400140006080000C270623B0000000000000000000000003500000000000000000000000000240E00006662782F43354338414331352D463944372D343136342D413737322D4436384443373638323733412F76657274696365732E62696E504B01021400140006080800C270
310
623BF270F13306000000040000003600000000000000000000000000770E00006662782F43354338414331352D463944372D343136342D413737322D4436384443373638323733412F747269616E676C65732E62696E504B01021400140006080000C270623B00000000000000000000000037000000000000000000000000
310
00D10E00006662782F43354338414331352D463944372D343136342D413737322D4436384443373638323733412F617474726962757465732E62696E504B01021400140006080800C270623B08DA0BD190000000410100003600000000000000000000000000260F00006662782F43354338414331352D463944372D343136
310
342D413737322D4436384443373638323733412F6469726563746F72792E786D6C504B01021400140006080800C270623B00848760FC000000A00100003B000000000000000000000000000A1000006662782F43354338414331352D463944372D343136342D413737322D4436384443373638323733412F7265736F757263
310
65732F636F72652E786D6C504B0506000000000E000E00800400005F1100000000
  0
XRECORD
  5
1EF
102
{ACAD_REACTORS
330
1EE
102
}
330
1EE
100
AcDbXrecord
280
     1
 70
     1
 90
429727718
  1
E2304D28-6187-4406-84E4-1B0A0969D8AC
310
504B03040A0000080000C270623B3DEE336E79000000790000001B0000006175746F6465736B2D64657369676E2D7061636B6167652E786D6C3C3F786D6C2076657273696F6E3D22312E302220656E636F64696E673D227574662D3822203F3E3C666F726D6174733E3C666F726D61743E687474703A2F2F736368656D612E
310
6175746F6465736B2E636F6D2F64657369676E2D7061636B6167652F323030393C2F666F726D61743E3C2F666F726D6174733E504B0304140006080800C270623BD486FD9CA0000000F4000000130000005B436F6E74656E745F54797065735D2E786D6C7D8EC10E82300C865F65E91D8A1E8C310C0EEA1BF002731658846E
310
D98AC1B77784ABF1D8FE5FBFBF75BBCE937A534CCEB38643598122B6FEE978D0B0485F9C41B54DDD7D022595594E1A469170414C76A4D9A4D207E29CF43ECE46F218070CC6BECC4078ACAA135ACF422C856C0E68EA1BF5669944DDD7BCDE7B1F8E415D77AECB980613C2E4AC91FC167A2B244592486606FC29C8FD7F045B9A
310
EF7053A7E60B504B0304140006080800C270623B6C505844EA0000007C01000008000000636F72652E786D6C8D90416EC3201045AF82665B61834B1DC7C244B5EB1BF402088883128365A0EAF18B13476A775DCDE8CF7F33A3CF4FDFF30D7D993558EF3AA00501649CF2DABAA98314CFB80174127CF53EFEB2017272361D6C
310
32083EAD3E2DBBA4BC8BC6C5AC3AAFCD2ECA104C04A46EB9E920A88B99652153CC8E702D16A9AE7232057D76194EC96AF4386275DE67CFD6AC20081DC7633D50FCC1688F197BA3F8FD30F6781846D2B3C3D83475C5CB0D163CDAF9795FAD4646A34154841C31A598549F94B5A46E097B214D4B082F37FB1F282DFA9F50B22E
310
BE56FBBB0F2C80A0F991FB40F072CB22977B50B96EB9891F504B0304140006080800C270623B55019EA25F0000007C00000007000000636E782E786D6C4DCB3B0E80201045D1AD90E915ED2CF8AC45050C11660C8261F98AB1B07AC9C97D42D718D865D3E909258CFD00CCE24AC6E326A164D74DC0B4128928FF326038472B
310
A13128B1252AC747C6BAB984FC68F0B87FE8960A5C09FE86CFB69FBA01504B0304140006080800C270623B85AE40E170010000D40300000C0000006662782F636F72652E786D6CC553ED6E8320147D15C2DF4501E7FA15A4593BDF602F40913A53058360FAF8BB7E345D976EE97ECD1F4ACEB9977BCE41F8F6DCD4A8D7AEAB
310
ACC9308B2946DA285B54A6CC70F0C76885D1567067ADFF528691918DCEF00063C14B67433B43CA1AAF8D07D4D842CFA0EC3AED3152352C32DCA90FDDC858060F15DD296EA53AC952C72C061AEA04EFBC0301681A32BCB1381ECE9C4CB8E02154C5CC56054CAB8E9576585096E7EBC59E456F29DB4569FAC2A2D765BE8BF6FB
310
9CEED265BE5A2D124E8666C17DD55CD429A7A5D7051609A5EB88B18826EF2CDDD0C586A64F74B5A19493A1FCA629B4C5834DA132FE3999E54E6D1D160C848CC437B71091479DEC410F119C0C21C2674CF83668080442F6F2505F7C9C00EAB5F2D6A5C014365CA95ED641C3541AD3F1413F2F38993A61EAB839B8BE3B237978
310
C6EF3BC2514B538209E96179087ED0C9270D7368AD7651EFCFC858D7C8FA311BBF38FC1375157F5792B2B575FFA588CC0744E6DF830CF7517C02504B0304140006080800C270623BD959F09C7C0000009D0000000B0000006662782F636E782E786D6C4DCCD10A83201886E15B91FFDC4A2BF0400D0BBD8F581632D3E13476
310
F9ABD1C18E3E78F878F9F0D93D3A6C7ABB180490AA0164C3232E2E6C024A5E310334489E62CC7F374061DEAD808B41F22DC5F2BA69B1EB5C7C3ED5BBF0BCB11F29514A1BACD44471C74C8BC7C968CC28D13D316DC71A06B5E4F5AF74EE15965F504B0304140006080800C270623BD97BE6F829010000120200003100000066
310
62782F35423231414145462D414143322D343846332D424346452D3832314535314633343830382F636F72652E786D6C8D515B6EC32010BC0AE22B55850D0E8EDC081339517C825E8018E2A2C460F1A872FC42ED48ED5F7E58343B333BB0ECF098EEE05B39AFAD6921293004CA0C566A33B630862B6A203870E6AC0D7F6810
310
1831A916661872363A1BE7151AAC09CA84841A2BD50A0AEF558060B8A74B0BFDF0A52651881812C3DF8A590C3731AA8214A99D789CF9E05200B00CC927E4F5B1225D77EE51D79D2A449B7E8B8EA7FE8C9A8A9C6BD26F69831B562E42CE62D472956B99E2E8AB56EE55932CE62CE8E9197F704A042521AF30FE4084205C7D12
310
BAC7BB3DA6EFB8D963CCCA4CFF278AB37C5114B509DB6A8DBBC83CE484954B833369E3E5FE0CA31EB37501E4791BAF8637C87181714D680AB110D3F393E38EAE8E3E5897BE7773BB242EA917DB1DE5ACCC1B4AE5777DA9E66DF21F504B0304140006080800C270623BAB1CAE584E01000033030000300000006662782F3542
310
3231414145462D414143322D343846332D424346452D3832314535314633343830382F636E782E786D6CD593CD6EC32010845F0571AD6CE3D48AD20813A9873E410FBD12D82434182C7EAAE6EDBB2424CD25871E7B41D6EC30B3FA84F9E67BB2E40B4234DE8DB46F1925E094D7C6ED479AD3AE5951B2113C789FEE6C943839
310
C1488B4C05DF079FE72A69D8C96C13AAD6B8631503449F83828872B949AC57D26200B826A308D316B4064D6E46FCDA41C05550DC9E483A00797BFD207EFB092A45DE9514C1BBD22178396BD39D891265658C238DEA00936C654E5E433CB65A26D9F6EDB5EBC14EBF49A45CB856E66048291F6939A9A81BB5C8917738143CA6
310
80F4AA299D66A042CEB3354A2684DC9D8D178FE0D9B8B41CAAD720F880EE7EF93C0C18769E099ECC04D5A102C8049A8A05632F4DDF376CF1DE0F6BB65CB3E189ADD68CF1AED805DF7A6FEB258C81E067A2BC4BE012153DEFCAF811BEEA23DA0464EDC3E90F2011406DBDD0B965FC673EDDF97D23AE807F81F801504B030414
310
0006080800C270623B086A6785630500003C100000340000006662782F35423231414145462D414143322D343846332D424346452D3832314535314633343830382F6F626A656374732E786D6CAD575D739B3814FD2B0CFB0C189BA4CE0EA193D849C6D34DDBA9A79D7DC88C47804CD8006224913AFDF57B040203B65BEF87
310
1F0C12D2FD3CF7E8CA7FBFCB33E3957291B2E2DA74ED8969D02262715A24D76625B7D6DC34DE073E674CF696994641727A6DAA6933F013CEAA524FC5744BAA4C8E66EF6FFF3444440B6A1A514684B83645F44C7362934AB2988A173B2692D8C97667BB76B3702836E1A47C1E092D09A78584A5982F20C5688C7287C389E904
310
BEA3BE07BEFAD7AB66A75739B53F43FD69212429A20365233133D75BDE4D2FAEAC0BCF9B59DEE5D4B56EEF6F9796FB6E36595C2E1657377757502C2487246D09A75B3378406C781AF94EF3A9B3581B7ECCA48815058D6AFFE1616DB39618D3921631F29852016D3DAF27C3A1AB62D3FB3C5363ADB23F7D9E57FD1D3D41ADED
310
EDB36F290BFF820BE21C54704115AA9AF868471BFC4DF6510B19CBF4B75418399194A72433B234E484BF990196AA25813F10A3D0C915C2950766E0EEE5F56D4569FC1ABBC7ACDC5659A6A0690635B237C03F95A2B62CFD41F9716DB009B9AAD242CEB543F2ADA46670E53BF564E0ABC76CAA3F368134B619499072B8D97C1D
310
39BA50B5B75A9AC187FB70B756F5785C79C95949B954F001B4DAC4B54F1525ADD63D2B736A039C19C47C1F942F88FC4794EFDE14E48DA73B6FE7692D9293426C19CF911B7B52FF8C49FB62756F872FE0B3D1EAC335DDCCBF5AEC3B9DB143C238953F804BA566FEDFF3378C591FA9BDF405FE2B0A8CF1990EE53A2219A8E731
310
2D9010054A23639802976FC39D19ACC0946076EC2259D005E4E0C5775EF11DFF8D6CB055ADBEF72C90D011DF9EC1FC88655D16B0ED04580E78B256AC9D3B15F38BFFA5666E96EB0FEB8A6F49441F35B12CE9362D5289B3730FDEBE4183440C3C7AA16FDF198FE1E86112D6FD24E45A9540B455CC55E093F6B05083BDE68182
310
08FB12A638CFFF8586C7544434CB484159D56AE98E2185D58E64749F802A6C023A9B8E50CCE96BAA3A89C18A815938EB239E962A64DDA1D7F1B47DC297AFAB8F00A519DCBEFD41DEFA8419EEE93E6219E39BF06DD330A109F061CF10DDDF86F0D61175941420BEC6724B393AC49B38DD6E2B01DE3D12C56FAB453F531D911C
310
BEB405D46A6C6AD2033BA3F608D7F06D75A221E004073B2B36298E7194E551E57DDD6305A2967B427E58E5E586E4AC2AE439619AB4FEB4D677C2FB5D8CF84E64F46C06EBFA69DD82B2631A9F48A83A828EF83448CFDD7436F196D3B975E9CEDF599E37B9B4E6DE9D67B9B7939BC9D5E5D5727E83F00F2BA03DA1FA358868E2
310
44F42B9EEA307F5DEDCBD60C1E8914CE4353504ED23CBFAE6CB4C5BE833D0078B771959719CD69218982EFA37AC9BE1074150319CDFC2A27093D43CAA787F5C806CC9CB1EFB32A35FA7DB457CF2E542D1C15229FAB3C2C489A8D366AC7EDB248B4DB6D28BB67C3E8ED508D743CD1870A96A53108273612CA722A413B67B03D
310
CFA90062FA5D79AC6F0F67EC7E6DFA4149C28CB6963C13B4C49900AA413A552487F3C66F68E15417756DE2B0B35FF0A70BD13490EA6B13FC26D3880A3BC4F1A81A9F5A3820802EAC2341809E144986CEBAD9D48DBB5D2A36A01F9C805A7FB7E49C6E49FB3520DE9C94254EED01ADD6B66905D13F72BC35C72012AF61253B5F
310
F6139D33B59A005C0377BA075A8817AD7A87FAFAB95BAE5DAF1944E4AC7BD24F41D048B524E1497D2F5041D726DD2C3F3B68058CD527A3CCAA04B93C5F92C529C05CA902078A800A2DB32412505DFCFEF49933DC4573E33E05049E162CCF59A10737FA2E6BAC9F71338D9F400B545D3FC474E2BA4F75D7AF2F229B90086A93
310
58BC60A22D38E5C1086B00E4C171AAAF678ECAC168F96A69E803C383D01AB4074D69730D37503CEAE6A84AA54F96E54F1B7FA75E0A1470B4ECC1DF504B0304140006080000C270623B000000000000000000000000350000006662782F35423231414145462D414143322D343846332D424346452D38323145353146333438
310
30382F76657274696365732E62696E504B0304140006080800C270623BF270F1330600000004000000360000006662782F35423231414145462D414143322D343846332D424346452D3832314535314633343830382F747269616E676C65732E62696E636660600000504B0304140006080000C270623B0000000000000000
310
00000000370000006662782F35423231414145462D414143322D343846332D424346452D3832314535314633343830382F617474726962757465732E62696E504B0304140006080800C270623B08DA0BD19000000041010000360000006662782F35423231414145462D414143322D343846332D424346452D383231453531
310
4633343830382F6469726563746F72792E786D6C858F410AC3201045AF22B36F53E9A60B35CBEEBAE80D244E44489C6234F4F835464A48035D0DF398FF9F8AF63D0E6CC63039F212F8F9020C7D47C6792B21C5FE7403D62A1188E2E60C98D7234A5830286103A55745067B9D86B8A3CF9C7F90C11DE607FB144396D7B6A82D
310
282E9A152AD114D5EF2CB866EEE831B8EEA07A7BB5A8D7D61A2BAAEB7FD5F70921FF497D00504B0304140006080800C270623B7FFB76DCFC000000A00100003B0000006662782F35423231414145462D414143322D343846332D424346452D3832314535314633343830382F7265736F75726365732F636F72652E786D6C8D
310
504B6E833010BD0A9A6D65B029250419478572835EC032136A25D8C89FAAC7AF09546A77DDCC8CDE47F3F4F8E56BB9679FE8BCB6A6039653C8D0283B69337710C39534905D0477D6865F32C88C5CB0830D06C16767E37A40CA9A802624D4D8090F507A8F0132754F47075E7DE02273194352F85BBE4A759333E62C4F74D209
310
EE834B01B2FDC9364138F4363A859E173B2B788C7A3A347A4A3FF555A30341D9389EEB8192B78AF5A4AA5E18793D8D3D198691F6D5696C9ABAE4C566163CE8E527A37228034E204A4ACF843142CB7756B5B46E69F5449B96525E6CF23FA6B84EFF34456DC27379C4DD6D1E044B411E84E0C5D6575A8F32D3DEBA15DF504B01
310
0214000A0000080000C270623B3DEE336E79000000790000001B00000000000000000000000000000000006175746F6465736B2D64657369676E2D7061636B6167652E786D6C504B01021400140006080800C270623BD486FD9CA0000000F40000001300000000000000000000000000B20000005B436F6E74656E745F5479
310
7065735D2E786D6C504B01021400140006080800C270623B6C505844EA0000007C010000080000000000000000000000000083010000636F72652E786D6C504B01021400140006080800C270623B55019EA25F0000007C000000070000000000000000000000000093020000636E782E786D6C504B01021400140006080800
310
C270623B85AE40E170010000D40300000C00000000000000000000000000170300006662782F636F72652E786D6C504B01021400140006080800C270623BD959F09C7C0000009D0000000B00000000000000000000000000B10400006662782F636E782E786D6C504B01021400140006080800C270623BD97BE6F829010000
310
120200003100000000000000000000000000560500006662782F35423231414145462D414143322D343846332D424346452D3832314535314633343830382F636F72652E786D6C504B01021400140006080800C270623BAB1CAE584E010000330300003000000000000000000000000000CE0600006662782F354232314141
310
45462D414143322D343846332D424346452D3832314535314633343830382F636E782E786D6C504B01021400140006080800C270623B086A6785630500003C10000034000000000000000000000000006A0800006662782F35423231414145462D414143322D343846332D424346452D3832314535314633343830382F6F62
310
6A656374732E786D6C504B01021400140006080000C270623B00000000000000000000000035000000000000000000000000001F0E00006662782F35423231414145462D414143322D343846332D424346452D3832314535314633343830382F76657274696365732E62696E504B01021400140006080800C270623BF270F1
310
3306000000040000003600000000000000000000000000720E00006662782F35423231414145462D414143322D343846332D424346452D3832314535314633343830382F747269616E676C65732E62696E504B01021400140006080000C270623B0000000000000000000000003700000000000000000000000000CC0E0000
310
6662782F35423231414145462D414143322D343846332D424346452D3832314535314633343830382F617474726962757465732E62696E504B01021400140006080800C270623B08DA0BD190000000410100003600000000000000000000000000210F00006662782F35423231414145462D414143322D343846332D424346
310
452D3832314535314633343830382F6469726563746F72792E786D6C504B01021400140006080800C270623B7FFB76DCFC000000A00100003B00000000000000000000000000051000006662782F35423231414145462D414143322D343846332D424346452D3832314535314633343830382F7265736F75726365732F636F
310
72652E786D6C504B0506000000000E000E00800400005A1100000000
  0
XRECORD
  5
16C
102
{ACAD_REACTORS
330
16A
102
}
330
16A
100
AcDbXrecord
280
     1
270
     1
271
     1
  0
XRECORD
  5
16B
102
{ACAD_REACTORS
330
16A
102
}
330
16A
100
AcDbXrecord
280
     1
270
     1
271
     1
  0
XRECORD
  5
1F2
102
{ACAD_REACTORS
330
16A
102
}
330
16A
100
AcDbXrecord
280
     1
 70
     0
 90
1673772943
  1
AEB1D1DA-B7DF-4CBA-830A-738AA2653737
310
504B03040A0000080000C270623B3DEE336E79000000790000001B0000006175746F6465736B2D64657369676E2D7061636B6167652E786D6C3C3F786D6C2076657273696F6E3D22312E302220656E636F64696E673D227574662D3822203F3E3C666F726D6174733E3C666F726D61743E687474703A2F2F736368656D612E
310
6175746F6465736B2E636F6D2F64657369676E2D7061636B6167652F323030393C2F666F726D61743E3C2F666F726D6174733E504B0304140006080800C270623BD486FD9CA0000000F4000000130000005B436F6E74656E745F54797065735D2E786D6C7D8EC10E82300C865F65E91D8A1E8C310C0EEA1BF002731658846E
310
D98AC1B77784ABF1D8FE5FBFBF75BBCE937A534CCEB38643598122B6FEE978D0B0485F9C41B54DDD7D022595594E1A469170414C76A4D9A4D207E29CF43ECE46F218070CC6BECC4078ACAA135ACF422C856C0E68EA1BF5669944DDD7BCDE7B1F8E415D77AECB980613C2E4AC91FC167A2B244592486606FC29C8FD7F045B9A
310
EF7053A7E60B504B0304140006080800C270623BC5983BD0EB0000007C01000008000000636F72652E786D6C8D904D6EC3201085AF82665B6103F1BF3091AB2427E80510262E4A0C9681AAC72F4E1CA9DD7535A337EF9B193D7EFC9EEFE84BAFDE38DB03CD08206D951B8D9D7A88E18A1B4047C157E7C22F1B202B67DDC326
310
83E0D3EAE2B24BCAD9A06D48AA75A3DE45E9BD0E80D43D353D78F5A96799C91892C3DFB245AA9B9C74465F5D826334237A1E3163DA67AE46AF20CABAA887E1FD82D9401A5C9CCA136ED8E58CEBF650B2BAA8CE557BE6F9060B1ECCFCBAAF562D831E4130425A4C2926EC83161DA93A52BC91A62384E79BFD0F1497F19F5034
310
361CD8FEEE13F320687AE431103CDFB248E51154AA5B6EE207504B0304140006080800C270623B55019EA25F0000007C00000007000000636E782E786D6C4DCB3B0E80201045D1AD90E915ED2CF8AC45050C11660C8261F98AB1B07AC9C97D42D718D865D3E909258CFD00CCE24AC6E326A164D74DC0B4128928FF32603847
310
2BA13128B1252AC747C6BAB984FC68F0B87FE8960A5C09FE86CFB69FBA01504B0304140006080800C270623BEE35DAD072010000D40300000C0000006662782F636F72652E786D6CC553ED6E8230147D95A67F1768411435A5C6457D82BD4085CA1AA125A5253EFE2E1FC6B938E37E8D1FD09C736FEF39A7946D2E75853A69
310
5B657486A3906224756E0AA5CB0C7B770A96186D38B3C6B86F65186951CB0CF730E6ACB4C63713941BEDA476806A53C809146D2B1D4679058B0CB7F9A7AC4528BC838AF61C36223F8B5286510834D471D63A0B02D038A47F637E3A5E181971CEBC57C5C4AA02A6A9939216F3799AA4DBEDFB2188B7741924BBF92E58C6877D
310
90AE66F3384D16FBC56ACF48DFCC9953F5555D6EA570B2C03CA67415445140E38F2859D3C59A266F74B9A69491BEFCAEC937C58B4D5E69378B27B9635B8B79044206E2875B88C8A15674A0877046FA10E133247C1F340402213B71ACAE3ECE00753277C626C014C6DFA84E545EC2541AD2E141BF2F18193B61EAB039B87E38
310
237E79C6F31DE1A8852EC18470B03C7AD7EB64A38629B446DAA07317A48DAD45F59A8D270EFF44DDC43F94949BCAD8FF5244A60322D3EF41FAFBC8BF00504B0304140006080800C270623BD65DADFA7E0000009D0000000B0000006662782F636E782E786D6C4DCCD10A83201886E15B91FFDC651665A0C64C771FB12C62A6
310
C3E9D8E5AF46073BFAE0E1E3E5FD6773E86DE36B0D5E40792180ACBF8769F58B809C66CC00F592C710D2DF0D901F372BE060907C89213F4F9AEC3C66977675AB7F9C488DBA1A4309AE06D6E25ADD4ADCB5BAC2A4D1BAA135EBD440A190BCF895F63DC2F20B504B0304140006080800C270623B16D345222A01000012020000
310
310000006662782F32454241454532302D334338372D344246312D393744332D3036444436323438394243322F636F72652E786D6C8D515B6EC32010BC0AE2AB55850DC4719C0813358F9EA01720405294182C1E558E5FA81DA9FDCB0F8B66676607966DEFC30D7C6B1F8CB33D241586405BE994B1971EA678461D045BCEBC
310
73F10F0D022B06DDC30243CE2EDEA57186A4B351DB9851EB949E4111828E10C85BBEF430C82F3D884AA49819E15A8D425EC54557A4CAEDCCE32C449F038069483921A7C7DDFBF148315AECBB156A761F04AD578705C2EDE1D0D2A65BEFF694D59390B3948C9AE546E538E66CB47FD6A488398B6678C4975E8BA855D663BC46
310
84204C3F49B3C1ED06376FB8DB60CCEA42FF274AA37A52948C8D0B3AC79D640172C2EAA9C19972E9747B84D1F7D1F908CABC97A0E52BE4B8C2784968CBEA89989F9F1DDB66760CD1F9FCBD2FD753E692E564DB369CD56543B9FCAE2FD7B24DFE03504B0304140006080800C270623BAB1CAE584E0100003303000030000000
310
6662782F32454241454532302D334338372D344246312D393744332D3036444436323438394243322F636E782E786D6CD593CD6EC32010845F0571AD6CE3D48AD20813A9873E410FBD12D82434182C7EAAE6EDBB2424CD25871E7B41D6EC30B3FA84F9E67BB2E40B4234DE8DB46F1925E094D7C6ED479AD3AE5951B2113C78
310
9FEE6C943839C1488B4C05DF079FE72A69D8C96C13AAD6B8631503449F83828872B949AC57D26200B826A308D316B4064D6E46FCDA41C05550DC9E483A00797BFD207EFB092A45DE9514C1BBD22178396BD39D891265658C238DEA00936C654E5E433CB65A26D9F6EDB5EBC14EBF49A45CB856E66048291F6939A9A81BB5C8
310
917738143CA680F4AA299D66A042CEB3354A2684DC9D8D178FE0D9B8B41CAAD720F880EE7EF93C0C18769E099ECC04D5A102C8049A8A05632F4DDF376CF1DE0F6BB65CB3E189ADD68CF1AED805DF7A6FEB258C81E067A2BC4BE012153DEFCAF811BEEA23DA0464EDC3E90F2011406DBDD0B965FC673EDDF97D23AE807F81F8
310
01504B0304140006080800C270623B849BF81A650500003B100000340000006662782F32454241454532302D334338372D344246312D393744332D3036444436323438394243322F6F626A656374732E786D6CAD575B739B3814FE2B0CFB0C98D869921D42C797A6E3E9A4CDD4D3CE3E64C62340266C406224913AFBEBF713
310
080CD869BD173F18248ECEF53B1705EFF7456EBD502133CE6E6DDF9DD81665314F3296DEDA95DA39D7B6F53E0C04E7AA47665B8C14F4D6D6DB7618A48257A5D94AE88E54B91AEDDE2DFEB0644C19B5AD382752DEDA327EA2057149A57842E5B39B1045DC74B7777DB7211CB24D05299F464C4B222853D014FB0C5CAC46297F
310
B89CD85E1878FA7B18E87F43357D9BCAABED19CACF985484C547C2466CA6FE6CF5E1E2F2C6B99CCDA6CEECDD85EF2CEE162BC7BF9A4E96EF96CB9BF9871B08964A8093D144D09D1D7E846F4416075EF3A9D3D8287E4AA5983346E3DA7E5858EB6C3826B4A42C411C332A21AD67F564B8F4B56F7A9FA77A6D44F6B7CFB3AA7F
310
A2C7A8D5BD7DF635E5D19F30419E830A21A94655E31F636883BFC9C16B11E7B9F99649AB208A8A8CE4569E458288573B04A9260983011B8D4EA111AE2DB043FFC0AFAF2B52E3D7D83DA5E5AECA730D4D3BAC91BD05FEA992B566D95F549C96069D10AB2A63EADA18A45E4B6A873781576F86817E4C2FCCC7C691D62E272942
310
0E339BAF2343973AF7D62B3BFC7417ED373A1F4F0B2F052FA9501A3E80561BB8F6A9BD64C4FA67454E1F8031039F1F9CF2159EFF8CF43DA882B8896C3FDBCF8C142508933B2E0AC4C69DD43F6BD2BE38DDDBF10BEAD988FA98A6DBF957C481D7293B2C186FC50FE0D2A1B9FEEFF11BFAAC8FD45EF8C2E00509C6C5D4B87213
310
931CA5E73E63088806A595736CA196EFA2BD1DAE512951D9718AE461E790A397C07BC177FC37BC51AD6AF1BD27434047F5F68CCA0F5FD66901DDDE00CB519DAC051BE3DEF2F9E5FF9233F3D5E6D3A6123B12D37B5358567497B14CA1771EC0DB576810888145CFF4F50717090C3D0EC2A61F84C28892F0B6F6B9767CDA360B
310
BD38481E0888712EE5BAE605BF90709FC998E639619457AD94AE0D69AC7645C6CC09C8C2C6A1D38B118A057DC9F42431A018A8855E1F8BACD42EEB9A5E57A7DD376CF9B6FE0C50823EE711C90F44D1A1DAC73CE7621BBD6E9B4268037B383204F7F721BA8D433DCD0580AFA1DC561CE3E16D92ED769544D93DE1C4EFEB653F
310
505D1D397E69F3A795D8A4E40CC519A94784416F2B13F38020E8EB9C6D33747164E549E17DD96301B2E6FB06FFA82ACA2D2978C5D4396E9AB4F6B4DA77CCFB438CFC4154FC64879BFAE92C50B1139A1C42350081EE40276C1A8467FE61E1AFFCD5DC595CADEE9CD9723177AEA793B97335BD9ECF2FDE5D4EAFA6579D46B526
310
61D036A87E0AC29B6888412532E3E66FEB43D6DAE13D51D2FBD8E4939736CF6F6B175371E0E10CF0DD1D5C17654E0BCA14D1E8BDD72FF95782A162C0A3D95F1724A56770F9F27133D2013B679C7BD099467F8CCE9ADDA5CE85934CD45355448C64F9E8A031DC2D596ACC6E5DD93D9B82DE2EF5CAF81363A8E47996A0DE2456
310
4A794115AACE19C55E14540231FDA13C319787334EBF34E3A022514E5B4D9E0826E25C02D5805B15ABE1BEF51B26383D44DDDAE875EE33FE4C22DA16427D6BA3BCA92CA6D28DD01DF5DC53330704308475351050232CCD31583787BA75774AFB06E5070DD0C8EF48CE19968C5D83BA5B90B244D31E54D55A372320FE4786B7
310
EA5844E135AA5467CB61A333A61683CC6A8C3257034C10CF46F41EF9F573B37CB7A61978E4AC6BD24F41D070751411697D2DD0FA1995E6AB070F9380B5FE629579952296E773720405982B9DE04011506178964401AACBDF1F1F04C755B4B0EE3240E071C98B8233B3989BABACB579C2C534794459A0FAF6212F26BEFF580F
310
FDE61EB28D88A42E49E43336DA84D3168CB006401E755313024FC76044BE5E59A661CCC0B406EDD14CDADCC22D248FBE38EA54E917CBF2A773BF5793020C02137BF837504B0304140006080000C270623B000000000000000000000000350000006662782F32454241454532302D334338372D344246312D393744332D3036
310
444436323438394243322F76657274696365732E62696E504B0304140006080800C270623BF270F1330600000004000000360000006662782F32454241454532302D334338372D344246312D393744332D3036444436323438394243322F747269616E676C65732E62696E636660600000504B0304140006080000C270623B
310
000000000000000000000000370000006662782F32454241454532302D334338372D344246312D393744332D3036444436323438394243322F617474726962757465732E62696E504B0304140006080800C270623B08DA0BD19000000041010000360000006662782F32454241454532302D334338372D344246312D393744
310
332D3036444436323438394243322F6469726563746F72792E786D6C858F410AC3201045AF22B36F53E9A60B35CBEEBAE80D244E44489C6234F4F835464A48035D0DF398FF9F8AF63D0E6CC63039F212F8F9020C7D47C6792B21C5FE7403D62A1188E2E60C98D7234A5830286103A55745067B9D86B8A3CF9C7F90C11DE607
310
FB144396D7B6A82D282E9A152AD114D5EF2CB866EEE831B8EEA07A7BB5A8D7D61A2BAAEB7FD5F70921FF497D00504B0304140006080800C270623BAD7266E1FD000000A00100003B0000006662782F32454241454532302D334338372D344246312D393744332D3036444436323438394243322F7265736F75726365732F63
310
6F72652E786D6C8D50596E833010BD0A9ADFCA6008BB8C23AAD013F4029699502BC1465EAA1EBF26A152FBD79F99D15B344F8F9DBFD67BF289D629A307C8530A096A6966A5970182BF9216923367D618FF4B0689162B0EB0C3C0D9624DD80E481AED51FB886A33E3010AE7D04322EFF118C0C90F5C452A828F0A774B37216F
310
62C1344F231D759C396F6380E4F9649FC02D3A13AC44C7B227CB59086A3E346A8E3FD555A1055E3565338EAF132946DA92F2525D485BBC4DA4E94E55D194F5547713CB7633675EAD3F19A545E171065E50DA913C27B478CFCB9ED63D2D5F68DB53CAB25DFEC714B6F99FA6A0B43F1547DCA7CD01CF639007C159B6F715D7A3
310
CCB8F76EF937504B010214000A0000080000C270623B3DEE336E79000000790000001B00000000000000000000000000000000006175746F6465736B2D64657369676E2D7061636B6167652E786D6C504B01021400140006080800C270623BD486FD9CA0000000F40000001300000000000000000000000000B20000005B43
310
6F6E74656E745F54797065735D2E786D6C504B01021400140006080800C270623BC5983BD0EB0000007C010000080000000000000000000000000083010000636F72652E786D6C504B01021400140006080800C270623B55019EA25F0000007C000000070000000000000000000000000094020000636E782E786D6C504B01
310
021400140006080800C270623BEE35DAD072010000D40300000C00000000000000000000000000180300006662782F636F72652E786D6C504B01021400140006080800C270623BD65DADFA7E0000009D0000000B00000000000000000000000000B40400006662782F636E782E786D6C504B01021400140006080800C27062
310
3B16D345222A0100001202000031000000000000000000000000005B0500006662782F32454241454532302D334338372D344246312D393744332D3036444436323438394243322F636F72652E786D6C504B01021400140006080800C270623BAB1CAE584E010000330300003000000000000000000000000000D406000066
310
62782F32454241454532302D334338372D344246312D393744332D3036444436323438394243322F636E782E786D6C504B01021400140006080800C270623B849BF81A650500003B1000003400000000000000000000000000700800006662782F32454241454532302D334338372D344246312D393744332D303644443632
310
3438394243322F6F626A656374732E786D6C504B01021400140006080000C270623B0000000000000000000000003500000000000000000000000000270E00006662782F32454241454532302D334338372D344246312D393744332D3036444436323438394243322F76657274696365732E62696E504B0102140014000608
310
0800C270623BF270F133060000000400000036000000000000000000000000007A0E00006662782F32454241454532302D334338372D344246312D393744332D3036444436323438394243322F747269616E676C65732E62696E504B01021400140006080000C270623B000000000000000000000000370000000000000000
310
0000000000D40E00006662782F32454241454532302D334338372D344246312D393744332D3036444436323438394243322F617474726962757465732E62696E504B01021400140006080800C270623B08DA0BD190000000410100003600000000000000000000000000290F00006662782F32454241454532302D33433837
310
2D344246312D393744332D3036444436323438394243322F6469726563746F72792E786D6C504B01021400140006080800C270623BAD7266E1FD000000A00100003B000000000000000000000000000D1000006662782F32454241454532302D334338372D344246312D393744332D3036444436323438394243322F726573
310
6F75726365732F636F72652E786D6C504B0506000000000E000E0080040000631100000000
  0
XRECORD
  5
16D
102
{ACAD_REACTORS
330
16A
102
}
330
16A
100
AcDbXrecord
280
     1
270
     1
271
     1
  0
XRECORD
  5
16E
102
{ACAD_REACTORS
330
16A
102
}
330
16A
100
AcDbXrecord
280
     1
270
     1
271
     1
  0
XRECORD
  5
2B01
102
{ACAD_REACTORS
330
22B
102
}
330
22B
100
AcDbXrecord
280
     1
102
DISPLAYNAME
  1
Metric50
102
FLAGS
 90
        0
  0
CELLSTYLEMAP
  5
2B00
102
{ACAD_REACTORS
330
159
102
}
330
159
100
AcDbCellStyleMap
 90
        3
300
CELLSTYLE
  1
TABLEFORMAT_BEGIN
 90
        5
170
     1
 91
        0
 92
    32768
 62
   257
 93
        1
300
CONTENTFORMAT
  1
CONTENTFORMAT_BEGIN
 90
        0
 91
        0
 92
      512
 93
        0
300

 40
0.0
140
1.0
 94
        5
 62
     0
340
11
144
6.0
309
CONTENTFORMAT_END
171
     1
301
MARGIN
  1
CELLMARGIN_BEGIN
 40
1.5
 40
1.5
 40
1.5
 40
1.5
 40
4.5
 40
4.5
309
CELLMARGIN_END
 94
        6
 95
        1
302
GRIDFORMAT
  1
GRIDFORMAT_BEGIN
 90
        0
 91
        1
 62
     0
 92
       -2
340
14
 93
        0
 40
1.125
309
GRIDFORMAT_END
 95
        2
302
GRIDFORMAT
  1
GRIDFORMAT_BEGIN
 90
        0
 91
        1
 62
     0
 92
       -2
340
14
 93
        0
 40
1.125
309
GRIDFORMAT_END
 95
        4
302
GRIDFORMAT
  1
GRIDFORMAT_BEGIN
 90
        0
 91
        1
 62
     0
 92
       -2
340
14
 93
        0
 40
1.125
309
GRIDFORMAT_END
 95
        8
302
GRIDFORMAT
  1
GRIDFORMAT_BEGIN
 90
        0
 91
        1
 62
     0
 92
       -2
340
14
 93
        0
 40
1.125
309
GRIDFORMAT_END
 95
       16
302
GRIDFORMAT
  1
GRIDFORMAT_BEGIN
 90
        0
 91
        1
 62
     0
 92
       -2
340
14
 93
        0
 40
1.125
309
GRIDFORMAT_END
 95
       32
302
GRIDFORMAT
  1
GRIDFORMAT_BEGIN
 90
        0
 91
        1
 62
     0
 92
       -2
340
14
 93
        0
 40
1.125
309
GRIDFORMAT_END
309
TABLEFORMAT_END
  1
CELLSTYLE_BEGIN
 90
        1
 91
        1
300
_TITLE
309
CELLSTYLE_END
300
CELLSTYLE
  1
TABLEFORMAT_BEGIN
 90
        5
170
     1
 91
        0
 92
        0
 62
   257
 93
        1
300
CONTENTFORMAT
  1
CONTENTFORMAT_BEGIN
 90
        0
 91
        0
 92
      512
 93
        0
300

 40
0.0
140
1.0
 94
        5
 62
     0
340
11
144
4.5
309
CONTENTFORMAT_END
171
     1
301
MARGIN
  1
CELLMARGIN_BEGIN
 40
1.5
 40
1.5
 40
1.5
 40
1.5
 40
4.5
 40
4.5
309
CELLMARGIN_END
 94
        6
 95
        1
302
GRIDFORMAT
  1
GRIDFORMAT_BEGIN
 90
        0
 91
        1
 62
     0
 92
       -2
340
14
 93
        0
 40
1.125
309
GRIDFORMAT_END
 95
        2
302
GRIDFORMAT
  1
GRIDFORMAT_BEGIN
 90
        0
 91
        1
 62
     0
 92
       -2
340
14
 93
        0
 40
1.125
309
GRIDFORMAT_END
 95
        4
302
GRIDFORMAT
  1
GRIDFORMAT_BEGIN
 90
        0
 91
        1
 62
     0
 92
       -2
340
14
 93
        0
 40
1.125
309
GRIDFORMAT_END
 95
        8
302
GRIDFORMAT
  1
GRIDFORMAT_BEGIN
 90
        0
 91
        1
 62
     0
 92
       -2
340
14
 93
        0
 40
1.125
309
GRIDFORMAT_END
 95
       16
302
GRIDFORMAT
  1
GRIDFORMAT_BEGIN
 90
        0
 91
        1
 62
     0
 92
       -2
340
14
 93
        0
 40
1.125
309
GRIDFORMAT_END
 95
       32
302
GRIDFORMAT
  1
GRIDFORMAT_BEGIN
 90
        0
 91
        1
 62
     0
 92
       -2
340
14
 93
        0
 40
1.125
309
GRIDFORMAT_END
309
TABLEFORMAT_END
  1
CELLSTYLE_BEGIN
 90
        2
 91
        1
300
_HEADER
309
CELLSTYLE_END
300
CELLSTYLE
  1
TABLEFORMAT_BEGIN
 90
        5
170
     1
 91
        0
 92
        0
 62
   257
 93
        1
300
CONTENTFORMAT
  1
CONTENTFORMAT_BEGIN
 90
        0
 91
        0
 92
      512
 93
        0
300

 40
0.0
140
1.0
 94
        2
 62
     0
340
11
144
4.5
309
CONTENTFORMAT_END
171
     1
301
MARGIN
  1
CELLMARGIN_BEGIN
 40
1.5
 40
1.5
 40
1.5
 40
1.5
 40
4.5
 40
4.5
309
CELLMARGIN_END
 94
        6
 95
        1
302
GRIDFORMAT
  1
GRIDFORMAT_BEGIN
 90
        0
 91
        1
 62
     0
 92
       -2
340
14
 93
        0
 40
1.125
309
GRIDFORMAT_END
 95
        2
302
GRIDFORMAT
  1
GRIDFORMAT_BEGIN
 90
        0
 91
        1
 62
     0
 92
       -2
340
14
 93
        0
 40
1.125
309
GRIDFORMAT_END
 95
        4
302
GRIDFORMAT
  1
GRIDFORMAT_BEGIN
 90
        0
 91
        1
 62
     0
 92
       -2
340
14
 93
        0
 40
1.125
309
GRIDFORMAT_END
 95
        8
302
GRIDFORMAT
  1
GRIDFORMAT_BEGIN
 90
        0
 91
        1
 62
     0
 92
       -2
340
14
 93
        0
 40
1.125
309
GRIDFORMAT_END
 95
       16
302
GRIDFORMAT
  1
GRIDFORMAT_BEGIN
 90
        0
 91
        1
 62
     0
 92
       -2
340
14
 93
        0
 40
1.125
309
GRIDFORMAT_END
 95
       32
302
GRIDFORMAT
  1
GRIDFORMAT_BEGIN
 90
        0
 91
        1
 62
     0
 92
       -2
340
14
 93
        0
 40
1.125
309
GRIDFORMAT_END
309
TABLEFORMAT_END
  1
CELLSTYLE_BEGIN
 90
        3
 91
        2
300
_DATA
309
CELLSTYLE_END
  0
ENDSEC
  0
SECTION
  2
ACDSDATA
 70
     2
 71
     8
  0
ACDSSCHEMA
 90
        0
  1
AcDb_Thumbnail_Schema
  2
AcDbDs::ID
280
    10
 91
        8
  2
Thumbnail_Data
280
    15
 91
        0
101
ACDSRECORD
 95
        0
 90
        1
  2
AcDbDs::TreatedAsObjectData
280
     1
291
     1
101
ACDSRECORD
 95
        0
 90
        2
  2
AcDbDs::Legacy
280
     1
291
     1
101
ACDSRECORD
  1
AcDbDs::ID
 90
        3
  2
AcDs:Indexable
280
     1
291
     1
101
ACDSRECORD
  1
AcDbDs::ID
 90
        4
  2
AcDbDs::HandleAttribute
280
     7
282
     1
  0
ACDSSCHEMA
 90
        1
  1
AcDbDs::TreatedAsObjectDataSchema
  2
AcDbDs::TreatedAsObjectData
280
     1
 91
        0
  0
ACDSSCHEMA
 90
        2
  1
AcDbDs::LegacySchema
  2
AcDbDs::Legacy
280
     1
 91
        0
  0
ACDSSCHEMA
 90
        3
  1
AcDbDs::IndexedPropertySchema
  2
AcDs:Indexable
280
     1
 91
        0
  0
ACDSSCHEMA
 90
        4
  1
AcDbDs::HandleAttributeSchema
  2
AcDbDs::HandleAttribute
280
     7
 91
        1
284
     1
  0
ACDSRECORD
 90
        0
  2
AcDbDs::ID
280
    10
320
22
  2
Thumbnail_Data
280
    15
 94
     3517
310
89504E470D0A1A0A0000000D49484452000001340000010008030000000AB47A1600000300504C5445212830000000C8C8C80000000000000000000000000000000000000000000000000000330000660000990000CC0000FF0033000033330033660033990033CC0033FF0066000066330066660066990066CC0066FF0099
310
000099330099660099990099CC0099FF00CC0000CC3300CC6600CC9900CCCC00CCFF00FF0000FF3300FF6600FF9900FFCC00FFFF3300003300333300663300993300CC3300FF3333003333333333663333993333CC3333FF3366003366333366663366993366CC3366FF3399003399333399663399993399CC3399FF33CC00
310
33CC3333CC6633CC9933CCCC33CCFF33FF0033FF3333FF6633FF9933FFCC33FFFF6600006600336600666600996600CC6600FF6633006633336633666633996633CC6633FF6666006666336666666666996666CC6666FF6699006699336699666699996699CC6699FF66CC0066CC3366CC6666CC9966CCCC66CCFF66FF0066
310
FF3366FF6666FF9966FFCC66FFFF9900009900339900669900999900CC9900FF9933009933339933669933999933CC9933FF9966009966339966669966999966CC9966FF9999009999339999669999999999CC9999FF99CC0099CC3399CC6699CC9999CCCC99CCFF99FF0099FF3399FF6699FF9999FFCC99FFFFCC0000CC00
310
33CC0066CC0099CC00CCCC00FFCC3300CC3333CC3366CC3399CC33CCCC33FFCC6600CC6633CC6666CC6699CC66CCCC66FFCC9900CC9933CC9966CC9999CC99CCCC99FFCCCC00CCCC33CCCC66CCCC99CCCCCCCCCCFFCCFF00CCFF33CCFF66CCFF99CCFFCCCCFFFFFF0000FF0033FF0066FF0099FF00CCFF00FFFF3300FF3333
310
FF3366FF3399FF33CCFF33FFFF6600FF6633FF6666FF6699FF66CCFF66FFFF9900FF9933FF9966FF9999FF99CCFF99FFFFCC00FFCC33FFCC66FFCC99FFCCCCFFCCFFFFFF00FFFF33FFFF66FFFF99FFFFCCFFFFFF0000000D0D0D1A1A1A2828283535354343435050505D5D5D6B6B6B787878868686939393A1A1A1AEAEAEBB
310
BBBBC9C9C9D6D6D6E4E4E4F1F1F1FFFFFF000000000000000000000000000000000000000000000000000000000000B21171F6000004E64944415478DAED9D5B96AB20140519CEFE71FE93711AFE77E2AB4120E11113C1AABB6E3AC168DAEA031C118D31000000000000000000000000000000000000000000000000000000
310
0000000057626A965F4A6BF6AFFDE3CF6E32CA7E2EADC528FBBDB4B129AE22AD7E43A3D18387FED0A2E88B79ADE04ACE1B0F5BE8509A5CB645EB2BEB8523EDB89219C32B09694843DA17A5096948CB90362EBB9F4BC15AFD45DA1E29D6225985A36F5AE321C866E22BDD4A9AFC17EFA5E91E799ABF28BEFFABB4D0E7DF425A
310
599B26DA3499D1EB3B8D5B655FB769B1C328F59D72C4A5BDA89EC9D26E543DB75D2EAF9ECE166E3FCA11EF08EE34CAE1E70E6B994969D322F5F88ED2DE46DA6DA59172D0A65D22E5405ABE3422AD204FA34DA34D3BB77AEE1905D2B2A51169056D1A795A046FC4367525E5C67447D2BE05D2908634A49D254D45AD3FD29066
310
8E932A3E4F9FD2CEFD40A4210D6948435A13D2749AAF4EA53DAFA3917355CD10BAD42658F82CF5160C8355D6A9B4C73E2ED2CCB062D6C7C7D2F9C77FE152F67CFC7FDFFC6C612F31BBD33EA54D7BA4CDFBBC6B326653B15B32FF05667D356CEF942DCD58D1A7BEA59D438FD296D65AABBED72B66F6935AFEAB3B696B0FB754
310
2E0D56F01DAEE92D94F6016BD7963657D2D999FD2BAED6127E69DD449AB35FC31256872BC6B7C2FC4456561DED489A8C2F4D73A41DEAE794F64B2B92DCAA3B697B2C7CE06605EA5F9A8C234DDE8E179CD70C1F46A91B698AB43C35D63C69F5D6FA97E6AFDC97342BAD7D261DF6DE2AF434DB9AEC2D949F2CB892B4F99C87F6
310
5D72A529F034D1997494A6A20D218D4843DA5E79BE282DEF84E8957B4FBD481B6A528E407ADBB2B443CAAE73A4792947EEC9F7EEA5F987517EA02973DB973EF68C4A2B9DBA712769FEE163B5B4408BA666A539C2CE9116EB06943CD3F9BA8390A7CDB2F207219B97E69CFC880E0DD5465A505A720FDA82B450A655274DE11E
310
56ADB6699B35A47D4C5A5E92967ADEB30369669A063DFE3D981FD6C7E3D304142A989C082C9A8E7B556991EC4055816634CF835124D14D9EB070C18E40D374E2D4EE29BAF575499B9136CF27939BBC979CBD0BECFE1269D39690ED99DB5C987E5AF0A2D5F321EDD9062DFE9E4F1C0F53598BB66E6A329E34B39D8C6E56DA64
310
4DB532C1D8AABF5BB92B2DF704F4CDE6A7793DE5A1596B575AD15863E9286EC967DE545ADD255237BDDE13691FE0C6774BA8891DCB1F915620EDEDA809D290768634AA27D2E83D5B69D388344BDAFF7761200D6948A323683ED2F43ED2483990365F75A07D4691B1673CDF59DAEB1C5DA6EE5E4CBB29FBFB1ABC7B9836D7A6
310
BD915679FFAA9B0E0DD5DDFCCBA99E4843DA3AB81F12517797B9FEA5ADBBA7E88202699D25B78911545B3DDD8EC0FD3683B964B7DB42A4C9BE5ACA9A4E20EFEAA943B0993C694EF5F4A43536DC9D18427537CA7C2BCD688BB3B1E9DE331E694507EC4E02EB27B4EAE580FD7337B8ED33B9950217CBF9DF5F4A9E96D0AE21AD
310
425AE42D65A31C1D554FBB56A61EB2677404F1EFB26C76E4F64337DDCEE9089C1F6E6143BDA75EF7135577360F54CF71FBAA5D2B12DB9356D0E8212D539BC9518734463992A559375EDA3D255F99CE4C480EA390765D694C4B20D2BE2EEDFD35A34843DACDA435C545A435C625A435C705A435C94FA5358B01000000000000
310
000000000000000000000000000000000000000000000000000000000000000000000000F8367FC34A1D57C71F19E00000000049454E44AE42608267D0AAEB9D84D6891A87B6BCE46D6D93526978307EB31F40ABADF7CFA0E9FF979AEBC64253CF80D6875A30102C132ABC29AE6F5440D346FF065A65BD736B04E8AE34F375
310
3B86565A65BD7F080D041A8A7D1AEE835655F1EC6A14AE6D9E20A3E78E8F16B8691743ABA938765DDD5E4A83A20301F23E85E26B64DCB9356A38687DA58666D7BF393CB8871AD4755243A928E838BFF56B6A68A8E79993A3B1684353FB1134A899A0ED9D1DB5E3427768134B0DEA3A6A7B5EDFB4D4D0A2BCA367869A0D5AF9
310
EC77429B961A1A5F1F392FD4CBA09D29FAFE9CE6A4D4A0AE93DAF65891F2D90B9F43DDFA5DE7FCC991D81495FBEE43C3F6D4A642C10A1BECEE7D2DB2FCC9B1B3ED998263CB875B84867C9203F8A788DED13A51ED2B85B5A08F533970B150CEFC80D2FA177CB6F25B98A154B2522D76ABBDA7F0B2586C5F80FCB5BE0D9A6A80
310
C66B4113D35FA434CC0F4DF15A84AF0F481C3B8377A94F5393F469412D709C997D385879F4C4B0A3271A464F04A3E7F1CC30FB7EDACEE7B7E6A4C15D7E5A7BEC3BC54407DADFE8096D4A66978751ADD7EC0DD0E0BDF6B80F9819DA99F9B48A895FE29508B4BA8213B700E83B35342CB3B333B7B00F443AA6B477434309DAC1
310
A95B8CCAECF46A147C749A6D9E024D85C1423EB1E4B98595719995A11D9BC217686F8476E50D30F5D00EAD16233365B2B9D3B61BF0E30F72937FA01B3B573C35CCBB4303A3426B2AD836E9EEA0918979565324A71C180D068D6FED1EDA7E141AD450D01487063B2F0C3EDB8CE46C34DCB36F41623F84B3B31627A01E0C0DA4
310
E6081B23A7C6D5E9A0B1C6B8413BAE34A88BA1357ADDB02271AAB171088396D08953651CB82495866BA1D9AE99750DA83C58634C0CBACAE3561611CEDBA5FB34BF1DE28B091EE09C689E35B7EBB25AF065BFFED014AB38E9B3D9E9901C1BC94A05197A93F30C177F8F002A7D6EB7BAFC9264FA4DDF58815773A434EC5F8231
310
EF18BAFA6B3E57421B9A590E5A65CB76CD93CE71A4A0B5DE12DF151AE8A4FC4E44507503C919687BAD7E38686C4523111158D7EF18341C953272E4715F9716FB76F9882029C449A0754EB348A3A85244405CBFFAE2E144773838341F3E201F11F801AD3CCDF12B686DCB5CDDA1A97020484604E4D6CB66A51DF9FA7B2BB41F
310
7A692C2280CA4704A7F272DC0EEDB65BD28E43837A27B4536973045A3B34A84BA0F558B21984D990D04617DABAE99A70D334DFB55F86A6B586A686EC8BD08A1F5E6538B0ED96BB7BE7298CFB334DA64A6973B7CE65DB25FFEC371D64947DB46D2979CDFE4AD2BECE04AD3591E69A2D587581B6A42BC941AB9E161E5E680C5A
310
9C1CB8099ACF975BD792A73783A53F4B746A0D87583265BA43946E579BBD75864A63011BFB12869D38C99EE89B0FDCA5609A0A1AD4616834F951383F92580E4CF469341910AAA00D915DE81834BD25323381C755861655EB7FF47447F87766907385FC07A6943CCD611DC9470BFCB45069C1745DF46559D80A6FFBADF9F37D
310
622F64332A070936F7CC8C26B4AFD296F4EBEE99216965A5FA34C3BAB3B576041AD7A5598F3126341CD941FBBA17A045CD936C6D48925F7F30441DD3A10E6B8647FA789D4035415B1FDB42DE45ACA83811FD004AC3A93DE2D481C842DCA0199B75D542D31C9A2135C7F64B6BC67D638682163E7EC018D51011C4D0A85ADFF1
310
B0ADAA598E9ABE8641BB7FE6BFB765489D9A1A328FA3D4DAA071EA70024DA0D5550CF264D9469827524BBC1B9B28ED37CEB2989898D8D4F6499B8029421304024DA009348126D0C4049A401368024DA08909348126D09E014DA6864469024DA03D109ACFC6216BCCF5D014497427589A9426EBF2C7FA3461560B6DCBD9974A
310
C928968546FE88D65A9526D0DA95262E87C49E121108B4074073D914E556DDA6D1D365EA9590A0416934B9B670A98146D2E009B36A68E4E10042AD3E22F029EEFF7FF90382CC8555D70490E80000000049454E44AE426082
  0
ACDSRECORD
 90
        0
  2
AcDbDs::ID
280
    10
320
D3
  2
Thumbnail_Data
280
    15
 94
     1153
310
89504E470D0A1A0A0000000D4948445200000100000000B5080300000087DCD12600000300504C5445FFFFFF000000C8C8C80000000000000000000000000000000000000000000000000000330000660000990000CC0000FF0033000033330033660033990033CC0033FF0066000066330066660066990066CC0066FF0099
310
000099330099660099990099CC0099FF00CC0000CC3300CC6600CC9900CCCC00CCFF00FF0000FF3300FF6600FF9900FFCC00FFFF3300003300333300663300993300CC3300FF3333003333333333663333993333CC3333FF3366003366333366663366993366CC3366FF3399003399333399663399993399CC3399FF33CC00
310
33CC3333CC6633CC9933CCCC33CCFF33FF0033FF3333FF6633FF9933FFCC33FFFF6600006600336600666600996600CC6600FF6633006633336633666633996633CC6633FF6666006666336666666666996666CC6666FF6699006699336699666699996699CC6699FF66CC0066CC3366CC6666CC9966CCCC66CCFF66FF0066
310
FF3366FF6666FF9966FFCC66FFFF9900009900339900669900999900CC9900FF9933009933339933669933999933CC9933FF9966009966339966669966999966CC9966FF9999009999339999669999999999CC9999FF99CC0099CC3399CC6699CC9999CCCC99CCFF99FF0099FF3399FF6699FF9999FFCC99FFFFCC0000CC00
310
33CC0066CC0099CC00CCCC00FFCC3300CC3333CC3366CC3399CC33CCCC33FFCC6600CC6633CC6666CC6699CC66CCCC66FFCC9900CC9933CC9966CC9999CC99CCCC99FFCCCC00CCCC33CCCC66CCCC99CCCCCCCCCCFFCCFF00CCFF33CCFF66CCFF99CCFFCCCCFFFFFF0000FF0033FF0066FF0099FF00CCFF00FFFF3300FF3333
310
FF3366FF3399FF33CCFF33FFFF6600FF6633FF6666FF6699FF66CCFF66FFFF9900FF9933FF9966FF9999FF99CCFF99FFFFCC00FFCC33FFCC66FFCC99FFCCCCFFCCFFFFFF00FFFF33FFFF66FFFF99FFFFCCFFFFFF0000000D0D0D1A1A1A2828283535354343435050505D5D5D6B6B6B787878868686939393A1A1A1AEAEAEBB
310
BBBBC9C9C9D6D6D6E4E4E4F1F1F1FFFFFF000000000000000000000000000000000000000000000000000000000000B0E2D2350000012D4944415478DAEDDDC19185300C4441E51FA6CE0441A1220719A67D2080DE7AE37F5AD7157E0A40251F0003D0DDF309FCBE0012001079E2130000C02DE016700BD8000000DC026E01
310
09000000C0080290000000008C200009000000C0080290000000008C200009000000C0080290000000008C200009000000C0080290000000008C2000090000F06B80DE3C278C60EFFE5500EC270000000023084002000000308200240000000023084002000000308200240000000023084002000000308200240000000023
310
0840020000003082002400000000230840020000003082002400000000230840020000003082002400000000230840020000003082002400000000230840021F0108F9EFF2DE17F0CA8C5766BC3263030000700BB805DC02F30B34F02B01000F40F88907B801D6BB095400FA5D890000000049454E44AE4260829429460000
310
000049454E44AE426082
  0
ENDSEC
  0
EOF
